  0
SECTION
  2
HEADER
  9
$ACADVER
  1
AC1014
  9
$ACADMAINTVER
 70
     9
  9
$DWGCODEPAGE
  3
ANSI_1252
  9
$INSBASE
 10
0.0
 20
0.0
 30
0.0
  9
$EXTMIN
 10
-3.555630164987746
 20
-10.68826442986884
 30
0.0
  9
$EXTMAX
 10
22.18319998508046
 20
-2.720485870844453
 30
0.0
  9
$LIMMIN
 10
0.0
 20
0.0
  9
$LIMMAX
 10
36.0
 20
36.0
  9
$ORTHOMODE
 70
     1
  9
$REGENMODE
 70
     1
  9
$FILLMODE
 70
     1
  9
$QTEXTMODE
 70
     0
  9
$MIRRTEXT
 70
     1
  9
$DRAGMODE
 70
     0
  9
$LTSCALE
 40
1.0
  9
$OSMODE
 70
    37
  9
$ATTMODE
 70
     1
  9
$TEXTSIZE
 40
0.2
  9
$TRACEWID
 40
0.05
  9
$TEXTSTYLE
  7
STANDARD
  9
$CLAYER
  8
ADPDIM
  9
$CELTYPE
  6
BYLAYER
  9
$CECOLOR
 62
   256
  9
$CELTSCALE
 40
1.0
  9
$DELOBJ
 70
     1
  9
$DISPSILH
 70
     0
  9
$DIMSCALE
 40
1.0
  9
$DIMASZ
 40
0.1875
  9
$DIMEXO
 40
0.0625
  9
$DIMDLI
 40
0.375
  9
$DIMRND
 40
0.0
  9
$DIMDLE
 40
0.0
  9
$DIMEXE
 40
0.1875
  9
$DIMTP
 40
0.0
  9
$DIMTM
 40
0.0
  9
$DIMTXT
 40
0.18
  9
$DIMCEN
 40
0.0625
  9
$DIMTSZ
 40
0.0
  9
$DIMTOL
 70
     0
  9
$DIMLIM
 70
     0
  9
$DIMTIH
 70
     1
  9
$DIMTOH
 70
     1
  9
$DIMSE1
 70
     0
  9
$DIMSE2
 70
     0
  9
$DIMTAD
 70
     0
  9
$DIMZIN
 70
     0
  9
$DIMBLK
  1

  9
$DIMASO
 70
     1
  9
$DIMSHO
 70
     1
  9
$DIMPOST
  1

  9
$DIMAPOST
  1

  9
$DIMALT
 70
     0
  9
$DIMALTD
 70
     2
  9
$DIMALTF
 40
25.4
  9
$DIMLFAC
 40
1.0
  9
$DIMTOFL
 70
     0
  9
$DIMTVP
 40
0.0
  9
$DIMTIX
 70
     0
  9
$DIMSOXD
 70
     0
  9
$DIMSAH
 70
     1
  9
$DIMBLK1
  1
OBLIQUE
  9
$DIMBLK2
  1
OBLIQUE
  9
$DIMSTYLE
  2
STANDARD
  9
$DIMCLRD
 70
     0
  9
$DIMCLRE
 70
     0
  9
$DIMCLRT
 70
     0
  9
$DIMTFAC
 40
1.0
  9
$DIMGAP
 40
0.0625
  9
$DIMJUST
 70
     0
  9
$DIMSD1
 70
     0
  9
$DIMSD2
 70
     0
  9
$DIMTOLJ
 70
     1
  9
$DIMTZIN
 70
     0
  9
$DIMALTZ
 70
     0
  9
$DIMALTTZ
 70
     0
  9
$DIMFIT
 70
     3
  9
$DIMUPT
 70
     0
  9
$DIMUNIT
 70
     7
  9
$DIMDEC
 70
     3
  9
$DIMTDEC
 70
     4
  9
$DIMALTU
 70
     2
  9
$DIMALTTD
 70
     2
  9
$DIMTXSTY
  7
STANDARD
  9
$DIMAUNIT
 70
     0
  9
$LUNITS
 70
     4
  9
$LUPREC
 70
     4
  9
$SKETCHINC
 40
0.1
  9
$FILLETRAD
 40
0.0
  9
$AUNITS
 70
     0
  9
$AUPREC
 70
     0
  9
$MENU
  1
acad
  9
$ELEVATION
 40
0.0
  9
$PELEVATION
 40
0.0
  9
$THICKNESS
 40
0.0
  9
$LIMCHECK
 70
     0
  9
$BLIPMODE
 70
     0
  9
$CHAMFERA
 40
0.0
  9
$CHAMFERB
 40
0.0
  9
$CHAMFERC
 40
0.0
  9
$CHAMFERD
 40
0.0
  9
$SKPOLY
 70
     0
  9
$TDCREATE
 40
2450143.619504815
  9
$TDUPDATE
 40
2452297.078687060
  9
$TDINDWG
 40
0.0617854514
  9
$TDUSRTIMER
 40
0.0617854514
  9
$USRTIMER
 70
     1
  9
$ANGBASE
 50
0.0
  9
$ANGDIR
 70
     0
  9
$PDMODE
 70
     2
  9
$PDSIZE
 40
0.125
  9
$PLINEWID
 40
0.0
  9
$COORDS
 70
     2
  9
$SPLFRAME
 70
     0
  9
$SPLINETYPE
 70
     6
  9
$SPLINESEGS
 70
     8
  9
$ATTDIA
 70
     0
  9
$ATTREQ
 70
     1
  9
$HANDLING
 70
 22529
  9
$HANDSEED
  5
628
  9
$SURFTAB1
 70
     6
  9
$SURFTAB2
 70
     6
  9
$SURFTYPE
 70
     6
  9
$SURFU
 70
     6
  9
$SURFV
 70
     6
  9
$UCSNAME
  2

  9
$UCSORG
 10
0.0
 20
0.0
 30
0.0
  9
$UCSXDIR
 10
1.0
 20
0.0
 30
0.0
  9
$UCSYDIR
 10
0.0
 20
1.0
 30
0.0
  9
$PUCSNAME
  2

  9
$PUCSORG
 10
0.0
 20
0.0
 30
0.0
  9
$PUCSXDIR
 10
1.0
 20
0.0
 30
0.0
  9
$PUCSYDIR
 10
0.0
 20
1.0
 30
0.0
  9
$USERI1
 70
     0
  9
$USERI2
 70
     0
  9
$USERI3
 70
     0
  9
$USERI4
 70
     0
  9
$USERI5
 70
     0
  9
$USERR1
 40
0.0
  9
$USERR2
 40
0.0
  9
$USERR3
 40
0.0
  9
$USERR4
 40
0.0
  9
$USERR5
 40
0.0
  9
$WORLDVIEW
 70
     1
  9
$SHADEDGE
 70
     3
  9
$SHADEDIF
 70
    70
  9
$TILEMODE
 70
     1
  9
$MAXACTVP
 70
    15
  9
$PINSBASE
 10
0.0
 20
0.0
 30
0.0
  9
$PLIMCHECK
 70
     0
  9
$PEXTMIN
 10
1.000000000000000E+20
 20
1.000000000000000E+20
 30
1.000000000000000E+20
  9
$PEXTMAX
 10
-1.000000000000000E+20
 20
-1.000000000000000E+20
 30
-1.000000000000000E+20
  9
$PLIMMIN
 10
0.0
 20
0.0
  9
$PLIMMAX
 10
12.0
 20
9.0
  9
$UNITMODE
 70
     0
  9
$VISRETAIN
 70
     0
  9
$PLINEGEN
 70
     0
  9
$PSLTSCALE
 70
     1
  9
$TREEDEPTH
 70
  3020
  9
$PICKSTYLE
 70
     1
  9
$CMLSTYLE
  2
STANDARD
  9
$CMLJUST
 70
     0
  9
$CMLSCALE
 40
1.0
  9
$PROXYGRAPHICS
 70
     1
  9
$MEASUREMENT
 70
     0
  0
ENDSEC
  0
SECTION
  2
CLASSES
  0
CLASS
  1
ACDBDICTIONARYWDFLT
  2
AcDbDictionaryWithDefault
  3
AutoCAD 2000
 90
        0
280
     0
281
     0
  0
CLASS
  1
ACDBPLACEHOLDER
  2
AcDbPlaceHolder
  3
AutoCAD 2000
 90
        0
280
     0
281
     0
  0
CLASS
  1
LAYOUT
  2
AcDbLayout
  3
AutoCAD 2000
 90
        0
280
     0
281
     0
  0
CLASS
  1
DICTIONARYVAR
  2
AcDbDictionaryVar
  3
AutoCAD 2000
 90
        0
280
     0
281
     0
  0
CLASS
  1
LONG_TRANSACTION
  2
AcDbLongTransaction
  3
AutoCAD 2000
 90
        0
280
     0
281
     0
  0
CLASS
  1
LWPOLYLINE
  2
AcDbPolyline
  3
AutoCAD 2000
 90
        0
280
     0
281
     1
  0
CLASS
  1
HATCH
  2
AcDbHatch
  3
AutoCAD 2000
 90
        0
280
     0
281
     1
  0
CLASS
  1
XRECORD
  2
AcDbXrecord
  3
AutoCAD 2000
 90
        0
280
     0
281
     0
  0
CLASS
  1
LONG_TRANSACTION
  2
AcDbLongTransaction
  3
AutoCAD 2000
 90
        0
280
     0
281
     0
  0
CLASS
  1
LWPOLYLINE
  2
AcDbPolyline
  3
AutoCAD 2000
 90
        0
280
     0
281
     1
  0
CLASS
  1
HATCH
  2
AcDbHatch
  3
AutoCAD 2000
 90
        0
280
     0
281
     1
  0
CLASS
  1
XRECORD
  2
AcDbXrecord
  3
AutoCAD 2000
 90
        0
280
     0
281
     0
  0
CLASS
  1
LONG_TRANSACTION
  2
AcDbLongTransaction
  3
AutoCAD 2000
 90
        0
280
     0
281
     0
  0
CLASS
  1
LWPOLYLINE
  2
AcDbPolyline
  3
AutoCAD 2000
 90
        0
280
     0
281
     1
  0
CLASS
  1
HATCH
  2
AcDbHatch
  3
AutoCAD 2000
 90
        0
280
     0
281
     1
  0
CLASS
  1
XRECORD
  2
AcDbXrecord
  3
AutoCAD 2000
 90
        0
280
     0
281
     0
  0
CLASS
  1
LONG_TRANSACTION
  2
AcDbLongTransaction
  3
AutoCAD 2000
 90
        0
280
     0
281
     0
  0
CLASS
  1
LWPOLYLINE
  2
AcDbPolyline
  3
AutoCAD 2000
 90
        0
280
     0
281
     1
  0
CLASS
  1
HATCH
  2
AcDbHatch
  3
AutoCAD 2000
 90
        0
280
     0
281
     1
  0
CLASS
  1
XRECORD
  2
AcDbXrecord
  3
AutoCAD 2000
 90
        0
280
     0
281
     0
  0
CLASS
  1
LONG_TRANSACTION
  2
AcDbLongTransaction
  3
AutoCAD 2000
 90
        0
280
     0
281
     0
  0
CLASS
  1
LWPOLYLINE
  2
AcDbPolyline
  3
AutoCAD 2000
 90
        0
280
     0
281
     1
  0
CLASS
  1
HATCH
  2
AcDbHatch
  3
AutoCAD 2000
 90
        0
280
     0
281
     1
  0
CLASS
  1
XRECORD
  2
AcDbXrecord
  3
AutoCAD 2000
 90
        0
280
     0
281
     0
  0
ENDSEC
  0
SECTION
  2
TABLES
  0
TABLE
  2
VPORT
  5
8
330
0
100
AcDbSymbolTable
 70
     2
  0
VPORT
  5
5DC
330
8
100
AcDbSymbolTableRecord
100
AcDbViewportTableRecord
  2
*ACTIVE
 70
     0
 10
0.0
 20
0.0
 11
1.0
 21
1.0
 12
9.334767933570747
 22
-6.705841401261979
 13
0.0
 23
0.0
 14
0.5740882589684922
 24
0.5740882589684922
 15
0.5
 25
0.5
 16
0.0
 26
0.0
 36
1.0
 17
0.0
 27
0.0
 37
0.0
 40
16.49740123839567
 41
1.570528967254408
 42
50.0
 43
0.0
 44
0.0
 50
0.0
 51
0.0
 71
     0
 72
   100
 73
     1
 74
     1
 75
     0
 76
     0
 77
     0
 78
     0
  0
ENDTAB
  0
TABLE
  2
LTYPE
  5
5
330
0
100
AcDbSymbolTable
 70
     2
  0
LTYPE
  5
12
330
5
100
AcDbSymbolTableRecord
100
AcDbLinetypeTableRecord
  2
BYBLOCK
 70
     0
  3

 72
    65
 73
     0
 40
0.0
  0
LTYPE
  5
13
330
5
100
AcDbSymbolTableRecord
100
AcDbLinetypeTableRecord
  2
BYLAYER
 70
     0
  3

 72
    65
 73
     0
 40
0.0
  0
LTYPE
  5
14
330
5
100
AcDbSymbolTableRecord
100
AcDbLinetypeTableRecord
  2
CONTINUOUS
 70
     0
  3
Solid line
 72
    65
 73
     0
 40
0.0
  0
LTYPE
  5
5C
330
5
100
AcDbSymbolTableRecord
100
AcDbLinetypeTableRecord
  2
HIDDEN2
 70
     0
  3
_ _ _ _ _ _ _ _ _ _ _ _ _ _ _ _ _ _ _ _ _ _ _ _
 72
    65
 73
     2
 40
0.1875
 49
0.125
 74
     0
 49
-0.0625
 74
     0
  0
ENDTAB
  0
TABLE
  2
LAYER
  5
2
330
0
100
AcDbSymbolTable
 70
     5
  0
LAYER
  5
F
330
2
100
AcDbSymbolTableRecord
100
AcDbLayerTableRecord
  2
0
 70
     0
 62
     7
  6
CONTINUOUS
  0
LAYER
  5
63
330
2
100
AcDbSymbolTableRecord
100
AcDbLayerTableRecord
  2
ADP2DETAIL
 70
     0
 62
     5
  6
CONTINUOUS
  0
LAYER
  5
64
330
2
100
AcDbSymbolTableRecord
100
AcDbLayerTableRecord
  2
ADPDIM
 70
     0
 62
     3
  6
CONTINUOUS
  0
LAYER
  5
66
330
2
100
AcDbSymbolTableRecord
100
AcDbLayerTableRecord
  2
ADP1DETAIL
 70
     0
 62
     7
  6
CONTINUOUS
  0
LAYER
  5
2F6
330
2
100
AcDbSymbolTableRecord
100
AcDbLayerTableRecord
  2
DEFPOINTS
 70
     0
 62
     7
  6
CONTINUOUS
  0
ENDTAB
  0
TABLE
  2
STYLE
  5
3
330
0
100
AcDbSymbolTable
 70
     2
  0
STYLE
  5
10
330
3
100
AcDbSymbolTableRecord
100
AcDbTextStyleTableRecord
  2
STANDARD
 70
     0
 40
0.0
 41
1.0
 50
0.0
 71
     0
 42
0.2
  3
txt
  4

  0
STYLE
  5
378
330
3
100
AcDbSymbolTableRecord
100
AcDbTextStyleTableRecord
  2
ARIAL_WIDE
 70
     0
 40
0.0
 41
1.25
 50
0.0
 71
     0
 42
0.2
  3
ARIAL.TTF
  4

1001
ACAD
1000
Arial
1071
       34
  0
ENDTAB
  0
TABLE
  2
VIEW
  5
6
330
0
100
AcDbSymbolTable
 70
     0
  0
ENDTAB
  0
TABLE
  2
UCS
  5
7
330
0
100
AcDbSymbolTable
 70
     0
  0
ENDTAB
  0
TABLE
  2
APPID
  5
9
330
0
100
AcDbSymbolTable
 70
     1
  0
APPID
  5
11
330
9
100
AcDbSymbolTableRecord
100
AcDbRegAppTableRecord
  2
ACAD
 70
     0
  0
ENDTAB
  0
TABLE
  2
DIMSTYLE
  5
A
330
0
100
AcDbSymbolTable
 70
     1
  0
DIMSTYLE
105
2E8
102
{ACAD_REACTORS
330
223
330
224
330
226
330
2E5
102
}
330
A
100
AcDbSymbolTableRecord
100
AcDbDimStyleTableRecord
  2
STANDARD
 70
     0
  3

  4

  5

  6

  7

 40
1.0
 41
0.18
 42
0.0625
 43
0.38
 44
0.18
 45
0.0
 46
0.0
 47
0.0
 48
0.0
140
0.18
141
0.09
142
0.0
143
25.4
144
1.0
145
0.0
146
1.0
147
0.09
 71
     0
 72
     0
 73
     1
 74
     1
 75
     0
 76
     0
 77
     0
 78
     0
170
     0
171
     2
172
     0
173
     0
174
     0
175
     0
176
     0
177
     0
178
     0
270
     2
271
     4
272
     4
273
     2
274
     2
340
10
275
     0
280
     0
281
     0
282
     0
283
     1
284
     0
285
     0
286
     0
287
     3
288
     0
  0
ENDTAB
  0
TABLE
  2
BLOCK_RECORD
  5
1
330
0
100
AcDbSymbolTable
 70
     5
  0
BLOCK_RECORD
  5
18
102
{ACAD_XDICTIONARY
360
3F7
102
}
330
1
100
AcDbSymbolTableRecord
100
AcDbBlockTableRecord
  2
*MODEL_SPACE
  0
BLOCK_RECORD
  5
15
102
{ACAD_XDICTIONARY
360
3F5
102
}
330
1
100
AcDbSymbolTableRecord
100
AcDbBlockTableRecord
  2
*PAPER_SPACE
  0
BLOCK_RECORD
  5
2ED
330
1
100
AcDbSymbolTableRecord
100
AcDbBlockTableRecord
  2
*D0
  0
BLOCK_RECORD
  5
2FB
330
1
100
AcDbSymbolTableRecord
100
AcDbBlockTableRecord
  2
_OBLIQUE
  0
BLOCK_RECORD
  5
323
330
1
100
AcDbSymbolTableRecord
100
AcDbBlockTableRecord
  2
*D2
  0
BLOCK_RECORD
  5
330
330
1
100
AcDbSymbolTableRecord
100
AcDbBlockTableRecord
  2
*D3
  0
BLOCK_RECORD
  5
33D
330
1
100
AcDbSymbolTableRecord
100
AcDbBlockTableRecord
  2
*D4
  0
ENDTAB
  0
ENDSEC
  0
SECTION
  2
BLOCKS
  0
BLOCK
  5
69
330
18
100
AcDbEntity
  8
0
100
AcDbBlockBegin
  2
*MODEL_SPACE
 70
     0
 10
0.0
 20
0.0
 30
0.0
  3
*MODEL_SPACE
  1

  0
ENDBLK
  5
6A
330
18
100
AcDbEntity
  8
0
100
AcDbBlockEnd
  0
BLOCK
  5
67
330
15
100
AcDbEntity
 67
     1
  8
0
100
AcDbBlockBegin
  2
*PAPER_SPACE
 70
     0
 10
0.0
 20
0.0
 30
0.0
  3
*PAPER_SPACE
  1

  0
ENDBLK
  5
68
330
15
100
AcDbEntity
 67
     1
  8
0
100
AcDbBlockEnd
  0
BLOCK
  5
317
330
2ED
100
AcDbEntity
  8
0
100
AcDbBlockBegin
  2
*D0
 70
     1
 10
0.0
 20
0.0
 30
0.0
  3
*D0
  1

  0
LINE
  5
60A
330
2ED
100
AcDbEntity
  8
ADPDIM
 62
     0
100
AcDbLine
 10
18.20946071598247
 20
-8.199195266644252
 30
0.0
 11
18.80729085190074
 21
-8.199195266644252
 31
0.0
  0
LINE
  5
60B
330
2ED
100
AcDbEntity
  8
ADPDIM
 62
     0
100
AcDbLine
 10
17.95946071598247
 20
-3.574195266644252
 30
0.0
 11
18.80729085190074
 21
-3.574195266644252
 31
0.0
  0
LINE
  5
60C
330
2ED
100
AcDbEntity
  8
ADPDIM
 62
     0
100
AcDbLine
 10
18.61979085190074
 20
-8.199195266644252
 30
0.0
 11
18.61979085190074
 21
-6.039195266644253
 31
0.0
  0
LINE
  5
60D
330
2ED
100
AcDbEntity
  8
ADPDIM
 62
     0
100
AcDbLine
 10
18.61979085190074
 20
-3.574195266644252
 30
0.0
 11
18.61979085190074
 21
-5.734195266644253
 31
0.0
  0
INSERT
  5
60E
330
2ED
100
AcDbEntity
  8
ADPDIM
 62
     0
100
AcDbBlockReference
  2
_OBLIQUE
 10
18.61979085190074
 20
-8.199195266644252
 30
0.0
 41
0.1875
 42
0.1875
 43
0.1875
 50
270.0
  0
INSERT
  5
60F
330
2ED
100
AcDbEntity
  8
ADPDIM
 62
     0
100
AcDbBlockReference
  2
_OBLIQUE
 10
18.61979085190074
 20
-3.574195266644252
 30
0.0
 41
0.1875
 42
0.1875
 43
0.1875
 50
90.0
  0
MTEXT
  5
610
330
2ED
100
AcDbEntity
  8
ADPDIM
 62
     0
100
AcDbMText
 10
18.61979085190074
 20
-5.88669526664425
 30
0.0
 40
0.18
 41
0.0
 71
     5
 72
     1
  1
\A1;4 5/8
  0
POINT
  5
611
330
2ED
100
AcDbEntity
  8
DEFPOINTS
 62
     0
100
AcDbPoint
 10
18.14696071598247
 20
-8.199195266644252
 30
0.0
  0
POINT
  5
612
330
2ED
100
AcDbEntity
  8
DEFPOINTS
 62
     0
100
AcDbPoint
 10
17.89696071598247
 20
-3.574195266644252
 30
0.0
  0
POINT
  5
613
330
2ED
100
AcDbEntity
  8
DEFPOINTS
 62
     0
100
AcDbPoint
 10
18.61979085190074
 20
-3.574195266644252
 30
0.0
  0
ENDBLK
  5
322
330
2ED
100
AcDbEntity
  8
0
100
AcDbBlockEnd
  0
BLOCK
  5
2FC
330
2FB
100
AcDbEntity
  8
0
100
AcDbBlockBegin
  2
_OBLIQUE
 70
     0
 10
0.0
 20
0.0
 30
0.0
  3
_OBLIQUE
  1

  0
LINE
  5
2FD
330
2FB
100
AcDbEntity
  8
0
  6
BYBLOCK
 62
     0
100
AcDbLine
 10
-0.5
 20
-0.5
 30
0.0
 11
0.5
 21
0.5
 31
0.0
  0
ENDBLK
  5
2FE
330
2FB
100
AcDbEntity
  8
0
100
AcDbBlockEnd
  0
BLOCK
  5
324
330
323
100
AcDbEntity
  8
0
100
AcDbBlockBegin
  2
*D2
 70
     1
 10
0.0
 20
0.0
 30
0.0
  3
*D2
  1

  0
LINE
  5
614
330
323
100
AcDbEntity
  8
ADPDIM
 62
     0
100
AcDbLine
 10
18.14696071598247
 20
-8.261695266644252
 30
0.0
 11
18.14696071598247
 21
-8.988430431241214
 31
0.0
  0
LINE
  5
615
330
323
100
AcDbEntity
  8
ADPDIM
 62
     0
100
AcDbLine
 10
17.14696071598247
 20
-8.261695266644252
 30
0.0
 11
17.14696071598247
 21
-8.988430431241214
 31
0.0
  0
LINE
  5
616
330
323
100
AcDbEntity
  8
ADPDIM
 62
     0
100
AcDbLine
 10
18.14696071598247
 20
-8.800930431241214
 30
0.0
 11
17.73946071598247
 21
-8.800930431241214
 31
0.0
  0
LINE
  5
617
330
323
100
AcDbEntity
  8
ADPDIM
 62
     0
100
AcDbLine
 10
17.14696071598247
 20
-8.800930431241214
 30
0.0
 11
17.55446071598247
 21
-8.800930431241214
 31
0.0
  0
INSERT
  5
618
330
323
100
AcDbEntity
  8
ADPDIM
 62
     0
100
AcDbBlockReference
  2
_OBLIQUE
 10
18.14696071598247
 20
-8.800930431241214
 30
0.0
 41
0.1875
 42
0.1875
 43
0.1875
  0
INSERT
  5
619
330
323
100
AcDbEntity
  8
ADPDIM
 62
     0
100
AcDbBlockReference
  2
_OBLIQUE
 10
17.14696071598247
 20
-8.800930431241214
 30
0.0
 41
0.1875
 42
0.1875
 43
0.1875
 50
180.0
  0
MTEXT
  5
61A
330
323
100
AcDbEntity
  8
ADPDIM
 62
     0
100
AcDbMText
 10
17.64696071598247
 20
-8.800930431241214
 30
0.0
 40
0.18
 41
0.0
 71
     5
 72
     1
  1
\A1;1
  0
POINT
  5
61B
330
323
100
AcDbEntity
  8
DEFPOINTS
 62
     0
100
AcDbPoint
 10
18.14696071598247
 20
-8.199195266644252
 30
0.0
  0
POINT
  5
61C
330
323
100
AcDbEntity
  8
DEFPOINTS
 62
     0
100
AcDbPoint
 10
17.14696071598247
 20
-8.199195266644252
 30
0.0
  0
POINT
  5
61D
330
323
100
AcDbEntity
  8
DEFPOINTS
 62
     0
100
AcDbPoint
 10
17.14696071598247
 20
-8.800930431241214
 30
0.0
  0
ENDBLK
  5
32F
330
323
100
AcDbEntity
  8
0
100
AcDbBlockEnd
  0
BLOCK
  5
331
330
330
100
AcDbEntity
  8
0
100
AcDbBlockBegin
  2
*D3
 70
     1
 10
0.0
 20
0.0
 30
0.0
  3
*D3
  1

  0
LINE
  5
61E
330
330
100
AcDbEntity
  8
ADPDIM
 62
     0
100
AcDbLine
 10
-1.125
 20
-3.287417857765452
 30
0.0
 11
-1.125
 21
-2.720485870844453
 31
0.0
  0
LINE
  5
61F
330
330
100
AcDbEntity
  8
ADPDIM
 62
     0
100
AcDbLine
 10
15.875
 20
-3.287417857765452
 30
0.0
 11
15.875
 21
-2.720485870844453
 31
0.0
  0
LINE
  5
620
330
330
100
AcDbEntity
  8
ADPDIM
 62
     0
100
AcDbLine
 10
-1.125
 20
-2.907985870844454
 30
0.0
 11
7.192499999999999
 21
-2.907985870844454
 31
0.0
  0
LINE
  5
621
330
330
100
AcDbEntity
  8
ADPDIM
 62
     0
100
AcDbLine
 10
15.875
 20
-2.907985870844454
 30
0.0
 11
7.5575
 21
-2.907985870844454
 31
0.0
  0
INSERT
  5
622
330
330
100
AcDbEntity
  8
ADPDIM
 62
     0
100
AcDbBlockReference
  2
_OBLIQUE
 10
-1.125
 20
-2.907985870844454
 30
0.0
 41
0.1875
 42
0.1875
 43
0.1875
 50
180.0
  0
INSERT
  5
623
330
330
100
AcDbEntity
  8
ADPDIM
 62
     0
100
AcDbBlockReference
  2
_OBLIQUE
 10
15.875
 20
-2.907985870844454
 30
0.0
 41
0.1875
 42
0.1875
 43
0.1875
  0
MTEXT
  5
624
330
330
100
AcDbEntity
  8
ADPDIM
 62
     0
100
AcDbMText
 10
7.375
 20
-2.907985870844454
 30
0.0
 40
0.18
 41
0.0
 71
     5
 72
     1
  1
\A1;17
  0
POINT
  5
625
330
330
100
AcDbEntity
  8
DEFPOINTS
 62
     0
100
AcDbPoint
 10
-1.125
 20
-3.349917857765452
 30
0.0
  0
POINT
  5
626
330
330
100
AcDbEntity
  8
DEFPOINTS
 62
     0
100
AcDbPoint
 10
15.875
 20
-3.349917857765452
 30
0.0
  0
POINT
  5
627
330
330
100
AcDbEntity
  8
DEFPOINTS
 62
     0
100
AcDbPoint
 10
15.875
 20
-2.907985870844454
 30
0.0
  0
ENDBLK
  5
33C
330
330
100
AcDbEntity
  8
0
100
AcDbBlockEnd
  0
BLOCK
  5
33E
330
33D
100
AcDbEntity
  8
0
100
AcDbBlockBegin
  2
*D4
 70
     1
 10
0.0
 20
0.0
 30
0.0
  3
*D4
  1

  0
LINE
  5
600
330
33D
100
AcDbEntity
  8
ADPDIM
 62
     0
100
AcDbLine
 10
17.89696071598247
 20
-3.511695266644252
 30
0.0
 11
17.89696071598247
 21
-3.162417857765452
 31
0.0
  0
LINE
  5
601
330
33D
100
AcDbEntity
  8
ADPDIM
 62
     0
100
AcDbLine
 10
17.39696071598247
 20
-3.511695266644252
 30
0.0
 11
17.39696071598247
 21
-3.162417857765452
 31
0.0
  0
LINE
  5
602
330
33D
100
AcDbEntity
  8
ADPDIM
 62
     0
100
AcDbLine
 10
17.89696071598247
 20
-3.349917857765452
 30
0.0
 11
17.39696071598247
 21
-3.349917857765452
 31
0.0
  0
LINE
  5
603
330
33D
100
AcDbEntity
  8
ADPDIM
 62
     0
100
AcDbLine
 10
17.39696071598247
 20
-3.349917857765452
 30
0.0
 11
17.20946071598247
 21
-3.349917857765452
 31
0.0
  0
INSERT
  5
604
330
33D
100
AcDbEntity
  8
ADPDIM
 62
     0
100
AcDbBlockReference
  2
_OBLIQUE
 10
17.89696071598247
 20
-3.349917857765452
 30
0.0
 41
0.1875
 42
0.1875
 43
0.1875
  0
INSERT
  5
605
330
33D
100
AcDbEntity
  8
ADPDIM
 62
     0
100
AcDbBlockReference
  2
_OBLIQUE
 10
17.39696071598247
 20
-3.349917857765452
 30
0.0
 41
0.1875
 42
0.1875
 43
0.1875
 50
180.0
  0
MTEXT
  5
606
330
33D
100
AcDbEntity
  8
ADPDIM
 62
     0
100
AcDbMText
 10
16.93696071598247
 20
-3.349917857765452
 30
0.0
 40
0.18
 41
0.0
 71
     5
 72
     1
  1
\A1;1/2
  0
POINT
  5
607
330
33D
100
AcDbEntity
  8
DEFPOINTS
 62
     0
100
AcDbPoint
 10
17.89696071598247
 20
-3.574195266644252
 30
0.0
  0
POINT
  5
608
330
33D
100
AcDbEntity
  8
DEFPOINTS
 62
     0
100
AcDbPoint
 10
17.39696071598247
 20
-3.574195266644252
 30
0.0
  0
POINT
  5
609
330
33D
100
AcDbEntity
  8
DEFPOINTS
 62
     0
100
AcDbPoint
 10
17.39696071598247
 20
-3.349917857765452
 30
0.0
  0
ENDBLK
  5
349
330
33D
100
AcDbEntity
  8
0
100
AcDbBlockEnd
  0
ENDSEC
  0
SECTION
  2
ENTITIES
  0
ARC
  5
1E0
330
18
100
AcDbEntity
  8
ADP1DETAIL
100
AcDbCircle
 10
4.455580723829829
 20
-6.779994500547943
 30
0.0
 40
3.0
100
AcDbArc
 50
128.5450495222924
 51
131.3665126090687
  0
ARC
  5
1E1
330
18
100
AcDbEntity
  8
ADP1DETAIL
100
AcDbCircle
 10
4.125
 20
-6.535909153000917
 30
0.0
 40
2.75
100
AcDbArc
 50
111.2224827571008
 51
155.8305104328748
  0
ARC
  5
1E2
330
18
100
AcDbEntity
  8
ADP1DETAIL
100
AcDbCircle
 10
4.125
 20
-6.535909153000917
 30
0.0
 40
3.25
100
AcDbArc
 50
112.6198649480404
 51
164.0576313943713
  0
ARC
  5
1E3
330
18
100
AcDbEntity
  8
ADP1DETAIL
100
AcDbCircle
 10
-2.455580723829829
 20
-6.779994500547943
 30
0.0
 40
3.0
100
AcDbArc
 50
51.45495047770755
 51
63.78526670855585
  0
ARC
  5
1E4
330
18
100
AcDbEntity
  8
ADP1DETAIL
100
AcDbCircle
 10
-2.125
 20
-6.535909153000917
 30
0.0
 40
3.25
100
AcDbArc
 50
15.94236860562863
 51
67.38013505195958
  0
ARC
  5
1E5
330
18
100
AcDbEntity
  8
ADP1DETAIL
100
AcDbCircle
 10
-2.125
 20
-6.535909153000917
 30
0.0
 40
2.75
100
AcDbArc
 50
24.1694895671252
 51
68.77751724289915
  0
LWPOLYLINE
  5
1E6
330
18
100
AcDbEntity
  8
ADP1DETAIL
100
AcDbPolyline
 90
        3
 70
     0
 43
0.0
 10
-0.875
 20
-3.535909153000917
 10
-0.875
 20
-3.349917857765452
 10
-1.125
 20
-3.349917857765452
  0
ARC
  5
1EB
330
18
100
AcDbEntity
  8
ADP1DETAIL
100
AcDbCircle
 10
-0.6037110159196164
 20
-6.513025045245139
 30
0.0
 40
1.062
100
AcDbArc
 50
19.65229079695061
 51
77.18558889689671
  0
ARC
  5
1EC
330
18
100
AcDbEntity
  8
ADP1DETAIL
100
AcDbCircle
 10
2.603711015919616
 20
-6.513025045245139
 30
0.0
 40
1.062
100
AcDbArc
 50
102.8144111031032
 51
160.3477092030493
  0
ARC
  5
1ED
330
18
100
AcDbEntity
  8
ADP1DETAIL
100
AcDbCircle
 10
-0.8263913837465377
 20
-4.971428901254048
 30
0.0
 40
0.5619999999999999
100
AcDbArc
 50
314.3377189222726
 51
50.3372901641443
  0
LINE
  5
1EE
330
18
100
AcDbEntity
  8
ADP1DETAIL
100
AcDbLine
 10
-0.3681660413735623
 20
-5.47747564277025
 30
0.0
 11
-0.4375
 21
-5.366664682292398
 31
0.0
  0
LINE
  5
1EF
330
18
100
AcDbEntity
  8
ADP1DETAIL
100
AcDbLine
 10
-0.4734580007017235
 20
-4.530340559653798
 30
0.0
 11
-0.4658416868952298
 21
-4.542521144212058
 31
0.0
  0
ARC
  5
1F0
330
18
100
AcDbEntity
  8
ADP1DETAIL
100
AcDbCircle
 10
-2.455580723829829
 20
-6.779994500547943
 30
0.0
 40
3.0
100
AcDbArc
 50
48.6334873909313
 51
51.45495047770755
  0
ARC
  5
1F1
330
18
100
AcDbEntity
  8
ADP1DETAIL
100
AcDbCircle
 10
2.826391383746537
 20
-4.971428901254048
 30
0.0
 40
0.5619999999999999
100
AcDbArc
 50
129.6627098358557
 51
225.6622810777273
  0
LINE
  5
1F2
330
18
100
AcDbEntity
  8
ADP1DETAIL
100
AcDbLine
 10
2.368166041373561
 20
-5.47747564277025
 30
0.0
 11
2.4375
 21
-5.366664682292398
 31
0.0
  0
LINE
  5
1F3
330
18
100
AcDbEntity
  8
ADP1DETAIL
100
AcDbLine
 10
2.473458000701723
 20
-4.530340559653798
 30
0.0
 11
2.465841686895229
 21
-4.542521144212058
 31
0.0
  0
ARC
  5
1F4
330
18
100
AcDbEntity
  8
ADP1DETAIL
100
AcDbCircle
 10
4.455580723829829
 20
-6.779994500547943
 30
0.0
 40
3.0
100
AcDbArc
 50
116.2147332914441
 51
128.5450495222924
  0
LWPOLYLINE
  5
1F5
330
18
100
AcDbEntity
  8
ADP1DETAIL
100
AcDbPolyline
 90
        3
 70
     0
 43
0.0
 10
2.875
 20
-3.535909153000917
 10
2.875
 20
-3.349917857765452
 10
3.125
 20
-3.349917857765452
  0
ARC
  5
1FA
330
18
100
AcDbEntity
  8
ADP1DETAIL
100
AcDbCircle
 10
-6.367126748823192
 20
-7.687862369113418
 30
0.0
 40
7.125
100
AcDbArc
 50
1.712651067690067
 51
18.64514972194697
  0
ARC
  5
1FB
330
18
100
AcDbEntity
  8
ADP1DETAIL
100
AcDbCircle
 10
8.367126748823192
 20
-7.687862369113418
 30
0.0
 40
7.125
100
AcDbArc
 50
161.354850278053
 51
178.2873489323099
  0
ARC
  5
1FC
330
18
100
AcDbEntity
  8
ADP1DETAIL
100
AcDbCircle
 10
-3.371892108270557
 20
-7.47341624400498
 30
0.0
 40
3.992015477102992
100
AcDbArc
 50
359.9784479460422
 51
19.27164276171613
  0
ARC
  5
1FD
330
18
100
AcDbEntity
  8
ADP1DETAIL
100
AcDbCircle
 10
5.371892108270557
 20
-7.47341624400498
 30
0.0
 40
3.992015477102992
100
AcDbArc
 50
160.7283572382838
 51
180.0215520539577
  0
LINE
  5
1FF
330
18
100
AcDbEntity
  8
ADP1DETAIL
100
AcDbLine
 10
0.5
 20
-7.474917857765452
 30
0.0
 11
1.5
 21
-7.474917857765452
 31
0.0
  0
LINE
  5
200
330
18
100
AcDbEntity
  8
ADP1DETAIL
100
AcDbLine
 10
1.5
 20
-7.474917857765452
 30
0.0
 11
1.5
 21
-7.974917857765452
 31
0.0
  0
LINE
  5
201
330
18
100
AcDbEntity
  8
ADP1DETAIL
100
AcDbLine
 10
0.5
 20
-7.974917857765452
 30
0.0
 11
0.5
 21
-7.474917857765452
 31
0.0
  0
LINE
  5
20F
330
18
100
AcDbEntity
  8
ADP1DETAIL
100
AcDbLine
 10
18.14696071598247
 20
-7.699195266644252
 30
0.0
 11
18.14696071598247
 21
-8.199195266644252
 31
0.0
  0
LINE
  5
211
330
18
100
AcDbEntity
  8
ADP1DETAIL
100
AcDbLine
 10
17.14696071598247
 20
-7.699195266644252
 30
0.0
 11
18.14696071598247
 21
-7.699195266644252
 31
0.0
  0
LINE
  5
212
330
18
100
AcDbEntity
  8
ADP1DETAIL
100
AcDbLine
 10
17.14696071598247
 20
-8.199195266644252
 30
0.0
 11
17.14696071598247
 21
-7.699195266644252
 31
0.0
  0
LINE
  5
213
330
18
100
AcDbEntity
  8
ADP1DETAIL
100
AcDbLine
 10
17.39696071598247
 20
-7.699195266644252
 30
0.0
 11
17.39696071598247
 21
-3.574195266644252
 31
0.0
  0
LINE
  5
214
330
18
100
AcDbEntity
  8
ADP1DETAIL
100
AcDbLine
 10
17.39696071598247
 20
-3.574195266644252
 30
0.0
 11
17.89696071598247
 21
-3.574195266644252
 31
0.0
  0
LINE
  5
215
330
18
100
AcDbEntity
  8
ADP1DETAIL
100
AcDbLine
 10
17.89696071598247
 20
-3.574195266644252
 30
0.0
 11
17.89696071598247
 21
-7.699195266644252
 31
0.0
  0
LINE
  5
216
330
18
100
AcDbEntity
  8
ADP1DETAIL
100
AcDbLine
 10
17.77196071598247
 20
-4.317413605580927
 30
0.0
 11
17.51846071598247
 21
-4.317413605580926
 31
0.0
  0
LINE
  5
217
330
18
100
AcDbEntity
  8
ADP1DETAIL
100
AcDbLine
 10
17.89696071598247
 20
-4.190837974452883
 30
0.0
 11
17.39696071598247
 21
-4.190837974452883
 31
0.0
  0
LINE
  5
218
330
18
100
AcDbEntity
  8
ADP2DETAIL
  6
HIDDEN2
100
AcDbLine
 10
17.89696071598247
 20
-5.863047040559123
 30
0.0
 11
17.39696071598247
 21
-5.863047040559123
 31
0.0
  0
LINE
  5
219
330
18
100
AcDbEntity
  8
ADP1DETAIL
100
AcDbLine
 10
17.51846071598247
 20
-7.699195266644252
 30
0.0
 11
17.51846071598247
 21
-4.190837974452883
 31
0.0
  0
LINE
  5
21A
330
18
100
AcDbEntity
  8
ADP1DETAIL
100
AcDbLine
 10
17.77196071598247
 20
-7.699195266644252
 30
0.0
 11
17.77196071598247
 21
-4.190837974452883
 31
0.0
  0
LINE
  5
21B
330
18
100
AcDbEntity
  8
ADP1DETAIL
100
AcDbLine
 10
17.77196071598247
 20
-5.697864836350838
 30
0.0
 11
17.51846071598247
 21
-5.697864836350838
 31
0.0
  0
LINE
  5
21C
330
18
100
AcDbEntity
  8
ADP1DETAIL
100
AcDbLine
 10
17.77196071598247
 20
-5.587053875872985
 30
0.0
 11
17.51846071598247
 21
-5.587053875872985
 31
0.0
  0
LINE
  5
222
330
18
100
AcDbEntity
  8
ADP2DETAIL
  6
HIDDEN2
100
AcDbLine
 10
17.89696071598247
 20
-3.762873340719888
 30
0.0
 11
17.39696071598247
 21
-3.762873340719888
 31
0.0
  0
DIMENSION
  5
223
330
18
100
AcDbEntity
  8
ADPDIM
100
AcDbDimension
  2
*D4
 10
17.39696071598247
 20
-3.349917857765452
 30
0.0
 11
16.93696071598247
 21
-3.349917857765452
 31
0.0
 70
    32
  3
STANDARD
100
AcDbAlignedDimension
 13
17.89696071598247
 23
-3.574195266644252
 33
0.0
 14
17.39696071598247
 24
-3.574195266644252
 34
0.0
100
AcDbRotatedDimension
1001
ACAD
1000
DSTYLE
1002
{
1070
   270
1070
     7
1070
   270
1070
     7
1070
   270
1070
     7
1070
   270
1070
     7
1070
   270
1070
     7
1070
    41
1040
0.1875
1070
    43
1040
0.375
1070
    44
1040
0.1875
1070
   141
1040
0.0625
1070
   147
1040
0.0625
1070
   173
1070
     1
1070
   271
1070
     3
1070
   276
1070
     2
1070
   277
1070
     5
1070
     6
1000
OBLIQUE
1070
     7
1000
OBLIQUE
1002
}
  0
DIMENSION
  5
224
330
18
100
AcDbEntity
  8
ADPDIM
100
AcDbDimension
  2
*D0
 10
18.61979085190074
 20
-3.574195266644252
 30
0.0
 11
18.61979085190074
 21
-5.88669526664425
 31
0.0
 70
    32
  3
STANDARD
100
AcDbAlignedDimension
 13
18.14696071598247
 23
-8.199195266644252
 33
0.0
 14
17.89696071598247
 24
-3.574195266644252
 34
0.0
 50
90.0
100
AcDbRotatedDimension
1001
ACAD
1000
DSTYLE
1002
{
1070
   270
1070
     7
1070
   270
1070
     7
1070
   270
1070
     7
1070
   270
1070
     7
1070
   270
1070
     7
1070
    41
1040
0.1875
1070
    43
1040
0.375
1070
    44
1040
0.1875
1070
   141
1040
0.0625
1070
   147
1040
0.0625
1070
   173
1070
     1
1070
   271
1070
     3
1070
   276
1070
     2
1070
   277
1070
     5
1070
     6
1000
OBLIQUE
1070
     7
1000
OBLIQUE
1002
}
  0
DIMENSION
  5
226
330
18
100
AcDbEntity
  8
ADPDIM
100
AcDbDimension
  2
*D2
 10
17.14696071598247
 20
-8.800930431241214
 30
0.0
 11
17.64696071598247
 21
-8.800930431241214
 31
0.0
 70
    32
  3
STANDARD
100
AcDbAlignedDimension
 13
18.14696071598247
 23
-8.199195266644252
 33
0.0
 14
17.14696071598247
 24
-8.199195266644252
 34
0.0
100
AcDbRotatedDimension
1001
ACAD
1000
DSTYLE
1002
{
1070
   270
1070
     7
1070
   270
1070
     7
1070
   270
1070
     7
1070
   270
1070
     7
1070
   270
1070
     7
1070
    41
1040
0.1875
1070
    43
1040
0.375
1070
    44
1040
0.1875
1070
   141
1040
0.0625
1070
   147
1040
0.0625
1070
   173
1070
     1
1070
   271
1070
     3
1070
   276
1070
     2
1070
   277
1070
     5
1070
     6
1000
OBLIQUE
1070
     7
1000
OBLIQUE
1002
}
  0
ARC
  5
27D
330
18
100
AcDbEntity
  8
ADP1DETAIL
100
AcDbCircle
 10
0.8781078917294422
 20
-7.47341624400498
 30
0.0
 40
3.992015477102992
100
AcDbArc
 50
359.9784479460422
 51
19.27164276171613
  0
ARC
  5
27E
330
18
100
AcDbEntity
  8
ADP1DETAIL
100
AcDbCircle
 10
-2.117126748823193
 20
-7.687862369113418
 30
0.0
 40
7.125
100
AcDbArc
 50
1.712651067690066
 51
18.64514972194697
  0
ARC
  5
27F
330
18
100
AcDbEntity
  8
ADP1DETAIL
100
AcDbCircle
 10
9.621892108270559
 20
-7.47341624400498
 30
0.0
 40
3.992015477102992
100
AcDbArc
 50
160.7283572382838
 51
180.0215520539577
  0
ARC
  5
280
330
18
100
AcDbEntity
  8
ADP1DETAIL
100
AcDbCircle
 10
12.61712674882319
 20
-7.687862369113418
 30
0.0
 40
7.125
100
AcDbArc
 50
161.354850278053
 51
178.2873489323099
  0
LINE
  5
281
330
18
100
AcDbEntity
  8
ADP1DETAIL
100
AcDbLine
 10
5.75
 20
-7.474917857765452
 30
0.0
 11
4.75
 21
-7.474917857765452
 31
0.0
  0
LINE
  5
283
330
18
100
AcDbEntity
  8
ADP1DETAIL
100
AcDbLine
 10
5.75
 20
-7.974917857765452
 30
0.0
 11
5.75
 21
-7.474917857765452
 31
0.0
  0
LINE
  5
284
330
18
100
AcDbEntity
  8
ADP1DETAIL
100
AcDbLine
 10
4.75
 20
-7.474917857765452
 30
0.0
 11
4.75
 21
-7.974917857765452
 31
0.0
  0
ARC
  5
285
330
18
100
AcDbEntity
  8
ADP1DETAIL
100
AcDbCircle
 10
8.375000000000001
 20
-6.535909153000917
 30
0.0
 40
3.25
100
AcDbArc
 50
112.6198649480404
 51
164.0576313943713
  0
ARC
  5
286
330
18
100
AcDbEntity
  8
ADP1DETAIL
100
AcDbCircle
 10
2.125
 20
-6.535909153000917
 30
0.0
 40
3.25
100
AcDbArc
 50
15.94236860562863
 51
67.38013505195957
  0
LINE
  5
287
330
18
100
AcDbEntity
  8
ADP1DETAIL
100
AcDbLine
 10
6.618166041373563
 20
-5.47747564277025
 30
0.0
 11
6.6875
 21
-5.366664682292398
 31
0.0
  0
ARC
  5
288
330
18
100
AcDbEntity
  8
ADP1DETAIL
100
AcDbCircle
 10
7.076391383746538
 20
-4.971428901254048
 30
0.0
 40
0.5619999999999999
100
AcDbArc
 50
129.6627098358557
 51
225.6622810777273
  0
ARC
  5
289
330
18
100
AcDbEntity
  8
ADP1DETAIL
100
AcDbCircle
 10
8.375000000000001
 20
-6.535909153000917
 30
0.0
 40
2.75
100
AcDbArc
 50
111.2224827571008
 51
155.8305104328748
  0
ARC
  5
28A
330
18
100
AcDbEntity
  8
ADP1DETAIL
100
AcDbCircle
 10
8.705580723829831
 20
-6.779994500547943
 30
0.0
 40
3.0
100
AcDbArc
 50
116.2147332914441
 51
128.5450495222924
  0
LINE
  5
28B
330
18
100
AcDbEntity
  8
ADP1DETAIL
100
AcDbLine
 10
6.723458000701724
 20
-4.530340559653798
 30
0.0
 11
6.71584168689523
 21
-4.542521144212058
 31
0.0
  0
ARC
  5
28C
330
18
100
AcDbEntity
  8
ADP1DETAIL
100
AcDbCircle
 10
8.705580723829831
 20
-6.779994500547943
 30
0.0
 40
3.0
100
AcDbArc
 50
128.5450495222924
 51
131.3665126090687
  0
LWPOLYLINE
  5
28D
330
18
100
AcDbEntity
  8
ADP1DETAIL
100
AcDbPolyline
 90
        3
 70
     0
 43
0.0
 10
7.125
 20
-3.535909153000917
 10
7.125
 20
-3.349917857765452
 10
7.375
 20
-3.349917857765452
  0
ARC
  5
292
330
18
100
AcDbEntity
  8
ADP1DETAIL
100
AcDbCircle
 10
6.853711015919617
 20
-6.513025045245139
 30
0.0
 40
1.062
100
AcDbArc
 50
102.8144111031032
 51
160.3477092030493
  0
ARC
  5
293
330
18
100
AcDbEntity
  8
ADP1DETAIL
100
AcDbCircle
 10
1.79441927617017
 20
-6.779994500547943
 30
0.0
 40
3.0
100
AcDbArc
 50
51.45495047770754
 51
63.78526670855584
  0
ARC
  5
294
330
18
100
AcDbEntity
  8
ADP1DETAIL
100
AcDbCircle
 10
2.125
 20
-6.535909153000917
 30
0.0
 40
2.75
100
AcDbArc
 50
24.1694895671252
 51
68.77751724289914
  0
ARC
  5
295
330
18
100
AcDbEntity
  8
ADP1DETAIL
100
AcDbCircle
 10
3.423608616253462
 20
-4.971428901254048
 30
0.0
 40
0.5619999999999999
100
AcDbArc
 50
314.3377189222726
 51
50.3372901641443
  0
ARC
  5
296
330
18
100
AcDbEntity
  8
ADP1DETAIL
100
AcDbCircle
 10
3.646288984080384
 20
-6.513025045245139
 30
0.0
 40
1.062
100
AcDbArc
 50
19.65229079695061
 51
77.18558889689671
  0
LINE
  5
297
330
18
100
AcDbEntity
  8
ADP1DETAIL
100
AcDbLine
 10
3.881833958626438
 20
-5.47747564277025
 30
0.0
 11
3.8125
 21
-5.366664682292398
 31
0.0
  0
LINE
  5
298
330
18
100
AcDbEntity
  8
ADP1DETAIL
100
AcDbLine
 10
3.776541999298277
 20
-4.530340559653798
 30
0.0
 11
3.78415831310477
 21
-4.542521144212058
 31
0.0
  0
ARC
  5
299
330
18
100
AcDbEntity
  8
ADP1DETAIL
100
AcDbCircle
 10
1.79441927617017
 20
-6.779994500547943
 30
0.0
 40
3.0
100
AcDbArc
 50
48.6334873909313
 51
51.45495047770754
  0
LWPOLYLINE
  5
29A
330
18
100
AcDbEntity
  8
ADP1DETAIL
100
AcDbPolyline
 90
        3
 70
     0
 43
0.0
 10
3.375
 20
-3.535909153000917
 10
3.375
 20
-3.349917857765452
 10
3.125
 20
-3.349917857765452
  0
ARC
  5
29F
330
18
100
AcDbEntity
  8
ADP1DETAIL
100
AcDbCircle
 10
11.10371101591961
 20
-6.513025045245139
 30
0.0
 40
1.062
100
AcDbArc
 50
102.8144111031032
 51
160.3477092030493
  0
ARC
  5
2A0
330
18
100
AcDbEntity
  8
ADP1DETAIL
100
AcDbCircle
 10
12.625
 20
-6.535909153000917
 30
0.0
 40
2.75
100
AcDbArc
 50
111.2224827571008
 51
155.8305104328748
  0
ARC
  5
2A1
330
18
100
AcDbEntity
  8
ADP1DETAIL
100
AcDbCircle
 10
12.625
 20
-6.535909153000917
 30
0.0
 40
3.25
100
AcDbArc
 50
112.6198649480404
 51
164.0576313943713
  0
ARC
  5
2A2
330
18
100
AcDbEntity
  8
ADP1DETAIL
100
AcDbCircle
 10
9.378107891729444
 20
-7.47341624400498
 30
0.0
 40
3.992015477102992
100
AcDbArc
 50
359.9784479460422
 51
19.27164276171613
  0
ARC
  5
2A3
330
18
100
AcDbEntity
  8
ADP1DETAIL
100
AcDbCircle
 10
6.382873251176809
 20
-7.687862369113418
 30
0.0
 40
7.125
100
AcDbArc
 50
1.712651067690067
 51
18.64514972194697
  0
ARC
  5
2A4
330
18
100
AcDbEntity
  8
ADP1DETAIL
100
AcDbCircle
 10
18.12189210827055
 20
-7.47341624400498
 30
0.0
 40
3.992015477102992
100
AcDbArc
 50
160.7283572382838
 51
180.0215520539577
  0
ARC
  5
2A5
330
18
100
AcDbEntity
  8
ADP1DETAIL
100
AcDbCircle
 10
21.11712674882319
 20
-7.687862369113418
 30
0.0
 40
7.125
100
AcDbArc
 50
161.354850278053
 51
178.2873489323099
  0
LINE
  5
2A6
330
18
100
AcDbEntity
  8
ADP1DETAIL
100
AcDbLine
 10
14.25
 20
-7.474917857765452
 30
0.0
 11
13.25
 21
-7.474917857765452
 31
0.0
  0
LINE
  5
2A8
330
18
100
AcDbEntity
  8
ADP1DETAIL
100
AcDbLine
 10
14.25
 20
-7.974917857765452
 30
0.0
 11
14.25
 21
-7.474917857765452
 31
0.0
  0
LINE
  5
2A9
330
18
100
AcDbEntity
  8
ADP1DETAIL
100
AcDbLine
 10
13.25
 20
-7.474917857765452
 30
0.0
 11
13.25
 21
-7.974917857765452
 31
0.0
  0
ARC
  5
2AA
330
18
100
AcDbEntity
  8
ADP1DETAIL
100
AcDbCircle
 10
16.875
 20
-6.535909153000917
 30
0.0
 40
3.25
100
AcDbArc
 50
112.6198649480404
 51
164.0576313943713
  0
ARC
  5
2AB
330
18
100
AcDbEntity
  8
ADP1DETAIL
100
AcDbCircle
 10
10.625
 20
-6.535909153000917
 30
0.0
 40
3.25
100
AcDbArc
 50
15.94236860562863
 51
67.38013505195958
  0
LINE
  5
2AC
330
18
100
AcDbEntity
  8
ADP1DETAIL
100
AcDbLine
 10
15.11816604137356
 20
-5.47747564277025
 30
0.0
 11
15.1875
 21
-5.366664682292398
 31
0.0
  0
ARC
  5
2AD
330
18
100
AcDbEntity
  8
ADP1DETAIL
100
AcDbCircle
 10
15.57639138374653
 20
-4.971428901254048
 30
0.0
 40
0.5619999999999999
100
AcDbArc
 50
129.6627098358557
 51
225.6622810777273
  0
ARC
  5
2AE
330
18
100
AcDbEntity
  8
ADP1DETAIL
100
AcDbCircle
 10
16.875
 20
-6.535909153000917
 30
0.0
 40
2.75
100
AcDbArc
 50
111.2224827571008
 51
155.8305104328748
  0
ARC
  5
2AF
330
18
100
AcDbEntity
  8
ADP1DETAIL
100
AcDbCircle
 10
17.20558072382983
 20
-6.779994500547943
 30
0.0
 40
3.0
100
AcDbArc
 50
116.2147332914441
 51
128.5450495222924
  0
LINE
  5
2B0
330
18
100
AcDbEntity
  8
ADP1DETAIL
100
AcDbLine
 10
15.22345800070172
 20
-4.530340559653798
 30
0.0
 11
15.21584168689523
 21
-4.542521144212058
 31
0.0
  0
ARC
  5
2B1
330
18
100
AcDbEntity
  8
ADP1DETAIL
100
AcDbCircle
 10
17.20558072382983
 20
-6.779994500547943
 30
0.0
 40
3.0
100
AcDbArc
 50
128.5450495222924
 51
131.3665126090687
  0
LWPOLYLINE
  5
2B2
330
18
100
AcDbEntity
  8
ADP1DETAIL
100
AcDbPolyline
 90
        3
 70
     0
 43
0.0
 10
15.625
 20
-3.535909153000917
 10
15.625
 20
-3.349917857765452
 10
15.875
 20
-3.349917857765452
  0
ARC
  5
2B7
330
18
100
AcDbEntity
  8
ADP1DETAIL
100
AcDbCircle
 10
15.35371101591961
 20
-6.513025045245139
 30
0.0
 40
1.062
100
AcDbArc
 50
102.8144111031032
 51
160.3477092030493
  0
ARC
  5
2B8
330
18
100
AcDbEntity
  8
ADP1DETAIL
100
AcDbCircle
 10
10.29441927617017
 20
-6.779994500547943
 30
0.0
 40
3.0
100
AcDbArc
 50
51.45495047770755
 51
63.78526670855585
  0
ARC
  5
2B9
330
18
100
AcDbEntity
  8
ADP1DETAIL
100
AcDbCircle
 10
10.625
 20
-6.535909153000917
 30
0.0
 40
2.75
100
AcDbArc
 50
24.1694895671252
 51
68.77751724289915
  0
ARC
  5
2BA
330
18
100
AcDbEntity
  8
ADP1DETAIL
100
AcDbCircle
 10
11.92360861625346
 20
-4.971428901254048
 30
0.0
 40
0.5619999999999999
100
AcDbArc
 50
314.3377189222726
 51
50.3372901641443
  0
ARC
  5
2BB
330
18
100
AcDbEntity
  8
ADP1DETAIL
100
AcDbCircle
 10
12.14628898408038
 20
-6.513025045245139
 30
0.0
 40
1.062
100
AcDbArc
 50
19.65229079695061
 51
77.18558889689671
  0
LINE
  5
2BC
330
18
100
AcDbEntity
  8
ADP1DETAIL
100
AcDbLine
 10
12.38183395862644
 20
-5.47747564277025
 30
0.0
 11
12.3125
 21
-5.366664682292398
 31
0.0
  0
LINE
  5
2BD
330
18
100
AcDbEntity
  8
ADP1DETAIL
100
AcDbLine
 10
12.27654199929827
 20
-4.530340559653798
 30
0.0
 11
12.28415831310477
 21
-4.542521144212058
 31
0.0
  0
ARC
  5
2BE
330
18
100
AcDbEntity
  8
ADP1DETAIL
100
AcDbCircle
 10
10.29441927617017
 20
-6.779994500547943
 30
0.0
 40
3.0
100
AcDbArc
 50
48.6334873909313
 51
51.45495047770755
  0
ARC
  5
2BF
330
18
100
AcDbEntity
  8
ADP1DETAIL
100
AcDbCircle
 10
11.32639138374653
 20
-4.971428901254048
 30
0.0
 40
0.5619999999999999
100
AcDbArc
 50
129.6627098358557
 51
225.6622810777273
  0
LINE
  5
2C0
330
18
100
AcDbEntity
  8
ADP1DETAIL
100
AcDbLine
 10
10.86816604137356
 20
-5.47747564277025
 30
0.0
 11
10.9375
 21
-5.366664682292398
 31
0.0
  0
ARC
  5
2C1
330
18
100
AcDbEntity
  8
ADP1DETAIL
100
AcDbCircle
 10
12.95558072382983
 20
-6.779994500547943
 30
0.0
 40
3.0
100
AcDbArc
 50
116.2147332914441
 51
128.5450495222924
  0
LWPOLYLINE
  5
2C2
330
18
100
AcDbEntity
  8
ADP1DETAIL
100
AcDbPolyline
 90
        3
 70
     0
 43
0.0
 10
11.875
 20
-3.535909153000917
 10
11.875
 20
-3.349917857765452
 10
11.625
 20
-3.349917857765452
  0
LWPOLYLINE
  5
2C7
330
18
100
AcDbEntity
  8
ADP1DETAIL
100
AcDbPolyline
 90
        3
 70
     0
 43
0.0
 10
11.375
 20
-3.535909153000917
 10
11.375
 20
-3.349917857765452
 10
11.625
 20
-3.349917857765452
  0
ARC
  5
2CC
330
18
100
AcDbEntity
  8
ADP1DETAIL
100
AcDbCircle
 10
12.95558072382983
 20
-6.779994500547943
 30
0.0
 40
3.0
100
AcDbArc
 50
128.5450495222924
 51
131.3665126090687
  0
LINE
  5
2CD
330
18
100
AcDbEntity
  8
ADP1DETAIL
100
AcDbLine
 10
10.97345800070172
 20
-4.530340559653798
 30
0.0
 11
10.96584168689523
 21
-4.542521144212058
 31
0.0
  0
ARC
  5
2CE
330
18
100
AcDbEntity
  8
ADP1DETAIL
100
AcDbCircle
 10
2.132873251176805
 20
-7.687862369113418
 30
0.0
 40
7.125
100
AcDbArc
 50
1.712651067690067
 51
18.64514972194697
  0
ARC
  5
2CF
330
18
100
AcDbEntity
  8
ADP1DETAIL
100
AcDbCircle
 10
5.128107891729442
 20
-7.47341624400498
 30
0.0
 40
3.992015477102992
100
AcDbArc
 50
359.9784479460422
 51
19.27164276171613
  0
ARC
  5
2D0
330
18
100
AcDbEntity
  8
ADP1DETAIL
100
AcDbCircle
 10
16.86712674882319
 20
-7.687862369113418
 30
0.0
 40
7.125
100
AcDbArc
 50
161.354850278053
 51
178.2873489323099
  0
ARC
  5
2D1
330
18
100
AcDbEntity
  8
ADP1DETAIL
100
AcDbCircle
 10
13.87189210827056
 20
-7.47341624400498
 30
0.0
 40
3.992015477102992
100
AcDbArc
 50
160.7283572382838
 51
180.0215520539577
  0
LINE
  5
2D2
330
18
100
AcDbEntity
  8
ADP1DETAIL
100
AcDbLine
 10
10.0
 20
-7.974917857765452
 30
0.0
 11
9.0
 21
-7.974917857765452
 31
0.0
  0
LINE
  5
2D3
330
18
100
AcDbEntity
  8
ADP1DETAIL
100
AcDbLine
 10
9.0
 20
-7.474917857765452
 30
0.0
 11
10.0
 21
-7.474917857765452
 31
0.0
  0
LINE
  5
2D4
330
18
100
AcDbEntity
  8
ADP1DETAIL
100
AcDbLine
 10
10.0
 20
-7.474917857765452
 30
0.0
 11
10.0
 21
-7.974917857765452
 31
0.0
  0
LINE
  5
2D5
330
18
100
AcDbEntity
  8
ADP1DETAIL
100
AcDbLine
 10
9.0
 20
-7.974917857765452
 30
0.0
 11
9.0
 21
-7.474917857765452
 31
0.0
  0
LWPOLYLINE
  5
2D6
330
18
100
AcDbEntity
  8
ADP1DETAIL
100
AcDbPolyline
 90
        3
 70
     0
 43
0.0
 10
7.625
 20
-3.535909153000917
 10
7.625
 20
-3.349917857765452
 10
7.375
 20
-3.349917857765452
  0
ARC
  5
2DB
330
18
100
AcDbEntity
  8
ADP1DETAIL
100
AcDbCircle
 10
6.04441927617017
 20
-6.779994500547943
 30
0.0
 40
3.0
100
AcDbArc
 50
51.45495047770755
 51
63.78526670855585
  0
ARC
  5
2DC
330
18
100
AcDbEntity
  8
ADP1DETAIL
100
AcDbCircle
 10
6.375
 20
-6.535909153000917
 30
0.0
 40
2.75
100
AcDbArc
 50
24.1694895671252
 51
68.77751724289915
  0
ARC
  5
2DD
330
18
100
AcDbEntity
  8
ADP1DETAIL
100
AcDbCircle
 10
6.375
 20
-6.535909153000917
 30
0.0
 40
3.25
100
AcDbArc
 50
15.94236860562863
 51
67.3801350519596
  0
ARC
  5
2DE
330
18
100
AcDbEntity
  8
ADP1DETAIL
100
AcDbCircle
 10
7.673608616253463
 20
-4.971428901254048
 30
0.0
 40
0.5619999999999999
100
AcDbArc
 50
314.3377189222726
 51
50.3372901641443
  0
ARC
  5
2DF
330
18
100
AcDbEntity
  8
ADP1DETAIL
100
AcDbCircle
 10
7.896288984080384
 20
-6.513025045245139
 30
0.0
 40
1.062
100
AcDbArc
 50
19.65229079695061
 51
77.18558889689673
  0
LINE
  5
2E0
330
18
100
AcDbEntity
  8
ADP1DETAIL
100
AcDbLine
 10
8.131833958626437
 20
-5.47747564277025
 30
0.0
 11
8.0625
 21
-5.366664682292398
 31
0.0
  0
ARC
  5
2E1
330
18
100
AcDbEntity
  8
ADP1DETAIL
100
AcDbCircle
 10
6.04441927617017
 20
-6.779994500547943
 30
0.0
 40
3.0
100
AcDbArc
 50
48.6334873909313
 51
51.45495047770755
  0
LINE
  5
2E2
330
18
100
AcDbEntity
  8
ADP1DETAIL
100
AcDbLine
 10
8.026541999298277
 20
-4.530340559653798
 30
0.0
 11
8.034158313104772
 21
-4.542521144212058
 31
0.0
  0
LINE
  5
2E3
330
18
100
AcDbEntity
  8
ADP1DETAIL
100
AcDbLine
 10
-1.125
 20
-3.349917857765452
 30
0.0
 11
-1.125
 21
-4.097705736331591
 31
0.0
  0
LINE
  5
2E4
330
18
100
AcDbEntity
  8
ADP1DETAIL
100
AcDbLine
 10
15.875
 20
-3.349917857765452
 30
0.0
 11
15.875
 21
-4.097705736331591
 31
0.0
  0
DIMENSION
  5
2E5
330
18
100
AcDbEntity
  8
ADPDIM
100
AcDbDimension
  2
*D3
 10
15.875
 20
-2.907985870844454
 30
0.0
 11
7.375
 21
-2.907985870844454
 31
0.0
 70
    32
  3
STANDARD
100
AcDbAlignedDimension
 13
-1.125
 23
-3.349917857765452
 33
0.0
 14
15.875
 24
-3.349917857765452
 34
0.0
100
AcDbRotatedDimension
1001
ACAD
1000
DSTYLE
1002
{
1070
   270
1070
     7
1070
   270
1070
     7
1070
   270
1070
     7
1070
   270
1070
     7
1070
   270
1070
     7
1070
    41
1040
0.1875
1070
    43
1040
0.375
1070
    44
1040
0.1875
1070
   141
1040
0.0625
1070
   147
1040
0.0625
1070
   173
1070
     1
1070
   271
1070
     3
1070
   276
1070
     2
1070
   277
1070
     5
1070
     6
1000
OBLIQUE
1070
     7
1000
OBLIQUE
1002
}
  0
LINE
  5
35A
330
18
100
AcDbEntity
  8
ADP2DETAIL
  6
HIDDEN2
100
AcDbLine
 10
9.21875
 20
-7.693667857765453
 30
0.0
 11
9.781250000000001
 21
-7.693667857765452
 31
0.0
  0
LINE
  5
35B
330
18
100
AcDbEntity
  8
ADP2DETAIL
  6
HIDDEN2
100
AcDbLine
 10
9.21875
 20
-7.974917857765452
 30
0.0
 11
9.21875
 21
-7.693667857765452
 31
0.0
  0
LINE
  5
35C
330
18
100
AcDbEntity
  8
ADP2DETAIL
  6
HIDDEN2
100
AcDbLine
 10
9.781250000000001
 20
-7.693667857765452
 30
0.0
 11
9.781250000000001
 21
-7.974917857765452
 31
0.0
  0
LINE
  5
35D
330
18
100
AcDbEntity
  8
ADP2DETAIL
  6
HIDDEN2
100
AcDbLine
 10
4.96875
 20
-7.693667857765453
 30
0.0
 11
5.531250000000001
 21
-7.693667857765452
 31
0.0
  0
LINE
  5
35E
330
18
100
AcDbEntity
  8
ADP1DETAIL
100
AcDbLine
 10
5.750000000000001
 20
-7.974917857765452
 30
0.0
 11
4.75
 21
-7.974917857765452
 31
0.0
  0
LINE
  5
35F
330
18
100
AcDbEntity
  8
ADP2DETAIL
  6
HIDDEN2
100
AcDbLine
 10
4.96875
 20
-7.974917857765452
 30
0.0
 11
4.96875
 21
-7.693667857765452
 31
0.0
  0
LINE
  5
360
330
18
100
AcDbEntity
  8
ADP2DETAIL
  6
HIDDEN2
100
AcDbLine
 10
5.531250000000001
 20
-7.693667857765452
 30
0.0
 11
5.531250000000001
 21
-7.974917857765452
 31
0.0
  0
LINE
  5
361
330
18
100
AcDbEntity
  8
ADP2DETAIL
  6
HIDDEN2
100
AcDbLine
 10
0.71875
 20
-7.693667857765453
 30
0.0
 11
1.281250000000001
 21
-7.693667857765452
 31
0.0
  0
LINE
  5
362
330
18
100
AcDbEntity
  8
ADP1DETAIL
100
AcDbLine
 10
1.500000000000001
 20
-7.974917857765452
 30
0.0
 11
0.5
 21
-7.974917857765452
 31
0.0
  0
LINE
  5
363
330
18
100
AcDbEntity
  8
ADP2DETAIL
  6
HIDDEN2
100
AcDbLine
 10
0.71875
 20
-7.974917857765452
 30
0.0
 11
0.71875
 21
-7.693667857765452
 31
0.0
  0
LINE
  5
364
330
18
100
AcDbEntity
  8
ADP2DETAIL
  6
HIDDEN2
100
AcDbLine
 10
1.281250000000001
 20
-7.693667857765452
 30
0.0
 11
1.281250000000001
 21
-7.974917857765452
 31
0.0
  0
LINE
  5
365
330
18
100
AcDbEntity
  8
ADP2DETAIL
  6
HIDDEN2
100
AcDbLine
 10
13.46875
 20
-7.693667857765453
 30
0.0
 11
14.03125
 21
-7.693667857765452
 31
0.0
  0
LINE
  5
366
330
18
100
AcDbEntity
  8
ADP1DETAIL
100
AcDbLine
 10
14.25
 20
-7.974917857765452
 30
0.0
 11
13.25
 21
-7.974917857765452
 31
0.0
  0
LINE
  5
367
330
18
100
AcDbEntity
  8
ADP2DETAIL
  6
HIDDEN2
100
AcDbLine
 10
13.46875
 20
-7.974917857765452
 30
0.0
 11
13.46875
 21
-7.693667857765452
 31
0.0
  0
LINE
  5
368
330
18
100
AcDbEntity
  8
ADP2DETAIL
  6
HIDDEN2
100
AcDbLine
 10
14.03125
 20
-7.693667857765452
 30
0.0
 11
14.03125
 21
-7.974917857765452
 31
0.0
  0
LINE
  5
369
330
18
100
AcDbEntity
  8
ADP2DETAIL
  6
HIDDEN2
100
AcDbLine
 10
17.36571071598247
 20
-7.917945266644253
 30
0.0
 11
17.92821071598247
 21
-7.917945266644252
 31
0.0
  0
LINE
  5
36A
330
18
100
AcDbEntity
  8
ADP1DETAIL
100
AcDbLine
 10
18.14696071598247
 20
-8.199195266644252
 30
0.0
 11
17.14696071598247
 21
-8.199195266644252
 31
0.0
  0
LINE
  5
36B
330
18
100
AcDbEntity
  8
ADP2DETAIL
  6
HIDDEN2
100
AcDbLine
 10
17.36571071598247
 20
-8.199195266644252
 30
0.0
 11
17.36571071598247
 21
-7.917945266644252
 31
0.0
  0
LINE
  5
36C
330
18
100
AcDbEntity
  8
ADP2DETAIL
  6
HIDDEN2
100
AcDbLine
 10
17.92821071598247
 20
-7.917945266644252
 30
0.0
 11
17.92821071598247
 21
-8.199195266644252
 31
0.0
  0
TEXT
  5
379
330
18
100
AcDbEntity
  8
ADPDIM
100
AcDbText
 10
-3.555630164987746
 20
-10.614253515817
 30
0.0
 40
0.25
  1
J U L I U S  B L U M  &  C O . ,  I N C .      ( 8 0 0 )  5 2 6 - 6 2 9 3        W W W . J U L I U S B L U M . C O M        P A R T  N o .  9 7 0
 41
1.25
  7
ARIAL_WIDE
 72
     1
 11
9.31378491004636
 21
-10.364253515817
 31
0.0
100
AcDbText
 73
     3
  0
ENDSEC
  0
SECTION
  2
OBJECTS
  0
DICTIONARY
  5
C
330
0
100
AcDbDictionary
  3
ACAD_GROUP
350
D
  3
ACAD_LAYOUT
350
372
  3
ACAD_MLINESTYLE
350
E
  3
ACAD_PLOTSETTINGS
350
373
  3
ACAD_PLOTSTYLENAME
350
370
  3
ACDBHEADERROUNDTRIPXREC
350
5DD
  3
ACDBVARIABLEDICTIONARY
350
425
  0
DICTIONARY
  5
3F7
330
18
100
AcDbDictionary
280
     1
  3
ACAD_LAYOUTSELFREF
360
5FF
  0
DICTIONARY
  5
3F5
330
15
100
AcDbDictionary
280
     1
  3
ACAD_LAYOUTSELFREF
360
5FE
  0
DICTIONARY
  5
D
102
{ACAD_REACTORS
330
C
102
}
330
C
100
AcDbDictionary
  0
DICTIONARY
  5
372
102
{ACAD_REACTORS
330
C
102
}
330
C
100
AcDbDictionary
  0
DICTIONARY
  5
E
102
{ACAD_REACTORS
330
C
102
}
330
C
100
AcDbDictionary
  3
STANDARD
350
1B
  0
DICTIONARY
  5
373
102
{ACAD_REACTORS
330
C
102
}
330
C
100
AcDbDictionary
  0
ACDBDICTIONARYWDFLT
  5
370
102
{ACAD_REACTORS
330
C
102
}
330
C
100
AcDbDictionary
281
     1
  3
Normal
350
371
100
AcDbDictionaryWithDefault
340
371
  0
DICTIONARY
  5
5DD
102
{ACAD_REACTORS
330
C
102
}
330
C
100
AcDbDictionary
  3
CEPSNTYPE
350
5E7
  3
DIMSTYLEDATA
350
5EB
  3
FINGERPRINTGUID
350
5E8
  3
HYPERLINKBASE
350
5E0
  3
INSUNITS
350
5E6
  3
LAYOUTDICT
350
5E2
  3
LWETCUNION
350
5E5
  3
PLOTSETDICT
350
5E3
  3
PLOTSTYLNAMDICT
350
5E4
  3
PSVPSCALE
350
5EA
  3
PUCSBASE
350
5EE
  3
PUCSORGBACK
350
5F4
  3
PUCSORGBOTTOM
350
5F0
  3
PUCSORGFRONT
350
5F3
  3
PUCSORGLEFT
350
5F1
  3
PUCSORGRIGHT
350
5F2
  3
PUCSORGTOP
350
5EF
  3
PUCSORTHOREF
350
5EC
  3
PUCSORTHOVIEW
350
5ED
  3
STYLESHEET
350
5E1
  3
TSTACKALIGN
350
5DE
  3
TSTACKSIZE
350
5DF
  3
UCSBASE
350
5F7
  3
UCSORGBACK
350
5FD
  3
UCSORGBOTTOM
350
5F9
  3
UCSORGFRONT
350
5FC
  3
UCSORGLEFT
350
5FA
  3
UCSORGRIGHT
350
5FB
  3
UCSORGTOP
350
5F8
  3
UCSORTHOREF
350
5F5
  3
UCSORTHOVIEW
350
5F6
  3
VERSIONGUID
350
5E9
  0
DICTIONARY
  5
425
102
{ACAD_REACTORS
330
C
102
}
330
C
100
AcDbDictionary
  3
DIMASSOC
350
426
  0
XRECORD
  5
5FF
102
{ACAD_REACTORS
330
3F7
102
}
330
3F7
100
AcDbXrecord
340
18
  0
XRECORD
  5
5FE
102
{ACAD_REACTORS
330
3F5
102
}
330
3F5
100
AcDbXrecord
340
15
  0
MLINESTYLE
  5
1B
102
{ACAD_REACTORS
330
E
102
}
330
E
100
AcDbMlineStyle
  2
STANDARD
 70
     0
  3

 62
     0
 51
90.0
 52
90.0
 71
     2
 49
0.5
 62
   256
  6
BYLAYER
 49
-0.5
 62
   256
  6
BYLAYER
  0
ACDBPLACEHOLDER
  5
371
102
{ACAD_REACTORS
330
370
102
}
330
370
100
AcDbPlaceHolder
280
     0
  0
XRECORD
  5
5E7
102
{ACAD_REACTORS
330
5DD
102
}
330
5DD
100
AcDbXrecord
 90
        0
  0
XRECORD
  5
5EB
102
{ACAD_REACTORS
330
5DD
102
}
330
5DD
100
AcDbXrecord
1000
DSTYLE
1002
{
1070
   276
 70
     2
1070
   277
 70
     5
1070
   341
340
2FB
1070
   343
340
2FB
1070
   344
340
2FB
1002
}
  0
XRECORD
  5
5E8
102
{ACAD_REACTORS
330
5DD
102
}
330
5DD
100
AcDbXrecord
  1
{EBF4D614-E2D0-4B94-AF47-FFC8D7D04D71}
  0
XRECORD
  5
5E0
102
{ACAD_REACTORS
330
5DD
102
}
330
5DD
100
AcDbXrecord
  1

  0
XRECORD
  5
5E6
102
{ACAD_REACTORS
330
5DD
102
}
330
5DD
100
AcDbXrecord
 90
        0
  0
XRECORD
  5
5E2
102
{ACAD_REACTORS
330
5DD
102
}
330
5DD
100
AcDbXrecord
340
372
  0
XRECORD
  5
5E5
102
{ACAD_REACTORS
330
5DD
102
}
330
5DD
100
AcDbXrecord
 90
    14877
  0
XRECORD
  5
5E3
102
{ACAD_REACTORS
330
5DD
102
}
330
5DD
100
AcDbXrecord
340
373
  0
XRECORD
  5
5E4
102
{ACAD_REACTORS
330
5DD
102
}
330
5DD
100
AcDbXrecord
340
370
  0
XRECORD
  5
5EA
102
{ACAD_REACTORS
330
5DD
102
}
330
5DD
100
AcDbXrecord
 40
0.0
  0
XRECORD
  5
5EE
102
{ACAD_REACTORS
330
5DD
102
}
330
5DD
100
AcDbXrecord
340
0
  0
XRECORD
  5
5F4
102
{ACAD_REACTORS
330
5DD
102
}
330
5DD
100
AcDbXrecord
 10
0.0
 20
0.0
 30
0.0
  0
XRECORD
  5
5F0
102
{ACAD_REACTORS
330
5DD
102
}
330
5DD
100
AcDbXrecord
 10
0.0
 20
0.0
 30
0.0
  0
XRECORD
  5
5F3
102
{ACAD_REACTORS
330
5DD
102
}
330
5DD
100
AcDbXrecord
 10
0.0
 20
0.0
 30
0.0
  0
XRECORD
  5
5F1
102
{ACAD_REACTORS
330
5DD
102
}
330
5DD
100
AcDbXrecord
 10
0.0
 20
0.0
 30
0.0
  0
XRECORD
  5
5F2
102
{ACAD_REACTORS
330
5DD
102
}
330
5DD
100
AcDbXrecord
 10
0.0
 20
0.0
 30
0.0
  0
XRECORD
  5
5EF
102
{ACAD_REACTORS
330
5DD
102
}
330
5DD
100
AcDbXrecord
 10
0.0
 20
0.0
 30
0.0
  0
XRECORD
  5
5EC
102
{ACAD_REACTORS
330
5DD
102
}
330
5DD
100
AcDbXrecord
340
0
  0
XRECORD
  5
5ED
102
{ACAD_REACTORS
330
5DD
102
}
330
5DD
100
AcDbXrecord
 70
     0
  0
XRECORD
  5
5E1
102
{ACAD_REACTORS
330
5DD
102
}
330
5DD
100
AcDbXrecord
  1

  0
XRECORD
  5
5DE
102
{ACAD_REACTORS
330
5DD
102
}
330
5DD
100
AcDbXrecord
 90
        1
  0
XRECORD
  5
5DF
102
{ACAD_REACTORS
330
5DD
102
}
330
5DD
100
AcDbXrecord
 90
       70
  0
XRECORD
  5
5F7
102
{ACAD_REACTORS
330
5DD
102
}
330
5DD
100
AcDbXrecord
340
0
  0
XRECORD
  5
5FD
102
{ACAD_REACTORS
330
5DD
102
}
330
5DD
100
AcDbXrecord
 10
0.0
 20
0.0
 30
0.0
  0
XRECORD
  5
5F9
102
{ACAD_REACTORS
330
5DD
102
}
330
5DD
100
AcDbXrecord
 10
0.0
 20
0.0
 30
0.0
  0
XRECORD
  5
5FC
102
{ACAD_REACTORS
330
5DD
102
}
330
5DD
100
AcDbXrecord
 10
0.0
 20
0.0
 30
0.0
  0
XRECORD
  5
5FA
102
{ACAD_REACTORS
330
5DD
102
}
330
5DD
100
AcDbXrecord
 10
0.0
 20
0.0
 30
0.0
  0
XRECORD
  5
5FB
102
{ACAD_REACTORS
330
5DD
102
}
330
5DD
100
AcDbXrecord
 10
0.0
 20
0.0
 30
0.0
  0
XRECORD
  5
5F8
102
{ACAD_REACTORS
330
5DD
102
}
330
5DD
100
AcDbXrecord
 10
0.0
 20
0.0
 30
0.0
  0
XRECORD
  5
5F5
102
{ACAD_REACTORS
330
5DD
102
}
330
5DD
100
AcDbXrecord
340
0
  0
XRECORD
  5
5F6
102
{ACAD_REACTORS
330
5DD
102
}
330
5DD
100
AcDbXrecord
 70
     0
  0
XRECORD
  5
5E9
102
{ACAD_REACTORS
330
5DD
102
}
330
5DD
100
AcDbXrecord
  1
{36AF1DAC-FA7E-426E-BFB5-052021E155FC}
  0
DICTIONARYVAR
  5
426
102
{ACAD_REACTORS
330
425
102
}
330
425
100
DictionaryVariables
280
     0
  1
1
  0
ENDSEC
  0
EOF
