  0
SECTION
  2
HEADER
  9
$ACADVER
  1
AC1014
  9
$ACADMAINTVER
 70
     9
  9
$DWGCODEPAGE
  3
ANSI_1252
  9
$INSBASE
 10
-58.46055693057126
 20
7.854462553778586
 30
0.0
  9
$EXTMIN
 10
-69.6376527990719
 20
6.628197267913055
 30
0.0
  9
$EXTMAX
 10
-50.33353018652074
 20
13.55790721157162
 30
0.0
  9
$LIMMIN
 10
0.0
 20
0.0
  9
$LIMMAX
 10
36.0
 20
36.0
  9
$ORTHOMODE
 70
     1
  9
$REGENMODE
 70
     1
  9
$FILLMODE
 70
     1
  9
$QTEXTMODE
 70
     0
  9
$MIRRTEXT
 70
     1
  9
$DRAGMODE
 70
     0
  9
$LTSCALE
 40
1.0
  9
$OSMODE
 70
    37
  9
$ATTMODE
 70
     1
  9
$TEXTSIZE
 40
0.2
  9
$TRACEWID
 40
0.05
  9
$TEXTSTYLE
  7
STANDARD
  9
$CLAYER
  8
ADPDIM
  9
$CELTYPE
  6
BYLAYER
  9
$CECOLOR
 62
   256
  9
$CELTSCALE
 40
1.0
  9
$DELOBJ
 70
     1
  9
$DISPSILH
 70
     0
  9
$DIMSCALE
 40
1.0
  9
$DIMASZ
 40
0.125
  9
$DIMEXO
 40
0.0625
  9
$DIMDLI
 40
0.38
  9
$DIMRND
 40
0.0
  9
$DIMDLE
 40
0.0
  9
$DIMEXE
 40
0.18
  9
$DIMTP
 40
0.0
  9
$DIMTM
 40
0.0
  9
$DIMTXT
 40
0.125
  9
$DIMCEN
 40
0.1875
  9
$DIMTSZ
 40
0.125
  9
$DIMTOL
 70
     0
  9
$DIMLIM
 70
     0
  9
$DIMTIH
 70
     0
  9
$DIMTOH
 70
     0
  9
$DIMSE1
 70
     0
  9
$DIMSE2
 70
     0
  9
$DIMTAD
 70
     0
  9
$DIMZIN
 70
     3
  9
$DIMBLK
  1

  9
$DIMASO
 70
     1
  9
$DIMSHO
 70
     1
  9
$DIMPOST
  1

  9
$DIMAPOST
  1

  9
$DIMALT
 70
     0
  9
$DIMALTD
 70
     1
  9
$DIMALTF
 40
25.4
  9
$DIMLFAC
 40
1.0
  9
$DIMTOFL
 70
     0
  9
$DIMTVP
 40
0.0
  9
$DIMTIX
 70
     0
  9
$DIMSOXD
 70
     0
  9
$DIMSAH
 70
     0
  9
$DIMBLK1
  1

  9
$DIMBLK2
  1

  9
$DIMSTYLE
  2
STANDARD
  9
$DIMCLRD
 70
     0
  9
$DIMCLRE
 70
     0
  9
$DIMCLRT
 70
     0
  9
$DIMTFAC
 40
1.0
  9
$DIMGAP
 40
0.125
  9
$DIMJUST
 70
     0
  9
$DIMSD1
 70
     0
  9
$DIMSD2
 70
     0
  9
$DIMTOLJ
 70
     1
  9
$DIMTZIN
 70
     0
  9
$DIMALTZ
 70
     0
  9
$DIMALTTZ
 70
     0
  9
$DIMFIT
 70
     3
  9
$DIMUPT
 70
     0
  9
$DIMUNIT
 70
     2
  9
$DIMDEC
 70
     4
  9
$DIMTDEC
 70
     4
  9
$DIMALTU
 70
     2
  9
$DIMALTTD
 70
     2
  9
$DIMTXSTY
  7
STANDARD
  9
$DIMAUNIT
 70
     0
  9
$LUNITS
 70
     5
  9
$LUPREC
 70
     5
  9
$SKETCHINC
 40
0.1
  9
$FILLETRAD
 40
0.062
  9
$AUNITS
 70
     0
  9
$AUPREC
 70
     0
  9
$MENU
  1
acad
  9
$ELEVATION
 40
0.0
  9
$PELEVATION
 40
0.0
  9
$THICKNESS
 40
0.0
  9
$LIMCHECK
 70
     0
  9
$BLIPMODE
 70
     0
  9
$CHAMFERA
 40
0.0
  9
$CHAMFERB
 40
0.0
  9
$CHAMFERC
 40
0.0
  9
$CHAMFERD
 40
0.0
  9
$SKPOLY
 70
     0
  9
$TDCREATE
 40
2450409.659687881
  9
$TDUPDATE
 40
2452297.078663009
  9
$TDINDWG
 40
0.0425426852
  9
$TDUSRTIMER
 40
0.0425426852
  9
$USRTIMER
 70
     1
  9
$ANGBASE
 50
0.0
  9
$ANGDIR
 70
     0
  9
$PDMODE
 70
     0
  9
$PDSIZE
 40
0.0
  9
$PLINEWID
 40
0.0
  9
$COORDS
 70
     2
  9
$SPLFRAME
 70
     0
  9
$SPLINETYPE
 70
     6
  9
$SPLINESEGS
 70
     8
  9
$ATTDIA
 70
     0
  9
$ATTREQ
 70
     1
  9
$HANDLING
 70
 22529
  9
$HANDSEED
  5
2EB
  9
$SURFTAB1
 70
     6
  9
$SURFTAB2
 70
     6
  9
$SURFTYPE
 70
     6
  9
$SURFU
 70
     6
  9
$SURFV
 70
     6
  9
$UCSNAME
  2

  9
$UCSORG
 10
0.0
 20
0.0
 30
0.0
  9
$UCSXDIR
 10
1.0
 20
0.0
 30
0.0
  9
$UCSYDIR
 10
0.0
 20
1.0
 30
0.0
  9
$PUCSNAME
  2

  9
$PUCSORG
 10
0.0
 20
0.0
 30
0.0
  9
$PUCSXDIR
 10
1.0
 20
0.0
 30
0.0
  9
$PUCSYDIR
 10
0.0
 20
1.0
 30
0.0
  9
$USERI1
 70
     0
  9
$USERI2
 70
     0
  9
$USERI3
 70
     0
  9
$USERI4
 70
     0
  9
$USERI5
 70
     0
  9
$USERR1
 40
0.0
  9
$USERR2
 40
0.0
  9
$USERR3
 40
0.0
  9
$USERR4
 40
0.0
  9
$USERR5
 40
0.0
  9
$WORLDVIEW
 70
     1
  9
$SHADEDGE
 70
     3
  9
$SHADEDIF
 70
    70
  9
$TILEMODE
 70
     1
  9
$MAXACTVP
 70
    15
  9
$PINSBASE
 10
0.0009765857830644
 20
1.500170956078392
 30
0.0
  9
$PLIMCHECK
 70
     0
  9
$PEXTMIN
 10
1.000000000000000E+20
 20
1.000000000000000E+20
 30
1.000000000000000E+20
  9
$PEXTMAX
 10
-1.000000000000000E+20
 20
-1.000000000000000E+20
 30
-1.000000000000000E+20
  9
$PLIMMIN
 10
0.0
 20
0.0
  9
$PLIMMAX
 10
12.0
 20
9.0
  9
$UNITMODE
 70
     0
  9
$VISRETAIN
 70
     0
  9
$PLINEGEN
 70
     0
  9
$PSLTSCALE
 70
     1
  9
$TREEDEPTH
 70
  3020
  9
$PICKSTYLE
 70
     1
  9
$CMLSTYLE
  2
STANDARD
  9
$CMLJUST
 70
     0
  9
$CMLSCALE
 40
1.0
  9
$PROXYGRAPHICS
 70
     1
  9
$MEASUREMENT
 70
     0
  0
ENDSEC
  0
SECTION
  2
CLASSES
  0
CLASS
  1
ACDBDICTIONARYWDFLT
  2
AcDbDictionaryWithDefault
  3
AutoCAD 2000
 90
        0
280
     0
281
     0
  0
CLASS
  1
ACDBPLACEHOLDER
  2
AcDbPlaceHolder
  3
AutoCAD 2000
 90
        0
280
     0
281
     0
  0
CLASS
  1
LAYOUT
  2
AcDbLayout
  3
AutoCAD 2000
 90
        0
280
     0
281
     0
  0
CLASS
  1
DICTIONARYVAR
  2
AcDbDictionaryVar
  3
AutoCAD 2000
 90
        0
280
     0
281
     0
  0
CLASS
  1
LONG_TRANSACTION
  2
AcDbLongTransaction
  3
AutoCAD 2000
 90
        0
280
     0
281
     0
  0
CLASS
  1
LWPOLYLINE
  2
AcDbPolyline
  3
AutoCAD 2000
 90
        0
280
     0
281
     1
  0
CLASS
  1
HATCH
  2
AcDbHatch
  3
AutoCAD 2000
 90
        0
280
     0
281
     1
  0
CLASS
  1
XRECORD
  2
AcDbXrecord
  3
AutoCAD 2000
 90
        0
280
     0
281
     0
  0
CLASS
  1
LONG_TRANSACTION
  2
AcDbLongTransaction
  3
AutoCAD 2000
 90
        0
280
     0
281
     0
  0
CLASS
  1
LWPOLYLINE
  2
AcDbPolyline
  3
AutoCAD 2000
 90
        0
280
     0
281
     1
  0
CLASS
  1
HATCH
  2
AcDbHatch
  3
AutoCAD 2000
 90
        0
280
     0
281
     1
  0
CLASS
  1
XRECORD
  2
AcDbXrecord
  3
AutoCAD 2000
 90
        0
280
     0
281
     0
  0
CLASS
  1
LONG_TRANSACTION
  2
AcDbLongTransaction
  3
AutoCAD 2000
 90
        0
280
     0
281
     0
  0
CLASS
  1
LWPOLYLINE
  2
AcDbPolyline
  3
AutoCAD 2000
 90
        0
280
     0
281
     1
  0
CLASS
  1
HATCH
  2
AcDbHatch
  3
AutoCAD 2000
 90
        0
280
     0
281
     1
  0
CLASS
  1
XRECORD
  2
AcDbXrecord
  3
AutoCAD 2000
 90
        0
280
     0
281
     0
  0
CLASS
  1
LONG_TRANSACTION
  2
AcDbLongTransaction
  3
AutoCAD 2000
 90
        0
280
     0
281
     0
  0
CLASS
  1
LWPOLYLINE
  2
AcDbPolyline
  3
AutoCAD 2000
 90
        0
280
     0
281
     1
  0
CLASS
  1
HATCH
  2
AcDbHatch
  3
AutoCAD 2000
 90
        0
280
     0
281
     1
  0
CLASS
  1
XRECORD
  2
AcDbXrecord
  3
AutoCAD 2000
 90
        0
280
     0
281
     0
  0
CLASS
  1
LONG_TRANSACTION
  2
AcDbLongTransaction
  3
AutoCAD 2000
 90
        0
280
     0
281
     0
  0
CLASS
  1
LWPOLYLINE
  2
AcDbPolyline
  3
AutoCAD 2000
 90
        0
280
     0
281
     1
  0
CLASS
  1
HATCH
  2
AcDbHatch
  3
AutoCAD 2000
 90
        0
280
     0
281
     1
  0
CLASS
  1
XRECORD
  2
AcDbXrecord
  3
AutoCAD 2000
 90
        0
280
     0
281
     0
  0
ENDSEC
  0
SECTION
  2
TABLES
  0
TABLE
  2
VPORT
  5
8
330
0
100
AcDbSymbolTable
 70
     2
  0
VPORT
  5
2C8
330
8
100
AcDbSymbolTableRecord
100
AcDbViewportTableRecord
  2
*ACTIVE
 70
     0
 10
0.0
 20
0.0
 11
1.0
 21
1.0
 12
-59.96783074644153
 22
10.09259040664485
 13
0.0
 23
0.0
 14
0.5740882589684922
 24
0.5740882589684922
 15
0.5
 25
0.5
 16
0.0
 26
0.0
 36
1.0
 17
0.0
 27
0.0
 37
0.0
 40
12.37538730792184
 41
1.570528967254408
 42
50.0
 43
0.0
 44
0.0
 50
0.0
 51
0.0
 71
     0
 72
   100
 73
     1
 74
     0
 75
     0
 76
     0
 77
     0
 78
     0
  0
ENDTAB
  0
TABLE
  2
LTYPE
  5
5
330
0
100
AcDbSymbolTable
 70
     1
  0
LTYPE
  5
12
330
5
100
AcDbSymbolTableRecord
100
AcDbLinetypeTableRecord
  2
BYBLOCK
 70
     0
  3

 72
    65
 73
     0
 40
0.0
  0
LTYPE
  5
13
330
5
100
AcDbSymbolTableRecord
100
AcDbLinetypeTableRecord
  2
BYLAYER
 70
     0
  3

 72
    65
 73
     0
 40
0.0
  0
LTYPE
  5
14
330
5
100
AcDbSymbolTableRecord
100
AcDbLinetypeTableRecord
  2
CONTINUOUS
 70
     0
  3
Solid line
 72
    65
 73
     0
 40
0.0
  0
ENDTAB
  0
TABLE
  2
LAYER
  5
2
330
0
100
AcDbSymbolTable
 70
     3
  0
LAYER
  5
F
330
2
100
AcDbSymbolTableRecord
100
AcDbLayerTableRecord
  2
0
 70
     0
 62
     7
  6
CONTINUOUS
  0
LAYER
  5
E8
330
2
100
AcDbSymbolTableRecord
100
AcDbLayerTableRecord
  2
DEFPOINTS
 70
     0
 62
     7
  6
CONTINUOUS
  0
LAYER
  5
EB
330
2
100
AcDbSymbolTableRecord
100
AcDbLayerTableRecord
  2
ADPDIM
 70
     0
 62
     3
  6
CONTINUOUS
  0
ENDTAB
  0
TABLE
  2
STYLE
  5
3
330
0
100
AcDbSymbolTable
 70
     2
  0
STYLE
  5
10
330
3
100
AcDbSymbolTableRecord
100
AcDbTextStyleTableRecord
  2
STANDARD
 70
     0
 40
0.0
 41
1.0
 50
0.0
 71
     0
 42
0.2
  3
txt
  4

  0
STYLE
  5
184
330
3
100
AcDbSymbolTableRecord
100
AcDbTextStyleTableRecord
  2
ARIAL_WIDE
 70
     0
 40
0.0
 41
1.25
 50
0.0
 71
     0
 42
0.2
  3
ARIAL.TTF
  4

1001
ACAD
1000
Arial
1071
       34
  0
ENDTAB
  0
TABLE
  2
VIEW
  5
6
330
0
100
AcDbSymbolTable
 70
     0
  0
ENDTAB
  0
TABLE
  2
UCS
  5
7
330
0
100
AcDbSymbolTable
 70
     0
  0
ENDTAB
  0
TABLE
  2
APPID
  5
9
330
0
100
AcDbSymbolTable
 70
     1
  0
APPID
  5
11
330
9
100
AcDbSymbolTableRecord
100
AcDbRegAppTableRecord
  2
ACAD
 70
     0
  0
ENDTAB
  0
TABLE
  2
DIMSTYLE
  5
A
330
0
100
AcDbSymbolTable
 70
     1
  0
DIMSTYLE
105
178
330
A
100
AcDbSymbolTableRecord
100
AcDbDimStyleTableRecord
  2
STANDARD
 70
     0
  3

  4

  5

  6

  7

 40
1.0
 41
0.18
 42
0.0625
 43
0.38
 44
0.18
 45
0.0
 46
0.0
 47
0.0
 48
0.0
140
0.18
141
0.09
142
0.0
143
25.4
144
1.0
145
0.0
146
1.0
147
0.09
 71
     0
 72
     0
 73
     1
 74
     1
 75
     0
 76
     0
 77
     0
 78
     0
170
     0
171
     2
172
     0
173
     0
174
     0
175
     0
176
     0
177
     0
178
     0
270
     2
271
     4
272
     4
273
     2
274
     2
340
10
275
     0
280
     0
281
     0
282
     0
283
     1
284
     0
285
     0
286
     0
287
     3
288
     0
  0
ENDTAB
  0
TABLE
  2
BLOCK_RECORD
  5
1
330
0
100
AcDbSymbolTable
 70
     2
  0
BLOCK_RECORD
  5
18
102
{ACAD_XDICTIONARY
360
1D9
102
}
330
1
100
AcDbSymbolTableRecord
100
AcDbBlockTableRecord
  2
*MODEL_SPACE
  0
BLOCK_RECORD
  5
15
102
{ACAD_XDICTIONARY
360
1D7
102
}
330
1
100
AcDbSymbolTableRecord
100
AcDbBlockTableRecord
  2
*PAPER_SPACE
  0
BLOCK_RECORD
  5
E0
330
1
100
AcDbSymbolTableRecord
100
AcDbBlockTableRecord
  2
*D0
  0
BLOCK_RECORD
  5
E3
330
1
100
AcDbSymbolTableRecord
100
AcDbBlockTableRecord
  2
*D1
  0
ENDTAB
  0
ENDSEC
  0
SECTION
  2
BLOCKS
  0
BLOCK
  5
EE
330
18
100
AcDbEntity
  8
0
100
AcDbBlockBegin
  2
*MODEL_SPACE
 70
     0
 10
0.0
 20
0.0
 30
0.0
  3
*MODEL_SPACE
  1

  0
ENDBLK
  5
EF
330
18
100
AcDbEntity
  8
0
100
AcDbBlockEnd
  0
BLOCK
  5
EC
330
15
100
AcDbEntity
 67
     1
  8
0
100
AcDbBlockBegin
  2
*PAPER_SPACE
 70
     0
 10
0.0
 20
0.0
 30
0.0
  3
*PAPER_SPACE
  1

  0
ENDBLK
  5
ED
330
15
100
AcDbEntity
 67
     1
  8
0
100
AcDbBlockEnd
  0
BLOCK
  5
F1
330
E0
100
AcDbEntity
  8
0
100
AcDbBlockBegin
  2
*D0
 70
     1
 10
0.0
 20
0.0
 30
0.0
  3
*D0
  1

  0
LINE
  5
F2
330
E0
100
AcDbEntity
  8
0
  6
BYBLOCK
 62
     0
100
AcDbLine
 10
-61.64256154304776
 20
7.836877850833094
 30
0.0
 11
-62.90282682591193
 21
7.836877850833094
 31
0.0
  0
LINE
  5
F3
330
E0
100
AcDbEntity
  8
0
  6
BYBLOCK
 62
     0
100
AcDbLine
 10
-61.64256154304776
 20
12.83687785083309
 30
0.0
 11
-62.90282682591193
 21
12.83687785083309
 31
0.0
  0
LINE
  5
F4
330
E0
100
AcDbEntity
  8
0
  6
BYBLOCK
 62
     0
100
AcDbLine
 10
-62.72282682591193
 20
7.836877850833094
 30
0.0
 11
-62.72282682591193
 21
10.17021118416642
 31
0.0
  0
LINE
  5
F5
330
E0
100
AcDbEntity
  8
0
  6
BYBLOCK
 62
     0
100
AcDbLine
 10
-62.72282682591193
 20
12.83687785083309
 30
0.0
 11
-62.72282682591193
 21
10.50354451749976
 31
0.0
  0
LINE
  5
F6
330
E0
100
AcDbEntity
  8
0
  6
BYBLOCK
 62
     0
100
AcDbLine
 10
-62.59782682591193
 20
7.711877850833094
 30
0.0
 11
-62.84782682591193
 21
7.961877850833094
 31
0.0
  0
LINE
  5
F7
330
E0
100
AcDbEntity
  8
0
  6
BYBLOCK
 62
     0
100
AcDbLine
 10
-62.59782682591193
 20
12.71187785083309
 30
0.0
 11
-62.84782682591193
 21
12.96187785083309
 31
0.0
  0
TEXT
  5
F8
330
E0
100
AcDbEntity
  8
0
  6
BYBLOCK
 62
     0
100
AcDbText
 10
-62.66032682591193
 20
10.29521118416642
 30
0.0
 40
0.125
  1
5
 50
90.0
 72
     1
 11
-62.72282682591193
 21
10.33687785083309
 31
0.0
100
AcDbText
 73
     2
  0
POINT
  5
F9
330
E0
100
AcDbEntity
  8
DEFPOINTS
  6
BYBLOCK
 62
     0
100
AcDbPoint
 10
-61.58006154304776
 20
7.836877850833094
 30
0.0
  0
POINT
  5
FA
330
E0
100
AcDbEntity
  8
DEFPOINTS
  6
BYBLOCK
 62
     0
100
AcDbPoint
 10
-61.58006154304776
 20
12.83687785083309
 30
0.0
  0
POINT
  5
FB
330
E0
100
AcDbEntity
  8
DEFPOINTS
  6
BYBLOCK
 62
     0
100
AcDbPoint
 10
-62.72282682591193
 20
12.83687785083309
 30
0.0
  0
ENDBLK
  5
FC
330
E0
100
AcDbEntity
  8
0
100
AcDbBlockEnd
  0
BLOCK
  5
FD
330
E3
100
AcDbEntity
  8
0
100
AcDbBlockBegin
  2
*D1
 70
     1
 10
0.0
 20
0.0
 30
0.0
  3
*D1
  1

  0
LINE
  5
FE
330
E3
100
AcDbEntity
  8
0
  6
BYBLOCK
 62
     0
100
AcDbLine
 10
-62.536758638287
 20
12.12655477272827
 30
0.0
 11
-62.536758638287
 21
13.55790721157162
 31
0.0
  0
LINE
  5
FF
330
E3
100
AcDbEntity
  8
0
  6
BYBLOCK
 62
     0
100
AcDbLine
 10
-57.536758638287
 20
12.14559605944483
 30
0.0
 11
-57.536758638287
 21
13.55790721157162
 31
0.0
  0
LINE
  5
100
330
E3
100
AcDbEntity
  8
0
  6
BYBLOCK
 62
     0
100
AcDbLine
 10
-62.536758638287
 20
13.37790721157162
 30
0.0
 11
-60.20342530495367
 21
13.37790721157162
 31
0.0
  0
LINE
  5
101
330
E3
100
AcDbEntity
  8
0
  6
BYBLOCK
 62
     0
100
AcDbLine
 10
-57.536758638287
 20
13.37790721157162
 30
0.0
 11
-59.87009197162034
 21
13.37790721157162
 31
0.0
  0
LINE
  5
102
330
E3
100
AcDbEntity
  8
0
  6
BYBLOCK
 62
     0
100
AcDbLine
 10
-62.661758638287
 20
13.25290721157162
 30
0.0
 11
-62.41175863828701
 21
13.50290721157162
 31
0.0
  0
LINE
  5
103
330
E3
100
AcDbEntity
  8
0
  6
BYBLOCK
 62
     0
100
AcDbLine
 10
-57.661758638287
 20
13.25290721157162
 30
0.0
 11
-57.41175863828701
 21
13.50290721157162
 31
0.0
  0
TEXT
  5
104
330
E3
100
AcDbEntity
  8
0
  6
BYBLOCK
 62
     0
100
AcDbText
 10
-60.07842530495366
 20
13.31540721157162
 30
0.0
 40
0.125
  1
5
 72
     1
 11
-60.036758638287
 21
13.37790721157162
 31
0.0
100
AcDbText
 73
     2
  0
POINT
  5
105
330
E3
100
AcDbEntity
  8
DEFPOINTS
  6
BYBLOCK
 62
     0
100
AcDbPoint
 10
-62.536758638287
 20
12.06405477272827
 30
0.0
  0
POINT
  5
106
330
E3
100
AcDbEntity
  8
DEFPOINTS
  6
BYBLOCK
 62
     0
100
AcDbPoint
 10
-57.536758638287
 20
12.08309605944483
 30
0.0
  0
POINT
  5
107
330
E3
100
AcDbEntity
  8
DEFPOINTS
  6
BYBLOCK
 62
     0
100
AcDbPoint
 10
-57.536758638287
 20
13.37790721157162
 30
0.0
  0
ENDBLK
  5
108
330
E3
100
AcDbEntity
  8
0
100
AcDbBlockEnd
  0
ENDSEC
  0
SECTION
  2
ENTITIES
  0
DIMENSION
  5
109
330
18
100
AcDbEntity
  8
ADPDIM
100
AcDbDimension
  2
*D1
 10
-57.536758638287
 20
13.37790721157162
 30
0.0
 11
-60.036758638287
 21
13.37790721157162
 31
0.0
100
AcDbAlignedDimension
 13
-62.536758638287
 23
12.06405477272827
 33
0.0
 14
-57.536758638287
 24
12.08309605944483
 34
0.0
100
AcDbRotatedDimension
  0
LINE
  5
10A
330
18
100
AcDbEntity
  8
0
 62
     7
100
AcDbLine
 10
-60.74283999954896
 20
9.647895349900906
 30
0.0
 11
-59.33067727702504
 21
9.647895349900906
 31
0.0
  0
LINE
  5
10B
330
18
100
AcDbEntity
  8
0
 62
     7
100
AcDbLine
 10
-60.82407076877974
 20
9.891587657593213
 30
0.0
 11
-59.24944650779427
 21
9.891587657593213
 31
0.0
  0
LINE
  5
10C
330
18
100
AcDbEntity
  8
0
 62
     7
100
AcDbLine
 10
-59.33067727702504
 20
10.1758953499009
 30
0.0
 11
-60.74283999954896
 21
10.1758953499009
 31
0.0
  0
LWPOLYLINE
  5
10D
330
18
100
AcDbEntity
  8
0
100
AcDbPolyline
 90
       14
 70
     0
 43
0.0
 10
-60.65751901740887
 20
10.1758953499009
 42
0.0543528798336616
 10
-60.83503608441336
 20
11.523870208086
 42
0.1669907726026988
 10
-61.31149406909178
 20
12.3436314764652
 42
0.3321641056630239
 10
-61.85043832596218
 20
12.32020973276479
 42
0.3252623104720673
 10
-62.06132956698038
 20
11.61755726250928
 42
0.3947717810935439
 10
-61.68641181803607
 20
11.43018323328438
 42
-0.1484358497564129
 10
-61.27244010554966
 20
11.44579775562519
 42
-0.4502859300518077
 10
-61.15527833071563
 20
11.05543517483456
 42
-0.4847914508075715
 10
-62.23316684445645
 20
11.09447144087579
 42
-0.2086625250312427
 10
-62.45967974036687
 20
12.08599221613907
 42
-0.2904502498143872
 10
-61.58487158230196
 20
12.81206650971664
 42
-0.2544447345863775
 10
-60.67100957648725
 20
12.31240251140521
 42
-0.154660803513757
 10
-60.21798401625102
 20
10.34497540359782
 42
-0.0079896301483
 10
-60.20534023181063
 20
10.1758953499009
 42
-0.3027214078831387
  0
DIMENSION
  5
11D
330
18
100
AcDbEntity
  8
ADPDIM
100
AcDbDimension
  2
*D0
 10
-62.72282682591193
 20
12.83687785083309
 30
0.0
 11
-62.72282682591193
 21
10.33687785083309
 31
0.0
100
AcDbAlignedDimension
 13
-61.58006154304776
 23
7.836877850833094
 33
0.0
 14
-61.58006154304776
 24
12.83687785083309
 34
0.0
 50
90.0
100
AcDbRotatedDimension
  0
LWPOLYLINE
  5
11E
330
18
100
AcDbEntity
  8
0
100
AcDbPolyline
 90
        8
 70
     0
 43
0.0
 10
-60.39704981863686
 20
10.1758953499009
 42
0.0106335511910502
 10
-60.40544283282702
 20
10.32936096087864
 42
0.1444471383892136
 10
-60.88190081750544
 20
12.32801703374603
 42
0.5869132921342282
 10
-62.18630211136438
 20
12.28117346672356
 42
0.3126313348642158
 10
-62.15505903316453
 20
11.31307443516069
 42
0.3391410071308201
 10
-61.72546578157819
 20
11.27403824874111
 42
-0.1435956327482284
 10
-61.32711560819171
 20
11.29745999244152
 42
-0.3953288798143347
 10
-61.17089998560785
 20
11.05543517483456
 42
1.198116051111346
  0
LWPOLYLINE
  5
128
330
18
100
AcDbEntity
  8
0
100
AcDbPolyline
 90
       10
 70
     0
 43
0.0
 10
-60.20065047212895
 20
9.647895349900906
 42
-0.0471475041681074
 10
-60.33514579108507
 20
8.658609379438612
 42
-0.3027214078831387
 10
-61.25681856644973
 20
7.846655332419
 42
-0.1127509272641424
 10
-61.60049323719419
 20
7.854462553778586
 42
-0.1538150377361931
 10
-61.93635702259637
 20
8.213596089887577
 42
-0.4755837191652223
 10
-61.87387075040438
 20
8.455620827872884
 42
-0.3010803126067605
 10
-61.52238531010997
 20
8.29947584332962
 42
0.3203885486333872
 10
-61.20995383335766
 20
8.13552355780512
 42
0.1925596184391367
 10
-60.75692827312144
 20
8.479042571573291
 42
0.0847937459766009
 10
-60.41807865583954
 20
9.647895349900906
 42
0.1444471383892136
  0
LWPOLYLINE
  5
134
330
18
100
AcDbEntity
  8
0
100
AcDbPolyline
 90
        7
 70
     0
 43
0.0
 10
-61.59268235185193
 20
7.854462553778586
 42
-0.157156273083119
 10
-62.0769511060803
 20
8.229210612228399
 42
-0.4853634601734686
 10
-61.92854625304641
 20
8.619573113397382
 42
-0.1823921667778885
 10
-61.55362850410211
 20
8.502464315273698
 42
0.2377428307401864
 10
-61.24900779689977
 20
8.315090365670442
 42
0.311671799465858
 10
-60.80379300621351
 20
8.682031123139019
 42
0.0389361283538727
 10
-60.66796022612817
 20
9.647895349900906
 42
0.1669907726026988
  0
LINE
  5
13D
330
18
100
AcDbEntity
  8
0
 62
     7
100
AcDbLine
 10
-60.45853230724127
 20
9.647895349900906
 30
0.0
 11
-60.53976307647204
 21
9.891587657593213
 31
0.0
  0
LINE
  5
13E
330
18
100
AcDbEntity
  8
0
 62
     7
100
AcDbLine
 10
-60.53976307647204
 20
9.891587657593213
 30
0.0
 11
-60.45853230724127
 21
10.1758953499009
 31
0.0
  0
LINE
  5
13F
330
18
100
AcDbEntity
  8
0
 62
     7
100
AcDbLine
 10
-60.82407076877974
 20
9.891587657593213
 30
0.0
 11
-60.74283999954896
 21
9.647895349900906
 31
0.0
  0
LINE
  5
140
330
18
100
AcDbEntity
  8
0
 62
     7
100
AcDbLine
 10
-60.74283999954896
 20
10.1758953499009
 30
0.0
 11
-60.82407076877974
 21
9.891587657593213
 31
0.0
  0
LINE
  5
141
330
18
100
AcDbEntity
  8
0
 62
     7
100
AcDbLine
 10
-60.1336092303182
 20
10.1758953499009
 30
0.0
 11
-60.70222461493358
 21
10.1758953499009
 31
0.0
  0
LWPOLYLINE
  5
142
330
18
100
AcDbEntity
  8
0
100
AcDbPolyline
 90
       14
 70
     0
 43
0.0
 10
-59.40353115035658
 20
10.1758953499009
 42
-0.0543528798336616
 10
-59.22601408335208
 20
11.523870208086
 42
-0.1669907726026988
 10
-58.74955609867367
 20
12.3436314764652
 42
-0.3321641056630239
 10
-58.21061184180326
 20
12.32020973276479
 42
-0.3252623104720673
 10
-57.99972060078506
 20
11.61755726250928
 42
-0.3947717810935439
 10
-58.37463834972936
 20
11.43018323328438
 42
0.1484358497564129
 10
-58.78861006221578
 20
11.44579775562519
 42
0.4502859300518077
 10
-58.90577183704982
 20
11.05543517483456
 42
0.4847914508075715
 10
-57.82788332330899
 20
11.09447144087579
 42
0.2086625250312427
 10
-57.60137042739859
 20
12.08599221613907
 42
0.2904502498143872
 10
-58.47617858546349
 20
12.81206650971664
 42
0.2544447345863775
 10
-59.39004059127819
 20
12.31240251140521
 42
0.154660803513757
 10
-59.84306615151442
 20
10.34497540359782
 42
0.0079896301483
 10
-59.8557099359548
 20
10.1758953499009
 42
0.3027214078831387
  0
LWPOLYLINE
  5
152
330
18
100
AcDbEntity
  8
0
100
AcDbPolyline
 90
        8
 70
     0
 43
0.0
 10
-59.66400034912858
 20
10.1758953499009
 42
-0.0106335511910502
 10
-59.65560733493842
 20
10.32936096087864
 42
-0.1444471383892136
 10
-59.17914935026001
 20
12.32801703374603
 42
-0.5869132921342282
 10
-57.87474805640107
 20
12.28117346672356
 42
-0.3126313348642158
 10
-57.90599113460093
 20
11.31307443516069
 42
-0.3391410071308201
 10
-58.33558438618726
 20
11.27403824874111
 42
0.1435956327482284
 10
-58.73393455957375
 20
11.29745999244152
 42
0.3953288798143347
 10
-58.8901501821576
 20
11.05543517483456
 42
-1.198116051111346
  0
LWPOLYLINE
  5
15C
330
18
100
AcDbEntity
  8
0
100
AcDbPolyline
 90
        7
 70
     0
 43
0.0
 10
-58.46836781591353
 20
7.854462553778586
 42
0.157156273083119
 10
-57.98409906168514
 20
8.229210612228399
 42
0.4853634601734686
 10
-58.13250391471903
 20
8.619573113397382
 42
0.1823921667778885
 10
-58.50742166366334
 20
8.502464315273698
 42
-0.2377428307401864
 10
-58.81204237086567
 20
8.315090365670442
 42
-0.311671799465858
 10
-59.25725716155193
 20
8.682031123139019
 42
-0.0389361283538727
 10
-59.39308994163727
 20
9.647895349900906
 42
-0.1669907726026988
  0
LWPOLYLINE
  5
165
330
18
100
AcDbEntity
  8
0
100
AcDbPolyline
 90
       10
 70
     0
 43
0.0
 10
-59.86039969563649
 20
9.647895349900906
 42
0.0471475041681074
 10
-59.72590437668038
 20
8.658609379438612
 42
0.3027214078831387
 10
-58.8042316013157
 20
7.846655332419
 42
0.1127509272641424
 10
-58.46055693057126
 20
7.854462553778586
 42
0.1538150377361931
 10
-58.12469314516907
 20
8.213596089887577
 42
0.4755837191652223
 10
-58.18717941736107
 20
8.455620827872884
 42
0.3010803126067605
 10
-58.53866485765548
 20
8.29947584332962
 42
-0.3203885486333872
 10
-58.85109633440778
 20
8.13552355780512
 42
-0.1925596184391367
 10
-59.30412189464401
 20
8.479042571573291
 42
-0.0847937459766009
 10
-59.64297151192591
 20
9.647895349900906
 42
-0.1444471383892136
  0
LINE
  5
171
330
18
100
AcDbEntity
  8
0
 62
     7
100
AcDbLine
 10
-59.37129266164042
 20
10.1758953499009
 30
0.0
 11
-59.93990804625582
 21
10.1758953499009
 31
0.0
  0
LINE
  5
172
330
18
100
AcDbEntity
  8
0
 62
     7
100
AcDbLine
 10
-59.92744093744725
 20
10.1758953499009
 30
0.0
 11
-59.35882555283185
 21
10.1758953499009
 31
0.0
  0
LINE
  5
173
330
18
100
AcDbEntity
  8
0
 62
     7
100
AcDbLine
 10
-59.61498496933273
 20
9.647895349900906
 30
0.0
 11
-59.53375420010196
 21
9.891587657593213
 31
0.0
  0
LINE
  5
174
330
18
100
AcDbEntity
  8
0
 62
     7
100
AcDbLine
 10
-59.33067727702504
 20
9.647895349900906
 30
0.0
 11
-59.33067727702504
 21
9.647895349900906
 31
0.0
  0
LINE
  5
175
330
18
100
AcDbEntity
  8
0
 62
     7
100
AcDbLine
 10
-59.53375420010196
 20
9.891587657593213
 30
0.0
 11
-59.61498496933273
 21
10.1758953499009
 31
0.0
  0
LINE
  5
176
330
18
100
AcDbEntity
  8
0
 62
     7
100
AcDbLine
 10
-59.24944650779427
 20
9.891587657593213
 30
0.0
 11
-59.33067727702504
 21
10.1758953499009
 31
0.0
  0
LINE
  5
177
330
18
100
AcDbEntity
  8
0
 62
     7
100
AcDbLine
 10
-59.33067727702504
 20
9.647895349900906
 30
0.0
 11
-59.24944650779427
 21
9.891587657593213
 31
0.0
  0
TEXT
  5
185
330
18
100
AcDbEntity
  8
ADPDIM
100
AcDbText
 10
-69.6376527990719
 20
6.683705453451937
 30
0.0
 40
0.1875
  1
J U L I U S  B L U M  &  C O . ,  I N C .      ( 8 0 0 )  5 2 6 - 6 2 9 3        W W W . J U L I U S B L U M . C O M        P A R T  N o .  9 6 9
 41
1.25
  7
ARIAL_WIDE
 72
     1
 11
-59.98559149279632
 21
6.871205453451937
 31
0.0
100
AcDbText
 73
     3
  0
ENDSEC
  0
SECTION
  2
OBJECTS
  0
DICTIONARY
  5
C
330
0
100
AcDbDictionary
  3
ACAD_GROUP
350
D
  3
ACAD_LAYOUT
350
17E
  3
ACAD_MLINESTYLE
350
E
  3
ACAD_PLOTSETTINGS
350
17F
  3
ACAD_PLOTSTYLENAME
350
17C
  3
ACDBHEADERROUNDTRIPXREC
350
2C9
  3
ACDBVARIABLEDICTIONARY
350
1DF
  0
DICTIONARY
  5
1D9
330
18
100
AcDbDictionary
280
     1
  3
ACAD_LAYOUTSELFREF
360
2EA
  0
DICTIONARY
  5
1D7
330
15
100
AcDbDictionary
280
     1
  3
ACAD_LAYOUTSELFREF
360
2E9
  0
DICTIONARY
  5
D
102
{ACAD_REACTORS
330
C
102
}
330
C
100
AcDbDictionary
  0
DICTIONARY
  5
17E
102
{ACAD_REACTORS
330
C
102
}
330
C
100
AcDbDictionary
  0
DICTIONARY
  5
E
102
{ACAD_REACTORS
330
C
102
}
330
C
100
AcDbDictionary
  3
STANDARD
350
1B
  0
DICTIONARY
  5
17F
102
{ACAD_REACTORS
330
C
102
}
330
C
100
AcDbDictionary
  0
ACDBDICTIONARYWDFLT
  5
17C
102
{ACAD_REACTORS
330
C
102
}
330
C
100
AcDbDictionary
281
     1
  3
Normal
350
17D
100
AcDbDictionaryWithDefault
340
17D
  0
DICTIONARY
  5
2C9
102
{ACAD_REACTORS
330
C
102
}
330
C
100
AcDbDictionary
  3
CEPSNTYPE
350
2D3
  3
FINGERPRINTGUID
350
2D4
  3
HYPERLINKBASE
350
2CC
  3
INSUNITS
350
2D2
  3
LAYOUTDICT
350
2CE
  3
LWETCUNION
350
2D1
  3
PLOTSETDICT
350
2CF
  3
PLOTSTYLNAMDICT
350
2D0
  3
PSVPSCALE
350
2D6
  3
PUCSBASE
350
2D9
  3
PUCSORGBACK
350
2DF
  3
PUCSORGBOTTOM
350
2DB
  3
PUCSORGFRONT
350
2DE
  3
PUCSORGLEFT
350
2DC
  3
PUCSORGRIGHT
350
2DD
  3
PUCSORGTOP
350
2DA
  3
PUCSORTHOREF
350
2D7
  3
PUCSORTHOVIEW
350
2D8
  3
STYLESHEET
350
2CD
  3
TSTACKALIGN
350
2CA
  3
TSTACKSIZE
350
2CB
  3
UCSBASE
350
2E2
  3
UCSORGBACK
350
2E8
  3
UCSORGBOTTOM
350
2E4
  3
UCSORGFRONT
350
2E7
  3
UCSORGLEFT
350
2E5
  3
UCSORGRIGHT
350
2E6
  3
UCSORGTOP
350
2E3
  3
UCSORTHOREF
350
2E0
  3
UCSORTHOVIEW
350
2E1
  3
VERSIONGUID
350
2D5
  0
DICTIONARY
  5
1DF
102
{ACAD_REACTORS
330
C
102
}
330
C
100
AcDbDictionary
  3
DIMASSOC
350
1E0
  0
XRECORD
  5
2EA
102
{ACAD_REACTORS
330
1D9
102
}
330
1D9
100
AcDbXrecord
340
18
  0
XRECORD
  5
2E9
102
{ACAD_REACTORS
330
1D7
102
}
330
1D7
100
AcDbXrecord
340
15
  0
MLINESTYLE
  5
1B
102
{ACAD_REACTORS
330
E
102
}
330
E
100
AcDbMlineStyle
  2
STANDARD
 70
     0
  3

 62
     0
 51
90.0
 52
90.0
 71
     2
 49
0.5
 62
   256
  6
BYLAYER
 49
-0.5
 62
   256
  6
BYLAYER
  0
ACDBPLACEHOLDER
  5
17D
102
{ACAD_REACTORS
330
17C
102
}
330
17C
100
AcDbPlaceHolder
280
     0
  0
XRECORD
  5
2D3
102
{ACAD_REACTORS
330
2C9
102
}
330
2C9
100
AcDbXrecord
 90
        0
  0
XRECORD
  5
2D4
102
{ACAD_REACTORS
330
2C9
102
}
330
2C9
100
AcDbXrecord
  1
{2DDAAC13-3163-4AA6-80EC-494970821959}
  0
XRECORD
  5
2CC
102
{ACAD_REACTORS
330
2C9
102
}
330
2C9
100
AcDbXrecord
  1

  0
XRECORD
  5
2D2
102
{ACAD_REACTORS
330
2C9
102
}
330
2C9
100
AcDbXrecord
 90
        0
  0
XRECORD
  5
2CE
102
{ACAD_REACTORS
330
2C9
102
}
330
2C9
100
AcDbXrecord
340
17E
  0
XRECORD
  5
2D1
102
{ACAD_REACTORS
330
2C9
102
}
330
2C9
100
AcDbXrecord
 90
    14877
  0
XRECORD
  5
2CF
102
{ACAD_REACTORS
330
2C9
102
}
330
2C9
100
AcDbXrecord
340
17F
  0
XRECORD
  5
2D0
102
{ACAD_REACTORS
330
2C9
102
}
330
2C9
100
AcDbXrecord
340
17C
  0
XRECORD
  5
2D6
102
{ACAD_REACTORS
330
2C9
102
}
330
2C9
100
AcDbXrecord
 40
0.0
  0
XRECORD
  5
2D9
102
{ACAD_REACTORS
330
2C9
102
}
330
2C9
100
AcDbXrecord
340
0
  0
XRECORD
  5
2DF
102
{ACAD_REACTORS
330
2C9
102
}
330
2C9
100
AcDbXrecord
 10
0.0
 20
0.0
 30
0.0
  0
XRECORD
  5
2DB
102
{ACAD_REACTORS
330
2C9
102
}
330
2C9
100
AcDbXrecord
 10
0.0
 20
0.0
 30
0.0
  0
XRECORD
  5
2DE
102
{ACAD_REACTORS
330
2C9
102
}
330
2C9
100
AcDbXrecord
 10
0.0
 20
0.0
 30
0.0
  0
XRECORD
  5
2DC
102
{ACAD_REACTORS
330
2C9
102
}
330
2C9
100
AcDbXrecord
 10
0.0
 20
0.0
 30
0.0
  0
XRECORD
  5
2DD
102
{ACAD_REACTORS
330
2C9
102
}
330
2C9
100
AcDbXrecord
 10
0.0
 20
0.0
 30
0.0
  0
XRECORD
  5
2DA
102
{ACAD_REACTORS
330
2C9
102
}
330
2C9
100
AcDbXrecord
 10
0.0
 20
0.0
 30
0.0
  0
XRECORD
  5
2D7
102
{ACAD_REACTORS
330
2C9
102
}
330
2C9
100
AcDbXrecord
340
0
  0
XRECORD
  5
2D8
102
{ACAD_REACTORS
330
2C9
102
}
330
2C9
100
AcDbXrecord
 70
     0
  0
XRECORD
  5
2CD
102
{ACAD_REACTORS
330
2C9
102
}
330
2C9
100
AcDbXrecord
  1

  0
XRECORD
  5
2CA
102
{ACAD_REACTORS
330
2C9
102
}
330
2C9
100
AcDbXrecord
 90
        1
  0
XRECORD
  5
2CB
102
{ACAD_REACTORS
330
2C9
102
}
330
2C9
100
AcDbXrecord
 90
       70
  0
XRECORD
  5
2E2
102
{ACAD_REACTORS
330
2C9
102
}
330
2C9
100
AcDbXrecord
340
0
  0
XRECORD
  5
2E8
102
{ACAD_REACTORS
330
2C9
102
}
330
2C9
100
AcDbXrecord
 10
0.0
 20
0.0
 30
0.0
  0
XRECORD
  5
2E4
102
{ACAD_REACTORS
330
2C9
102
}
330
2C9
100
AcDbXrecord
 10
0.0
 20
0.0
 30
0.0
  0
XRECORD
  5
2E7
102
{ACAD_REACTORS
330
2C9
102
}
330
2C9
100
AcDbXrecord
 10
0.0
 20
0.0
 30
0.0
  0
XRECORD
  5
2E5
102
{ACAD_REACTORS
330
2C9
102
}
330
2C9
100
AcDbXrecord
 10
0.0
 20
0.0
 30
0.0
  0
XRECORD
  5
2E6
102
{ACAD_REACTORS
330
2C9
102
}
330
2C9
100
AcDbXrecord
 10
0.0
 20
0.0
 30
0.0
  0
XRECORD
  5
2E3
102
{ACAD_REACTORS
330
2C9
102
}
330
2C9
100
AcDbXrecord
 10
0.0
 20
0.0
 30
0.0
  0
XRECORD
  5
2E0
102
{ACAD_REACTORS
330
2C9
102
}
330
2C9
100
AcDbXrecord
340
0
  0
XRECORD
  5
2E1
102
{ACAD_REACTORS
330
2C9
102
}
330
2C9
100
AcDbXrecord
 70
     0
  0
XRECORD
  5
2D5
102
{ACAD_REACTORS
330
2C9
102
}
330
2C9
100
AcDbXrecord
  1
{8D70F433-578E-4BC0-A95F-23E64A3B6D8F}
  0
DICTIONARYVAR
  5
1E0
102
{ACAD_REACTORS
330
1DF
102
}
330
1DF
100
DictionaryVariables
280
     0
  1
1
  0
ENDSEC
  0
EOF
