  0
SECTION
  2
HEADER
  9
$ACADVER
  1
AC1014
  9
$ACADMAINTVER
 70
     9
  9
$DWGCODEPAGE
  3
ANSI_1252
  9
$INSBASE
 10
-85.03700929356954
 20
7.811350069229599
 30
0.0
  9
$EXTMIN
 10
-96.07916034148212
 20
6.817713104974105
 30
0.0
  9
$EXTMAX
 10
-76.77503772893095
 20
13.68791336416747
 30
0.0
  9
$LIMMIN
 10
0.0
 20
0.0
  9
$LIMMAX
 10
36.0
 20
36.0
  9
$ORTHOMODE
 70
     1
  9
$REGENMODE
 70
     1
  9
$FILLMODE
 70
     1
  9
$QTEXTMODE
 70
     0
  9
$MIRRTEXT
 70
     1
  9
$DRAGMODE
 70
     0
  9
$LTSCALE
 40
1.0
  9
$OSMODE
 70
    37
  9
$ATTMODE
 70
     1
  9
$TEXTSIZE
 40
0.2
  9
$TRACEWID
 40
0.05
  9
$TEXTSTYLE
  7
STANDARD
  9
$CLAYER
  8
ADPDIM
  9
$CELTYPE
  6
BYLAYER
  9
$CECOLOR
 62
   256
  9
$CELTSCALE
 40
1.0
  9
$DELOBJ
 70
     1
  9
$DISPSILH
 70
     0
  9
$DIMSCALE
 40
1.0
  9
$DIMASZ
 40
0.125
  9
$DIMEXO
 40
0.0625
  9
$DIMDLI
 40
0.38
  9
$DIMRND
 40
0.0
  9
$DIMDLE
 40
0.0
  9
$DIMEXE
 40
0.18
  9
$DIMTP
 40
0.0
  9
$DIMTM
 40
0.0
  9
$DIMTXT
 40
0.125
  9
$DIMCEN
 40
0.1875
  9
$DIMTSZ
 40
0.125
  9
$DIMTOL
 70
     0
  9
$DIMLIM
 70
     0
  9
$DIMTIH
 70
     0
  9
$DIMTOH
 70
     0
  9
$DIMSE1
 70
     0
  9
$DIMSE2
 70
     0
  9
$DIMTAD
 70
     0
  9
$DIMZIN
 70
     3
  9
$DIMBLK
  1

  9
$DIMASO
 70
     1
  9
$DIMSHO
 70
     1
  9
$DIMPOST
  1

  9
$DIMAPOST
  1

  9
$DIMALT
 70
     0
  9
$DIMALTD
 70
     1
  9
$DIMALTF
 40
25.4
  9
$DIMLFAC
 40
1.0
  9
$DIMTOFL
 70
     0
  9
$DIMTVP
 40
0.0
  9
$DIMTIX
 70
     0
  9
$DIMSOXD
 70
     0
  9
$DIMSAH
 70
     0
  9
$DIMBLK1
  1

  9
$DIMBLK2
  1

  9
$DIMSTYLE
  2
STANDARD
  9
$DIMCLRD
 70
     0
  9
$DIMCLRE
 70
     0
  9
$DIMCLRT
 70
     0
  9
$DIMTFAC
 40
1.0
  9
$DIMGAP
 40
0.125
  9
$DIMJUST
 70
     0
  9
$DIMSD1
 70
     0
  9
$DIMSD2
 70
     0
  9
$DIMTOLJ
 70
     1
  9
$DIMTZIN
 70
     0
  9
$DIMALTZ
 70
     0
  9
$DIMALTTZ
 70
     0
  9
$DIMFIT
 70
     3
  9
$DIMUPT
 70
     0
  9
$DIMUNIT
 70
     2
  9
$DIMDEC
 70
     4
  9
$DIMTDEC
 70
     4
  9
$DIMALTU
 70
     2
  9
$DIMALTTD
 70
     2
  9
$DIMTXSTY
  7
STANDARD
  9
$DIMAUNIT
 70
     0
  9
$LUNITS
 70
     5
  9
$LUPREC
 70
     5
  9
$SKETCHINC
 40
0.1
  9
$FILLETRAD
 40
0.062
  9
$AUNITS
 70
     0
  9
$AUPREC
 70
     0
  9
$MENU
  1
acad
  9
$ELEVATION
 40
0.0
  9
$PELEVATION
 40
0.0
  9
$THICKNESS
 40
0.0
  9
$LIMCHECK
 70
     0
  9
$BLIPMODE
 70
     0
  9
$CHAMFERA
 40
0.0
  9
$CHAMFERB
 40
0.0
  9
$CHAMFERC
 40
0.0
  9
$CHAMFERD
 40
0.0
  9
$SKPOLY
 70
     0
  9
$TDCREATE
 40
2450409.658357639
  9
$TDUPDATE
 40
2452297.078616713
  9
$TDINDWG
 40
0.0433454977
  9
$TDUSRTIMER
 40
0.0433454977
  9
$USRTIMER
 70
     1
  9
$ANGBASE
 50
0.0
  9
$ANGDIR
 70
     0
  9
$PDMODE
 70
     0
  9
$PDSIZE
 40
0.0
  9
$PLINEWID
 40
0.0
  9
$COORDS
 70
     2
  9
$SPLFRAME
 70
     0
  9
$SPLINETYPE
 70
     6
  9
$SPLINESEGS
 70
     8
  9
$ATTDIA
 70
     0
  9
$ATTREQ
 70
     1
  9
$HANDLING
 70
 22529
  9
$HANDSEED
  5
319
  9
$SURFTAB1
 70
     6
  9
$SURFTAB2
 70
     6
  9
$SURFTYPE
 70
     6
  9
$SURFU
 70
     6
  9
$SURFV
 70
     6
  9
$UCSNAME
  2

  9
$UCSORG
 10
0.0
 20
0.0
 30
0.0
  9
$UCSXDIR
 10
1.0
 20
0.0
 30
0.0
  9
$UCSYDIR
 10
0.0
 20
1.0
 30
0.0
  9
$PUCSNAME
  2

  9
$PUCSORG
 10
0.0
 20
0.0
 30
0.0
  9
$PUCSXDIR
 10
1.0
 20
0.0
 30
0.0
  9
$PUCSYDIR
 10
0.0
 20
1.0
 30
0.0
  9
$USERI1
 70
     0
  9
$USERI2
 70
     0
  9
$USERI3
 70
     0
  9
$USERI4
 70
     0
  9
$USERI5
 70
     0
  9
$USERR1
 40
0.0
  9
$USERR2
 40
0.0
  9
$USERR3
 40
0.0
  9
$USERR4
 40
0.0
  9
$USERR5
 40
0.0
  9
$WORLDVIEW
 70
     1
  9
$SHADEDGE
 70
     3
  9
$SHADEDIF
 70
    70
  9
$TILEMODE
 70
     1
  9
$MAXACTVP
 70
    15
  9
$PINSBASE
 10
0.0009765857830644
 20
1.500170956078392
 30
0.0
  9
$PLIMCHECK
 70
     0
  9
$PEXTMIN
 10
1.000000000000000E+20
 20
1.000000000000000E+20
 30
1.000000000000000E+20
  9
$PEXTMAX
 10
-1.000000000000000E+20
 20
-1.000000000000000E+20
 30
-1.000000000000000E+20
  9
$PLIMMIN
 10
0.0
 20
0.0
  9
$PLIMMAX
 10
12.0
 20
9.0
  9
$UNITMODE
 70
     0
  9
$VISRETAIN
 70
     0
  9
$PLINEGEN
 70
     0
  9
$PSLTSCALE
 70
     1
  9
$TREEDEPTH
 70
  3020
  9
$PICKSTYLE
 70
     1
  9
$CMLSTYLE
  2
STANDARD
  9
$CMLJUST
 70
     0
  9
$CMLSCALE
 40
1.0
  9
$PROXYGRAPHICS
 70
     1
  9
$MEASUREMENT
 70
     0
  0
ENDSEC
  0
SECTION
  2
CLASSES
  0
CLASS
  1
ACDBDICTIONARYWDFLT
  2
AcDbDictionaryWithDefault
  3
AutoCAD 2000
 90
        0
280
     0
281
     0
  0
CLASS
  1
ACDBPLACEHOLDER
  2
AcDbPlaceHolder
  3
AutoCAD 2000
 90
        0
280
     0
281
     0
  0
CLASS
  1
LAYOUT
  2
AcDbLayout
  3
AutoCAD 2000
 90
        0
280
     0
281
     0
  0
CLASS
  1
DICTIONARYVAR
  2
AcDbDictionaryVar
  3
AutoCAD 2000
 90
        0
280
     0
281
     0
  0
CLASS
  1
LONG_TRANSACTION
  2
AcDbLongTransaction
  3
AutoCAD 2000
 90
        0
280
     0
281
     0
  0
CLASS
  1
LWPOLYLINE
  2
AcDbPolyline
  3
AutoCAD 2000
 90
        0
280
     0
281
     1
  0
CLASS
  1
HATCH
  2
AcDbHatch
  3
AutoCAD 2000
 90
        0
280
     0
281
     1
  0
CLASS
  1
XRECORD
  2
AcDbXrecord
  3
AutoCAD 2000
 90
        0
280
     0
281
     0
  0
CLASS
  1
LONG_TRANSACTION
  2
AcDbLongTransaction
  3
AutoCAD 2000
 90
        0
280
     0
281
     0
  0
CLASS
  1
LWPOLYLINE
  2
AcDbPolyline
  3
AutoCAD 2000
 90
        0
280
     0
281
     1
  0
CLASS
  1
HATCH
  2
AcDbHatch
  3
AutoCAD 2000
 90
        0
280
     0
281
     1
  0
CLASS
  1
XRECORD
  2
AcDbXrecord
  3
AutoCAD 2000
 90
        0
280
     0
281
     0
  0
CLASS
  1
LONG_TRANSACTION
  2
AcDbLongTransaction
  3
AutoCAD 2000
 90
        0
280
     0
281
     0
  0
CLASS
  1
LWPOLYLINE
  2
AcDbPolyline
  3
AutoCAD 2000
 90
        0
280
     0
281
     1
  0
CLASS
  1
HATCH
  2
AcDbHatch
  3
AutoCAD 2000
 90
        0
280
     0
281
     1
  0
CLASS
  1
XRECORD
  2
AcDbXrecord
  3
AutoCAD 2000
 90
        0
280
     0
281
     0
  0
CLASS
  1
LONG_TRANSACTION
  2
AcDbLongTransaction
  3
AutoCAD 2000
 90
        0
280
     0
281
     0
  0
CLASS
  1
LWPOLYLINE
  2
AcDbPolyline
  3
AutoCAD 2000
 90
        0
280
     0
281
     1
  0
CLASS
  1
HATCH
  2
AcDbHatch
  3
AutoCAD 2000
 90
        0
280
     0
281
     1
  0
CLASS
  1
XRECORD
  2
AcDbXrecord
  3
AutoCAD 2000
 90
        0
280
     0
281
     0
  0
CLASS
  1
LONG_TRANSACTION
  2
AcDbLongTransaction
  3
AutoCAD 2000
 90
        0
280
     0
281
     0
  0
CLASS
  1
LWPOLYLINE
  2
AcDbPolyline
  3
AutoCAD 2000
 90
        0
280
     0
281
     1
  0
CLASS
  1
HATCH
  2
AcDbHatch
  3
AutoCAD 2000
 90
        0
280
     0
281
     1
  0
CLASS
  1
XRECORD
  2
AcDbXrecord
  3
AutoCAD 2000
 90
        0
280
     0
281
     0
  0
ENDSEC
  0
SECTION
  2
TABLES
  0
TABLE
  2
VPORT
  5
8
330
0
100
AcDbSymbolTable
 70
     2
  0
VPORT
  5
2F6
330
8
100
AcDbSymbolTableRecord
100
AcDbViewportTableRecord
  2
*ACTIVE
 70
     0
 10
0.0
 20
0.0
 11
1.0
 21
1.0
 12
-86.41258923196788
 22
10.25326545566002
 13
0.0
 23
0.0
 14
0.5740882589684922
 24
0.5740882589684922
 15
0.5
 25
0.5
 16
0.0
 26
0.0
 36
1.0
 17
0.0
 27
0.0
 37
0.0
 40
12.37929429393301
 41
1.570528967254407
 42
50.0
 43
0.0
 44
0.0
 50
0.0
 51
0.0
 71
     0
 72
   100
 73
     1
 74
     0
 75
     0
 76
     0
 77
     0
 78
     0
  0
ENDTAB
  0
TABLE
  2
LTYPE
  5
5
330
0
100
AcDbSymbolTable
 70
     1
  0
LTYPE
  5
12
330
5
100
AcDbSymbolTableRecord
100
AcDbLinetypeTableRecord
  2
BYBLOCK
 70
     0
  3

 72
    65
 73
     0
 40
0.0
  0
LTYPE
  5
13
330
5
100
AcDbSymbolTableRecord
100
AcDbLinetypeTableRecord
  2
BYLAYER
 70
     0
  3

 72
    65
 73
     0
 40
0.0
  0
LTYPE
  5
14
330
5
100
AcDbSymbolTableRecord
100
AcDbLinetypeTableRecord
  2
CONTINUOUS
 70
     0
  3
Solid line
 72
    65
 73
     0
 40
0.0
  0
ENDTAB
  0
TABLE
  2
LAYER
  5
2
330
0
100
AcDbSymbolTable
 70
     3
  0
LAYER
  5
F
330
2
100
AcDbSymbolTableRecord
100
AcDbLayerTableRecord
  2
0
 70
     0
 62
     7
  6
CONTINUOUS
  0
LAYER
  5
E4
330
2
100
AcDbSymbolTableRecord
100
AcDbLayerTableRecord
  2
DEFPOINTS
 70
     0
 62
     7
  6
CONTINUOUS
  0
LAYER
  5
E7
330
2
100
AcDbSymbolTableRecord
100
AcDbLayerTableRecord
  2
ADPDIM
 70
     0
 62
     3
  6
CONTINUOUS
  0
ENDTAB
  0
TABLE
  2
STYLE
  5
3
330
0
100
AcDbSymbolTable
 70
     2
  0
STYLE
  5
10
330
3
100
AcDbSymbolTableRecord
100
AcDbTextStyleTableRecord
  2
STANDARD
 70
     0
 40
0.0
 41
1.0
 50
0.0
 71
     0
 42
0.2
  3
txt
  4

  0
STYLE
  5
1B2
330
3
100
AcDbSymbolTableRecord
100
AcDbTextStyleTableRecord
  2
ARIAL_WIDE
 70
     0
 40
0.0
 41
1.25
 50
0.0
 71
     0
 42
0.2
  3
ARIAL.TTF
  4

1001
ACAD
1000
Arial
1071
       34
  0
ENDTAB
  0
TABLE
  2
VIEW
  5
6
330
0
100
AcDbSymbolTable
 70
     0
  0
ENDTAB
  0
TABLE
  2
UCS
  5
7
330
0
100
AcDbSymbolTable
 70
     0
  0
ENDTAB
  0
TABLE
  2
APPID
  5
9
330
0
100
AcDbSymbolTable
 70
     1
  0
APPID
  5
11
330
9
100
AcDbSymbolTableRecord
100
AcDbRegAppTableRecord
  2
ACAD
 70
     0
  0
ENDTAB
  0
TABLE
  2
DIMSTYLE
  5
A
330
0
100
AcDbSymbolTable
 70
     1
  0
DIMSTYLE
105
1A6
330
A
100
AcDbSymbolTableRecord
100
AcDbDimStyleTableRecord
  2
STANDARD
 70
     0
  3

  4

  5

  6

  7

 40
1.0
 41
0.18
 42
0.0625
 43
0.38
 44
0.18
 45
0.0
 46
0.0
 47
0.0
 48
0.0
140
0.18
141
0.09
142
0.0
143
25.4
144
1.0
145
0.0
146
1.0
147
0.09
 71
     0
 72
     0
 73
     1
 74
     1
 75
     0
 76
     0
 77
     0
 78
     0
170
     0
171
     2
172
     0
173
     0
174
     0
175
     0
176
     0
177
     0
178
     0
270
     2
271
     4
272
     4
273
     2
274
     2
340
10
275
     0
280
     0
281
     0
282
     0
283
     1
284
     0
285
     0
286
     0
287
     3
288
     0
  0
ENDTAB
  0
TABLE
  2
BLOCK_RECORD
  5
1
330
0
100
AcDbSymbolTable
 70
     2
  0
BLOCK_RECORD
  5
18
102
{ACAD_XDICTIONARY
360
207
102
}
330
1
100
AcDbSymbolTableRecord
100
AcDbBlockTableRecord
  2
*MODEL_SPACE
  0
BLOCK_RECORD
  5
15
102
{ACAD_XDICTIONARY
360
205
102
}
330
1
100
AcDbSymbolTableRecord
100
AcDbBlockTableRecord
  2
*PAPER_SPACE
  0
BLOCK_RECORD
  5
D9
330
1
100
AcDbSymbolTableRecord
100
AcDbBlockTableRecord
  2
*D0
  0
BLOCK_RECORD
  5
DF
330
1
100
AcDbSymbolTableRecord
100
AcDbBlockTableRecord
  2
*D1
  0
ENDTAB
  0
ENDSEC
  0
SECTION
  2
BLOCKS
  0
BLOCK
  5
EA
330
18
100
AcDbEntity
  8
0
100
AcDbBlockBegin
  2
*MODEL_SPACE
 70
     0
 10
0.0
 20
0.0
 30
0.0
  3
*MODEL_SPACE
  1

  0
ENDBLK
  5
EB
330
18
100
AcDbEntity
  8
0
100
AcDbBlockEnd
  0
BLOCK
  5
E8
330
15
100
AcDbEntity
 67
     1
  8
0
100
AcDbBlockBegin
  2
*PAPER_SPACE
 70
     0
 10
0.0
 20
0.0
 30
0.0
  3
*PAPER_SPACE
  1

  0
ENDBLK
  5
E9
330
15
100
AcDbEntity
 67
     1
  8
0
100
AcDbBlockEnd
  0
BLOCK
  5
ED
330
D9
100
AcDbEntity
  8
0
100
AcDbBlockBegin
  2
*D0
 70
     1
 10
0.0
 20
0.0
 30
0.0
  3
*D0
  1

  0
LINE
  5
EE
330
D9
100
AcDbEntity
  8
0
  6
BYBLOCK
 62
     0
100
AcDbLine
 10
-94.62207377084453
 20
15.90067920303324
 30
0.0
 11
-94.62207377084453
 21
16.90589934853445
 31
0.0
  0
LINE
  5
EF
330
D9
100
AcDbEntity
  8
0
  6
BYBLOCK
 62
     0
100
AcDbLine
 10
-89.37207377084453
 20
15.90067920303324
 30
0.0
 11
-89.37207377084453
 21
16.90589934853445
 31
0.0
  0
LINE
  5
F0
330
D9
100
AcDbEntity
  8
0
  6
BYBLOCK
 62
     0
100
AcDbLine
 10
-94.62207377084453
 20
16.72589934853445
 30
0.0
 11
-92.39290710417787
 21
16.72589934853445
 31
0.0
  0
LINE
  5
F1
330
D9
100
AcDbEntity
  8
0
  6
BYBLOCK
 62
     0
100
AcDbLine
 10
-89.37207377084453
 20
16.72589934853445
 30
0.0
 11
-91.60124043751121
 21
16.72589934853445
 31
0.0
  0
LINE
  5
F2
330
D9
100
AcDbEntity
  8
0
  6
BYBLOCK
 62
     0
100
AcDbLine
 10
-94.74707377084454
 20
16.60089934853445
 30
0.0
 11
-94.49707377084454
 21
16.85089934853445
 31
0.0
  0
LINE
  5
F3
330
D9
100
AcDbEntity
  8
0
  6
BYBLOCK
 62
     0
100
AcDbLine
 10
-89.49707377084454
 20
16.60089934853445
 30
0.0
 11
-89.24707377084454
 21
16.85089934853445
 31
0.0
  0
TEXT
  5
F4
330
D9
100
AcDbEntity
  8
0
  6
BYBLOCK
 62
     0
100
AcDbText
 10
-92.26790710417786
 20
16.66339934853445
 30
0.0
 40
0.125
  1
5 1/4
 72
     1
 11
-91.99707377084454
 21
16.72589934853445
 31
0.0
100
AcDbText
 73
     2
  0
POINT
  5
F5
330
D9
100
AcDbEntity
  8
DEFPOINTS
  6
BYBLOCK
 62
     0
100
AcDbPoint
 10
-94.62207377084453
 20
15.83817920303324
 30
0.0
  0
POINT
  5
F6
330
D9
100
AcDbEntity
  8
DEFPOINTS
  6
BYBLOCK
 62
     0
100
AcDbPoint
 10
-89.37207377084453
 20
15.83817920303324
 30
0.0
  0
POINT
  5
F7
330
D9
100
AcDbEntity
  8
DEFPOINTS
  6
BYBLOCK
 62
     0
100
AcDbPoint
 10
-89.37207377084453
 20
16.72589934853445
 30
0.0
  0
ENDBLK
  5
F8
330
D9
100
AcDbEntity
  8
0
100
AcDbBlockEnd
  0
BLOCK
  5
F9
330
DF
100
AcDbEntity
  8
0
100
AcDbBlockBegin
  2
*D1
 70
     1
 10
0.0
 20
0.0
 30
0.0
  3
*D1
  1

  0
LINE
  5
FA
330
DF
100
AcDbEntity
  8
0
  6
BYBLOCK
 62
     0
100
AcDbLine
 10
-100.1232178895645
 20
8.240502436587185
 30
0.0
 11
-101.9056089612723
 21
8.240502436587187
 31
0.0
  0
LINE
  5
FB
330
DF
100
AcDbEntity
  8
0
  6
BYBLOCK
 62
     0
100
AcDbLine
 10
-99.90123243776629
 20
13.74050243658718
 30
0.0
 11
-101.9056089612723
 21
13.74050243658718
 31
0.0
  0
LINE
  5
FC
330
DF
100
AcDbEntity
  8
0
  6
BYBLOCK
 62
     0
100
AcDbLine
 10
-101.7256089612723
 20
8.240502436587187
 30
0.0
 11
-101.7256089612723
 21
10.59466910325385
 31
0.0
  0
LINE
  5
FD
330
DF
100
AcDbEntity
  8
0
  6
BYBLOCK
 62
     0
100
AcDbLine
 10
-101.7256089612723
 20
13.74050243658718
 30
0.0
 11
-101.7256089612723
 21
11.38633576992052
 31
0.0
  0
LINE
  5
FE
330
DF
100
AcDbEntity
  8
0
  6
BYBLOCK
 62
     0
100
AcDbLine
 10
-101.6006089612723
 20
8.115502436587187
 30
0.0
 11
-101.8506089612723
 21
8.365502436587187
 31
0.0
  0
LINE
  5
FF
330
DF
100
AcDbEntity
  8
0
  6
BYBLOCK
 62
     0
100
AcDbLine
 10
-101.6006089612723
 20
13.61550243658718
 30
0.0
 11
-101.8506089612723
 21
13.86550243658718
 31
0.0
  0
TEXT
  5
100
330
DF
100
AcDbEntity
  8
0
  6
BYBLOCK
 62
     0
100
AcDbText
 10
-101.6631089612723
 20
10.71966910325385
 30
0.0
 40
0.125
  1
5 1/2
 50
90.0
 72
     1
 11
-101.7256089612723
 21
10.99050243658718
 31
0.0
100
AcDbText
 73
     2
  0
POINT
  5
101
330
DF
100
AcDbEntity
  8
DEFPOINTS
  6
BYBLOCK
 62
     0
100
AcDbPoint
 10
-100.0607178895644
 20
8.240502436587185
 30
0.0
  0
POINT
  5
102
330
DF
100
AcDbEntity
  8
DEFPOINTS
  6
BYBLOCK
 62
     0
100
AcDbPoint
 10
-99.83873243776629
 20
13.74050243658718
 30
0.0
  0
POINT
  5
103
330
DF
100
AcDbEntity
  8
DEFPOINTS
  6
BYBLOCK
 62
     0
100
AcDbPoint
 10
-101.7256089612723
 20
13.74050243658718
 30
0.0
  0
ENDBLK
  5
104
330
DF
100
AcDbEntity
  8
0
100
AcDbBlockEnd
  0
ENDSEC
  0
SECTION
  2
ENTITIES
  0
DIMENSION
  5
105
330
18
100
AcDbEntity
  8
ADPDIM
100
AcDbDimension
  2
*D0
 10
-83.76075885613902
 20
13.50791336416747
 30
0.0
 11
-86.38575885613901
 21
13.50791336416747
 31
0.0
 12
5.611314914705516
 22
-3.217985984366972
 32
0.0
100
AcDbAlignedDimension
 13
-89.01075885613902
 23
12.62019321866626
 33
0.0
 14
-83.76075885613902
 24
12.62019321866626
 34
0.0
100
AcDbRotatedDimension
  0
LWPOLYLINE
  5
106
330
18
100
AcDbEntity
  8
0
100
AcDbPolyline
 90
        8
 70
     0
 43
0.0
 10
-86.80331874269104
 20
8.72855269604115
 42
-0.1034441193819623
 10
-86.98204364155301
 20
8.41735085251137
 42
-0.2460010012140072
 10
-87.54679313866308
 20
8.076994251474552
 42
-0.4144515605434837
 10
-88.21950945991126
 20
8.392446712914082
 42
-0.0211642091922291
 10
-88.17798379394806
 20
9.064858482040852
 42
0.6177588682996166
 10
-88.64307155379574
 20
9.006748849521065
 42
0.1379041566548927
 10
-88.41883281864378
 20
8.292830154524931
 42
0.1433174013757118
 10
-87.9454398561281
 20
7.852856995098963
 42
0.23632189490387
  0
LWPOLYLINE
  5
110
330
18
100
AcDbEntity
  8
0
100
AcDbPolyline
 90
       11
 70
     0
 43
0.0
 10
-86.51239831807961
 20
8.72855269604115
 42
-0.0588939484784138
 10
-86.66644825601437
 20
8.375843926642007
 42
-0.273092831093277
 10
-87.7045908314324
 20
7.811350069229599
 42
-0.2614403840947447
 10
-88.69290242242694
 20
8.442254992108658
 42
-0.0784925297685461
 10
-88.8257847387768
 20
8.915433644457126
 42
-0.3247359429196464
 10
-88.49357906369442
 20
9.380310943480381
 42
-0.6928902757335341
 10
-88.12815292531686
 20
9.048255695768776
 42
0.2611828308857584
 10
-88.09493234622941
 20
8.392446712914082
 42
0.2004987800165332
 10
-87.40560573543749
 20
8.218117735733068
 42
0.2092456422787156
 10
-87.08170526302312
 20
8.475460485031158
 42
0.110626878082579
 10
-86.92002063030448
 20
8.72855269604115
 42
-0.1359006583259668
  0
LWPOLYLINE
  5
11D
330
18
100
AcDbEntity
  8
0
100
AcDbPolyline
 90
        5
 70
     0
 43
0.0
 10
-87.52187776224364
 20
11.15680628783467
 42
-0.2505627453915995
 10
-87.9537449430038
 20
11.33113526501569
 42
-0.6272260135093413
 10
-87.68798054188867
 20
11.76280699149479
 42
0.1483114460767376
 10
-87.0734001761474
 20
11.77110842444166
 42
0.1471149818605354
 10
-86.90957917417307
 20
11.92458407706251
 42
0.420555033846774
  0
LWPOLYLINE
  5
124
330
18
100
AcDbEntity
  8
0
100
AcDbPolyline
 90
        6
 70
     0
 43
0.0
 10
-86.72458432731358
 20
12.43521884024322
 42
0.2484241103853938
 10
-87.20628237670497
 20
12.97480847843669
 42
0.3892589633274195
 10
-88.47696877415069
 20
12.61784917074944
 42
0.3237841393912626
 10
-88.41883281864378
 20
10.94927173810951
 42
0.1889692294601728
 10
-87.3640800694743
 20
10.4843945187079
 42
0.0172729597003174
 10
-86.79102536969622
 20
9.230886105896647
 42
-0.2536619561121505
  0
LWPOLYLINE
  5
12C
330
18
100
AcDbEntity
  8
0
100
AcDbPolyline
 90
        6
 70
     0
 43
0.0
 10
-86.88059892516868
 20
12.45258407706251
 42
0.281022708338404
 10
-87.28102862175564
 20
12.80047950125567
 42
0.2614025891160876
 10
-88.25273003899873
 20
12.53483539863237
 42
0.341219274032883
 10
-88.26103512587444
 20
11.1069980086401
 42
0.2372672909775598
 10
-87.17306179761751
 20
10.77494276092849
 42
0.1188181746283575
 10
-86.44220952086241
 20
9.230886105896654
 42
-0.1373360322979214
  0
LWPOLYLINE
  5
134
330
18
100
AcDbEntity
  8
0
100
AcDbPolyline
 90
        7
 70
     0
 43
0.0
 10
-86.94051785979754
 20
9.24748889216873
 42
-0.1359006583259668
 10
-87.37238515635002
 20
9.870092382100924
 42
-0.0265060127458244
 10
-87.51357255957561
 20
10.27685996898274
 42
-0.1525498285325481
 10
-88.60154588783254
 20
10.80814833347264
 42
-0.3254194051517443
 10
-88.61815617737628
 20
12.71746572913859
 42
-0.2955145404528827
 10
-87.14814642119806
 20
13.14083610229249
 42
-0.222812304543792
 10
-86.47934934045249
 20
12.45258407706251
 42
-0.1738551778740589
  0
LWPOLYLINE
  5
13D
330
18
100
AcDbEntity
  8
0
100
AcDbPolyline
 90
        8
 70
     0
 43
0.0
 10
-86.46098842064944
 20
11.92458407706251
 42
-0.1033781020830351
 10
-86.65814316913865
 20
11.53036838179399
 42
-0.0990105124452928
 10
-87.13984121853004
 20
11.15680628783467
 42
-0.0684198461676558
 10
-87.53018284911934
 20
11.16510764115989
 42
-0.373482716766058
 10
-87.7959473660268
 20
11.38094354421026
 42
-0.6921224593376287
 10
-87.53848805178737
 20
11.59677944726064
 42
0.2253291258855026
 10
-87.00695901797246
 20
11.58017666098857
 42
0.1216249956608356
 10
-86.76393422405224
 20
11.92458407706251
 42
0.2484241103853938
  0
DIMENSION
  5
147
330
18
100
AcDbEntity
  8
ADPDIM
100
AcDbDimension
  2
*D1
 10
-89.55823470720174
 20
13.24115977858857
 30
0.0
 11
-89.55823470720174
 21
10.49115977858857
 31
0.0
 12
12.16737425407059
 22
-0.4993426579986125
 32
0.0
100
AcDbAlignedDimension
 13
-87.89334363549391
 23
7.741159778588572
 33
0.0
 14
-87.6713581836957
 24
13.24115977858857
 34
0.0
 50
90.0
100
AcDbRotatedDimension
  0
LWPOLYLINE
  5
148
330
18
100
AcDbEntity
  8
0
100
AcDbPolyline
 90
        5
 70
     0
 43
0.0
 10
-85.21972236275832
 20
11.15680628783467
 42
0.2505627453915995
 10
-84.78785518199812
 20
11.33113526501569
 42
0.6272260135093413
 10
-85.05361958311327
 20
11.76280699149479
 42
-0.1483114460767376
 10
-85.66819994885454
 20
11.77110842444166
 42
-0.1471149818605354
 10
-85.83202095082887
 20
11.92458407706251
 42
-0.420555033846774
  0
LWPOLYLINE
  5
14F
330
18
100
AcDbEntity
  8
0
100
AcDbPolyline
 90
        8
 70
     0
 43
0.0
 10
-86.2806117043525
 20
11.92458407706251
 42
0.1033781020830349
 10
-86.08345695586329
 20
11.53036838179399
 42
0.0990105124452928
 10
-85.6017589064719
 20
11.15680628783467
 42
0.0684198461676558
 10
-85.21141727588259
 20
11.16510764115989
 42
0.373482716766058
 10
-84.94565275897516
 20
11.38094354421026
 42
0.6921224593376287
 10
-85.20311207321459
 20
11.59677944726064
 42
-0.2253291258855026
 10
-85.73464110702948
 20
11.58017666098857
 42
-0.1216249956608356
 10
-85.97766590094968
 20
11.92458407706251
 42
-0.2484241103853938
  0
LWPOLYLINE
  5
159
330
18
100
AcDbEntity
  8
0
100
AcDbPolyline
 90
        6
 70
     0
 43
0.0
 10
-86.01701579768835
 20
12.43521884024322
 42
-0.2484241103853938
 10
-85.53531774829696
 20
12.97480847843669
 42
-0.3892589633274195
 10
-84.26463135085127
 20
12.61784917074944
 42
-0.3237841393912626
 10
-84.32276730635818
 20
10.94927173810951
 42
-0.1889692294601728
 10
-85.37752005552764
 20
10.4843945187079
 42
-0.0172729597003174
 10
-85.95057475530571
 20
9.230886105896647
 42
0.2536619561121505
  0
LWPOLYLINE
  5
161
330
18
100
AcDbEntity
  8
0
100
AcDbPolyline
 90
        7
 70
     0
 43
0.0
 10
-85.80108226520442
 20
9.24748889216873
 42
0.1359006583259668
 10
-85.36921496865193
 20
9.870092382100924
 42
0.0265060127458244
 10
-85.22802756542633
 20
10.27685996898274
 42
0.1525498285325481
 10
-84.1400542371694
 20
10.80814833347264
 42
0.3254194051517443
 10
-84.12344394762566
 20
12.71746572913859
 42
0.2955145404528827
 10
-85.59345370380389
 20
13.14083610229249
 42
0.222812304543792
 10
-86.26225078454947
 20
12.45258407706251
 42
0.1738551778740589
  0
LWPOLYLINE
  5
16A
330
18
100
AcDbEntity
  8
0
100
AcDbPolyline
 90
        6
 70
     0
 43
0.0
 10
-85.86100119983326
 20
12.45258407706251
 42
-0.281022708338404
 10
-85.46057150324632
 20
12.80047950125567
 42
-0.2614025891160876
 10
-84.48887008600321
 20
12.53483539863237
 42
-0.341219274032883
 10
-84.4805649991275
 20
11.1069980086401
 42
-0.2372672909775598
 10
-85.56853832738443
 20
10.77494276092849
 42
-0.1188181746283575
 10
-86.29939060413953
 20
9.230886105896654
 42
0.1373360322979214
  0
LWPOLYLINE
  5
172
330
18
100
AcDbEntity
  8
0
100
AcDbPolyline
 90
        8
 70
     0
 43
0.0
 10
-85.93828138231092
 20
8.72855269604115
 42
0.1034441193819623
 10
-85.75955648344892
 20
8.41735085251137
 42
0.2460010012140072
 10
-85.19480698633886
 20
8.076994251474552
 42
0.4144515605434837
 10
-84.52209066509068
 20
8.392446712914082
 42
0.0211642091922291
 10
-84.56361633105386
 20
9.064858482040852
 42
-0.6177588682996166
 10
-84.09852857120622
 20
9.006748849521065
 42
-0.1379041566548927
 10
-84.32276730635818
 20
8.292830154524931
 42
-0.1433174013757118
 10
-84.79616026887384
 20
7.852856995098963
 42
-0.23632189490387
  0
LWPOLYLINE
  5
17C
330
18
100
AcDbEntity
  8
0
100
AcDbPolyline
 90
       10
 70
     0
 43
0.0
 10
-86.22920180692233
 20
8.72855269604115
 42
0.0588939484784138
 10
-86.07515186898757
 20
8.375843926642007
 42
0.273092831093277
 10
-85.03700929356954
 20
7.811350069229599
 42
0.2614403840947447
 10
-84.04869770257501
 20
8.442254992108658
 42
0.0784925297685461
 10
-83.91581538622514
 20
8.915433644457126
 42
0.3247359429196464
 10
-84.24802106130753
 20
9.380310943480381
 42
0.6928902757335341
 10
-84.61344719968506
 20
9.048255695768776
 42
-0.2611828308857584
 10
-84.64666777877253
 20
8.392446712914082
 42
-0.2004987800165332
 10
-85.33599438956446
 20
8.218117735733068
 42
-0.2092456422787153
 10
-85.65989486197883
 20
8.475460485031156
 42
-0.3137055819970402
  0
LINE
  5
188
330
18
100
AcDbEntity
  8
0
 62
     7
100
AcDbLine
 10
-85.64755165093052
 20
8.972245003733457
 30
0.0
 11
-85.72878242016129
 21
9.256552696041151
 31
0.0
  0
LINE
  5
189
330
18
100
AcDbEntity
  8
0
 62
     7
100
AcDbLine
 10
-85.93185934323821
 20
8.972245003733457
 30
0.0
 11
-86.01309011246899
 21
9.256552696041151
 31
0.0
  0
LINE
  5
18A
330
18
100
AcDbEntity
  8
0
 62
     7
100
AcDbLine
 10
-86.77166643754734
 20
8.972245003733457
 30
0.0
 11
-86.69043566831657
 21
9.256552696041151
 31
0.0
  0
LINE
  5
18B
330
18
100
AcDbEntity
  8
0
 62
     7
100
AcDbLine
 10
-86.97474336062425
 20
9.256552696041151
 30
0.0
 11
-87.05597412985502
 21
8.972245003733457
 31
0.0
  0
ARC
  5
18C
330
18
100
AcDbEntity
  8
0
100
AcDbCircle
 10
-85.04994785151849
 20
8.825502615744975
 30
0.0
 40
0.7077299895914276
100
AcDbArc
 50
187.9472600586255
 51
208.9381681850779
  0
LINE
  5
18D
330
18
100
AcDbEntity
  8
0
 62
     7
100
AcDbLine
 10
-87.05597412985502
 20
8.972245003733457
 30
0.0
 11
-85.64484186306851
 21
8.972245003733457
 31
0.0
  0
LINE
  5
18E
330
18
100
AcDbEntity
  8
0
 62
     7
100
AcDbLine
 10
-86.97474336062425
 20
8.72855269604115
 30
0.0
 11
-85.71825337028501
 21
8.72855269604115
 31
0.0
  0
LINE
  5
18F
330
18
100
AcDbEntity
  8
0
 62
     7
100
AcDbLine
 10
-86.69043566831657
 20
8.72855269604115
 30
0.0
 11
-86.77166643754734
 21
8.972245003733457
 31
0.0
  0
LINE
  5
190
330
18
100
AcDbEntity
  8
0
 62
     7
100
AcDbLine
 10
-87.05597412985502
 20
8.972245003733457
 30
0.0
 11
-86.97474336062425
 21
8.72855269604115
 31
0.0
  0
LINE
  5
191
330
18
100
AcDbEntity
  8
0
 62
     7
100
AcDbLine
 10
-86.01309011246899
 20
8.72855269604115
 30
0.0
 11
-85.93185934323821
 21
8.972245003733457
 31
0.0
  0
LINE
  5
192
330
18
100
AcDbEntity
  8
0
 62
     7
100
AcDbLine
 10
-85.72878242016129
 20
8.72855269604115
 30
0.0
 11
-85.72878242016129
 21
8.72855269604115
 31
0.0
  0
LINE
  5
193
330
18
100
AcDbEntity
  8
0
 62
     7
100
AcDbLine
 10
-85.72878242016129
 20
8.72855269604115
 30
0.0
 11
-85.64755165093052
 21
8.972245003733457
 31
0.0
  0
LINE
  5
194
330
18
100
AcDbEntity
  8
0
 62
     7
100
AcDbLine
 10
-86.30809560211597
 20
9.256552696041151
 30
0.0
 11
-85.73948021750059
 21
9.256552696041151
 31
0.0
  0
LINE
  5
195
330
18
100
AcDbEntity
  8
0
 62
     7
100
AcDbLine
 10
-86.3655125913935
 20
9.256552696041151
 30
0.0
 11
-86.93412797600888
 21
9.256552696041151
 31
0.0
  0
LINE
  5
196
330
18
100
AcDbEntity
  8
0
 62
     7
100
AcDbLine
 10
-85.8348211867236
 20
9.256552696041151
 30
0.0
 11
-86.97474336062425
 21
9.256552696041151
 31
0.0
  0
LINE
  5
197
330
18
100
AcDbEntity
  8
0
 62
     7
100
AcDbLine
 10
-85.76939780477667
 20
9.256552696041151
 30
0.0
 11
-86.06522888013124
 21
9.256552696041151
 31
0.0
  0
LINE
  5
198
330
18
100
AcDbEntity
  8
0
 62
     7
100
AcDbLine
 10
-87.03695071232012
 20
12.16827638475481
 30
0.0
 11
-85.73456699995793
 21
12.16827638475481
 31
0.0
  0
LINE
  5
199
330
18
100
AcDbEntity
  8
0
 62
     7
100
AcDbLine
 10
-85.8157977691887
 20
11.92458407706251
 30
0.0
 11
-85.73456699995793
 21
12.16827638475481
 31
0.0
  0
LINE
  5
19A
330
18
100
AcDbEntity
  8
0
 62
     7
100
AcDbLine
 10
-85.73456699995793
 20
12.16827638475481
 30
0.0
 11
-85.8157977691887
 21
12.45258407706251
 31
0.0
  0
LINE
  5
19B
330
18
100
AcDbEntity
  8
0
 62
     7
100
AcDbLine
 10
-85.85641315380406
 20
12.45258407706251
 30
0.0
 11
-86.15224422915863
 21
12.45258407706251
 31
0.0
  0
LINE
  5
19C
330
18
100
AcDbEntity
  8
0
 62
     7
100
AcDbLine
 10
-86.39511095114336
 20
12.45258407706251
 30
0.0
 11
-85.82649556652798
 21
12.45258407706251
 31
0.0
  0
LINE
  5
19D
330
18
100
AcDbEntity
  8
0
 62
     7
100
AcDbLine
 10
-85.8157977691887
 20
12.45258407706251
 30
0.0
 11
-86.95571994308934
 21
12.45258407706251
 31
0.0
  0
LINE
  5
19E
330
18
100
AcDbEntity
  8
0
 62
     7
100
AcDbLine
 10
-85.8157977691887
 20
11.92458407706251
 30
0.0
 11
-85.8157977691887
 21
11.92458407706251
 31
0.0
  0
LINE
  5
19F
330
18
100
AcDbEntity
  8
0
 62
     7
100
AcDbLine
 10
-86.10010546149638
 20
11.92458407706251
 30
0.0
 11
-86.01887469226561
 21
12.16827638475481
 31
0.0
  0
LINE
  5
1A0
330
18
100
AcDbEntity
  8
0
 62
     7
100
AcDbLine
 10
-87.03695071232012
 20
12.16827638475481
 30
0.0
 11
-86.95571994308934
 21
11.92458407706251
 31
0.0
  0
LINE
  5
1A1
330
18
100
AcDbEntity
  8
0
 62
     7
100
AcDbLine
 10
-86.67141225078166
 20
11.92458407706251
 30
0.0
 11
-86.75264302001243
 21
12.16827638475481
 31
0.0
  0
LINE
  5
1A2
330
18
100
AcDbEntity
  8
0
 62
     7
100
AcDbLine
 10
-86.95571994308934
 20
11.92458407706251
 30
0.0
 11
-85.8157977691887
 21
11.92458407706251
 31
0.0
  0
LINE
  5
1A3
330
18
100
AcDbEntity
  8
0
 62
     7
100
AcDbLine
 10
-86.01887469226561
 20
12.16827638475481
 30
0.0
 11
-86.10010546149638
 21
12.45258407706251
 31
0.0
  0
LINE
  5
1A4
330
18
100
AcDbEntity
  8
0
 62
     7
100
AcDbLine
 10
-86.75264302001243
 20
12.16827638475481
 30
0.0
 11
-86.67141225078166
 21
12.45258407706251
 31
0.0
  0
LINE
  5
1A5
330
18
100
AcDbEntity
  8
0
 62
     7
100
AcDbLine
 10
-86.95571994308934
 20
12.45258407706251
 30
0.0
 11
-87.03695071232012
 21
12.16827638475481
 31
0.0
  0
TEXT
  5
1B3
330
18
100
AcDbEntity
  8
ADPDIM
100
AcDbText
 10
-96.07916034148212
 20
6.873221290512987
 30
0.0
 40
0.1875
  1
J U L I U S  B L U M  &  C O . ,  I N C .      ( 8 0 0 )  5 2 6 - 6 2 9 3        W W W . J U L I U S B L U M . C O M        P A R T  N o .  9 6 7
 41
1.25
  7
ARIAL_WIDE
 72
     1
 11
-86.42709903520653
 21
7.060721290512987
 31
0.0
100
AcDbText
 73
     3
  0
ENDSEC
  0
SECTION
  2
OBJECTS
  0
DICTIONARY
  5
C
330
0
100
AcDbDictionary
  3
ACAD_GROUP
350
D
  3
ACAD_LAYOUT
350
1AC
  3
ACAD_MLINESTYLE
350
E
  3
ACAD_PLOTSETTINGS
350
1AD
  3
ACAD_PLOTSTYLENAME
350
1AA
  3
ACDBHEADERROUNDTRIPXREC
350
2F7
  3
ACDBVARIABLEDICTIONARY
350
20D
  0
DICTIONARY
  5
207
330
18
100
AcDbDictionary
280
     1
  3
ACAD_LAYOUTSELFREF
360
318
  0
DICTIONARY
  5
205
330
15
100
AcDbDictionary
280
     1
  3
ACAD_LAYOUTSELFREF
360
317
  0
DICTIONARY
  5
D
102
{ACAD_REACTORS
330
C
102
}
330
C
100
AcDbDictionary
  0
DICTIONARY
  5
1AC
102
{ACAD_REACTORS
330
C
102
}
330
C
100
AcDbDictionary
  0
DICTIONARY
  5
E
102
{ACAD_REACTORS
330
C
102
}
330
C
100
AcDbDictionary
  3
STANDARD
350
1B
  0
DICTIONARY
  5
1AD
102
{ACAD_REACTORS
330
C
102
}
330
C
100
AcDbDictionary
  0
ACDBDICTIONARYWDFLT
  5
1AA
102
{ACAD_REACTORS
330
C
102
}
330
C
100
AcDbDictionary
281
     1
  3
Normal
350
1AB
100
AcDbDictionaryWithDefault
340
1AB
  0
DICTIONARY
  5
2F7
102
{ACAD_REACTORS
330
C
102
}
330
C
100
AcDbDictionary
  3
CEPSNTYPE
350
301
  3
FINGERPRINTGUID
350
302
  3
HYPERLINKBASE
350
2FA
  3
INSUNITS
350
300
  3
LAYOUTDICT
350
2FC
  3
LWETCUNION
350
2FF
  3
PLOTSETDICT
350
2FD
  3
PLOTSTYLNAMDICT
350
2FE
  3
PSVPSCALE
350
304
  3
PUCSBASE
350
307
  3
PUCSORGBACK
350
30D
  3
PUCSORGBOTTOM
350
309
  3
PUCSORGFRONT
350
30C
  3
PUCSORGLEFT
350
30A
  3
PUCSORGRIGHT
350
30B
  3
PUCSORGTOP
350
308
  3
PUCSORTHOREF
350
305
  3
PUCSORTHOVIEW
350
306
  3
STYLESHEET
350
2FB
  3
TSTACKALIGN
350
2F8
  3
TSTACKSIZE
350
2F9
  3
UCSBASE
350
310
  3
UCSORGBACK
350
316
  3
UCSORGBOTTOM
350
312
  3
UCSORGFRONT
350
315
  3
UCSORGLEFT
350
313
  3
UCSORGRIGHT
350
314
  3
UCSORGTOP
350
311
  3
UCSORTHOREF
350
30E
  3
UCSORTHOVIEW
350
30F
  3
VERSIONGUID
350
303
  0
DICTIONARY
  5
20D
102
{ACAD_REACTORS
330
C
102
}
330
C
100
AcDbDictionary
  3
DIMASSOC
350
20E
  0
XRECORD
  5
318
102
{ACAD_REACTORS
330
207
102
}
330
207
100
AcDbXrecord
340
18
  0
XRECORD
  5
317
102
{ACAD_REACTORS
330
205
102
}
330
205
100
AcDbXrecord
340
15
  0
MLINESTYLE
  5
1B
102
{ACAD_REACTORS
330
E
102
}
330
E
100
AcDbMlineStyle
  2
STANDARD
 70
     0
  3

 62
     0
 51
90.0
 52
90.0
 71
     2
 49
0.5
 62
   256
  6
BYLAYER
 49
-0.5
 62
   256
  6
BYLAYER
  0
ACDBPLACEHOLDER
  5
1AB
102
{ACAD_REACTORS
330
1AA
102
}
330
1AA
100
AcDbPlaceHolder
280
     0
  0
XRECORD
  5
301
102
{ACAD_REACTORS
330
2F7
102
}
330
2F7
100
AcDbXrecord
 90
        0
  0
XRECORD
  5
302
102
{ACAD_REACTORS
330
2F7
102
}
330
2F7
100
AcDbXrecord
  1
{B3C33949-6F30-4668-A29D-F4E3C594C653}
  0
XRECORD
  5
2FA
102
{ACAD_REACTORS
330
2F7
102
}
330
2F7
100
AcDbXrecord
  1

  0
XRECORD
  5
300
102
{ACAD_REACTORS
330
2F7
102
}
330
2F7
100
AcDbXrecord
 90
        0
  0
XRECORD
  5
2FC
102
{ACAD_REACTORS
330
2F7
102
}
330
2F7
100
AcDbXrecord
340
1AC
  0
XRECORD
  5
2FF
102
{ACAD_REACTORS
330
2F7
102
}
330
2F7
100
AcDbXrecord
 90
    14877
  0
XRECORD
  5
2FD
102
{ACAD_REACTORS
330
2F7
102
}
330
2F7
100
AcDbXrecord
340
1AD
  0
XRECORD
  5
2FE
102
{ACAD_REACTORS
330
2F7
102
}
330
2F7
100
AcDbXrecord
340
1AA
  0
XRECORD
  5
304
102
{ACAD_REACTORS
330
2F7
102
}
330
2F7
100
AcDbXrecord
 40
0.0
  0
XRECORD
  5
307
102
{ACAD_REACTORS
330
2F7
102
}
330
2F7
100
AcDbXrecord
340
0
  0
XRECORD
  5
30D
102
{ACAD_REACTORS
330
2F7
102
}
330
2F7
100
AcDbXrecord
 10
0.0
 20
0.0
 30
0.0
  0
XRECORD
  5
309
102
{ACAD_REACTORS
330
2F7
102
}
330
2F7
100
AcDbXrecord
 10
0.0
 20
0.0
 30
0.0
  0
XRECORD
  5
30C
102
{ACAD_REACTORS
330
2F7
102
}
330
2F7
100
AcDbXrecord
 10
0.0
 20
0.0
 30
0.0
  0
XRECORD
  5
30A
102
{ACAD_REACTORS
330
2F7
102
}
330
2F7
100
AcDbXrecord
 10
0.0
 20
0.0
 30
0.0
  0
XRECORD
  5
30B
102
{ACAD_REACTORS
330
2F7
102
}
330
2F7
100
AcDbXrecord
 10
0.0
 20
0.0
 30
0.0
  0
XRECORD
  5
308
102
{ACAD_REACTORS
330
2F7
102
}
330
2F7
100
AcDbXrecord
 10
0.0
 20
0.0
 30
0.0
  0
XRECORD
  5
305
102
{ACAD_REACTORS
330
2F7
102
}
330
2F7
100
AcDbXrecord
340
0
  0
XRECORD
  5
306
102
{ACAD_REACTORS
330
2F7
102
}
330
2F7
100
AcDbXrecord
 70
     0
  0
XRECORD
  5
2FB
102
{ACAD_REACTORS
330
2F7
102
}
330
2F7
100
AcDbXrecord
  1

  0
XRECORD
  5
2F8
102
{ACAD_REACTORS
330
2F7
102
}
330
2F7
100
AcDbXrecord
 90
        1
  0
XRECORD
  5
2F9
102
{ACAD_REACTORS
330
2F7
102
}
330
2F7
100
AcDbXrecord
 90
       70
  0
XRECORD
  5
310
102
{ACAD_REACTORS
330
2F7
102
}
330
2F7
100
AcDbXrecord
340
0
  0
XRECORD
  5
316
102
{ACAD_REACTORS
330
2F7
102
}
330
2F7
100
AcDbXrecord
 10
0.0
 20
0.0
 30
0.0
  0
XRECORD
  5
312
102
{ACAD_REACTORS
330
2F7
102
}
330
2F7
100
AcDbXrecord
 10
0.0
 20
0.0
 30
0.0
  0
XRECORD
  5
315
102
{ACAD_REACTORS
330
2F7
102
}
330
2F7
100
AcDbXrecord
 10
0.0
 20
0.0
 30
0.0
  0
XRECORD
  5
313
102
{ACAD_REACTORS
330
2F7
102
}
330
2F7
100
AcDbXrecord
 10
0.0
 20
0.0
 30
0.0
  0
XRECORD
  5
314
102
{ACAD_REACTORS
330
2F7
102
}
330
2F7
100
AcDbXrecord
 10
0.0
 20
0.0
 30
0.0
  0
XRECORD
  5
311
102
{ACAD_REACTORS
330
2F7
102
}
330
2F7
100
AcDbXrecord
 10
0.0
 20
0.0
 30
0.0
  0
XRECORD
  5
30E
102
{ACAD_REACTORS
330
2F7
102
}
330
2F7
100
AcDbXrecord
340
0
  0
XRECORD
  5
30F
102
{ACAD_REACTORS
330
2F7
102
}
330
2F7
100
AcDbXrecord
 70
     0
  0
XRECORD
  5
303
102
{ACAD_REACTORS
330
2F7
102
}
330
2F7
100
AcDbXrecord
  1
{B7926359-62BF-44F7-919E-BBD0EDC8B97D}
  0
DICTIONARYVAR
  5
20E
102
{ACAD_REACTORS
330
20D
102
}
330
20D
100
DictionaryVariables
280
     0
  1
1
  0
ENDSEC
  0
EOF
