  0
SECTION
  2
HEADER
  9
$ACADVER
  1
AC1014
  9
$ACADMAINTVER
 70
     9
  9
$DWGCODEPAGE
  3
ANSI_1252
  9
$INSBASE
 10
-67.31085690590589
 20
22.5071774814987
 30
0.0
  9
$EXTMIN
 10
-82.58281757469589
 20
21.18517110366303
 30
0.0
  9
$EXTMAX
 10
-56.84398742462768
 20
34.39398865184206
 30
0.0
  9
$LIMMIN
 10
0.0
 20
0.0
  9
$LIMMAX
 10
36.0
 20
36.0
  9
$ORTHOMODE
 70
     1
  9
$REGENMODE
 70
     1
  9
$FILLMODE
 70
     1
  9
$QTEXTMODE
 70
     0
  9
$MIRRTEXT
 70
     1
  9
$DRAGMODE
 70
     0
  9
$LTSCALE
 40
1.0
  9
$OSMODE
 70
    37
  9
$ATTMODE
 70
     1
  9
$TEXTSIZE
 40
0.2
  9
$TRACEWID
 40
0.05
  9
$TEXTSTYLE
  7
STANDARD
  9
$CLAYER
  8
ADPDIM
  9
$CELTYPE
  6
BYLAYER
  9
$CECOLOR
 62
   256
  9
$CELTSCALE
 40
1.0
  9
$DELOBJ
 70
     1
  9
$DISPSILH
 70
     0
  9
$DIMSCALE
 40
1.0
  9
$DIMASZ
 40
0.125
  9
$DIMEXO
 40
0.0625
  9
$DIMDLI
 40
0.38
  9
$DIMRND
 40
0.0
  9
$DIMDLE
 40
0.0
  9
$DIMEXE
 40
0.18
  9
$DIMTP
 40
0.0
  9
$DIMTM
 40
0.0
  9
$DIMTXT
 40
0.125
  9
$DIMCEN
 40
0.1875
  9
$DIMTSZ
 40
0.125
  9
$DIMTOL
 70
     0
  9
$DIMLIM
 70
     0
  9
$DIMTIH
 70
     0
  9
$DIMTOH
 70
     0
  9
$DIMSE1
 70
     0
  9
$DIMSE2
 70
     0
  9
$DIMTAD
 70
     0
  9
$DIMZIN
 70
     3
  9
$DIMBLK
  1

  9
$DIMASO
 70
     1
  9
$DIMSHO
 70
     1
  9
$DIMPOST
  1

  9
$DIMAPOST
  1

  9
$DIMALT
 70
     0
  9
$DIMALTD
 70
     1
  9
$DIMALTF
 40
25.4
  9
$DIMLFAC
 40
1.0
  9
$DIMTOFL
 70
     0
  9
$DIMTVP
 40
0.0
  9
$DIMTIX
 70
     0
  9
$DIMSOXD
 70
     0
  9
$DIMSAH
 70
     0
  9
$DIMBLK1
  1

  9
$DIMBLK2
  1

  9
$DIMSTYLE
  2
STANDARD
  9
$DIMCLRD
 70
     0
  9
$DIMCLRE
 70
     0
  9
$DIMCLRT
 70
     0
  9
$DIMTFAC
 40
1.0
  9
$DIMGAP
 40
0.125
  9
$DIMJUST
 70
     0
  9
$DIMSD1
 70
     0
  9
$DIMSD2
 70
     0
  9
$DIMTOLJ
 70
     1
  9
$DIMTZIN
 70
     0
  9
$DIMALTZ
 70
     0
  9
$DIMALTTZ
 70
     0
  9
$DIMFIT
 70
     3
  9
$DIMUPT
 70
     0
  9
$DIMUNIT
 70
     2
  9
$DIMDEC
 70
     4
  9
$DIMTDEC
 70
     4
  9
$DIMALTU
 70
     2
  9
$DIMALTTD
 70
     2
  9
$DIMTXSTY
  7
STANDARD
  9
$DIMAUNIT
 70
     0
  9
$LUNITS
 70
     5
  9
$LUPREC
 70
     5
  9
$SKETCHINC
 40
0.1
  9
$FILLETRAD
 40
0.062
  9
$AUNITS
 70
     0
  9
$AUPREC
 70
     0
  9
$MENU
  1
acad
  9
$ELEVATION
 40
0.0
  9
$PELEVATION
 40
0.0
  9
$THICKNESS
 40
0.0
  9
$LIMCHECK
 70
     0
  9
$BLIPMODE
 70
     0
  9
$CHAMFERA
 40
0.0
  9
$CHAMFERB
 40
0.0
  9
$CHAMFERC
 40
0.0
  9
$CHAMFERD
 40
0.0
  9
$SKPOLY
 70
     0
  9
$TDCREATE
 40
2450409.655422256
  9
$TDUPDATE
 40
2452297.078570775
  9
$TDINDWG
 40
0.0442219676
  9
$TDUSRTIMER
 40
0.0442219676
  9
$USRTIMER
 70
     1
  9
$ANGBASE
 50
0.0
  9
$ANGDIR
 70
     0
  9
$PDMODE
 70
     0
  9
$PDSIZE
 40
0.0
  9
$PLINEWID
 40
0.0
  9
$COORDS
 70
     2
  9
$SPLFRAME
 70
     0
  9
$SPLINETYPE
 70
     6
  9
$SPLINESEGS
 70
     8
  9
$ATTDIA
 70
     0
  9
$ATTREQ
 70
     1
  9
$HANDLING
 70
 22529
  9
$HANDSEED
  5
367
  9
$SURFTAB1
 70
     6
  9
$SURFTAB2
 70
     6
  9
$SURFTYPE
 70
     6
  9
$SURFU
 70
     6
  9
$SURFV
 70
     6
  9
$UCSNAME
  2

  9
$UCSORG
 10
0.0
 20
0.0
 30
0.0
  9
$UCSXDIR
 10
1.0
 20
0.0
 30
0.0
  9
$UCSYDIR
 10
0.0
 20
1.0
 30
0.0
  9
$PUCSNAME
  2

  9
$PUCSORG
 10
0.0
 20
0.0
 30
0.0
  9
$PUCSXDIR
 10
1.0
 20
0.0
 30
0.0
  9
$PUCSYDIR
 10
0.0
 20
1.0
 30
0.0
  9
$USERI1
 70
     0
  9
$USERI2
 70
     0
  9
$USERI3
 70
     0
  9
$USERI4
 70
     0
  9
$USERI5
 70
     0
  9
$USERR1
 40
0.0
  9
$USERR2
 40
0.0
  9
$USERR3
 40
0.0
  9
$USERR4
 40
0.0
  9
$USERR5
 40
0.0
  9
$WORLDVIEW
 70
     1
  9
$SHADEDGE
 70
     3
  9
$SHADEDIF
 70
    70
  9
$TILEMODE
 70
     1
  9
$MAXACTVP
 70
    15
  9
$PINSBASE
 10
0.0009765857830644
 20
1.500170956078392
 30
0.0
  9
$PLIMCHECK
 70
     0
  9
$PEXTMIN
 10
1.000000000000000E+20
 20
1.000000000000000E+20
 30
1.000000000000000E+20
  9
$PEXTMAX
 10
-1.000000000000000E+20
 20
-1.000000000000000E+20
 30
-1.000000000000000E+20
  9
$PLIMMIN
 10
0.0
 20
0.0
  9
$PLIMMAX
 10
12.0
 20
9.0
  9
$UNITMODE
 70
     0
  9
$VISRETAIN
 70
     0
  9
$PLINEGEN
 70
     0
  9
$PSLTSCALE
 70
     1
  9
$TREEDEPTH
 70
  3020
  9
$PICKSTYLE
 70
     1
  9
$CMLSTYLE
  2
STANDARD
  9
$CMLJUST
 70
     0
  9
$CMLSCALE
 40
1.0
  9
$PROXYGRAPHICS
 70
     1
  9
$MEASUREMENT
 70
     0
  0
ENDSEC
  0
SECTION
  2
CLASSES
  0
CLASS
  1
ACDBDICTIONARYWDFLT
  2
AcDbDictionaryWithDefault
  3
AutoCAD 2000
 90
        0
280
     0
281
     0
  0
CLASS
  1
ACDBPLACEHOLDER
  2
AcDbPlaceHolder
  3
AutoCAD 2000
 90
        0
280
     0
281
     0
  0
CLASS
  1
LAYOUT
  2
AcDbLayout
  3
AutoCAD 2000
 90
        0
280
     0
281
     0
  0
CLASS
  1
DICTIONARYVAR
  2
AcDbDictionaryVar
  3
AutoCAD 2000
 90
        0
280
     0
281
     0
  0
CLASS
  1
LONG_TRANSACTION
  2
AcDbLongTransaction
  3
AutoCAD 2000
 90
        0
280
     0
281
     0
  0
CLASS
  1
LWPOLYLINE
  2
AcDbPolyline
  3
AutoCAD 2000
 90
        0
280
     0
281
     1
  0
CLASS
  1
HATCH
  2
AcDbHatch
  3
AutoCAD 2000
 90
        0
280
     0
281
     1
  0
CLASS
  1
XRECORD
  2
AcDbXrecord
  3
AutoCAD 2000
 90
        0
280
     0
281
     0
  0
CLASS
  1
LONG_TRANSACTION
  2
AcDbLongTransaction
  3
AutoCAD 2000
 90
        0
280
     0
281
     0
  0
CLASS
  1
LWPOLYLINE
  2
AcDbPolyline
  3
AutoCAD 2000
 90
        0
280
     0
281
     1
  0
CLASS
  1
HATCH
  2
AcDbHatch
  3
AutoCAD 2000
 90
        0
280
     0
281
     1
  0
CLASS
  1
XRECORD
  2
AcDbXrecord
  3
AutoCAD 2000
 90
        0
280
     0
281
     0
  0
CLASS
  1
LONG_TRANSACTION
  2
AcDbLongTransaction
  3
AutoCAD 2000
 90
        0
280
     0
281
     0
  0
CLASS
  1
LWPOLYLINE
  2
AcDbPolyline
  3
AutoCAD 2000
 90
        0
280
     0
281
     1
  0
CLASS
  1
HATCH
  2
AcDbHatch
  3
AutoCAD 2000
 90
        0
280
     0
281
     1
  0
CLASS
  1
XRECORD
  2
AcDbXrecord
  3
AutoCAD 2000
 90
        0
280
     0
281
     0
  0
CLASS
  1
LONG_TRANSACTION
  2
AcDbLongTransaction
  3
AutoCAD 2000
 90
        0
280
     0
281
     0
  0
CLASS
  1
LWPOLYLINE
  2
AcDbPolyline
  3
AutoCAD 2000
 90
        0
280
     0
281
     1
  0
CLASS
  1
HATCH
  2
AcDbHatch
  3
AutoCAD 2000
 90
        0
280
     0
281
     1
  0
CLASS
  1
XRECORD
  2
AcDbXrecord
  3
AutoCAD 2000
 90
        0
280
     0
281
     0
  0
CLASS
  1
LONG_TRANSACTION
  2
AcDbLongTransaction
  3
AutoCAD 2000
 90
        0
280
     0
281
     0
  0
CLASS
  1
LWPOLYLINE
  2
AcDbPolyline
  3
AutoCAD 2000
 90
        0
280
     0
281
     1
  0
CLASS
  1
HATCH
  2
AcDbHatch
  3
AutoCAD 2000
 90
        0
280
     0
281
     1
  0
CLASS
  1
XRECORD
  2
AcDbXrecord
  3
AutoCAD 2000
 90
        0
280
     0
281
     0
  0
ENDSEC
  0
SECTION
  2
TABLES
  0
TABLE
  2
VPORT
  5
8
330
0
100
AcDbSymbolTable
 70
     2
  0
VPORT
  5
344
330
8
100
AcDbSymbolTableRecord
100
AcDbViewportTableRecord
  2
*ACTIVE
 70
     0
 10
0.0
 20
0.0
 11
1.0
 21
1.0
 12
-69.69561810008181
 22
27.78881845458972
 13
0.0
 23
0.0
 14
0.5740882589684922
 24
0.5740882589684922
 15
0.5
 25
0.5
 16
0.0
 26
0.0
 36
1.0
 17
0.0
 27
0.0
 37
0.0
 40
16.50060616277573
 41
1.570528967254408
 42
50.0
 43
0.0
 44
0.0
 50
0.0
 51
0.0
 71
     0
 72
   100
 73
     1
 74
     0
 75
     0
 76
     0
 77
     0
 78
     0
  0
ENDTAB
  0
TABLE
  2
LTYPE
  5
5
330
0
100
AcDbSymbolTable
 70
     1
  0
LTYPE
  5
12
330
5
100
AcDbSymbolTableRecord
100
AcDbLinetypeTableRecord
  2
BYBLOCK
 70
     0
  3

 72
    65
 73
     0
 40
0.0
  0
LTYPE
  5
13
330
5
100
AcDbSymbolTableRecord
100
AcDbLinetypeTableRecord
  2
BYLAYER
 70
     0
  3

 72
    65
 73
     0
 40
0.0
  0
LTYPE
  5
14
330
5
100
AcDbSymbolTableRecord
100
AcDbLinetypeTableRecord
  2
CONTINUOUS
 70
     0
  3
Solid line
 72
    65
 73
     0
 40
0.0
  0
ENDTAB
  0
TABLE
  2
LAYER
  5
2
330
0
100
AcDbSymbolTable
 70
     3
  0
LAYER
  5
F
330
2
100
AcDbSymbolTableRecord
100
AcDbLayerTableRecord
  2
0
 70
     0
 62
     7
  6
CONTINUOUS
  0
LAYER
  5
DD
330
2
100
AcDbSymbolTableRecord
100
AcDbLayerTableRecord
  2
DEFPOINTS
 70
     0
 62
     7
  6
CONTINUOUS
  0
LAYER
  5
E0
330
2
100
AcDbSymbolTableRecord
100
AcDbLayerTableRecord
  2
ADPDIM
 70
     0
 62
     3
  6
CONTINUOUS
  0
ENDTAB
  0
TABLE
  2
STYLE
  5
3
330
0
100
AcDbSymbolTable
 70
     2
  0
STYLE
  5
10
330
3
100
AcDbSymbolTableRecord
100
AcDbTextStyleTableRecord
  2
STANDARD
 70
     0
 40
0.0
 41
1.0
 50
0.0
 71
     0
 42
0.2
  3
txt
  4

  0
STYLE
  5
200
330
3
100
AcDbSymbolTableRecord
100
AcDbTextStyleTableRecord
  2
ARIAL_WIDE
 70
     0
 40
0.0
 41
1.25
 50
0.0
 71
     0
 42
0.2
  3
ARIAL.TTF
  4

1001
ACAD
1000
Arial
1071
       34
  0
ENDTAB
  0
TABLE
  2
VIEW
  5
6
330
0
100
AcDbSymbolTable
 70
     0
  0
ENDTAB
  0
TABLE
  2
UCS
  5
7
330
0
100
AcDbSymbolTable
 70
     0
  0
ENDTAB
  0
TABLE
  2
APPID
  5
9
330
0
100
AcDbSymbolTable
 70
     1
  0
APPID
  5
11
330
9
100
AcDbSymbolTableRecord
100
AcDbRegAppTableRecord
  2
ACAD
 70
     0
  0
ENDTAB
  0
TABLE
  2
DIMSTYLE
  5
A
330
0
100
AcDbSymbolTable
 70
     1
  0
DIMSTYLE
105
1F4
330
A
100
AcDbSymbolTableRecord
100
AcDbDimStyleTableRecord
  2
STANDARD
 70
     0
  3

  4

  5

  6

  7

 40
1.0
 41
0.18
 42
0.0625
 43
0.38
 44
0.18
 45
0.0
 46
0.0
 47
0.0
 48
0.0
140
0.18
141
0.09
142
0.0
143
25.4
144
1.0
145
0.0
146
1.0
147
0.09
 71
     0
 72
     0
 73
     1
 74
     1
 75
     0
 76
     0
 77
     0
 78
     0
170
     0
171
     2
172
     0
173
     0
174
     0
175
     0
176
     0
177
     0
178
     0
270
     2
271
     4
272
     4
273
     2
274
     2
340
10
275
     0
280
     0
281
     0
282
     0
283
     1
284
     0
285
     0
286
     0
287
     3
288
     0
  0
ENDTAB
  0
TABLE
  2
BLOCK_RECORD
  5
1
330
0
100
AcDbSymbolTable
 70
     2
  0
BLOCK_RECORD
  5
18
102
{ACAD_XDICTIONARY
360
255
102
}
330
1
100
AcDbSymbolTableRecord
100
AcDbBlockTableRecord
  2
*MODEL_SPACE
  0
BLOCK_RECORD
  5
15
102
{ACAD_XDICTIONARY
360
253
102
}
330
1
100
AcDbSymbolTableRecord
100
AcDbBlockTableRecord
  2
*PAPER_SPACE
  0
BLOCK_RECORD
  5
D6
330
1
100
AcDbSymbolTableRecord
100
AcDbBlockTableRecord
  2
*D0
  0
BLOCK_RECORD
  5
D8
330
1
100
AcDbSymbolTableRecord
100
AcDbBlockTableRecord
  2
*D1
  0
ENDTAB
  0
ENDSEC
  0
SECTION
  2
BLOCKS
  0
BLOCK
  5
E3
330
18
100
AcDbEntity
  8
0
100
AcDbBlockBegin
  2
*MODEL_SPACE
 70
     0
 10
0.0
 20
0.0
 30
0.0
  3
*MODEL_SPACE
  1

  0
ENDBLK
  5
E4
330
18
100
AcDbEntity
  8
0
100
AcDbBlockEnd
  0
BLOCK
  5
E1
330
15
100
AcDbEntity
 67
     1
  8
0
100
AcDbBlockBegin
  2
*PAPER_SPACE
 70
     0
 10
0.0
 20
0.0
 30
0.0
  3
*PAPER_SPACE
  1

  0
ENDBLK
  5
E2
330
15
100
AcDbEntity
 67
     1
  8
0
100
AcDbBlockEnd
  0
BLOCK
  5
E6
330
D6
100
AcDbEntity
  8
0
100
AcDbBlockBegin
  2
*D0
 70
     1
 10
0.0
 20
0.0
 30
0.0
  3
*D0
  1

  0
LINE
  5
E7
330
D6
100
AcDbEntity
  8
0
  6
BYBLOCK
 62
     0
100
AcDbLine
 10
-102.0303746086983
 20
28.33985934110673
 30
0.0
 11
-102.0303746086983
 21
34.39398865184206
 31
0.0
  0
LINE
  5
E8
330
D6
100
AcDbEntity
  8
0
  6
BYBLOCK
 62
     0
100
AcDbLine
 10
-94.0303746086983
 20
28.45082451160275
 30
0.0
 11
-94.0303746086983
 21
34.39398865184206
 31
0.0
  0
LINE
  5
E9
330
D6
100
AcDbEntity
  8
0
  6
BYBLOCK
 62
     0
100
AcDbLine
 10
-102.0303746086983
 20
34.21398865184206
 30
0.0
 11
-98.19704127536496
 21
34.21398865184206
 31
0.0
  0
LINE
  5
EA
330
D6
100
AcDbEntity
  8
0
  6
BYBLOCK
 62
     0
100
AcDbLine
 10
-94.0303746086983
 20
34.21398865184206
 30
0.0
 11
-97.86370794203163
 21
34.21398865184206
 31
0.0
  0
LINE
  5
EB
330
D6
100
AcDbEntity
  8
0
  6
BYBLOCK
 62
     0
100
AcDbLine
 10
-102.1553746086983
 20
34.08898865184206
 30
0.0
 11
-101.9053746086983
 21
34.33898865184206
 31
0.0
  0
LINE
  5
EC
330
D6
100
AcDbEntity
  8
0
  6
BYBLOCK
 62
     0
100
AcDbLine
 10
-94.15537460869829
 20
34.08898865184206
 30
0.0
 11
-93.90537460869829
 21
34.33898865184206
 31
0.0
  0
TEXT
  5
ED
330
D6
100
AcDbEntity
  8
0
  6
BYBLOCK
 62
     0
100
AcDbText
 10
-98.07204127536497
 20
34.15148865184206
 30
0.0
 40
0.125
  1
8
 72
     1
 11
-98.0303746086983
 21
34.21398865184206
 31
0.0
100
AcDbText
 73
     2
  0
POINT
  5
EE
330
D6
100
AcDbEntity
  8
DEFPOINTS
  6
BYBLOCK
 62
     0
100
AcDbPoint
 10
-102.0303746086983
 20
28.27735934110673
 30
0.0
  0
POINT
  5
EF
330
D6
100
AcDbEntity
  8
DEFPOINTS
  6
BYBLOCK
 62
     0
100
AcDbPoint
 10
-94.0303746086983
 20
28.38832451160275
 30
0.0
  0
POINT
  5
F0
330
D6
100
AcDbEntity
  8
DEFPOINTS
  6
BYBLOCK
 62
     0
100
AcDbPoint
 10
-94.0303746086983
 20
34.21398865184206
 30
0.0
  0
ENDBLK
  5
F1
330
D6
100
AcDbEntity
  8
0
100
AcDbBlockEnd
  0
BLOCK
  5
F2
330
D8
100
AcDbEntity
  8
0
100
AcDbBlockBegin
  2
*D1
 70
     1
 10
0.0
 20
0.0
 30
0.0
  3
*D1
  1

  0
LINE
  5
F3
330
D8
100
AcDbEntity
  8
0
  6
BYBLOCK
 62
     0
100
AcDbLine
 10
-95.66950102983556
 20
22.84007268837002
 30
0.0
 11
-93.3321465118535
 21
22.84007268837002
 31
0.0
  0
LINE
  5
F4
330
D8
100
AcDbEntity
  8
0
  6
BYBLOCK
 62
     0
100
AcDbLine
 10
-95.66950102983556
 20
33.84007268837002
 30
0.0
 11
-93.3321465118535
 21
33.84007268837002
 31
0.0
  0
LINE
  5
F5
330
D8
100
AcDbEntity
  8
0
  6
BYBLOCK
 62
     0
100
AcDbLine
 10
-93.51214651185351
 20
22.84007268837002
 30
0.0
 11
-93.51214651185351
 21
28.15257268837002
 31
0.0
  0
LINE
  5
F6
330
D8
100
AcDbEntity
  8
0
  6
BYBLOCK
 62
     0
100
AcDbLine
 10
-93.51214651185351
 20
33.84007268837002
 30
0.0
 11
-93.51214651185351
 21
28.52757268837002
 31
0.0
  0
LINE
  5
F7
330
D8
100
AcDbEntity
  8
0
  6
BYBLOCK
 62
     0
100
AcDbLine
 10
-93.38714651185352
 20
22.71507268837002
 30
0.0
 11
-93.63714651185352
 21
22.96507268837002
 31
0.0
  0
LINE
  5
F8
330
D8
100
AcDbEntity
  8
0
  6
BYBLOCK
 62
     0
100
AcDbLine
 10
-93.38714651185352
 20
33.71507268837002
 30
0.0
 11
-93.63714651185352
 21
33.96507268837002
 31
0.0
  0
TEXT
  5
F9
330
D8
100
AcDbEntity
  8
0
  6
BYBLOCK
 62
     0
100
AcDbText
 10
-93.44964651185351
 20
28.27757268837002
 30
0.0
 40
0.125
  1
11
 50
90.0
 72
     1
 11
-93.51214651185351
 21
28.34007268837002
 31
0.0
100
AcDbText
 73
     2
  0
POINT
  5
FA
330
D8
100
AcDbEntity
  8
DEFPOINTS
  6
BYBLOCK
 62
     0
100
AcDbPoint
 10
-95.73200102983555
 20
22.84007268837002
 30
0.0
  0
POINT
  5
FB
330
D8
100
AcDbEntity
  8
DEFPOINTS
  6
BYBLOCK
 62
     0
100
AcDbPoint
 10
-95.73200102983555
 20
33.84007268837002
 30
0.0
  0
POINT
  5
FC
330
D8
100
AcDbEntity
  8
DEFPOINTS
  6
BYBLOCK
 62
     0
100
AcDbPoint
 10
-93.51214651185351
 20
33.84007268837002
 30
0.0
  0
ENDBLK
  5
FD
330
D8
100
AcDbEntity
  8
0
100
AcDbBlockEnd
  0
ENDSEC
  0
SECTION
  2
ENTITIES
  0
LWPOLYLINE
  5
FE
330
18
100
AcDbEntity
  8
0
100
AcDbPolyline
 90
        7
 70
     0
 43
0.0
 10
-69.46893780296986
 20
27.91295229937137
 42
-0.2265607392403369
 10
-68.88846776434395
 20
29.07336660019378
 42
-0.0725094484729001
 10
-67.4525684510734
 20
29.90805063801058
 42
0.1609316118937263
 10
-66.45456747626489
 20
30.89542073661125
 42
0.2218630259951294
 10
-66.67860843816963
 20
32.35102824752578
 42
0.4032438852799333
 10
-68.64405940015976
 20
32.54443059118536
 42
0.1733650913722799
 10
-69.01075237595539
 20
31.83129001243376
 42
0.3572446443058505
  0
LWPOLYLINE
  5
107
330
18
100
AcDbEntity
  8
0
100
AcDbPolyline
 90
        7
 70
     0
 43
0.0
 10
-67.07577208786509
 20
29.62303657825902
 42
0.1217800157441084
 10
-68.21634464704513
 20
29.266769023475
 42
-0.0559447544712422
 10
-67.34054785432873
 20
29.70446914401042
 42
0.0010147288795278
 10
-66.42401637284573
 20
30.39664619176228
 42
0.3732270140322363
 10
-66.33236317838051
 20
32.4833561668718
 42
0.3860946367303275
 10
-68.60332471139317
 20
32.8701609338126
 42
0.2849294398221384
 10
-69.26023768423177
 20
31.83129001243376
 42
0.418260752781318
  0
LWPOLYLINE
  5
110
330
18
100
AcDbEntity
  8
0
100
AcDbPolyline
 90
       10
 70
     0
 43
0.0
 10
-69.46540910327687
 20
31.83129001243376
 42
-0.2228508033702091
 10
-68.61350829674059
 20
33.11445871068845
 42
-0.3949432169573821
 10
-66.13887320410263
 20
32.59532594477998
 42
-0.3648160805052952
 10
-66.23052639856786
 20
30.23378098063782
 42
-0.1163518333247437
 10
-67.07577208786509
 20
29.62303657825902
 42
-0.209902853401259
 10
-65.93519952868504
 20
28.9613968222856
 42
-0.5927131031017959
 10
-66.24071009970757
 20
28.47280134815555
 42
-0.2533565500774298
 10
-66.66842473702991
 20
28.94103868084775
 42
0.2876387549635244
 10
-67.61550732193208
 20
29.266769023475
 42
0.3822706185561477
 10
-68.79681468567103
 20
27.91295229937137
 42
-1.012886722446914
  0
LWPOLYLINE
  5
11C
330
18
100
AcDbEntity
  8
0
100
AcDbPolyline
 90
       10
 70
     0
 43
0.0
 10
-69.83907904893911
 20
31.83129001243376
 42
0.2228508033702091
 10
-70.69097985547539
 20
33.11445871068845
 42
0.3949432169573821
 10
-73.16561494811335
 20
32.59532594477998
 42
0.3648160805052952
 10
-73.07396175364814
 20
30.23378098063782
 42
0.1163518333247437
 10
-72.22871606435089
 20
29.62303657825902
 42
0.209902853401259
 10
-73.36928862353095
 20
28.9613968222856
 42
0.5927131031017959
 10
-73.06377805250841
 20
28.47280134815555
 42
0.2533565500774298
 10
-72.63606341518607
 20
28.94103868084775
 42
-0.2876387549635244
 10
-71.68898083028389
 20
29.266769023475
 42
-0.3822706185561477
 10
-70.50767346654495
 20
27.91295229937137
 42
1.012886722446914
  0
LWPOLYLINE
  5
128
330
18
100
AcDbEntity
  8
0
100
AcDbPolyline
 90
        7
 70
     0
 43
0.0
 10
-72.22871606435089
 20
29.62303657825902
 42
-0.1217800157441084
 10
-71.08814350517085
 20
29.266769023475
 42
0.0559447544712422
 10
-71.96394029788726
 20
29.70446914401042
 42
-0.0010147288795278
 10
-72.88047177937027
 20
30.39664619176228
 42
-0.3732270140322363
 10
-72.97212497383549
 20
32.4833561668718
 42
-0.3860946367303275
 10
-70.70116344082283
 20
32.8701609338126
 42
-0.2849294398221384
 10
-70.04425046798423
 20
31.83129001243376
 42
-0.418260752781318
  0
LWPOLYLINE
  5
131
330
18
100
AcDbEntity
  8
0
100
AcDbPolyline
 90
        7
 70
     0
 43
0.0
 10
-69.83555034924613
 20
27.91295229937137
 42
0.2265607392403369
 10
-70.41602038787203
 20
29.07336660019378
 42
0.0725094484729001
 10
-71.85191970114259
 20
29.90805063801058
 42
-0.1609316118937263
 10
-72.84992067595109
 20
30.89542073661125
 42
-0.2218630259951294
 10
-72.62587971404636
 20
32.35102824752578
 42
-0.4032438852799333
 10
-70.66042875205622
 20
32.54443059118536
 42
-0.1733650913722799
 10
-70.2937357762606
 20
31.83129001243376
 42
-0.3572446443058505
  0
DIMENSION
  5
13A
330
18
100
AcDbEntity
  8
ADPDIM
100
AcDbDimension
  2
*D1
 10
-65.15350238792385
 20
33.5071774814987
 30
0.0
 11
-65.15350238792385
 21
28.0071774814987
 31
0.0
 12
28.35864412392966
 22
-0.3328952068713171
 32
0.0
100
AcDbAlignedDimension
 13
-67.37335690590589
 23
22.5071774814987
 33
0.0
 14
-67.37335690590589
 24
33.5071774814987
 34
0.0
 50
90.0
100
AcDbRotatedDimension
  0
DIMENSION
  5
13B
330
18
100
AcDbEntity
  8
ADPDIM
100
AcDbDimension
  2
*D0
 10
-65.67173048476863
 20
34.21398865184206
 30
0.0
 11
-69.67173048476863
 21
34.21398865184206
 31
0.0
 12
28.35864412392966
 22
0.0
 32
0.0
100
AcDbAlignedDimension
 13
-73.67173048476863
 23
28.27735934110673
 33
0.0
 14
-65.67173048476863
 24
28.38832451160275
 34
0.0
100
AcDbRotatedDimension
  0
LWPOLYLINE
  5
13C
330
18
100
AcDbEntity
  8
0
100
AcDbPolyline
 90
        7
 70
     0
 43
0.0
 10
-69.83555034924613
 20
27.91295229937138
 42
-0.2265607392403369
 10
-70.41602038787203
 20
26.75253799854897
 42
-0.0725094484729001
 10
-71.85191970114259
 20
25.91785396073218
 42
0.1609316118937263
 10
-72.84992067595109
 20
24.9304838621315
 42
0.2218630259951294
 10
-72.62587971404636
 20
23.47487635121697
 42
0.4032438852799333
 10
-70.66042875205622
 20
23.2814740075574
 42
0.1733650913722799
 10
-70.2937357762606
 20
23.99461458630899
 42
0.3572446443058505
  0
LWPOLYLINE
  5
145
330
18
100
AcDbEntity
  8
0
100
AcDbPolyline
 90
        7
 70
     0
 43
0.0
 10
-72.22871606435089
 20
26.20286802048372
 42
0.1217800157441084
 10
-71.08814350517085
 20
26.55913557526774
 42
-0.0559447544712422
 10
-71.96394029788726
 20
26.12143545473232
 42
0.0010147288795278
 10
-72.88047177937027
 20
25.42925840698047
 42
0.3732270140322363
 10
-72.97212497383549
 20
23.34254843187095
 42
0.3860946367303275
 10
-70.70116344082283
 20
22.95574366493015
 42
0.2849294398221384
 10
-70.04425046798423
 20
23.99461458630899
 42
0.418260752781318
  0
LWPOLYLINE
  5
14E
330
18
100
AcDbEntity
  8
0
100
AcDbPolyline
 90
       10
 70
     0
 43
0.0
 10
-69.83907904893911
 20
23.99461458630899
 42
-0.2228508033702091
 10
-70.69097985547539
 20
22.7114458880543
 42
-0.3949432169573821
 10
-73.16561494811335
 20
23.23057865396277
 42
-0.3648160805052952
 10
-73.07396175364814
 20
25.59212361810492
 42
-0.1163518333247437
 10
-72.22871606435089
 20
26.20286802048372
 42
-0.209902853401259
 10
-73.36928862353095
 20
26.86450777645715
 42
-0.5927131031017959
 10
-73.06377805250841
 20
27.3531032505872
 42
-0.2533565500774298
 10
-72.63606341518607
 20
26.884865917895
 42
0.2876387549635244
 10
-71.68898083028389
 20
26.55913557526774
 42
0.3822706185561477
 10
-70.50767346654495
 20
27.91295229937138
 42
-1.012886722446914
  0
LWPOLYLINE
  5
15A
330
18
100
AcDbEntity
  8
0
100
AcDbPolyline
 90
       10
 70
     0
 43
0.0
 10
-69.46540910327687
 20
23.99461458630899
 42
0.2228508033702091
 10
-68.61350829674059
 20
22.7114458880543
 42
0.3949432169573821
 10
-66.13887320410263
 20
23.23057865396277
 42
0.3648160805052952
 10
-66.23052639856786
 20
25.59212361810492
 42
0.1163518333247437
 10
-67.07577208786509
 20
26.20286802048372
 42
0.209902853401259
 10
-65.93519952868504
 20
26.86450777645715
 42
0.5927131031017959
 10
-66.24071009970757
 20
27.3531032505872
 42
0.2533565500774298
 10
-66.66842473702991
 20
26.884865917895
 42
-0.2876387549635244
 10
-67.61550732193208
 20
26.55913557526774
 42
-0.3822706185561477
 10
-68.79681468567103
 20
27.91295229937138
 42
1.012886722446914
  0
LWPOLYLINE
  5
166
330
18
100
AcDbEntity
  8
0
100
AcDbPolyline
 90
        7
 70
     0
 43
0.0
 10
-67.07577208786509
 20
26.20286802048372
 42
-0.1217800157441084
 10
-68.21634464704513
 20
26.55913557526774
 42
0.0559447544712422
 10
-67.34054785432873
 20
26.12143545473232
 42
-0.0010147288795278
 10
-66.42401637284573
 20
25.42925840698047
 42
-0.3732270140322363
 10
-66.33236317838051
 20
23.34254843187095
 42
-0.3860946367303275
 10
-68.60332471139317
 20
22.95574366493015
 42
-0.2849294398221384
 10
-69.26023768423177
 20
23.99461458630899
 42
-0.418260752781318
  0
LWPOLYLINE
  5
16F
330
18
100
AcDbEntity
  8
0
100
AcDbPolyline
 90
        7
 70
     0
 43
0.0
 10
-69.46893780296986
 20
27.91295229937138
 42
0.2265607392403369
 10
-68.88846776434395
 20
26.75253799854897
 42
0.0725094484729001
 10
-67.4525684510734
 20
25.91785396073218
 42
-0.1609316118937263
 10
-66.45456747626489
 20
24.9304838621315
 42
-0.2218630259951294
 10
-66.67860843816963
 20
23.47487635121697
 42
-0.4032438852799333
 10
-68.64405940015976
 20
23.2814740075574
 42
-0.1733650913722799
 10
-69.01075237595539
 20
23.99461458630899
 42
-0.3572446443058505
  0
LWPOLYLINE
  5
178
330
18
100
AcDbEntity
  8
0
100
AcDbPolyline
 90
        5
 70
     0
 43
0.0
 10
-70.15124462140839
 20
31.33312085714667
 42
-0.418260752781318
 10
-71.21034768726295
 20
30.6511229597354
 42
0.0498734786642303
 10
-71.65842972686473
 20
31.0582859477357
 42
0.3697603474455049
 10
-71.90283820684121
 20
31.02774873557892
 42
0.3664735628990273
 10
-71.84173600000287
 20
30.53915318182722
 42
2.279072845550413
  0
LWPOLYLINE
  5
17F
330
18
100
AcDbEntity
  8
0
100
AcDbPolyline
 90
        5
 70
     0
 43
0.0
 10
-70.29381608998765
 20
27.91295229937137
 42
0.2856438301198132
 10
-71.10851079165801
 20
29.266769023475
 42
0.2046658144952747
 10
-72.61569601290663
 20
29.3889178721021
 42
0.1750609470860348
 10
-73.15543124697363
 20
28.91050146869098
 42
0.2182191808204998
 10
-73.16561494811335
 20
28.48298041887447
 42
0.658682937821642
  0
LWPOLYLINE
  5
186
330
18
100
AcDbEntity
  8
0
100
AcDbPolyline
 90
        8
 70
     0
 43
0.0
 10
-70.34290663263866
 20
31.30329001243376
 42
-0.0137809773536435
 10
-70.36510188217341
 20
31.24150922067635
 42
-0.3572446443058505
 10
-70.97612290842618
 20
30.90559980733018
 42
-0.3457927923805353
 10
-71.4853071548663
 20
31.1397185134871
 42
0.369943486015561
 10
-71.99449128551413
 20
31.23133014995743
 42
0.4605576416803275
 10
-72.09632818111908
 20
30.72237653438953
 42
0.1888040607613903
 10
-71.1492455962169
 20
30.36610889998385
 42
0.3394887196091549
 10
-69.83555034924613
 20
31.32294178642776
 42
0.2979479006866183
  0
LWPOLYLINE
  5
190
330
18
100
AcDbEntity
  8
0
100
AcDbPolyline
 90
        5
 70
     0
 43
0.0
 10
-70.29381608998765
 20
27.91295229937138
 42
-0.2856438301198132
 10
-71.10851079165801
 20
26.55913557526774
 42
-0.2046658144952747
 10
-72.61569601290663
 20
26.43698672664065
 42
-0.1750609470860348
 10
-73.15543124697363
 20
26.91540313005177
 42
-0.2182191808204998
 10
-73.16561494811335
 20
27.34292417986827
 42
-0.658682937821642
  0
LWPOLYLINE
  5
197
330
18
100
AcDbEntity
  8
0
100
AcDbPolyline
 90
        8
 70
     0
 43
0.0
 10
-70.34290663263866
 20
24.52261458630899
 42
0.0137809773536435
 10
-70.36510188217341
 20
24.5843953780664
 42
0.3572446443058505
 10
-70.97612290842618
 20
24.92030479141257
 42
0.3457927923805353
 10
-71.4853071548663
 20
24.68618608525565
 42
-0.369943486015561
 10
-71.99449128551413
 20
24.59457444878532
 42
-0.4605576416803275
 10
-72.09632818111908
 20
25.10352806435322
 42
-0.1888040607613903
 10
-71.1492455962169
 20
25.4597956987589
 42
-0.3394887196091549
 10
-69.83555034924613
 20
24.50296281231499
 42
-0.2979479006866183
  0
LWPOLYLINE
  5
1A1
330
18
100
AcDbEntity
  8
0
100
AcDbPolyline
 90
        5
 70
     0
 43
0.0
 10
-70.15124462140839
 20
24.49278374159607
 42
0.418260752781318
 10
-71.21034768726295
 20
25.17478163900735
 42
-0.0498734786642303
 10
-71.65842972686473
 20
24.76761865100705
 42
-0.3697603474455049
 10
-71.90283820684121
 20
24.79815586316382
 42
-0.3664735628990273
 10
-71.84173600000287
 20
25.28675141691552
 42
-2.279072845550413
  0
LWPOLYLINE
  5
1A8
330
18
100
AcDbEntity
  8
0
100
AcDbPolyline
 90
        5
 70
     0
 43
0.0
 10
-69.01067206222835
 20
27.91295229937137
 42
-0.2856438301198132
 10
-68.19597736055799
 20
29.266769023475
 42
-0.2046658144952747
 10
-66.68879213930935
 20
29.3889178721021
 42
-0.1750609470860348
 10
-66.14905690524236
 20
28.91050146869098
 42
-0.2182191808204998
 10
-66.13887320410263
 20
28.48298041887447
 42
-0.658682937821642
  0
LWPOLYLINE
  5
1AF
330
18
100
AcDbEntity
  8
0
100
AcDbPolyline
 90
        5
 70
     0
 43
0.0
 10
-69.01067206222835
 20
27.91295229937138
 42
0.2856438301198132
 10
-68.19597736055799
 20
26.55913557526774
 42
0.2046658144952747
 10
-66.68879213930935
 20
26.43698672664065
 42
0.1750609470860348
 10
-66.14905690524236
 20
26.91540313005177
 42
0.2182191808204998
 10
-66.13887320410263
 20
27.34292417986827
 42
0.658682937821642
  0
LWPOLYLINE
  5
1B6
330
18
100
AcDbEntity
  8
0
100
AcDbPolyline
 90
        8
 70
     0
 43
0.0
 10
-68.96158151957732
 20
24.52261458630899
 42
-0.0137809773536435
 10
-68.93938627004257
 20
24.5843953780664
 42
-0.3572446443058505
 10
-68.3283652437898
 20
24.92030479141257
 42
-0.3457927923805353
 10
-67.81918099734967
 20
24.68618608525565
 42
0.369943486015561
 10
-67.30999686670185
 20
24.59457444878532
 42
0.4605576416803275
 10
-67.2081599710969
 20
25.10352806435322
 42
0.1888040607613903
 10
-68.1552425559991
 20
25.4597956987589
 42
0.3394887196091549
 10
-69.46893780296986
 20
24.50296281231499
 42
0.2979479006866183
  0
LWPOLYLINE
  5
1C0
330
18
100
AcDbEntity
  8
0
100
AcDbPolyline
 90
        5
 70
     0
 43
0.0
 10
-69.1532435308076
 20
24.49278374159607
 42
-0.418260752781318
 10
-68.09414046495304
 20
25.17478163900735
 42
0.0498734786642303
 10
-67.64605842535127
 20
24.76761865100705
 42
0.3697603474455049
 10
-67.40164994537477
 20
24.79815586316382
 42
0.3664735628990273
 10
-67.46275215221311
 20
25.28675141691552
 42
2.279072845550413
  0
LINE
  5
1C7
330
18
100
AcDbEntity
  8
0
 62
     7
100
AcDbLine
 10
-68.87299380073335
 20
24.52261458630899
 30
0.0
 11
-70.45699380073336
 21
24.52261458630899
 31
0.0
  0
LINE
  5
1C8
330
18
100
AcDbEntity
  8
0
 62
     7
100
AcDbLine
 10
-70.53822456996413
 20
24.2383068940013
 30
0.0
 11
-68.79176303150258
 21
24.2383068940013
 31
0.0
  0
LINE
  5
1C9
330
18
100
AcDbEntity
  8
0
 62
     7
100
AcDbLine
 10
-70.45699380073336
 20
23.99461458630899
 30
0.0
 11
-68.87299380073335
 21
23.99461458630899
 31
0.0
  0
LINE
  5
1CA
330
18
100
AcDbEntity
  8
0
 62
     7
100
AcDbLine
 10
-70.17268610842567
 20
23.99461458630899
 30
0.0
 11
-70.25391687765644
 21
24.2383068940013
 31
0.0
  0
LINE
  5
1CB
330
18
100
AcDbEntity
  8
0
 62
     7
100
AcDbLine
 10
-70.53822456996413
 20
24.2383068940013
 30
0.0
 11
-70.45699380073336
 21
23.99461458630899
 31
0.0
  0
LINE
  5
1CC
330
18
100
AcDbEntity
  8
0
 62
     7
100
AcDbLine
 10
-70.25391687765644
 20
24.2383068940013
 30
0.0
 11
-70.17268610842567
 21
24.52261458630899
 31
0.0
  0
LINE
  5
1CD
330
18
100
AcDbEntity
  8
0
 62
     7
100
AcDbLine
 10
-70.45699380073336
 20
24.52261458630899
 30
0.0
 11
-70.53822456996413
 21
24.2383068940013
 31
0.0
  0
LINE
  5
1CE
330
18
100
AcDbEntity
  8
0
 62
     7
100
AcDbLine
 10
-69.84776303150258
 20
24.52261458630899
 30
0.0
 11
-70.41637841611796
 21
24.52261458630899
 31
0.0
  0
LINE
  5
1CF
330
18
100
AcDbEntity
  8
0
 62
     7
100
AcDbLine
 10
-68.87299380073335
 20
23.99461458630899
 30
0.0
 11
-68.79176303150258
 21
24.2383068940013
 31
0.0
  0
LINE
  5
1D0
330
18
100
AcDbEntity
  8
0
 62
     7
100
AcDbLine
 10
-68.87299380073335
 20
23.99461458630899
 30
0.0
 11
-68.87299380073335
 21
23.99461458630899
 31
0.0
  0
LINE
  5
1D1
330
18
100
AcDbEntity
  8
0
 62
     7
100
AcDbLine
 10
-69.15730149304105
 20
23.99461458630899
 30
0.0
 11
-69.07607072381027
 21
24.2383068940013
 31
0.0
  0
LINE
  5
1D2
330
18
100
AcDbEntity
  8
0
 62
     7
100
AcDbLine
 10
-68.79176303150258
 20
24.2383068940013
 30
0.0
 11
-68.87299380073335
 21
24.52261458630899
 31
0.0
  0
LINE
  5
1D3
330
18
100
AcDbEntity
  8
0
 62
     7
100
AcDbLine
 10
-69.07607072381027
 20
24.2383068940013
 30
0.0
 11
-69.15730149304105
 21
24.52261458630899
 31
0.0
  0
LINE
  5
1D4
330
18
100
AcDbEntity
  8
0
 62
     7
100
AcDbLine
 10
-68.91360918534875
 20
24.52261458630899
 30
0.0
 11
-69.48222456996413
 21
24.52261458630899
 31
0.0
  0
LWPOLYLINE
  5
1D5
330
18
100
AcDbEntity
  8
0
100
AcDbPolyline
 90
        5
 70
     0
 43
0.0
 10
-69.1532435308076
 20
31.33312085714667
 42
0.418260752781318
 10
-68.09414046495304
 20
30.6511229597354
 42
-0.0498734786642303
 10
-67.64605842535127
 20
31.0582859477357
 42
-0.3697603474455049
 10
-67.40164994537477
 20
31.02774873557892
 42
-0.3664735628990273
 10
-67.46275215221311
 20
30.53915318182722
 42
-2.279072845550413
  0
LWPOLYLINE
  5
1DC
330
18
100
AcDbEntity
  8
0
100
AcDbPolyline
 90
        8
 70
     0
 43
0.0
 10
-68.96158151957732
 20
31.30329001243376
 42
0.0137809773536435
 10
-68.93938627004257
 20
31.24150922067635
 42
0.3572446443058505
 10
-68.3283652437898
 20
30.90559980733018
 42
0.3457927923805353
 10
-67.81918099734967
 20
31.1397185134871
 42
-0.369943486015561
 10
-67.30999686670185
 20
31.23133014995743
 42
-0.4605576416803275
 10
-67.2081599710969
 20
30.72237653438953
 42
-0.1888040607613903
 10
-68.1552425559991
 20
30.36610889998385
 42
-0.3394887196091549
 10
-69.46893780296986
 20
31.32294178642776
 42
-0.2979479006866183
  0
LINE
  5
1E6
330
18
100
AcDbEntity
  8
0
 62
     7
100
AcDbLine
 10
-68.87299380073335
 20
31.30329001243376
 30
0.0
 11
-70.45699380073336
 21
31.30329001243376
 31
0.0
  0
LINE
  5
1E7
330
18
100
AcDbEntity
  8
0
 62
     7
100
AcDbLine
 10
-70.53822456996413
 20
31.58759770474145
 30
0.0
 11
-68.79176303150258
 21
31.58759770474145
 31
0.0
  0
LINE
  5
1E8
330
18
100
AcDbEntity
  8
0
 62
     7
100
AcDbLine
 10
-70.45699380073336
 20
31.83129001243376
 30
0.0
 11
-68.87299380073335
 21
31.83129001243376
 31
0.0
  0
LINE
  5
1E9
330
18
100
AcDbEntity
  8
0
 62
     7
100
AcDbLine
 10
-70.17268610842567
 20
31.83129001243376
 30
0.0
 11
-70.25391687765644
 21
31.58759770474145
 31
0.0
  0
LINE
  5
1EA
330
18
100
AcDbEntity
  8
0
 62
     7
100
AcDbLine
 10
-70.53822456996413
 20
31.58759770474145
 30
0.0
 11
-70.45699380073336
 21
31.83129001243376
 31
0.0
  0
LINE
  5
1EB
330
18
100
AcDbEntity
  8
0
 62
     7
100
AcDbLine
 10
-69.84776303150258
 20
31.30329001243376
 30
0.0
 11
-70.41637841611796
 21
31.30329001243376
 31
0.0
  0
LINE
  5
1EC
330
18
100
AcDbEntity
  8
0
 62
     7
100
AcDbLine
 10
-70.45699380073336
 20
31.30329001243376
 30
0.0
 11
-70.53822456996413
 21
31.58759770474145
 31
0.0
  0
LINE
  5
1ED
330
18
100
AcDbEntity
  8
0
 62
     7
100
AcDbLine
 10
-70.25391687765644
 20
31.58759770474145
 30
0.0
 11
-70.17268610842567
 21
31.30329001243376
 31
0.0
  0
LINE
  5
1EE
330
18
100
AcDbEntity
  8
0
 62
     7
100
AcDbLine
 10
-68.87299380073335
 20
31.83129001243376
 30
0.0
 11
-68.87299380073335
 21
31.83129001243376
 31
0.0
  0
LINE
  5
1EF
330
18
100
AcDbEntity
  8
0
 62
     7
100
AcDbLine
 10
-69.15730149304105
 20
31.83129001243376
 30
0.0
 11
-69.07607072381027
 21
31.58759770474145
 31
0.0
  0
LINE
  5
1F0
330
18
100
AcDbEntity
  8
0
 62
     7
100
AcDbLine
 10
-68.87299380073335
 20
31.83129001243376
 30
0.0
 11
-68.79176303150258
 21
31.58759770474145
 31
0.0
  0
LINE
  5
1F1
330
18
100
AcDbEntity
  8
0
 62
     7
100
AcDbLine
 10
-68.79176303150258
 20
31.58759770474145
 30
0.0
 11
-68.87299380073335
 21
31.30329001243376
 31
0.0
  0
LINE
  5
1F2
330
18
100
AcDbEntity
  8
0
 62
     7
100
AcDbLine
 10
-69.07607072381027
 20
31.58759770474145
 30
0.0
 11
-69.15730149304105
 21
31.30329001243376
 31
0.0
  0
LINE
  5
1F3
330
18
100
AcDbEntity
  8
0
 62
     7
100
AcDbLine
 10
-68.91360918534875
 20
31.30329001243376
 30
0.0
 11
-69.48222456996413
 21
31.30329001243376
 31
0.0
  0
TEXT
  5
201
330
18
100
AcDbEntity
  8
ADPDIM
100
AcDbText
 10
-82.58281757469589
 20
21.25918201771488
 30
0.0
 40
0.25
  1
J U L I U S  B L U M  &  C O . ,  I N C .      ( 8 0 0 )  5 2 6 - 6 2 9 3        W W W . J U L I U S B L U M . C O M        P A R T  N o .  9 6 5
 41
1.25
  7
ARIAL_WIDE
 72
     1
 11
-69.71340249966178
 21
21.50918201771488
 31
0.0
100
AcDbText
 73
     3
  0
ENDSEC
  0
SECTION
  2
OBJECTS
  0
DICTIONARY
  5
C
330
0
100
AcDbDictionary
  3
ACAD_GROUP
350
D
  3
ACAD_LAYOUT
350
1FA
  3
ACAD_MLINESTYLE
350
E
  3
ACAD_PLOTSETTINGS
350
1FB
  3
ACAD_PLOTSTYLENAME
350
1F8
  3
ACDBHEADERROUNDTRIPXREC
350
345
  3
ACDBVARIABLEDICTIONARY
350
25B
  0
DICTIONARY
  5
255
330
18
100
AcDbDictionary
280
     1
  3
ACAD_LAYOUTSELFREF
360
366
  0
DICTIONARY
  5
253
330
15
100
AcDbDictionary
280
     1
  3
ACAD_LAYOUTSELFREF
360
365
  0
DICTIONARY
  5
D
102
{ACAD_REACTORS
330
C
102
}
330
C
100
AcDbDictionary
  0
DICTIONARY
  5
1FA
102
{ACAD_REACTORS
330
C
102
}
330
C
100
AcDbDictionary
  0
DICTIONARY
  5
E
102
{ACAD_REACTORS
330
C
102
}
330
C
100
AcDbDictionary
  3
STANDARD
350
1B
  0
DICTIONARY
  5
1FB
102
{ACAD_REACTORS
330
C
102
}
330
C
100
AcDbDictionary
  0
ACDBDICTIONARYWDFLT
  5
1F8
102
{ACAD_REACTORS
330
C
102
}
330
C
100
AcDbDictionary
281
     1
  3
Normal
350
1F9
100
AcDbDictionaryWithDefault
340
1F9
  0
DICTIONARY
  5
345
102
{ACAD_REACTORS
330
C
102
}
330
C
100
AcDbDictionary
  3
CEPSNTYPE
350
34F
  3
FINGERPRINTGUID
350
350
  3
HYPERLINKBASE
350
348
  3
INSUNITS
350
34E
  3
LAYOUTDICT
350
34A
  3
LWETCUNION
350
34D
  3
PLOTSETDICT
350
34B
  3
PLOTSTYLNAMDICT
350
34C
  3
PSVPSCALE
350
352
  3
PUCSBASE
350
355
  3
PUCSORGBACK
350
35B
  3
PUCSORGBOTTOM
350
357
  3
PUCSORGFRONT
350
35A
  3
PUCSORGLEFT
350
358
  3
PUCSORGRIGHT
350
359
  3
PUCSORGTOP
350
356
  3
PUCSORTHOREF
350
353
  3
PUCSORTHOVIEW
350
354
  3
STYLESHEET
350
349
  3
TSTACKALIGN
350
346
  3
TSTACKSIZE
350
347
  3
UCSBASE
350
35E
  3
UCSORGBACK
350
364
  3
UCSORGBOTTOM
350
360
  3
UCSORGFRONT
350
363
  3
UCSORGLEFT
350
361
  3
UCSORGRIGHT
350
362
  3
UCSORGTOP
350
35F
  3
UCSORTHOREF
350
35C
  3
UCSORTHOVIEW
350
35D
  3
VERSIONGUID
350
351
  0
DICTIONARY
  5
25B
102
{ACAD_REACTORS
330
C
102
}
330
C
100
AcDbDictionary
  3
DIMASSOC
350
25C
  0
XRECORD
  5
366
102
{ACAD_REACTORS
330
255
102
}
330
255
100
AcDbXrecord
340
18
  0
XRECORD
  5
365
102
{ACAD_REACTORS
330
253
102
}
330
253
100
AcDbXrecord
340
15
  0
MLINESTYLE
  5
1B
102
{ACAD_REACTORS
330
E
102
}
330
E
100
AcDbMlineStyle
  2
STANDARD
 70
     0
  3

 62
     0
 51
90.0
 52
90.0
 71
     2
 49
0.5
 62
   256
  6
BYLAYER
 49
-0.5
 62
   256
  6
BYLAYER
  0
ACDBPLACEHOLDER
  5
1F9
102
{ACAD_REACTORS
330
1F8
102
}
330
1F8
100
AcDbPlaceHolder
280
     0
  0
XRECORD
  5
34F
102
{ACAD_REACTORS
330
345
102
}
330
345
100
AcDbXrecord
 90
        0
  0
XRECORD
  5
350
102
{ACAD_REACTORS
330
345
102
}
330
345
100
AcDbXrecord
  1
{7137BDF0-3D6F-4D22-8800-CA4C49B67A76}
  0
XRECORD
  5
348
102
{ACAD_REACTORS
330
345
102
}
330
345
100
AcDbXrecord
  1

  0
XRECORD
  5
34E
102
{ACAD_REACTORS
330
345
102
}
330
345
100
AcDbXrecord
 90
        0
  0
XRECORD
  5
34A
102
{ACAD_REACTORS
330
345
102
}
330
345
100
AcDbXrecord
340
1FA
  0
XRECORD
  5
34D
102
{ACAD_REACTORS
330
345
102
}
330
345
100
AcDbXrecord
 90
    14877
  0
XRECORD
  5
34B
102
{ACAD_REACTORS
330
345
102
}
330
345
100
AcDbXrecord
340
1FB
  0
XRECORD
  5
34C
102
{ACAD_REACTORS
330
345
102
}
330
345
100
AcDbXrecord
340
1F8
  0
XRECORD
  5
352
102
{ACAD_REACTORS
330
345
102
}
330
345
100
AcDbXrecord
 40
0.0
  0
XRECORD
  5
355
102
{ACAD_REACTORS
330
345
102
}
330
345
100
AcDbXrecord
340
0
  0
XRECORD
  5
35B
102
{ACAD_REACTORS
330
345
102
}
330
345
100
AcDbXrecord
 10
0.0
 20
0.0
 30
0.0
  0
XRECORD
  5
357
102
{ACAD_REACTORS
330
345
102
}
330
345
100
AcDbXrecord
 10
0.0
 20
0.0
 30
0.0
  0
XRECORD
  5
35A
102
{ACAD_REACTORS
330
345
102
}
330
345
100
AcDbXrecord
 10
0.0
 20
0.0
 30
0.0
  0
XRECORD
  5
358
102
{ACAD_REACTORS
330
345
102
}
330
345
100
AcDbXrecord
 10
0.0
 20
0.0
 30
0.0
  0
XRECORD
  5
359
102
{ACAD_REACTORS
330
345
102
}
330
345
100
AcDbXrecord
 10
0.0
 20
0.0
 30
0.0
  0
XRECORD
  5
356
102
{ACAD_REACTORS
330
345
102
}
330
345
100
AcDbXrecord
 10
0.0
 20
0.0
 30
0.0
  0
XRECORD
  5
353
102
{ACAD_REACTORS
330
345
102
}
330
345
100
AcDbXrecord
340
0
  0
XRECORD
  5
354
102
{ACAD_REACTORS
330
345
102
}
330
345
100
AcDbXrecord
 70
     0
  0
XRECORD
  5
349
102
{ACAD_REACTORS
330
345
102
}
330
345
100
AcDbXrecord
  1

  0
XRECORD
  5
346
102
{ACAD_REACTORS
330
345
102
}
330
345
100
AcDbXrecord
 90
        1
  0
XRECORD
  5
347
102
{ACAD_REACTORS
330
345
102
}
330
345
100
AcDbXrecord
 90
       70
  0
XRECORD
  5
35E
102
{ACAD_REACTORS
330
345
102
}
330
345
100
AcDbXrecord
340
0
  0
XRECORD
  5
364
102
{ACAD_REACTORS
330
345
102
}
330
345
100
AcDbXrecord
 10
0.0
 20
0.0
 30
0.0
  0
XRECORD
  5
360
102
{ACAD_REACTORS
330
345
102
}
330
345
100
AcDbXrecord
 10
0.0
 20
0.0
 30
0.0
  0
XRECORD
  5
363
102
{ACAD_REACTORS
330
345
102
}
330
345
100
AcDbXrecord
 10
0.0
 20
0.0
 30
0.0
  0
XRECORD
  5
361
102
{ACAD_REACTORS
330
345
102
}
330
345
100
AcDbXrecord
 10
0.0
 20
0.0
 30
0.0
  0
XRECORD
  5
362
102
{ACAD_REACTORS
330
345
102
}
330
345
100
AcDbXrecord
 10
0.0
 20
0.0
 30
0.0
  0
XRECORD
  5
35F
102
{ACAD_REACTORS
330
345
102
}
330
345
100
AcDbXrecord
 10
0.0
 20
0.0
 30
0.0
  0
XRECORD
  5
35C
102
{ACAD_REACTORS
330
345
102
}
330
345
100
AcDbXrecord
340
0
  0
XRECORD
  5
35D
102
{ACAD_REACTORS
330
345
102
}
330
345
100
AcDbXrecord
 70
     0
  0
XRECORD
  5
351
102
{ACAD_REACTORS
330
345
102
}
330
345
100
AcDbXrecord
  1
{6315ECD2-1D8E-40B6-8E0D-8F77A8CEC819}
  0
DICTIONARYVAR
  5
25C
102
{ACAD_REACTORS
330
25B
102
}
330
25B
100
DictionaryVariables
280
     0
  1
1
  0
ENDSEC
  0
EOF
