  0
SECTION
  2
HEADER
  9
$ACADVER
  1
AC1014
  9
$ACADMAINTVER
 70
     9
  9
$DWGCODEPAGE
  3
ANSI_1252
  9
$INSBASE
 10
-81.26348617897461
 20
22.02349468518737
 30
0.0
  9
$EXTMIN
 10
-95.76941556478246
 20
20.86965025532407
 30
0.0
  9
$EXTMAX
 10
-70.03058541471425
 20
34.39398865184206
 30
0.0
  9
$LIMMIN
 10
0.0
 20
0.0
  9
$LIMMAX
 10
36.0
 20
36.0
  9
$ORTHOMODE
 70
     1
  9
$REGENMODE
 70
     1
  9
$FILLMODE
 70
     1
  9
$QTEXTMODE
 70
     0
  9
$MIRRTEXT
 70
     1
  9
$DRAGMODE
 70
     0
  9
$LTSCALE
 40
1.0
  9
$OSMODE
 70
    37
  9
$ATTMODE
 70
     1
  9
$TEXTSIZE
 40
0.2
  9
$TRACEWID
 40
0.05
  9
$TEXTSTYLE
  7
STANDARD
  9
$CLAYER
  8
ADPDIM
  9
$CELTYPE
  6
BYLAYER
  9
$CECOLOR
 62
   256
  9
$CELTSCALE
 40
1.0
  9
$DELOBJ
 70
     1
  9
$DISPSILH
 70
     0
  9
$DIMSCALE
 40
1.0
  9
$DIMASZ
 40
0.125
  9
$DIMEXO
 40
0.0625
  9
$DIMDLI
 40
0.38
  9
$DIMRND
 40
0.0
  9
$DIMDLE
 40
0.0
  9
$DIMEXE
 40
0.18
  9
$DIMTP
 40
0.0
  9
$DIMTM
 40
0.0
  9
$DIMTXT
 40
0.125
  9
$DIMCEN
 40
0.1875
  9
$DIMTSZ
 40
0.125
  9
$DIMTOL
 70
     0
  9
$DIMLIM
 70
     0
  9
$DIMTIH
 70
     0
  9
$DIMTOH
 70
     0
  9
$DIMSE1
 70
     0
  9
$DIMSE2
 70
     0
  9
$DIMTAD
 70
     0
  9
$DIMZIN
 70
     3
  9
$DIMBLK
  1

  9
$DIMASO
 70
     1
  9
$DIMSHO
 70
     1
  9
$DIMPOST
  1

  9
$DIMAPOST
  1

  9
$DIMALT
 70
     0
  9
$DIMALTD
 70
     1
  9
$DIMALTF
 40
25.4
  9
$DIMLFAC
 40
1.0
  9
$DIMTOFL
 70
     0
  9
$DIMTVP
 40
0.0
  9
$DIMTIX
 70
     0
  9
$DIMSOXD
 70
     0
  9
$DIMSAH
 70
     0
  9
$DIMBLK1
  1

  9
$DIMBLK2
  1

  9
$DIMSTYLE
  2
STANDARD
  9
$DIMCLRD
 70
     0
  9
$DIMCLRE
 70
     0
  9
$DIMCLRT
 70
     0
  9
$DIMTFAC
 40
1.0
  9
$DIMGAP
 40
0.125
  9
$DIMJUST
 70
     0
  9
$DIMSD1
 70
     0
  9
$DIMSD2
 70
     0
  9
$DIMTOLJ
 70
     1
  9
$DIMTZIN
 70
     0
  9
$DIMALTZ
 70
     0
  9
$DIMALTTZ
 70
     0
  9
$DIMFIT
 70
     3
  9
$DIMUPT
 70
     0
  9
$DIMUNIT
 70
     2
  9
$DIMDEC
 70
     4
  9
$DIMTDEC
 70
     4
  9
$DIMALTU
 70
     2
  9
$DIMALTTD
 70
     2
  9
$DIMTXSTY
  7
STANDARD
  9
$DIMAUNIT
 70
     0
  9
$LUNITS
 70
     5
  9
$LUPREC
 70
     5
  9
$SKETCHINC
 40
0.1
  9
$FILLETRAD
 40
0.062
  9
$AUNITS
 70
     0
  9
$AUPREC
 70
     0
  9
$MENU
  1
acad
  9
$ELEVATION
 40
0.0
  9
$PELEVATION
 40
0.0
  9
$THICKNESS
 40
0.0
  9
$LIMCHECK
 70
     0
  9
$BLIPMODE
 70
     0
  9
$CHAMFERA
 40
0.0
  9
$CHAMFERB
 40
0.0
  9
$CHAMFERC
 40
0.0
  9
$CHAMFERD
 40
0.0
  9
$SKPOLY
 70
     0
  9
$TDCREATE
 40
2450409.655246527
  9
$TDUPDATE
 40
2452297.078544016
  9
$TDINDWG
 40
0.0444962500
  9
$TDUSRTIMER
 40
0.0444962500
  9
$USRTIMER
 70
     1
  9
$ANGBASE
 50
0.0
  9
$ANGDIR
 70
     0
  9
$PDMODE
 70
     0
  9
$PDSIZE
 40
0.0
  9
$PLINEWID
 40
0.0
  9
$COORDS
 70
     2
  9
$SPLFRAME
 70
     0
  9
$SPLINETYPE
 70
     6
  9
$SPLINESEGS
 70
     8
  9
$ATTDIA
 70
     0
  9
$ATTREQ
 70
     1
  9
$HANDLING
 70
 22529
  9
$HANDSEED
  5
347
  9
$SURFTAB1
 70
     6
  9
$SURFTAB2
 70
     6
  9
$SURFTYPE
 70
     6
  9
$SURFU
 70
     6
  9
$SURFV
 70
     6
  9
$UCSNAME
  2

  9
$UCSORG
 10
0.0
 20
0.0
 30
0.0
  9
$UCSXDIR
 10
1.0
 20
0.0
 30
0.0
  9
$UCSYDIR
 10
0.0
 20
1.0
 30
0.0
  9
$PUCSNAME
  2

  9
$PUCSORG
 10
0.0
 20
0.0
 30
0.0
  9
$PUCSXDIR
 10
1.0
 20
0.0
 30
0.0
  9
$PUCSYDIR
 10
0.0
 20
1.0
 30
0.0
  9
$USERI1
 70
     0
  9
$USERI2
 70
     0
  9
$USERI3
 70
     0
  9
$USERI4
 70
     0
  9
$USERI5
 70
     0
  9
$USERR1
 40
0.0
  9
$USERR2
 40
0.0
  9
$USERR3
 40
0.0
  9
$USERR4
 40
0.0
  9
$USERR5
 40
0.0
  9
$WORLDVIEW
 70
     1
  9
$SHADEDGE
 70
     3
  9
$SHADEDIF
 70
    70
  9
$TILEMODE
 70
     1
  9
$MAXACTVP
 70
    15
  9
$PINSBASE
 10
0.0009765857830644
 20
1.500170956078392
 30
0.0
  9
$PLIMCHECK
 70
     0
  9
$PEXTMIN
 10
1.000000000000000E+20
 20
1.000000000000000E+20
 30
1.000000000000000E+20
  9
$PEXTMAX
 10
-1.000000000000000E+20
 20
-1.000000000000000E+20
 30
-1.000000000000000E+20
  9
$PLIMMIN
 10
0.0
 20
0.0
  9
$PLIMMAX
 10
12.0
 20
9.0
  9
$UNITMODE
 70
     0
  9
$VISRETAIN
 70
     0
  9
$PLINEGEN
 70
     0
  9
$PSLTSCALE
 70
     1
  9
$TREEDEPTH
 70
  3020
  9
$PICKSTYLE
 70
     1
  9
$CMLSTYLE
  2
STANDARD
  9
$CMLJUST
 70
     0
  9
$CMLSCALE
 40
1.0
  9
$PROXYGRAPHICS
 70
     1
  9
$MEASUREMENT
 70
     0
  0
ENDSEC
  0
SECTION
  2
CLASSES
  0
CLASS
  1
ACDBDICTIONARYWDFLT
  2
AcDbDictionaryWithDefault
  3
AutoCAD 2000
 90
        0
280
     0
281
     0
  0
CLASS
  1
ACDBPLACEHOLDER
  2
AcDbPlaceHolder
  3
AutoCAD 2000
 90
        0
280
     0
281
     0
  0
CLASS
  1
LAYOUT
  2
AcDbLayout
  3
AutoCAD 2000
 90
        0
280
     0
281
     0
  0
CLASS
  1
DICTIONARYVAR
  2
AcDbDictionaryVar
  3
AutoCAD 2000
 90
        0
280
     0
281
     0
  0
CLASS
  1
LONG_TRANSACTION
  2
AcDbLongTransaction
  3
AutoCAD 2000
 90
        0
280
     0
281
     0
  0
CLASS
  1
LWPOLYLINE
  2
AcDbPolyline
  3
AutoCAD 2000
 90
        0
280
     0
281
     1
  0
CLASS
  1
HATCH
  2
AcDbHatch
  3
AutoCAD 2000
 90
        0
280
     0
281
     1
  0
CLASS
  1
XRECORD
  2
AcDbXrecord
  3
AutoCAD 2000
 90
        0
280
     0
281
     0
  0
CLASS
  1
LONG_TRANSACTION
  2
AcDbLongTransaction
  3
AutoCAD 2000
 90
        0
280
     0
281
     0
  0
CLASS
  1
LWPOLYLINE
  2
AcDbPolyline
  3
AutoCAD 2000
 90
        0
280
     0
281
     1
  0
CLASS
  1
HATCH
  2
AcDbHatch
  3
AutoCAD 2000
 90
        0
280
     0
281
     1
  0
CLASS
  1
XRECORD
  2
AcDbXrecord
  3
AutoCAD 2000
 90
        0
280
     0
281
     0
  0
CLASS
  1
LONG_TRANSACTION
  2
AcDbLongTransaction
  3
AutoCAD 2000
 90
        0
280
     0
281
     0
  0
CLASS
  1
LWPOLYLINE
  2
AcDbPolyline
  3
AutoCAD 2000
 90
        0
280
     0
281
     1
  0
CLASS
  1
HATCH
  2
AcDbHatch
  3
AutoCAD 2000
 90
        0
280
     0
281
     1
  0
CLASS
  1
XRECORD
  2
AcDbXrecord
  3
AutoCAD 2000
 90
        0
280
     0
281
     0
  0
CLASS
  1
LONG_TRANSACTION
  2
AcDbLongTransaction
  3
AutoCAD 2000
 90
        0
280
     0
281
     0
  0
CLASS
  1
LWPOLYLINE
  2
AcDbPolyline
  3
AutoCAD 2000
 90
        0
280
     0
281
     1
  0
CLASS
  1
HATCH
  2
AcDbHatch
  3
AutoCAD 2000
 90
        0
280
     0
281
     1
  0
CLASS
  1
XRECORD
  2
AcDbXrecord
  3
AutoCAD 2000
 90
        0
280
     0
281
     0
  0
CLASS
  1
LONG_TRANSACTION
  2
AcDbLongTransaction
  3
AutoCAD 2000
 90
        0
280
     0
281
     0
  0
CLASS
  1
LWPOLYLINE
  2
AcDbPolyline
  3
AutoCAD 2000
 90
        0
280
     0
281
     1
  0
CLASS
  1
HATCH
  2
AcDbHatch
  3
AutoCAD 2000
 90
        0
280
     0
281
     1
  0
CLASS
  1
XRECORD
  2
AcDbXrecord
  3
AutoCAD 2000
 90
        0
280
     0
281
     0
  0
ENDSEC
  0
SECTION
  2
TABLES
  0
TABLE
  2
VPORT
  5
8
330
0
100
AcDbSymbolTable
 70
     2
  0
VPORT
  5
324
330
8
100
AcDbSymbolTableRecord
100
AcDbViewportTableRecord
  2
*ACTIVE
 70
     0
 10
0.0
 20
0.0
 11
1.0
 21
1.0
 12
-82.87619210062974
 22
27.63088998760899
 13
0.0
 23
0.0
 14
0.5740882589684922
 24
0.5740882589684922
 15
0.5
 25
0.5
 16
0.0
 26
0.0
 36
1.0
 17
0.0
 27
0.0
 37
0.0
 40
16.49967218835673
 41
1.570528967254408
 42
50.0
 43
0.0
 44
0.0
 50
0.0
 51
0.0
 71
     0
 72
   100
 73
     1
 74
     0
 75
     0
 76
     0
 77
     0
 78
     0
  0
ENDTAB
  0
TABLE
  2
LTYPE
  5
5
330
0
100
AcDbSymbolTable
 70
     1
  0
LTYPE
  5
12
330
5
100
AcDbSymbolTableRecord
100
AcDbLinetypeTableRecord
  2
BYBLOCK
 70
     0
  3

 72
    65
 73
     0
 40
0.0
  0
LTYPE
  5
13
330
5
100
AcDbSymbolTableRecord
100
AcDbLinetypeTableRecord
  2
BYLAYER
 70
     0
  3

 72
    65
 73
     0
 40
0.0
  0
LTYPE
  5
14
330
5
100
AcDbSymbolTableRecord
100
AcDbLinetypeTableRecord
  2
CONTINUOUS
 70
     0
  3
Solid line
 72
    65
 73
     0
 40
0.0
  0
ENDTAB
  0
TABLE
  2
LAYER
  5
2
330
0
100
AcDbSymbolTable
 70
     3
  0
LAYER
  5
F
330
2
100
AcDbSymbolTableRecord
100
AcDbLayerTableRecord
  2
0
 70
     0
 62
     7
  6
CONTINUOUS
  0
LAYER
  5
DD
330
2
100
AcDbSymbolTableRecord
100
AcDbLayerTableRecord
  2
DEFPOINTS
 70
     0
 62
     7
  6
CONTINUOUS
  0
LAYER
  5
E0
330
2
100
AcDbSymbolTableRecord
100
AcDbLayerTableRecord
  2
ADPDIM
 70
     0
 62
     3
  6
CONTINUOUS
  0
ENDTAB
  0
TABLE
  2
STYLE
  5
3
330
0
100
AcDbSymbolTable
 70
     2
  0
STYLE
  5
10
330
3
100
AcDbSymbolTableRecord
100
AcDbTextStyleTableRecord
  2
STANDARD
 70
     0
 40
0.0
 41
1.0
 50
0.0
 71
     0
 42
0.2
  3
txt
  4

  0
STYLE
  5
1E0
330
3
100
AcDbSymbolTableRecord
100
AcDbTextStyleTableRecord
  2
ARIAL_WIDE
 70
     0
 40
0.0
 41
1.25
 50
0.0
 71
     0
 42
0.2
  3
ARIAL.TTF
  4

1001
ACAD
1000
Arial
1071
       34
  0
ENDTAB
  0
TABLE
  2
VIEW
  5
6
330
0
100
AcDbSymbolTable
 70
     0
  0
ENDTAB
  0
TABLE
  2
UCS
  5
7
330
0
100
AcDbSymbolTable
 70
     0
  0
ENDTAB
  0
TABLE
  2
APPID
  5
9
330
0
100
AcDbSymbolTable
 70
     1
  0
APPID
  5
11
330
9
100
AcDbSymbolTableRecord
100
AcDbRegAppTableRecord
  2
ACAD
 70
     0
  0
ENDTAB
  0
TABLE
  2
DIMSTYLE
  5
A
330
0
100
AcDbSymbolTable
 70
     1
  0
DIMSTYLE
105
1D4
330
A
100
AcDbSymbolTableRecord
100
AcDbDimStyleTableRecord
  2
STANDARD
 70
     0
  3

  4

  5

  6

  7

 40
1.0
 41
0.18
 42
0.0625
 43
0.38
 44
0.18
 45
0.0
 46
0.0
 47
0.0
 48
0.0
140
0.18
141
0.09
142
0.0
143
25.4
144
1.0
145
0.0
146
1.0
147
0.09
 71
     0
 72
     0
 73
     1
 74
     1
 75
     0
 76
     0
 77
     0
 78
     0
170
     0
171
     2
172
     0
173
     0
174
     0
175
     0
176
     0
177
     0
178
     0
270
     2
271
     4
272
     4
273
     2
274
     2
340
10
275
     0
280
     0
281
     0
282
     0
283
     1
284
     0
285
     0
286
     0
287
     3
288
     0
  0
ENDTAB
  0
TABLE
  2
BLOCK_RECORD
  5
1
330
0
100
AcDbSymbolTable
 70
     2
  0
BLOCK_RECORD
  5
18
102
{ACAD_XDICTIONARY
360
235
102
}
330
1
100
AcDbSymbolTableRecord
100
AcDbBlockTableRecord
  2
*MODEL_SPACE
  0
BLOCK_RECORD
  5
15
102
{ACAD_XDICTIONARY
360
233
102
}
330
1
100
AcDbSymbolTableRecord
100
AcDbBlockTableRecord
  2
*PAPER_SPACE
  0
BLOCK_RECORD
  5
D6
330
1
100
AcDbSymbolTableRecord
100
AcDbBlockTableRecord
  2
*D0
  0
BLOCK_RECORD
  5
D8
330
1
100
AcDbSymbolTableRecord
100
AcDbBlockTableRecord
  2
*D1
  0
ENDTAB
  0
ENDSEC
  0
SECTION
  2
BLOCKS
  0
BLOCK
  5
E3
330
18
100
AcDbEntity
  8
0
100
AcDbBlockBegin
  2
*MODEL_SPACE
 70
     0
 10
0.0
 20
0.0
 30
0.0
  3
*MODEL_SPACE
  1

  0
ENDBLK
  5
E4
330
18
100
AcDbEntity
  8
0
100
AcDbBlockEnd
  0
BLOCK
  5
E1
330
15
100
AcDbEntity
 67
     1
  8
0
100
AcDbBlockBegin
  2
*PAPER_SPACE
 70
     0
 10
0.0
 20
0.0
 30
0.0
  3
*PAPER_SPACE
  1

  0
ENDBLK
  5
E2
330
15
100
AcDbEntity
 67
     1
  8
0
100
AcDbBlockEnd
  0
BLOCK
  5
E6
330
D6
100
AcDbEntity
  8
0
100
AcDbBlockBegin
  2
*D0
 70
     1
 10
0.0
 20
0.0
 30
0.0
  3
*D0
  1

  0
LINE
  5
E7
330
D6
100
AcDbEntity
  8
0
  6
BYBLOCK
 62
     0
100
AcDbLine
 10
-102.0303746086983
 20
28.33985934110673
 30
0.0
 11
-102.0303746086983
 21
34.39398865184206
 31
0.0
  0
LINE
  5
E8
330
D6
100
AcDbEntity
  8
0
  6
BYBLOCK
 62
     0
100
AcDbLine
 10
-94.0303746086983
 20
28.45082451160275
 30
0.0
 11
-94.0303746086983
 21
34.39398865184206
 31
0.0
  0
LINE
  5
E9
330
D6
100
AcDbEntity
  8
0
  6
BYBLOCK
 62
     0
100
AcDbLine
 10
-102.0303746086983
 20
34.21398865184206
 30
0.0
 11
-98.19704127536496
 21
34.21398865184206
 31
0.0
  0
LINE
  5
EA
330
D6
100
AcDbEntity
  8
0
  6
BYBLOCK
 62
     0
100
AcDbLine
 10
-94.0303746086983
 20
34.21398865184206
 30
0.0
 11
-97.86370794203163
 21
34.21398865184206
 31
0.0
  0
LINE
  5
EB
330
D6
100
AcDbEntity
  8
0
  6
BYBLOCK
 62
     0
100
AcDbLine
 10
-102.1553746086983
 20
34.08898865184206
 30
0.0
 11
-101.9053746086983
 21
34.33898865184206
 31
0.0
  0
LINE
  5
EC
330
D6
100
AcDbEntity
  8
0
  6
BYBLOCK
 62
     0
100
AcDbLine
 10
-94.15537460869829
 20
34.08898865184206
 30
0.0
 11
-93.90537460869829
 21
34.33898865184206
 31
0.0
  0
TEXT
  5
ED
330
D6
100
AcDbEntity
  8
0
  6
BYBLOCK
 62
     0
100
AcDbText
 10
-98.07204127536497
 20
34.15148865184206
 30
0.0
 40
0.125
  1
8
 72
     1
 11
-98.0303746086983
 21
34.21398865184206
 31
0.0
100
AcDbText
 73
     2
  0
POINT
  5
EE
330
D6
100
AcDbEntity
  8
DEFPOINTS
  6
BYBLOCK
 62
     0
100
AcDbPoint
 10
-102.0303746086983
 20
28.27735934110673
 30
0.0
  0
POINT
  5
EF
330
D6
100
AcDbEntity
  8
DEFPOINTS
  6
BYBLOCK
 62
     0
100
AcDbPoint
 10
-94.0303746086983
 20
28.38832451160275
 30
0.0
  0
POINT
  5
F0
330
D6
100
AcDbEntity
  8
DEFPOINTS
  6
BYBLOCK
 62
     0
100
AcDbPoint
 10
-94.0303746086983
 20
34.21398865184206
 30
0.0
  0
ENDBLK
  5
F1
330
D6
100
AcDbEntity
  8
0
100
AcDbBlockEnd
  0
BLOCK
  5
F2
330
D8
100
AcDbEntity
  8
0
100
AcDbBlockBegin
  2
*D1
 70
     1
 10
0.0
 20
0.0
 30
0.0
  3
*D1
  1

  0
LINE
  5
F3
330
D8
100
AcDbEntity
  8
0
  6
BYBLOCK
 62
     0
100
AcDbLine
 10
-95.66950102983556
 20
22.84007268837002
 30
0.0
 11
-93.3321465118535
 21
22.84007268837002
 31
0.0
  0
LINE
  5
F4
330
D8
100
AcDbEntity
  8
0
  6
BYBLOCK
 62
     0
100
AcDbLine
 10
-95.66950102983556
 20
33.84007268837002
 30
0.0
 11
-93.3321465118535
 21
33.84007268837002
 31
0.0
  0
LINE
  5
F5
330
D8
100
AcDbEntity
  8
0
  6
BYBLOCK
 62
     0
100
AcDbLine
 10
-93.51214651185351
 20
22.84007268837002
 30
0.0
 11
-93.51214651185351
 21
28.15257268837002
 31
0.0
  0
LINE
  5
F6
330
D8
100
AcDbEntity
  8
0
  6
BYBLOCK
 62
     0
100
AcDbLine
 10
-93.51214651185351
 20
33.84007268837002
 30
0.0
 11
-93.51214651185351
 21
28.52757268837002
 31
0.0
  0
LINE
  5
F7
330
D8
100
AcDbEntity
  8
0
  6
BYBLOCK
 62
     0
100
AcDbLine
 10
-93.38714651185352
 20
22.71507268837002
 30
0.0
 11
-93.63714651185352
 21
22.96507268837002
 31
0.0
  0
LINE
  5
F8
330
D8
100
AcDbEntity
  8
0
  6
BYBLOCK
 62
     0
100
AcDbLine
 10
-93.38714651185352
 20
33.71507268837002
 30
0.0
 11
-93.63714651185352
 21
33.96507268837002
 31
0.0
  0
TEXT
  5
F9
330
D8
100
AcDbEntity
  8
0
  6
BYBLOCK
 62
     0
100
AcDbText
 10
-93.44964651185351
 20
28.27757268837002
 30
0.0
 40
0.125
  1
11
 50
90.0
 72
     1
 11
-93.51214651185351
 21
28.34007268837002
 31
0.0
100
AcDbText
 73
     2
  0
POINT
  5
FA
330
D8
100
AcDbEntity
  8
DEFPOINTS
  6
BYBLOCK
 62
     0
100
AcDbPoint
 10
-95.73200102983555
 20
22.84007268837002
 30
0.0
  0
POINT
  5
FB
330
D8
100
AcDbEntity
  8
DEFPOINTS
  6
BYBLOCK
 62
     0
100
AcDbPoint
 10
-95.73200102983555
 20
33.84007268837002
 30
0.0
  0
POINT
  5
FC
330
D8
100
AcDbEntity
  8
DEFPOINTS
  6
BYBLOCK
 62
     0
100
AcDbPoint
 10
-93.51214651185351
 20
33.84007268837002
 30
0.0
  0
ENDBLK
  5
FD
330
D8
100
AcDbEntity
  8
0
100
AcDbBlockEnd
  0
ENDSEC
  0
SECTION
  2
ENTITIES
  0
LWPOLYLINE
  5
FE
330
18
100
AcDbEntity
  8
0
100
AcDbPolyline
 90
        6
 70
     0
 43
0.0
 10
-83.46464635453346
 20
31.92316352989782
 42
0.1800052694056863
 10
-83.86941167543154
 20
32.58718567143843
 42
0.3111140541383572
 10
-85.1986968502045
 20
32.69242789757353
 42
0.20997115445076
 10
-85.68566275446071
 20
31.7452477031143
 42
0.1909621222859565
 10
-85.52772784781671
 20
31.1927258367563
 42
0.3203470745759679
 10
-85.30398678796718
 20
31.12694943546916
 42
-0.1686248270651197
  0
LWPOLYLINE
  5
106
330
18
100
AcDbEntity
  8
0
100
AcDbPolyline
 90
       10
 70
     0
 43
0.0
 10
-83.73897669661042
 20
31.92316352989782
 42
0.060138485078793
 10
-83.8167667065502
 20
32.19252726371556
 42
0.2035762029449329
 10
-84.52747367065592
 20
32.62665149628638
 42
0.3468099722511908
 10
-85.25134181908583
 20
32.13990611083718
 42
0.1548712228461128
 10
-85.22501933464516
 20
31.62685014894878
 42
-0.3710590758618044
 10
-85.31714808808365
 20
31.11379418706039
 42
-0.4488940877137368
 10
-85.76463020778271
 20
31.21903641319549
 42
-0.2098762116725521
 10
-85.86992014554539
 20
32.20568251212432
 42
-0.3003291526315781
 10
-84.71173106174061
 20
32.99499940719172
 42
-0.3573790354681333
 10
-83.19818849588294
 20
31.90311108212778
 42
-0.1880525375992057
  0
LWPOLYLINE
  5
112
330
18
100
AcDbEntity
  8
0
100
AcDbPolyline
 90
       10
 70
     0
 43
0.0
 10
-82.23624054410478
 20
31.92316352989782
 42
-0.060138485078793
 10
-82.15845053416501
 20
32.19252726371556
 42
-0.2035762029449329
 10
-81.44774357005928
 20
32.62665149628638
 42
-0.3468099722511908
 10
-80.72387542162937
 20
32.13990611083718
 42
-0.1548712228461128
 10
-80.75019790607004
 20
31.62685014894878
 42
0.3710590758618044
 10
-80.65806915263156
 20
31.11379418706039
 42
0.4488940877137368
 10
-80.21058703293249
 20
31.21903641319549
 42
0.2098762116725521
 10
-80.10529709516983
 20
32.20568251212432
 42
0.3003291526315781
 10
-81.26348617897461
 20
32.99499940719172
 42
0.3573790354681333
 10
-82.77702874483226
 20
31.90311108212778
 42
0.1880525375992057
  0
LWPOLYLINE
  5
11E
330
18
100
AcDbEntity
  8
0
100
AcDbPolyline
 90
        6
 70
     0
 43
0.0
 10
-82.51057088618175
 20
31.92316352989782
 42
-0.1800052694056861
 10
-82.10580556528368
 20
32.58718567143843
 42
-0.3111140541383572
 10
-80.77652039051072
 20
32.69242789757353
 42
-0.20997115445076
 10
-80.28955448625451
 20
31.7452477031143
 42
-0.1909621222859565
 10
-80.44748939289851
 20
31.1927258367563
 42
-0.3203470745759679
 10
-80.67123045274803
 20
31.12694943546916
 42
0.1686248270651197
  0
DIMENSION
  5
126
330
18
100
AcDbEntity
  8
ADPDIM
100
AcDbDimension
  2
*D1
 10
-78.472630595144
 20
33.00783482350009
 30
0.0
 11
-78.472630595144
 21
27.50783482350009
 31
0.0
 12
15.03951591670952
 22
-0.8322378648699277
 32
0.0
100
AcDbAlignedDimension
 13
-80.69248511312604
 23
22.00783482350009
 33
0.0
 14
-80.69248511312604
 24
33.00783482350009
 34
0.0
 50
90.0
100
AcDbRotatedDimension
  0
DIMENSION
  5
127
330
18
100
AcDbEntity
  8
ADPDIM
100
AcDbDimension
  2
*D0
 10
-78.99085869198877
 20
34.21398865184206
 30
0.0
 11
-82.99085869198878
 21
34.21398865184206
 31
0.0
 12
15.03951591670952
 22
0.0
 32
0.0
100
AcDbAlignedDimension
 13
-86.99085869198878
 23
28.27735934110673
 33
0.0
 14
-78.99085869198877
 24
28.38832451160275
 34
0.0
100
AcDbRotatedDimension
  0
LWPOLYLINE
  5
128
330
18
100
AcDbEntity
  8
0
100
AcDbPolyline
 90
        7
 70
     0
 43
0.0
 10
-86.96230296035237
 20
27.50924704618955
 42
-0.3438204089751484
 10
-85.86992014554539
 20
29.10103608473311
 42
-0.0173292132515936
 10
-85.05392324367699
 20
29.33783119306416
 10
-85.05392324367699
 20
29.69302377593907
 42
-0.25779395785594
 10
-84.92231082147364
 20
30.04821635881399
 42
-0.0064932736225557
 10
-83.98786279751838
 20
30.99539663289486
 42
0.0977731512301345
 10
-83.77449376233816
 20
31.39516352989782
 42
0.2035762029449329
  0
LWPOLYLINE
  5
131
330
18
100
AcDbEntity
  8
0
100
AcDbPolyline
 90
        7
 70
     0
 43
0.0
 10
-86.96230296035237
 20
27.50924704618955
 42
0.3438204089751484
 10
-85.86992014554539
 20
25.91745800764599
 42
0.0173292132515936
 10
-85.05392324367699
 20
25.68066289931493
 10
-85.05392324367699
 20
25.32547031644002
 42
0.25779395785594
 10
-84.92231082147364
 20
24.9702777335651
 42
0.0064932736225557
 10
-83.98786279751838
 20
24.02309745948423
 42
-0.0977731512301346
 10
-83.77449376233816
 20
23.62333056248127
 42
-0.2035762029449329
  0
LWPOLYLINE
  5
13A
330
18
100
AcDbEntity
  8
0
100
AcDbPolyline
 90
       10
 70
     0
 43
0.0
 10
-83.73897669661042
 20
23.09533056248127
 42
-0.0601384850787931
 10
-83.8167667065502
 20
22.82596682866354
 42
-0.2035762029449329
 10
-84.52747367065592
 20
22.39184259609271
 42
-0.3468099722511908
 10
-85.25134181908583
 20
22.87858798154192
 42
-0.1548712228461128
 10
-85.22501933464516
 20
23.39164394343031
 42
0.3710590758618044
 10
-85.31714808808365
 20
23.9046999053187
 42
0.4488940877137368
 10
-85.76463020778271
 20
23.7994576791836
 42
0.2098762116725521
 10
-85.86992014554539
 20
22.81281158025477
 42
0.3003291526315781
 10
-84.71173106174061
 20
22.02349468518737
 42
0.3534036749753019
 10
-83.20366131029809
 20
23.09533056248127
 42
0.1880525375992057
  0
LWPOLYLINE
  5
146
330
18
100
AcDbEntity
  8
0
100
AcDbPolyline
 90
       10
 70
     0
 43
0.0
 10
-82.2362405441048
 20
23.09533056248127
 42
0.0601384850787931
 10
-82.15845053416501
 20
22.82596682866354
 42
0.2035762029449329
 10
-81.44774357005928
 20
22.39184259609271
 42
0.3468099722511908
 10
-80.72387542162937
 20
22.87858798154192
 42
0.1548712228461128
 10
-80.75019790607004
 20
23.39164394343031
 42
-0.3710590758618044
 10
-80.65806915263156
 20
23.9046999053187
 42
-0.4488940877137368
 10
-80.21058703293249
 20
23.7994576791836
 42
-0.2098762116725521
 10
-80.10529709516983
 20
22.81281158025477
 42
-0.3003291526315781
 10
-81.26348617897461
 20
22.02349468518737
 42
-0.3573790354681322
 10
-82.77702874483226
 20
23.11538301025131
 42
-0.1880525375992057
  0
LWPOLYLINE
  5
152
330
18
100
AcDbEntity
  8
0
100
AcDbPolyline
 90
        7
 70
     0
 43
0.0
 10
-79.3024614934179
 20
27.50924704618955
 42
-0.302942170473308
 10
-80.15794206405116
 20
26.07532138665947
 42
-0.0792600132951298
 10
-81.06606760356575
 20
25.81221570188923
 42
-0.0793161912566572
 10
-81.28980866341528
 20
25.08867528773063
 42
-0.0560539958632219
 10
-81.65832344558463
 20
24.62824039909896
 42
-0.0359995670703346
 10
-82.21109550304635
 20
24.08887386077138
 42
0.1229520925574207
 10
-82.48516278917914
 20
23.62333056248127
 42
0.3111140541383572
  0
LWPOLYLINE
  5
15B
330
18
100
AcDbEntity
  8
0
100
AcDbPolyline
 90
        7
 70
     0
 43
0.0
 10
-79.01291428036286
 20
27.50924704618955
 42
-0.3438204089751484
 10
-80.10529709516983
 20
25.91745800764599
 42
-0.0173292132515936
 10
-80.92129399703823
 20
25.68066289931493
 10
-80.92129399703823
 20
25.32547031644002
 42
-0.25779395785594
 10
-81.05290641924156
 20
24.9702777335651
 42
-0.0064932736225557
 10
-81.98735444319684
 20
24.02309745948423
 42
0.0977731512301346
 10
-82.20072347837705
 20
23.62333056248127
 42
0.2035762029449329
  0
LWPOLYLINE
  5
164
330
18
100
AcDbEntity
  8
0
100
AcDbPolyline
 90
        6
 70
     0
 43
0.0
 10
-83.22353998523693
 20
23.62333056248127
 42
0.1181508125433605
 10
-83.57986434658419
 20
24.4177558672071
 42
0.0101139869042278
 10
-84.2247651574844
 20
24.98343298197387
 42
-0.15558793415484
 10
-84.65908609285927
 20
25.97007908090271
 42
-0.058502849239622
 10
-85.64617908569585
 20
26.29896116696009
 42
-0.3187055689998393
 10
-86.34372474968511
 20
27.50924704618955
 42
-0.9099645319227322
  0
LWPOLYLINE
  5
16C
330
18
100
AcDbEntity
  8
0
100
AcDbPolyline
 90
        7
 70
     0
 43
0.0
 10
-86.6727557472973
 20
27.50924704618955
 42
0.302942170473308
 10
-85.81727517666406
 20
26.07532138665947
 42
0.0792600132951298
 10
-84.90914963714946
 20
25.81221570188923
 42
0.0793161912566572
 10
-84.68540857729994
 20
25.08867528773063
 42
0.0560539958632219
 10
-84.31689379513057
 20
24.62824039909896
 42
0.0359995670703346
 10
-83.76412173766885
 20
24.08887386077138
 42
-0.1229520925574207
 10
-83.49005445153606
 20
23.62333056248127
 42
-0.3111140541383572
  0
LWPOLYLINE
  5
175
330
18
100
AcDbEntity
  8
0
100
AcDbPolyline
 90
        6
 70
     0
 43
0.0
 10
-82.75167725547829
 20
23.62333056248127
 42
-0.1181508125433605
 10
-82.39535289413103
 20
24.4177558672071
 42
-0.0101139869042278
 10
-81.75045208323082
 20
24.98343298197387
 42
0.15558793415484
 10
-81.31613114785594
 20
25.97007908090271
 42
0.058502849239622
 10
-80.32903815501935
 20
26.29896116696009
 42
0.3187055689998393
 10
-79.6314924910301
 20
27.50924704618955
 42
0.9099645319227322
  0
LWPOLYLINE
  5
17D
330
18
100
AcDbEntity
  8
0
100
AcDbPolyline
 90
        6
 70
     0
 43
0.0
 10
-82.51057088618175
 20
23.09533056248127
 42
0.1800052694056863
 10
-82.10580556528368
 20
22.43130842094066
 42
0.3111140541383572
 10
-80.77652039051072
 20
22.32606619480556
 42
0.20997115445076
 10
-80.28955448625451
 20
23.27324638926479
 42
0.1909621222859565
 10
-80.44748939289851
 20
23.82576825562279
 42
0.3203470745759679
 10
-80.67123045274803
 20
23.89154465690994
 42
-0.1686248270651197
  0
LWPOLYLINE
  5
185
330
18
100
AcDbEntity
  8
0
100
AcDbPolyline
 90
        6
 70
     0
 43
0.0
 10
-83.46464635453346
 20
23.09533056248127
 42
-0.1800052694056863
 10
-83.86941167543154
 20
22.43130842094066
 42
-0.3111140541383572
 10
-85.1986968502045
 20
22.32606619480556
 42
-0.20997115445076
 10
-85.68566275446071
 20
23.27324638926479
 42
-0.1909621222859565
 10
-85.52772784781671
 20
23.82576825562279
 42
-0.3203470745759679
 10
-85.30398678796718
 20
23.89154465690994
 42
0.1686248270651197
  0
LINE
  5
18D
330
18
100
AcDbEntity
  8
0
 62
     7
100
AcDbLine
 10
-82.19227585526182
 20
23.62333056248127
 30
0.0
 11
-83.7762758552618
 21
23.62333056248127
 31
0.0
  0
LINE
  5
18E
330
18
100
AcDbEntity
  8
0
 62
     7
100
AcDbLine
 10
-83.85750662449257
 20
23.33902287017358
 30
0.0
 11
-82.11104508603105
 21
23.33902287017358
 31
0.0
  0
LINE
  5
18F
330
18
100
AcDbEntity
  8
0
 62
     7
100
AcDbLine
 10
-83.7762758552618
 20
23.09533056248127
 30
0.0
 11
-82.19227585526182
 21
23.09533056248127
 31
0.0
  0
LINE
  5
190
330
18
100
AcDbEntity
  8
0
 62
     7
100
AcDbLine
 10
-83.16704508603104
 20
23.62333056248127
 30
0.0
 11
-83.73566047064642
 21
23.62333056248127
 31
0.0
  0
LINE
  5
191
330
18
100
AcDbEntity
  8
0
 62
     7
100
AcDbLine
 10
-83.4919681629541
 20
23.09533056248127
 30
0.0
 11
-83.57319893218488
 21
23.33902287017358
 31
0.0
  0
LINE
  5
192
330
18
100
AcDbEntity
  8
0
 62
     7
100
AcDbLine
 10
-83.85750662449257
 20
23.33902287017358
 30
0.0
 11
-83.7762758552618
 21
23.09533056248127
 31
0.0
  0
LINE
  5
193
330
18
100
AcDbEntity
  8
0
 62
     7
100
AcDbLine
 10
-83.7762758552618
 20
23.62333056248127
 30
0.0
 11
-83.85750662449257
 21
23.33902287017358
 31
0.0
  0
LINE
  5
194
330
18
100
AcDbEntity
  8
0
 62
     7
100
AcDbLine
 10
-83.57319893218488
 20
23.33902287017358
 30
0.0
 11
-83.4919681629541
 21
23.62333056248127
 31
0.0
  0
LINE
  5
195
330
18
100
AcDbEntity
  8
0
 62
     7
100
AcDbLine
 10
-82.23289123987719
 20
23.62333056248127
 30
0.0
 11
-82.80150662449257
 21
23.62333056248127
 31
0.0
  0
LINE
  5
196
330
18
100
AcDbEntity
  8
0
 62
     7
100
AcDbLine
 10
-82.19227585526182
 20
23.09533056248127
 30
0.0
 11
-82.19227585526182
 21
23.09533056248127
 31
0.0
  0
LINE
  5
197
330
18
100
AcDbEntity
  8
0
 62
     7
100
AcDbLine
 10
-82.4765835475695
 20
23.09533056248127
 30
0.0
 11
-82.39535277833873
 21
23.33902287017358
 31
0.0
  0
LINE
  5
198
330
18
100
AcDbEntity
  8
0
 62
     7
100
AcDbLine
 10
-82.19227585526182
 20
23.09533056248127
 30
0.0
 11
-82.11104508603105
 21
23.33902287017358
 31
0.0
  0
LINE
  5
199
330
18
100
AcDbEntity
  8
0
 62
     7
100
AcDbLine
 10
-82.11104508603105
 20
23.33902287017358
 30
0.0
 11
-82.19227585526182
 21
23.62333056248127
 31
0.0
  0
LINE
  5
19A
330
18
100
AcDbEntity
  8
0
 62
     7
100
AcDbLine
 10
-82.39535277833873
 20
23.33902287017358
 30
0.0
 11
-82.4765835475695
 21
23.62333056248127
 31
0.0
  0
LWPOLYLINE
  5
19B
330
18
100
AcDbEntity
  8
0
100
AcDbPolyline
 90
        6
 70
     0
 43
0.0
 10
-82.75167725547829
 20
31.39516352989782
 42
0.1181508125433605
 10
-82.39535289413103
 20
30.60073822517199
 42
0.0101139869042278
 10
-81.75045208323082
 20
30.03506111040522
 42
-0.15558793415484
 10
-81.31613114785594
 20
29.04841501147638
 42
-0.058502849239622
 10
-80.32903815501935
 20
28.71953292541901
 42
-0.3187055689998393
 10
-79.6314924910301
 20
27.50924704618955
 42
-0.9099645319227322
  0
LWPOLYLINE
  5
1A3
330
18
100
AcDbEntity
  8
0
100
AcDbPolyline
 90
        7
 70
     0
 43
0.0
 10
-79.01291428036286
 20
27.50924704618955
 42
0.3438204089751484
 10
-80.10529709516983
 20
29.10103608473311
 42
0.0173292132515936
 10
-80.92129399703823
 20
29.33783119306416
 10
-80.92129399703823
 20
29.69302377593907
 42
0.25779395785594
 10
-81.05290641924156
 20
30.04821635881399
 42
0.0064932736225557
 10
-81.98735444319684
 20
30.99539663289486
 42
-0.0977731512301345
 10
-82.20072347837705
 20
31.39516352989782
 42
-0.2035762029449329
  0
LWPOLYLINE
  5
1AC
330
18
100
AcDbEntity
  8
0
100
AcDbPolyline
 90
        7
 70
     0
 43
0.0
 10
-79.3024614934179
 20
27.50924704618955
 42
0.302942170473308
 10
-80.15794206405116
 20
28.94317270571963
 42
0.0792600132951298
 10
-81.06606760356575
 20
29.20627839048986
 42
0.0793161912566572
 10
-81.28980866341528
 20
29.92981880464847
 42
0.0560539958632219
 10
-81.65832344558463
 20
30.39025369328014
 42
0.0359995670703346
 10
-82.21109550304635
 20
30.92962023160772
 42
-0.1229520925574207
 10
-82.48516278917914
 20
31.39516352989782
 42
-0.3111140541383572
  0
LWPOLYLINE
  5
1B5
330
18
100
AcDbEntity
  8
0
100
AcDbPolyline
 90
        6
 70
     0
 43
0.0
 10
-83.22353998523693
 20
31.39516352989782
 42
-0.1181508125433605
 10
-83.57986434658419
 20
30.60073822517199
 42
-0.0101139869042278
 10
-84.2247651574844
 20
30.03506111040522
 42
0.15558793415484
 10
-84.65908609285927
 20
29.04841501147638
 42
0.058502849239622
 10
-85.64617908569585
 20
28.71953292541901
 42
0.3187055689998393
 10
-86.34372474968511
 20
27.50924704618955
 42
0.9099645319227322
  0
LWPOLYLINE
  5
1BD
330
18
100
AcDbEntity
  8
0
100
AcDbPolyline
 90
        7
 70
     0
 43
0.0
 10
-86.6727557472973
 20
27.50924704618955
 42
-0.302942170473308
 10
-85.81727517666406
 20
28.94317270571963
 42
-0.0792600132951298
 10
-84.90914963714946
 20
29.20627839048986
 42
-0.0793161912566572
 10
-84.68540857729994
 20
29.92981880464847
 42
-0.0560539958632219
 10
-84.31689379513057
 20
30.39025369328014
 42
-0.0359995670703346
 10
-83.76412173766885
 20
30.92962023160772
 42
0.1229520925574207
 10
-83.49005445153606
 20
31.39516352989782
 42
0.3111140541383572
  0
LINE
  5
1C6
330
18
100
AcDbEntity
  8
0
 62
     7
100
AcDbLine
 10
-82.19227585526182
 20
31.39516352989782
 30
0.0
 11
-83.7762758552618
 21
31.39516352989782
 31
0.0
  0
LINE
  5
1C7
330
18
100
AcDbEntity
  8
0
 62
     7
100
AcDbLine
 10
-83.85750662449257
 20
31.67947122220551
 30
0.0
 11
-82.11104508603105
 21
31.67947122220551
 31
0.0
  0
LINE
  5
1C8
330
18
100
AcDbEntity
  8
0
 62
     7
100
AcDbLine
 10
-83.7762758552618
 20
31.92316352989782
 30
0.0
 11
-82.19227585526182
 21
31.92316352989782
 31
0.0
  0
LINE
  5
1C9
330
18
100
AcDbEntity
  8
0
 62
     7
100
AcDbLine
 10
-83.16704508603104
 20
31.39516352989782
 30
0.0
 11
-83.73566047064642
 21
31.39516352989782
 31
0.0
  0
LINE
  5
1CA
330
18
100
AcDbEntity
  8
0
 62
     7
100
AcDbLine
 10
-83.57319893218488
 20
31.67947122220551
 30
0.0
 11
-83.4919681629541
 21
31.39516352989782
 31
0.0
  0
LINE
  5
1CB
330
18
100
AcDbEntity
  8
0
 62
     7
100
AcDbLine
 10
-83.7762758552618
 20
31.39516352989782
 30
0.0
 11
-83.85750662449257
 21
31.67947122220551
 31
0.0
  0
LINE
  5
1CC
330
18
100
AcDbEntity
  8
0
 62
     7
100
AcDbLine
 10
-83.85750662449257
 20
31.67947122220551
 30
0.0
 11
-83.7762758552618
 21
31.92316352989782
 31
0.0
  0
LINE
  5
1CD
330
18
100
AcDbEntity
  8
0
 62
     7
100
AcDbLine
 10
-83.4919681629541
 20
31.92316352989782
 30
0.0
 11
-83.57319893218488
 21
31.67947122220551
 31
0.0
  0
LINE
  5
1CE
330
18
100
AcDbEntity
  8
0
 62
     7
100
AcDbLine
 10
-82.19227585526182
 20
31.92316352989782
 30
0.0
 11
-82.19227585526182
 21
31.92316352989782
 31
0.0
  0
LINE
  5
1CF
330
18
100
AcDbEntity
  8
0
 62
     7
100
AcDbLine
 10
-82.39535277833873
 20
31.67947122220551
 30
0.0
 11
-82.4765835475695
 21
31.39516352989782
 31
0.0
  0
LINE
  5
1D0
330
18
100
AcDbEntity
  8
0
 62
     7
100
AcDbLine
 10
-82.11104508603105
 20
31.67947122220551
 30
0.0
 11
-82.19227585526182
 21
31.39516352989782
 31
0.0
  0
LINE
  5
1D1
330
18
100
AcDbEntity
  8
0
 62
     7
100
AcDbLine
 10
-82.23289123987719
 20
31.39516352989782
 30
0.0
 11
-82.80150662449257
 21
31.39516352989782
 31
0.0
  0
LINE
  5
1D2
330
18
100
AcDbEntity
  8
0
 62
     7
100
AcDbLine
 10
-82.4765835475695
 20
31.92316352989782
 30
0.0
 11
-82.39535277833873
 21
31.67947122220551
 31
0.0
  0
LINE
  5
1D3
330
18
100
AcDbEntity
  8
0
 62
     7
100
AcDbLine
 10
-82.19227585526182
 20
31.92316352989782
 30
0.0
 11
-82.11104508603105
 21
31.67947122220551
 31
0.0
  0
TEXT
  5
1E1
330
18
100
AcDbEntity
  8
ADPDIM
100
AcDbText
 10
-95.76941556478246
 20
20.94366116937591
 30
0.0
 40
0.25
  1
J U L I U S  B L U M  &  C O . ,  I N C .      ( 8 0 0 )  5 2 6 - 6 2 9 3        W W W . J U L I U S B L U M . C O M        P A R T  N o .  9 6 4
 41
1.25
  7
ARIAL_WIDE
 72
     1
 11
-82.90000048974835
 21
21.19366116937591
 31
0.0
100
AcDbText
 73
     3
  0
ENDSEC
  0
SECTION
  2
OBJECTS
  0
DICTIONARY
  5
C
330
0
100
AcDbDictionary
  3
ACAD_GROUP
350
D
  3
ACAD_LAYOUT
350
1DA
  3
ACAD_MLINESTYLE
350
E
  3
ACAD_PLOTSETTINGS
350
1DB
  3
ACAD_PLOTSTYLENAME
350
1D8
  3
ACDBHEADERROUNDTRIPXREC
350
325
  3
ACDBVARIABLEDICTIONARY
350
23B
  0
DICTIONARY
  5
235
330
18
100
AcDbDictionary
280
     1
  3
ACAD_LAYOUTSELFREF
360
346
  0
DICTIONARY
  5
233
330
15
100
AcDbDictionary
280
     1
  3
ACAD_LAYOUTSELFREF
360
345
  0
DICTIONARY
  5
D
102
{ACAD_REACTORS
330
C
102
}
330
C
100
AcDbDictionary
  0
DICTIONARY
  5
1DA
102
{ACAD_REACTORS
330
C
102
}
330
C
100
AcDbDictionary
  0
DICTIONARY
  5
E
102
{ACAD_REACTORS
330
C
102
}
330
C
100
AcDbDictionary
  3
STANDARD
350
1B
  0
DICTIONARY
  5
1DB
102
{ACAD_REACTORS
330
C
102
}
330
C
100
AcDbDictionary
  0
ACDBDICTIONARYWDFLT
  5
1D8
102
{ACAD_REACTORS
330
C
102
}
330
C
100
AcDbDictionary
281
     1
  3
Normal
350
1D9
100
AcDbDictionaryWithDefault
340
1D9
  0
DICTIONARY
  5
325
102
{ACAD_REACTORS
330
C
102
}
330
C
100
AcDbDictionary
  3
CEPSNTYPE
350
32F
  3
FINGERPRINTGUID
350
330
  3
HYPERLINKBASE
350
328
  3
INSUNITS
350
32E
  3
LAYOUTDICT
350
32A
  3
LWETCUNION
350
32D
  3
PLOTSETDICT
350
32B
  3
PLOTSTYLNAMDICT
350
32C
  3
PSVPSCALE
350
332
  3
PUCSBASE
350
335
  3
PUCSORGBACK
350
33B
  3
PUCSORGBOTTOM
350
337
  3
PUCSORGFRONT
350
33A
  3
PUCSORGLEFT
350
338
  3
PUCSORGRIGHT
350
339
  3
PUCSORGTOP
350
336
  3
PUCSORTHOREF
350
333
  3
PUCSORTHOVIEW
350
334
  3
STYLESHEET
350
329
  3
TSTACKALIGN
350
326
  3
TSTACKSIZE
350
327
  3
UCSBASE
350
33E
  3
UCSORGBACK
350
344
  3
UCSORGBOTTOM
350
340
  3
UCSORGFRONT
350
343
  3
UCSORGLEFT
350
341
  3
UCSORGRIGHT
350
342
  3
UCSORGTOP
350
33F
  3
UCSORTHOREF
350
33C
  3
UCSORTHOVIEW
350
33D
  3
VERSIONGUID
350
331
  0
DICTIONARY
  5
23B
102
{ACAD_REACTORS
330
C
102
}
330
C
100
AcDbDictionary
  3
DIMASSOC
350
23C
  0
XRECORD
  5
346
102
{ACAD_REACTORS
330
235
102
}
330
235
100
AcDbXrecord
340
18
  0
XRECORD
  5
345
102
{ACAD_REACTORS
330
233
102
}
330
233
100
AcDbXrecord
340
15
  0
MLINESTYLE
  5
1B
102
{ACAD_REACTORS
330
E
102
}
330
E
100
AcDbMlineStyle
  2
STANDARD
 70
     0
  3

 62
     0
 51
90.0
 52
90.0
 71
     2
 49
0.5
 62
   256
  6
BYLAYER
 49
-0.5
 62
   256
  6
BYLAYER
  0
ACDBPLACEHOLDER
  5
1D9
102
{ACAD_REACTORS
330
1D8
102
}
330
1D8
100
AcDbPlaceHolder
280
     0
  0
XRECORD
  5
32F
102
{ACAD_REACTORS
330
325
102
}
330
325
100
AcDbXrecord
 90
        0
  0
XRECORD
  5
330
102
{ACAD_REACTORS
330
325
102
}
330
325
100
AcDbXrecord
  1
{C63B3955-1A09-4B2E-A0DA-E616A6F43F98}
  0
XRECORD
  5
328
102
{ACAD_REACTORS
330
325
102
}
330
325
100
AcDbXrecord
  1

  0
XRECORD
  5
32E
102
{ACAD_REACTORS
330
325
102
}
330
325
100
AcDbXrecord
 90
        0
  0
XRECORD
  5
32A
102
{ACAD_REACTORS
330
325
102
}
330
325
100
AcDbXrecord
340
1DA
  0
XRECORD
  5
32D
102
{ACAD_REACTORS
330
325
102
}
330
325
100
AcDbXrecord
 90
    14877
  0
XRECORD
  5
32B
102
{ACAD_REACTORS
330
325
102
}
330
325
100
AcDbXrecord
340
1DB
  0
XRECORD
  5
32C
102
{ACAD_REACTORS
330
325
102
}
330
325
100
AcDbXrecord
340
1D8
  0
XRECORD
  5
332
102
{ACAD_REACTORS
330
325
102
}
330
325
100
AcDbXrecord
 40
0.0
  0
XRECORD
  5
335
102
{ACAD_REACTORS
330
325
102
}
330
325
100
AcDbXrecord
340
0
  0
XRECORD
  5
33B
102
{ACAD_REACTORS
330
325
102
}
330
325
100
AcDbXrecord
 10
0.0
 20
0.0
 30
0.0
  0
XRECORD
  5
337
102
{ACAD_REACTORS
330
325
102
}
330
325
100
AcDbXrecord
 10
0.0
 20
0.0
 30
0.0
  0
XRECORD
  5
33A
102
{ACAD_REACTORS
330
325
102
}
330
325
100
AcDbXrecord
 10
0.0
 20
0.0
 30
0.0
  0
XRECORD
  5
338
102
{ACAD_REACTORS
330
325
102
}
330
325
100
AcDbXrecord
 10
0.0
 20
0.0
 30
0.0
  0
XRECORD
  5
339
102
{ACAD_REACTORS
330
325
102
}
330
325
100
AcDbXrecord
 10
0.0
 20
0.0
 30
0.0
  0
XRECORD
  5
336
102
{ACAD_REACTORS
330
325
102
}
330
325
100
AcDbXrecord
 10
0.0
 20
0.0
 30
0.0
  0
XRECORD
  5
333
102
{ACAD_REACTORS
330
325
102
}
330
325
100
AcDbXrecord
340
0
  0
XRECORD
  5
334
102
{ACAD_REACTORS
330
325
102
}
330
325
100
AcDbXrecord
 70
     0
  0
XRECORD
  5
329
102
{ACAD_REACTORS
330
325
102
}
330
325
100
AcDbXrecord
  1

  0
XRECORD
  5
326
102
{ACAD_REACTORS
330
325
102
}
330
325
100
AcDbXrecord
 90
        1
  0
XRECORD
  5
327
102
{ACAD_REACTORS
330
325
102
}
330
325
100
AcDbXrecord
 90
       70
  0
XRECORD
  5
33E
102
{ACAD_REACTORS
330
325
102
}
330
325
100
AcDbXrecord
340
0
  0
XRECORD
  5
344
102
{ACAD_REACTORS
330
325
102
}
330
325
100
AcDbXrecord
 10
0.0
 20
0.0
 30
0.0
  0
XRECORD
  5
340
102
{ACAD_REACTORS
330
325
102
}
330
325
100
AcDbXrecord
 10
0.0
 20
0.0
 30
0.0
  0
XRECORD
  5
343
102
{ACAD_REACTORS
330
325
102
}
330
325
100
AcDbXrecord
 10
0.0
 20
0.0
 30
0.0
  0
XRECORD
  5
341
102
{ACAD_REACTORS
330
325
102
}
330
325
100
AcDbXrecord
 10
0.0
 20
0.0
 30
0.0
  0
XRECORD
  5
342
102
{ACAD_REACTORS
330
325
102
}
330
325
100
AcDbXrecord
 10
0.0
 20
0.0
 30
0.0
  0
XRECORD
  5
33F
102
{ACAD_REACTORS
330
325
102
}
330
325
100
AcDbXrecord
 10
0.0
 20
0.0
 30
0.0
  0
XRECORD
  5
33C
102
{ACAD_REACTORS
330
325
102
}
330
325
100
AcDbXrecord
340
0
  0
XRECORD
  5
33D
102
{ACAD_REACTORS
330
325
102
}
330
325
100
AcDbXrecord
 70
     0
  0
XRECORD
  5
331
102
{ACAD_REACTORS
330
325
102
}
330
325
100
AcDbXrecord
  1
{F6BDE6F3-F57F-4A61-9F64-FAF6C7DBB017}
  0
DICTIONARYVAR
  5
23C
102
{ACAD_REACTORS
330
23B
102
}
330
23B
100
DictionaryVariables
280
     0
  1
1
  0
ENDSEC
  0
EOF
