  0
SECTION
  2
HEADER
  9
$ACADVER
  1
AC1014
  9
$ACADMAINTVER
 70
     9
  9
$DWGCODEPAGE
  3
ANSI_1252
  9
$INSBASE
 10
-65.67295482842469
 20
41.00500268784261
 30
0.0
  9
$EXTMIN
 10
-98.04653298325348
 20
39.31586873713571
 30
0.0
  9
$EXTMAX
 10
-46.56887268311704
 20
68.81466124985106
 30
0.0
  9
$LIMMIN
 10
0.0
 20
0.0
  9
$LIMMAX
 10
36.0
 20
36.0
  9
$ORTHOMODE
 70
     1
  9
$REGENMODE
 70
     1
  9
$FILLMODE
 70
     1
  9
$QTEXTMODE
 70
     0
  9
$MIRRTEXT
 70
     1
  9
$DRAGMODE
 70
     0
  9
$LTSCALE
 40
1.0
  9
$OSMODE
 70
    37
  9
$ATTMODE
 70
     1
  9
$TEXTSIZE
 40
0.2
  9
$TRACEWID
 40
0.05
  9
$TEXTSTYLE
  7
STANDARD
  9
$CLAYER
  8
ADPDIM
  9
$CELTYPE
  6
BYLAYER
  9
$CECOLOR
 62
   256
  9
$CELTSCALE
 40
1.0
  9
$DELOBJ
 70
     1
  9
$DISPSILH
 70
     0
  9
$DIMSCALE
 40
1.0
  9
$DIMASZ
 40
0.125
  9
$DIMEXO
 40
0.0625
  9
$DIMDLI
 40
0.38
  9
$DIMRND
 40
0.0
  9
$DIMDLE
 40
0.0
  9
$DIMEXE
 40
0.18
  9
$DIMTP
 40
0.0
  9
$DIMTM
 40
0.0
  9
$DIMTXT
 40
0.125
  9
$DIMCEN
 40
0.1875
  9
$DIMTSZ
 40
0.125
  9
$DIMTOL
 70
     0
  9
$DIMLIM
 70
     0
  9
$DIMTIH
 70
     0
  9
$DIMTOH
 70
     0
  9
$DIMSE1
 70
     0
  9
$DIMSE2
 70
     0
  9
$DIMTAD
 70
     0
  9
$DIMZIN
 70
     3
  9
$DIMBLK
  1

  9
$DIMASO
 70
     1
  9
$DIMSHO
 70
     1
  9
$DIMPOST
  1

  9
$DIMAPOST
  1

  9
$DIMALT
 70
     0
  9
$DIMALTD
 70
     1
  9
$DIMALTF
 40
25.4
  9
$DIMLFAC
 40
1.0
  9
$DIMTOFL
 70
     0
  9
$DIMTVP
 40
0.0
  9
$DIMTIX
 70
     0
  9
$DIMSOXD
 70
     0
  9
$DIMSAH
 70
     0
  9
$DIMBLK1
  1

  9
$DIMBLK2
  1

  9
$DIMSTYLE
  2
STANDARD
  9
$DIMCLRD
 70
     0
  9
$DIMCLRE
 70
     0
  9
$DIMCLRT
 70
     0
  9
$DIMTFAC
 40
1.0
  9
$DIMGAP
 40
0.125
  9
$DIMJUST
 70
     0
  9
$DIMSD1
 70
     0
  9
$DIMSD2
 70
     0
  9
$DIMTOLJ
 70
     1
  9
$DIMTZIN
 70
     0
  9
$DIMALTZ
 70
     0
  9
$DIMALTTZ
 70
     0
  9
$DIMFIT
 70
     3
  9
$DIMUPT
 70
     0
  9
$DIMUNIT
 70
     2
  9
$DIMDEC
 70
     4
  9
$DIMTDEC
 70
     4
  9
$DIMALTU
 70
     2
  9
$DIMALTTD
 70
     2
  9
$DIMTXSTY
  7
STANDARD
  9
$DIMAUNIT
 70
     0
  9
$LUNITS
 70
     5
  9
$LUPREC
 70
     5
  9
$SKETCHINC
 40
0.1
  9
$FILLETRAD
 40
0.062
  9
$AUNITS
 70
     0
  9
$AUPREC
 70
     0
  9
$MENU
  1
acad
  9
$ELEVATION
 40
0.0
  9
$PELEVATION
 40
0.0
  9
$THICKNESS
 40
0.0
  9
$LIMCHECK
 70
     0
  9
$BLIPMODE
 70
     0
  9
$CHAMFERA
 40
0.0
  9
$CHAMFERB
 40
0.0
  9
$CHAMFERC
 40
0.0
  9
$CHAMFERD
 40
0.0
  9
$SKPOLY
 70
     0
  9
$TDCREATE
 40
2450409.651918981
  9
$TDUPDATE
 40
2452297.078470405
  9
$TDINDWG
 40
0.0456328588
  9
$TDUSRTIMER
 40
0.0456328588
  9
$USRTIMER
 70
     1
  9
$ANGBASE
 50
0.0
  9
$ANGDIR
 70
     0
  9
$PDMODE
 70
     0
  9
$PDSIZE
 40
0.0
  9
$PLINEWID
 40
0.0
  9
$COORDS
 70
     2
  9
$SPLFRAME
 70
     0
  9
$SPLINETYPE
 70
     6
  9
$SPLINESEGS
 70
     8
  9
$ATTDIA
 70
     0
  9
$ATTREQ
 70
     1
  9
$HANDLING
 70
 22529
  9
$HANDSEED
  5
407
  9
$SURFTAB1
 70
     6
  9
$SURFTAB2
 70
     6
  9
$SURFTYPE
 70
     6
  9
$SURFU
 70
     6
  9
$SURFV
 70
     6
  9
$UCSNAME
  2

  9
$UCSORG
 10
0.0
 20
0.0
 30
0.0
  9
$UCSXDIR
 10
1.0
 20
0.0
 30
0.0
  9
$UCSYDIR
 10
0.0
 20
1.0
 30
0.0
  9
$PUCSNAME
  2

  9
$PUCSORG
 10
0.0
 20
0.0
 30
0.0
  9
$PUCSXDIR
 10
1.0
 20
0.0
 30
0.0
  9
$PUCSYDIR
 10
0.0
 20
1.0
 30
0.0
  9
$USERI1
 70
     0
  9
$USERI2
 70
     0
  9
$USERI3
 70
     0
  9
$USERI4
 70
     0
  9
$USERI5
 70
     0
  9
$USERR1
 40
0.0
  9
$USERR2
 40
0.0
  9
$USERR3
 40
0.0
  9
$USERR4
 40
0.0
  9
$USERR5
 40
0.0
  9
$WORLDVIEW
 70
     1
  9
$SHADEDGE
 70
     3
  9
$SHADEDIF
 70
    70
  9
$TILEMODE
 70
     1
  9
$MAXACTVP
 70
    15
  9
$PINSBASE
 10
0.0009765857830644
 20
1.500170956078392
 30
0.0
  9
$PLIMCHECK
 70
     0
  9
$PEXTMIN
 10
1.000000000000000E+20
 20
1.000000000000000E+20
 30
1.000000000000000E+20
  9
$PEXTMAX
 10
-1.000000000000000E+20
 20
-1.000000000000000E+20
 30
-1.000000000000000E+20
  9
$PLIMMIN
 10
0.0
 20
0.0
  9
$PLIMMAX
 10
12.0
 20
9.0
  9
$UNITMODE
 70
     0
  9
$VISRETAIN
 70
     0
  9
$PLINEGEN
 70
     0
  9
$PSLTSCALE
 70
     1
  9
$TREEDEPTH
 70
  3020
  9
$PICKSTYLE
 70
     1
  9
$CMLSTYLE
  2
STANDARD
  9
$CMLJUST
 70
     0
  9
$CMLSCALE
 40
1.0
  9
$PROXYGRAPHICS
 70
     1
  9
$MEASUREMENT
 70
     0
  0
ENDSEC
  0
SECTION
  2
CLASSES
  0
CLASS
  1
ACDBDICTIONARYWDFLT
  2
AcDbDictionaryWithDefault
  3
AutoCAD 2000
 90
        0
280
     0
281
     0
  0
CLASS
  1
ACDBPLACEHOLDER
  2
AcDbPlaceHolder
  3
AutoCAD 2000
 90
        0
280
     0
281
     0
  0
CLASS
  1
LAYOUT
  2
AcDbLayout
  3
AutoCAD 2000
 90
        0
280
     0
281
     0
  0
CLASS
  1
DICTIONARYVAR
  2
AcDbDictionaryVar
  3
AutoCAD 2000
 90
        0
280
     0
281
     0
  0
CLASS
  1
LONG_TRANSACTION
  2
AcDbLongTransaction
  3
AutoCAD 2000
 90
        0
280
     0
281
     0
  0
CLASS
  1
LWPOLYLINE
  2
AcDbPolyline
  3
AutoCAD 2000
 90
        0
280
     0
281
     1
  0
CLASS
  1
HATCH
  2
AcDbHatch
  3
AutoCAD 2000
 90
        0
280
     0
281
     1
  0
CLASS
  1
XRECORD
  2
AcDbXrecord
  3
AutoCAD 2000
 90
        0
280
     0
281
     0
  0
CLASS
  1
LONG_TRANSACTION
  2
AcDbLongTransaction
  3
AutoCAD 2000
 90
        0
280
     0
281
     0
  0
CLASS
  1
LWPOLYLINE
  2
AcDbPolyline
  3
AutoCAD 2000
 90
        0
280
     0
281
     1
  0
CLASS
  1
HATCH
  2
AcDbHatch
  3
AutoCAD 2000
 90
        0
280
     0
281
     1
  0
CLASS
  1
XRECORD
  2
AcDbXrecord
  3
AutoCAD 2000
 90
        0
280
     0
281
     0
  0
CLASS
  1
LONG_TRANSACTION
  2
AcDbLongTransaction
  3
AutoCAD 2000
 90
        0
280
     0
281
     0
  0
CLASS
  1
LWPOLYLINE
  2
AcDbPolyline
  3
AutoCAD 2000
 90
        0
280
     0
281
     1
  0
CLASS
  1
HATCH
  2
AcDbHatch
  3
AutoCAD 2000
 90
        0
280
     0
281
     1
  0
CLASS
  1
XRECORD
  2
AcDbXrecord
  3
AutoCAD 2000
 90
        0
280
     0
281
     0
  0
CLASS
  1
LONG_TRANSACTION
  2
AcDbLongTransaction
  3
AutoCAD 2000
 90
        0
280
     0
281
     0
  0
CLASS
  1
LWPOLYLINE
  2
AcDbPolyline
  3
AutoCAD 2000
 90
        0
280
     0
281
     1
  0
CLASS
  1
HATCH
  2
AcDbHatch
  3
AutoCAD 2000
 90
        0
280
     0
281
     1
  0
CLASS
  1
XRECORD
  2
AcDbXrecord
  3
AutoCAD 2000
 90
        0
280
     0
281
     0
  0
CLASS
  1
LONG_TRANSACTION
  2
AcDbLongTransaction
  3
AutoCAD 2000
 90
        0
280
     0
281
     0
  0
CLASS
  1
LWPOLYLINE
  2
AcDbPolyline
  3
AutoCAD 2000
 90
        0
280
     0
281
     1
  0
CLASS
  1
HATCH
  2
AcDbHatch
  3
AutoCAD 2000
 90
        0
280
     0
281
     1
  0
CLASS
  1
XRECORD
  2
AcDbXrecord
  3
AutoCAD 2000
 90
        0
280
     0
281
     0
  0
ENDSEC
  0
SECTION
  2
TABLES
  0
TABLE
  2
VPORT
  5
8
330
0
100
AcDbSymbolTable
 70
     2
  0
VPORT
  5
3E4
330
8
100
AcDbSymbolTableRecord
100
AcDbViewportTableRecord
  2
*ACTIVE
 70
     0
 10
0.0
 20
0.0
 11
1.0
 21
1.0
 12
-72.26670557484647
 22
54.06554492868512
 13
0.0
 23
0.0
 14
0.5740882589684922
 24
0.5740882589684922
 15
0.5
 25
0.5
 16
0.0
 26
0.0
 36
1.0
 17
0.0
 27
0.0
 37
0.0
 40
32.99875121486705
 41
1.570528967254408
 42
50.0
 43
0.0
 44
0.0
 50
0.0
 51
0.0
 71
     0
 72
   100
 73
     1
 74
     0
 75
     0
 76
     0
 77
     0
 78
     0
  0
ENDTAB
  0
TABLE
  2
LTYPE
  5
5
330
0
100
AcDbSymbolTable
 70
     1
  0
LTYPE
  5
12
330
5
100
AcDbSymbolTableRecord
100
AcDbLinetypeTableRecord
  2
BYBLOCK
 70
     0
  3

 72
    65
 73
     0
 40
0.0
  0
LTYPE
  5
13
330
5
100
AcDbSymbolTableRecord
100
AcDbLinetypeTableRecord
  2
BYLAYER
 70
     0
  3

 72
    65
 73
     0
 40
0.0
  0
LTYPE
  5
14
330
5
100
AcDbSymbolTableRecord
100
AcDbLinetypeTableRecord
  2
CONTINUOUS
 70
     0
  3
Solid line
 72
    65
 73
     0
 40
0.0
  0
ENDTAB
  0
TABLE
  2
LAYER
  5
2
330
0
100
AcDbSymbolTable
 70
     3
  0
LAYER
  5
F
330
2
100
AcDbSymbolTableRecord
100
AcDbLayerTableRecord
  2
0
 70
     0
 62
     7
  6
CONTINUOUS
  0
LAYER
  5
D5
330
2
100
AcDbSymbolTableRecord
100
AcDbLayerTableRecord
  2
DEFPOINTS
 70
     0
 62
     7
  6
CONTINUOUS
  0
LAYER
  5
D8
330
2
100
AcDbSymbolTableRecord
100
AcDbLayerTableRecord
  2
ADPDIM
 70
     0
 62
     3
  6
CONTINUOUS
  0
ENDTAB
  0
TABLE
  2
STYLE
  5
3
330
0
100
AcDbSymbolTable
 70
     2
  0
STYLE
  5
10
330
3
100
AcDbSymbolTableRecord
100
AcDbTextStyleTableRecord
  2
STANDARD
 70
     0
 40
0.0
 41
1.0
 50
0.0
 71
     0
 42
0.2
  3
txt
  4

  0
STYLE
  5
2A0
330
3
100
AcDbSymbolTableRecord
100
AcDbTextStyleTableRecord
  2
ARIAL_WIDE
 70
     0
 40
0.0
 41
1.25
 50
0.0
 71
     0
 42
0.2
  3
ARIAL.TTF
  4

1001
ACAD
1000
Arial
1071
       34
  0
ENDTAB
  0
TABLE
  2
VIEW
  5
6
330
0
100
AcDbSymbolTable
 70
     0
  0
ENDTAB
  0
TABLE
  2
UCS
  5
7
330
0
100
AcDbSymbolTable
 70
     0
  0
ENDTAB
  0
TABLE
  2
APPID
  5
9
330
0
100
AcDbSymbolTable
 70
     1
  0
APPID
  5
11
330
9
100
AcDbSymbolTableRecord
100
AcDbRegAppTableRecord
  2
ACAD
 70
     0
  0
ENDTAB
  0
TABLE
  2
DIMSTYLE
  5
A
330
0
100
AcDbSymbolTable
 70
     1
  0
DIMSTYLE
105
294
330
A
100
AcDbSymbolTableRecord
100
AcDbDimStyleTableRecord
  2
STANDARD
 70
     0
  3

  4

  5

  6

  7

 40
1.0
 41
0.18
 42
0.0625
 43
0.38
 44
0.18
 45
0.0
 46
0.0
 47
0.0
 48
0.0
140
0.18
141
0.09
142
0.0
143
25.4
144
1.0
145
0.0
146
1.0
147
0.09
 71
     0
 72
     0
 73
     1
 74
     1
 75
     0
 76
     0
 77
     0
 78
     0
170
     0
171
     2
172
     0
173
     0
174
     0
175
     0
176
     0
177
     0
178
     0
270
     2
271
     4
272
     4
273
     2
274
     2
340
10
275
     0
280
     0
281
     0
282
     0
283
     1
284
     0
285
     0
286
     0
287
     3
288
     0
  0
ENDTAB
  0
TABLE
  2
BLOCK_RECORD
  5
1
330
0
100
AcDbSymbolTable
 70
     2
  0
BLOCK_RECORD
  5
18
102
{ACAD_XDICTIONARY
360
2F5
102
}
330
1
100
AcDbSymbolTableRecord
100
AcDbBlockTableRecord
  2
*MODEL_SPACE
  0
BLOCK_RECORD
  5
15
102
{ACAD_XDICTIONARY
360
2F3
102
}
330
1
100
AcDbSymbolTableRecord
100
AcDbBlockTableRecord
  2
*PAPER_SPACE
  0
BLOCK_RECORD
  5
CE
330
1
100
AcDbSymbolTableRecord
100
AcDbBlockTableRecord
  2
*D0
  0
BLOCK_RECORD
  5
D0
330
1
100
AcDbSymbolTableRecord
100
AcDbBlockTableRecord
  2
*D1
  0
ENDTAB
  0
ENDSEC
  0
SECTION
  2
BLOCKS
  0
BLOCK
  5
DB
330
18
100
AcDbEntity
  8
0
100
AcDbBlockBegin
  2
*MODEL_SPACE
 70
     0
 10
0.0
 20
0.0
 30
0.0
  3
*MODEL_SPACE
  1

  0
ENDBLK
  5
DC
330
18
100
AcDbEntity
  8
0
100
AcDbBlockEnd
  0
BLOCK
  5
D9
330
15
100
AcDbEntity
 67
     1
  8
0
100
AcDbBlockBegin
  2
*PAPER_SPACE
 70
     0
 10
0.0
 20
0.0
 30
0.0
  3
*PAPER_SPACE
  1

  0
ENDBLK
  5
DA
330
15
100
AcDbEntity
 67
     1
  8
0
100
AcDbBlockEnd
  0
BLOCK
  5
DE
330
CE
100
AcDbEntity
  8
0
100
AcDbBlockBegin
  2
*D0
 70
     1
 10
0.0
 20
0.0
 30
0.0
  3
*D0
  1

  0
LINE
  5
DF
330
CE
100
AcDbEntity
  8
0
  6
BYBLOCK
 62
     0
100
AcDbLine
 10
-71.92552766440612
 20
40.87537421653645
 30
0.0
 11
-64.46497314104519
 21
40.87537421653645
 31
0.0
  0
LINE
  5
E0
330
CE
100
AcDbEntity
  8
0
  6
BYBLOCK
 62
     0
100
AcDbLine
 10
-71.92552766440612
 20
67.87918469324683
 30
0.0
 11
-64.46497314104519
 21
67.87918469324683
 31
0.0
  0
LINE
  5
E1
330
CE
100
AcDbEntity
  8
0
  6
BYBLOCK
 62
     0
100
AcDbLine
 10
-64.64497314104518
 20
40.87537421653645
 30
0.0
 11
-64.64497314104518
 21
54.14811278822497
 31
0.0
  0
LINE
  5
E2
330
CE
100
AcDbEntity
  8
0
  6
BYBLOCK
 62
     0
100
AcDbLine
 10
-64.64497314104518
 20
67.87918469324683
 30
0.0
 11
-64.64497314104518
 21
54.60644612155831
 31
0.0
  0
LINE
  5
E3
330
CE
100
AcDbEntity
  8
0
  6
BYBLOCK
 62
     0
100
AcDbLine
 10
-64.51997314104518
 20
40.75037421653646
 30
0.0
 11
-64.76997314104519
 21
41.00037421653645
 31
0.0
  0
LINE
  5
E4
330
CE
100
AcDbEntity
  8
0
  6
BYBLOCK
 62
     0
100
AcDbLine
 10
-64.51997314104518
 20
67.75418469324683
 30
0.0
 11
-64.76997314104519
 21
68.00418469324682
 31
0.0
  0
TEXT
  5
E5
330
CE
100
AcDbEntity
  8
0
  6
BYBLOCK
 62
     0
100
AcDbText
 10
-64.58247314104518
 20
54.27311278822497
 30
0.0
 40
0.125
  1
27
 50
90.0
 72
     1
 11
-64.64497314104518
 21
54.37727945489164
 31
0.0
100
AcDbText
 73
     2
  0
POINT
  5
E6
330
CE
100
AcDbEntity
  8
DEFPOINTS
  6
BYBLOCK
 62
     0
100
AcDbPoint
 10
-71.98802766440612
 20
40.87537421653645
 30
0.0
  0
POINT
  5
E7
330
CE
100
AcDbEntity
  8
DEFPOINTS
  6
BYBLOCK
 62
     0
100
AcDbPoint
 10
-71.98802766440612
 20
67.87918469324683
 30
0.0
  0
POINT
  5
E8
330
CE
100
AcDbEntity
  8
DEFPOINTS
  6
BYBLOCK
 62
     0
100
AcDbPoint
 10
-64.64497314104518
 20
67.87918469324683
 30
0.0
  0
ENDBLK
  5
E9
330
CE
100
AcDbEntity
  8
0
100
AcDbBlockEnd
  0
BLOCK
  5
EA
330
D0
100
AcDbEntity
  8
0
100
AcDbBlockBegin
  2
*D1
 70
     1
 10
0.0
 20
0.0
 30
0.0
  3
*D1
  1

  0
LINE
  5
EB
330
D0
100
AcDbEntity
  8
0
  6
BYBLOCK
 62
     0
100
AcDbLine
 10
-79.0150982866874
 20
67.865619519234
 30
0.0
 11
-79.0150982866874
 21
68.81466124985107
 31
0.0
  0
LINE
  5
EC
330
D0
100
AcDbEntity
  8
0
  6
BYBLOCK
 62
     0
100
AcDbLine
 10
-65.5150982866874
 20
67.865619519234
 30
0.0
 11
-65.5150982866874
 21
68.81466124985107
 31
0.0
  0
LINE
  5
ED
330
D0
100
AcDbEntity
  8
0
  6
BYBLOCK
 62
     0
100
AcDbLine
 10
-79.0150982866874
 20
68.63466124985106
 30
0.0
 11
-72.7025982866874
 21
68.63466124985106
 31
0.0
  0
LINE
  5
EE
330
D0
100
AcDbEntity
  8
0
  6
BYBLOCK
 62
     0
100
AcDbLine
 10
-65.5150982866874
 20
68.63466124985106
 30
0.0
 11
-71.8275982866874
 21
68.63466124985106
 31
0.0
  0
LINE
  5
EF
330
D0
100
AcDbEntity
  8
0
  6
BYBLOCK
 62
     0
100
AcDbLine
 10
-79.1400982866874
 20
68.50966124985106
 30
0.0
 11
-78.8900982866874
 21
68.75966124985106
 31
0.0
  0
LINE
  5
F0
330
D0
100
AcDbEntity
  8
0
  6
BYBLOCK
 62
     0
100
AcDbLine
 10
-65.64009828668741
 20
68.50966124985106
 30
0.0
 11
-65.3900982866874
 21
68.75966124985106
 31
0.0
  0
TEXT
  5
F1
330
D0
100
AcDbEntity
  8
0
  6
BYBLOCK
 62
     0
100
AcDbText
 10
-72.5775982866874
 20
68.57216124985106
 30
0.0
 40
0.125
  1
13 1/2
 72
     1
 11
-72.2650982866874
 21
68.63466124985106
 31
0.0
100
AcDbText
 73
     2
  0
POINT
  5
F2
330
D0
100
AcDbEntity
  8
DEFPOINTS
  6
BYBLOCK
 62
     0
100
AcDbPoint
 10
-79.0150982866874
 20
67.803119519234
 30
0.0
  0
POINT
  5
F3
330
D0
100
AcDbEntity
  8
DEFPOINTS
  6
BYBLOCK
 62
     0
100
AcDbPoint
 10
-65.5150982866874
 20
67.803119519234
 30
0.0
  0
POINT
  5
F4
330
D0
100
AcDbEntity
  8
DEFPOINTS
  6
BYBLOCK
 62
     0
100
AcDbPoint
 10
-65.5150982866874
 20
68.63466124985106
 30
0.0
  0
ENDBLK
  5
F5
330
D0
100
AcDbEntity
  8
0
100
AcDbBlockEnd
  0
ENDSEC
  0
SECTION
  2
ENTITIES
  0
LWPOLYLINE
  5
F6
330
18
100
AcDbEntity
  8
0
100
AcDbPolyline
 90
        3
 70
     0
 43
0.0
 10
-70.86687805412042
 20
43.98661361564132
 42
-0.0543343483076597
 10
-69.31915667839698
 20
45.96177072652689
 42
-0.1637146105991974
 10
-65.63240765110542
 20
47.73286664638238
 42
-0.1660061842477174
  0
LWPOLYLINE
  5
FB
330
18
100
AcDbEntity
  8
0
100
AcDbPolyline
 90
        3
 70
     0
 43
0.0
 10
-70.60411235385739
 20
43.9909751732967
 42
-0.0511939923196752
 10
-69.1616451642239
 20
45.80821159893035
 42
-0.1635223308895231
 10
-65.60418524806202
 20
47.51470669338018
 42
-8.212350006357379
  0
LWPOLYLINE
  5
100
330
18
100
AcDbEntity
  8
0
100
AcDbPolyline
 90
        3
 70
     0
 43
0.0
 10
-73.97686716544332
 20
43.98661361564122
 42
0.0543343483076597
 10
-75.52458854116689
 20
45.96177072652668
 42
0.1629654752986259
 10
-79.23218532437857
 20
47.73286664638194
 42
0.1655698216820057
  0
LWPOLYLINE
  5
105
330
18
100
AcDbEntity
  8
0
100
AcDbPolyline
 90
        3
 70
     0
 43
0.0
 10
-74.23963286570636
 20
43.9909751732966
 42
0.0511939923196752
 10
-75.68210005533996
 20
45.80821159893013
 42
0.1627465750096691
 10
-79.26040772742197
 20
47.51470669337974
 42
8.189519051210902
  0
ARC
  5
10A
330
18
100
AcDbEntity
  8
0
100
AcDbCircle
 10
-65.92127831229348
 20
47.84800651651489
 30
0.0
 40
6.066764000964369
100
AcDbArc
 50
179.5205862003458
 51
211.9251818869513
  0
LWPOLYLINE
  5
10B
330
18
100
AcDbEntity
  8
0
100
AcDbPolyline
 90
        3
 70
     0
 43
0.0
 10
-71.0657933738026
 20
44.25444057712076
 42
-0.0517487622861581
 10
-69.54180810830705
 20
46.17883761366184
 42
-0.138356300069592
 10
-66.56302542942222
 20
47.89876865759561
 42
-0.1690707126618979
  0
LWPOLYLINE
  5
110
330
18
100
AcDbEntity
  8
0
100
AcDbPolyline
 90
        3
 70
     0
 43
0.0
 10
-71.07037966756945
 20
44.63983247564796
 42
-0.0450649023130634
 10
-69.69573362282907
 20
46.32890385437656
 42
-0.1111928492004443
 10
-67.28441496753934
 20
47.89876865759558
 42
-0.1690664444963385
  0
ARC
  5
115
330
18
100
AcDbEntity
  8
0
100
AcDbCircle
 10
-78.9224669072705
 20
47.84800651651448
 30
0.0
 40
6.066764000964369
100
AcDbArc
 50
328.0748181130523
 51
0.4794137996579037
  0
LWPOLYLINE
  5
116
330
18
100
AcDbEntity
  8
0
100
AcDbPolyline
 90
        3
 70
     0
 43
0.0
 10
-73.77336555199433
 20
44.63983247564788
 42
0.0450649023130633
 10
-75.14801159673481
 20
46.32890385437639
 42
0.1111928492004442
 10
-77.55933025202466
 20
47.89876865759524
 42
0.1690664444963385
  0
LWPOLYLINE
  5
11B
330
18
100
AcDbEntity
  8
0
100
AcDbPolyline
 90
        3
 70
     0
 43
0.0
 10
-73.77795184576115
 20
44.25444057712067
 42
0.0517487622861581
 10
-75.30193711125682
 20
46.17883761366165
 42
0.1383563000695919
 10
-78.28071979014175
 20
47.89876865759523
 42
0.1690707126618979
  0
ARC
  5
120
330
18
100
AcDbEntity
  8
0
100
AcDbCircle
 10
-78.89622599830222
 20
47.84800651651447
 30
0.0
 40
6.253834540611165
100
AcDbArc
 50
324.9271146244423
 51
0.4650728065094913
  0
ARC
  5
121
330
18
100
AcDbEntity
  8
0
100
AcDbCircle
 10
-78.89622599830222
 20
47.84800651651447
 30
0.0
 40
6.62426247057857
100
AcDbArc
 50
323.5448833482561
 51
347.7874803898824
  0
ARC
  5
122
330
18
100
AcDbEntity
  8
0
100
AcDbCircle
 10
-78.89622599830222
 20
47.84800651651447
 30
0.0
 40
6.844240353847482
100
AcDbArc
 50
324.714664714346
 51
341.0772134153646
  0
ARC
  5
123
330
18
100
AcDbEntity
  8
0
100
AcDbCircle
 10
-65.94751922126177
 20
47.84800651651488
 30
0.0
 40
6.253834540611165
100
AcDbArc
 50
179.5349271934942
 51
215.0728853755614
  0
ARC
  5
124
330
18
100
AcDbEntity
  8
0
100
AcDbCircle
 10
-65.94751922126177
 20
47.84800651651488
 30
0.0
 40
6.62426247057857
100
AcDbArc
 50
192.2125196101213
 51
216.4551166517475
  0
ARC
  5
125
330
18
100
AcDbEntity
  8
0
100
AcDbCircle
 10
-65.94751922126177
 20
47.84800651651488
 30
0.0
 40
6.844240353847482
100
AcDbArc
 50
198.922786584639
 51
215.2853352856575
  0
DIMENSION
  5
126
330
18
100
AcDbEntity
  8
ADPDIM
100
AcDbDimension
  2
*D0
 10
-64.64497314104518
 20
67.87918469324683
 30
0.0
 11
-64.64497314104518
 21
54.37727945489164
 31
0.0
100
AcDbAlignedDimension
 13
-71.98802766440612
 23
40.87537421653645
 33
0.0
 14
-71.98802766440612
 24
67.87918469324683
 34
0.0
 50
90.0
100
AcDbRotatedDimension
  0
ARC
  5
127
330
18
100
AcDbEntity
  8
0
100
AcDbCircle
 10
-65.81220411612294
 20
48.13739655242341
 30
0.0
 40
6.913775198247719
100
AcDbArc
 50
220.4972105337585
 51
271.1194053474536
  0
ARC
  5
128
330
18
100
AcDbEntity
  8
0
100
AcDbCircle
 10
-65.81171168240041
 20
48.15702403668537
 30
0.0
 40
7.153367237799816
100
AcDbArc
 50
223.1458534818214
 51
271.1114598883483
  0
ARC
  5
129
330
18
100
AcDbEntity
  8
0
100
AcDbCircle
 10
-65.78548238488666
 20
48.13966860606559
 30
0.0
 40
6.358525927993256
100
AcDbArc
 50
220.7274473503018
 51
270.9128852923697
  0
ARC
  5
12A
330
18
100
AcDbEntity
  8
0
100
AcDbCircle
 10
-65.8124428452306
 20
48.12921252898281
 30
0.0
 40
6.535169549268268
100
AcDbArc
 50
219.3379363529426
 51
271.1246153089594
  0
ARC
  5
12B
330
18
100
AcDbEntity
  8
0
100
AcDbCircle
 10
-79.05080837539583
 20
48.17044891654722
 30
0.0
 40
6.576424349687413
100
AcDbArc
 50
268.8707484350365
 51
320.491926517471
  0
ARC
  5
12C
330
18
100
AcDbEntity
  8
0
100
AcDbCircle
 10
-79.051080383825
 20
48.17980638889133
 30
0.0
 40
6.956202519924536
100
AcDbArc
 50
268.876643496684
 51
319.3416721387554
  0
ARC
  5
12D
330
18
100
AcDbEntity
  8
0
100
AcDbCircle
 10
-79.05164256994972
 20
48.20231478191885
 30
0.0
 40
7.198673498718528
100
AcDbArc
 50
268.8856750609623
 51
316.6978669661354
  0
ARC
  5
12E
330
18
100
AcDbEntity
  8
0
100
AcDbCircle
 10
-79.07787303273646
 20
48.18247500819339
 30
0.0
 40
6.401346637997614
100
AcDbArc
 50
269.0821435409879
 51
319.0967206203288
  0
LINE
  5
12F
330
18
100
AcDbEntity
  8
0
100
AcDbLine
 10
-79.18041576986944
 20
41.01382580703163
 30
0.0
 11
-79.18041576986945
 21
41.78194973546268
 31
0.0
  0
LINE
  5
130
330
18
100
AcDbEntity
  8
0
100
AcDbLine
 10
-74.23963286570636
 20
43.9909751732966
 30
0.0
 11
-73.97686716544332
 21
43.98661361564122
 31
0.0
  0
LWPOLYLINE
  5
131
330
18
100
AcDbEntity
  8
0
100
AcDbPolyline
 90
        2
 70
     0
 43
0.0
 10
-71.98802766440612
 20
40.87537421653645
 42
-0.0568365567709805
 10
-71.03091731334817
 20
43.26513734332146
 42
-0.1690824391501085
  0
LWPOLYLINE
  5
135
330
18
100
AcDbEntity
  8
0
100
AcDbPolyline
 90
        2
 70
     0
 43
0.0
 10
-72.20018836129565
 20
40.93349570845488
 42
-0.0637314181534811
 10
-71.06969861947925
 20
43.64751470107328
 42
-0.1690773598736531
  0
LWPOLYLINE
  5
139
330
18
100
AcDbEntity
  8
0
100
AcDbPolyline
 90
        2
 70
     0
 43
0.0
 10
-72.42187260978177
 20
41.28836513018169
 42
-0.0604144612114355
 10
-71.27556307314228
 20
43.91191683365019
 42
-0.1690707126618979
  0
LWPOLYLINE
  5
13D
330
18
100
AcDbEntity
  8
0
100
AcDbPolyline
 90
        2
 70
     0
 43
0.0
 10
-72.4218726097818
 20
41.97477714130212
 42
-0.0437589691226032
 10
-71.53437313826107
 20
43.89443985698531
 42
-0.1690664444963385
  0
LWPOLYLINE
  5
141
330
18
100
AcDbEntity
  8
0
100
AcDbPolyline
 90
        2
 70
     0
 43
0.0
 10
-72.64355685826791
 20
40.93349570845486
 42
0.0637314181534811
 10
-73.77404660008448
 20
43.64751470107318
 42
0.1690773598736531
  0
LWPOLYLINE
  5
145
330
18
100
AcDbEntity
  8
0
100
AcDbPolyline
 90
        2
 70
     0
 43
0.0
 10
-72.85571755515743
 20
40.87537421653642
 42
0.0568365567709804
 10
-73.81282790621553
 20
43.26513734332137
 42
0.1690824391501085
  0
LWPOLYLINE
  5
149
330
18
100
AcDbEntity
  8
0
100
AcDbPolyline
 90
        2
 70
     0
 43
0.0
 10
-72.4218726097818
 20
41.97477714130212
 42
0.0437589691226032
 10
-73.30937208130267
 20
43.89443985698526
 42
0.1690664444963385
  0
LWPOLYLINE
  5
14D
330
18
100
AcDbEntity
  8
0
100
AcDbPolyline
 90
        2
 70
     0
 43
0.0
 10
-72.42187260978177
 20
41.28836513018169
 42
0.0604144612114356
 10
-73.56818214642145
 20
43.91191683365012
 42
0.1690707126618979
  0
LINE
  5
151
330
18
100
AcDbEntity
  8
0
100
AcDbLine
 10
-72.85571755515743
 20
40.87537421653642
 30
0.0
 11
-71.98802766440612
 21
40.87537421653645
 31
0.0
  0
LWPOLYLINE
  5
152
330
18
100
AcDbEntity
  8
0
100
AcDbPolyline
 90
        2
 70
     0
 43
0.0
 10
-72.70742373795761
 20
41.07245300487038
 42
-0.0009420343158329
 10
-72.69528841211556
 20
41.11642526681499
 42
-0.1690664444963385
  0
LWPOLYLINE
  5
156
330
18
100
AcDbEntity
  8
0
100
AcDbPolyline
 90
        2
 70
     0
 43
0.0
 10
-72.13632148160595
 20
41.0724530048704
 42
0.0009420343158328
 10
-72.148456807448
 20
41.116425266815
 42
0.1690664444963385
  0
LINE
  5
15A
330
18
100
AcDbEntity
  8
0
100
AcDbLine
 10
-73.56818214642145
 20
43.91191683365012
 30
0.0
 11
-73.30937208130267
 21
43.89443985698526
 31
0.0
  0
LINE
  5
15B
330
18
100
AcDbEntity
  8
0
100
AcDbLine
 10
-73.81282790621553
 20
43.26513734332137
 30
0.0
 11
-73.77404660008448
 21
43.64751470107318
 31
0.0
  0
LINE
  5
15C
330
18
100
AcDbEntity
  8
0
100
AcDbLine
 10
-73.77795184576115
 20
44.25444057712067
 30
0.0
 11
-73.77336555199433
 21
44.63983247564788
 31
0.0
  0
LINE
  5
15D
330
18
100
AcDbEntity
  8
0
100
AcDbLine
 10
-71.27556307314228
 20
43.91191683365019
 30
0.0
 11
-71.53437313826107
 21
43.89443985698531
 31
0.0
  0
LINE
  5
15E
330
18
100
AcDbEntity
  8
0
100
AcDbLine
 10
-71.03091731334817
 20
43.26513734332146
 30
0.0
 11
-71.06969861947925
 21
43.64751470107328
 31
0.0
  0
LINE
  5
15F
330
18
100
AcDbEntity
  8
0
100
AcDbLine
 10
-71.0657933738026
 20
44.25444057712076
 30
0.0
 11
-71.07037966756945
 21
44.63983247564796
 31
0.0
  0
LINE
  5
160
330
18
100
AcDbEntity
  8
0
100
AcDbLine
 10
-70.86687805412042
 20
43.98661361564132
 30
0.0
 11
-70.60411235385739
 21
43.9909751732967
 31
0.0
  0
LINE
  5
161
330
18
100
AcDbEntity
  8
0
100
AcDbLine
 10
-65.68417720561413
 20
41.01382580703205
 30
0.0
 11
-65.68417720561415
 21
41.78194973546309
 31
0.0
  0
DIMENSION
  5
162
330
18
100
AcDbEntity
  8
ADPDIM
100
AcDbDimension
  2
*D1
 10
-65.66173245123566
 20
68.63466124985105
 30
0.0
 11
-72.41173245123566
 21
68.63466124985105
 31
0.0
 12
-0.1466341645482601
 22
-0.0000000000000142
 32
0.0
100
AcDbAlignedDimension
 13
-79.16173245123566
 23
67.80311951923398
 33
0.0
 14
-65.66173245123566
 24
67.80311951923398
 34
0.0
100
AcDbRotatedDimension
  0
ARC
  5
163
330
18
100
AcDbEntity
  8
0
100
AcDbCircle
 10
-65.78548238488666
 20
47.65786870912559
 30
0.0
 40
6.358525927993238
100
AcDbArc
 50
89.08711470763305
 51
139.2725526497009
  0
ARC
  5
164
330
18
100
AcDbEntity
  8
0
100
AcDbCircle
 10
-65.81244284523059
 20
47.66832478620837
 30
0.0
 40
6.535169549268259
100
AcDbArc
 50
88.87538469104327
 51
140.6620636470601
  0
ARC
  5
165
330
18
100
AcDbEntity
  8
0
100
AcDbCircle
 10
-65.80122046804135
 20
61.13979742086826
 30
0.0
 40
6.535169549268263
100
AcDbArc
 50
219.3379363529417
 51
271.1246153089585
  0
ARC
  5
166
330
18
100
AcDbEntity
  8
0
100
AcDbCircle
 10
-65.77426000769744
 20
61.15025349795104
 30
0.0
 40
6.358525927993244
100
AcDbArc
 50
220.727447350301
 51
270.9128852923688
  0
LWPOLYLINE
  5
167
330
18
100
AcDbEntity
  8
0
100
AcDbPolyline
 90
        3
 70
     0
 43
0.0
 10
-70.60411235385757
 20
51.80656214189423
 42
0.0511939923196752
 10
-69.161645164224
 20
49.98932571626067
 42
0.1635223308895229
 10
-65.60418524806204
 20
48.282830621811
 42
8.212350006357375
  0
LWPOLYLINE
  5
16C
330
18
100
AcDbEntity
  8
0
100
AcDbPolyline
 90
        3
 70
     0
 43
0.0
 10
-70.86687805412061
 20
51.8109236995496
 42
0.0543343483076597
 10
-69.31915667839707
 20
49.83576658866411
 42
0.1637146105991973
 10
-65.63240765110542
 20
48.06467066880879
 42
0.1660061842477173
  0
LWPOLYLINE
  5
171
330
18
100
AcDbEntity
  8
0
100
AcDbPolyline
 90
        3
 70
     0
 43
0.0
 10
-70.85565567693125
 20
56.99719850752685
 42
-0.0543343483076597
 10
-69.30793430120776
 20
58.97235561841238
 42
-0.1637146105991974
 10
-65.62118527391618
 20
60.74345153826783
 42
-0.1660061842477174
  0
LWPOLYLINE
  5
176
330
18
100
AcDbEntity
  8
0
100
AcDbPolyline
 90
        3
 70
     0
 43
0.0
 10
-70.5928899766682
 20
57.00156006518223
 42
-0.0511939923196752
 10
-69.1504227870347
 20
58.81879649081585
 42
-0.1635223308895231
 10
-65.59296287087277
 20
60.52529158526563
 42
-8.212350006357379
  0
LWPOLYLINE
  5
17B
330
18
100
AcDbEntity
  8
0
100
AcDbPolyline
 90
        3
 70
     0
 43
0.0
 10
-70.59288997666826
 20
64.81714703377974
 42
0.0511939923196752
 10
-69.15042278703473
 20
62.99991060814616
 42
0.163522330889523
 10
-65.59296287087279
 20
61.29341551369645
 42
8.212350006357377
  0
LWPOLYLINE
  5
180
330
18
100
AcDbEntity
  8
0
100
AcDbPolyline
 90
        3
 70
     0
 43
0.0
 10
-70.85565567693132
 20
64.82150859143513
 42
0.0543343483076597
 10
-69.30793430120779
 20
62.84635148054961
 42
0.1637146105991973
 10
-65.6211852739162
 20
61.07525556069423
 42
0.1660061842477174
  0
ARC
  5
185
330
18
100
AcDbEntity
  8
0
100
AcDbCircle
 10
-65.80048930521115
 20
60.65109817039124
 30
0.0
 40
7.153367237799802
100
AcDbArc
 50
88.88854011165333
 51
136.8541465181803
  0
ARC
  5
186
330
18
100
AcDbEntity
  8
0
100
AcDbCircle
 10
-65.80098173893368
 20
60.6707256546532
 30
0.0
 40
6.913775198247718
100
AcDbArc
 50
88.88059465254817
 51
139.5027894662433
  0
ARC
  5
187
330
18
100
AcDbEntity
  8
0
100
AcDbCircle
 10
-65.80122046804135
 20
60.67890967809382
 30
0.0
 40
6.535169549268247
100
AcDbArc
 50
88.8753846910423
 51
140.6620636470591
  0
ARC
  5
188
330
18
100
AcDbEntity
  8
0
100
AcDbCircle
 10
-65.77426000769744
 20
60.66845360101105
 30
0.0
 40
6.358525927993233
100
AcDbArc
 50
89.08711470763204
 51
139.2725526496999
  0
ARC
  5
189
330
18
100
AcDbEntity
  8
0
100
AcDbCircle
 10
-79.05080837539582
 20
47.6270883986433
 30
0.0
 40
6.576424349687417
100
AcDbArc
 50
39.50807348253162
 51
91.1292515649661
  0
ARC
  5
18A
330
18
100
AcDbEntity
  8
0
100
AcDbCircle
 10
-79.03958599820658
 20
61.18103380843288
 30
0.0
 40
6.576424349687416
100
AcDbArc
 50
268.8707484350356
 51
320.4919265174702
  0
ARC
  5
18B
330
18
100
AcDbEntity
  8
0
100
AcDbCircle
 10
-79.04042019276046
 20
60.60580742515732
 30
0.0
 40
7.198673498718528
100
AcDbArc
 50
43.30213303386644
 51
91.11432493903945
  0
ARC
  5
18C
330
18
100
AcDbEntity
  8
0
100
AcDbCircle
 10
-79.03985800663575
 20
60.62831581818484
 30
0.0
 40
6.956202519924549
100
AcDbArc
 50
40.65832786124647
 51
91.12335650331775
  0
ARC
  5
18D
330
18
100
AcDbEntity
  8
0
100
AcDbCircle
 10
-79.03958599820658
 20
60.63767329052897
 30
0.0
 40
6.57642434968741
100
AcDbArc
 50
39.50807348253078
 51
91.12925156496524
  0
LWPOLYLINE
  5
18E
330
18
100
AcDbEntity
  8
0
100
AcDbPolyline
 90
        3
 70
     0
 43
0.0
 10
-73.76672946857204
 20
64.55368162995568
 42
-0.0517487622861581
 10
-75.29071473406765
 20
62.62928459341465
 42
-0.1383563000695919
 10
-78.26949741295253
 20
60.90935354948098
 42
-0.1690707126618979
  0
LWPOLYLINE
  5
193
330
18
100
AcDbEntity
  8
0
100
AcDbPolyline
 90
        3
 70
     0
 43
0.0
 10
-73.76214317480521
 20
64.16828973142847
 42
-0.0450649023130633
 10
-75.13678921954563
 20
62.47921835269992
 42
-0.1111928492004442
 10
-77.54810787483544
 20
60.90935354948098
 42
-0.1690664444963385
  0
LWPOLYLINE
  5
198
330
18
100
AcDbEntity
  8
0
100
AcDbPolyline
 90
        3
 70
     0
 43
0.0
 10
-73.76214317480514
 20
57.65041736753346
 42
0.0450649023130633
 10
-75.13678921954562
 20
59.33948874626199
 42
0.1111928492004442
 10
-77.54810787483544
 20
60.9093535494809
 42
0.1690664444963385
  0
LWPOLYLINE
  5
19D
330
18
100
AcDbEntity
  8
0
100
AcDbPolyline
 90
        3
 70
     0
 43
0.0
 10
-73.76672946857198
 20
57.26502546900626
 42
0.0517487622861581
 10
-75.29071473406762
 20
59.18942250554725
 42
0.1383563000695919
 10
-78.26949741295253
 20
60.90935354948088
 42
0.1690707126618979
  0
LWPOLYLINE
  5
1A2
330
18
100
AcDbEntity
  8
0
100
AcDbPolyline
 90
        3
 70
     0
 43
0.0
 10
-73.77795184576133
 20
51.5430967380701
 42
-0.0517487622861581
 10
-75.3019371112569
 20
49.61869970152905
 42
-0.1383563000695919
 10
-78.28071979014175
 20
47.89876865759532
 42
-0.1690707126618979
  0
LWPOLYLINE
  5
1A7
330
18
100
AcDbEntity
  8
0
100
AcDbPolyline
 90
        3
 70
     0
 43
0.0
 10
-73.77336555199448
 20
51.15770483954289
 42
-0.0450649023130633
 10
-75.1480115967349
 20
49.46863346081432
 42
-0.1111928492004442
 10
-77.55933025202466
 20
47.89876865759534
 42
-0.1690664444963385
  0
ARC
  5
1AC
330
18
100
AcDbEntity
  8
0
100
AcDbCircle
 10
-78.88500362111298
 20
60.85859140840013
 30
0.0
 40
6.62426247057857
100
AcDbArc
 50
282.9482796650566
 51
320.646209392577
  0
ARC
  5
1AD
330
18
100
AcDbEntity
  8
0
100
AcDbCircle
 10
-78.89622599830222
 20
47.94953079867606
 30
0.0
 40
6.62426247057857
100
AcDbArc
 50
39.35379060742478
 51
76.95210120594466
  0
ARC
  5
1AE
330
18
100
AcDbEntity
  8
0
100
AcDbCircle
 10
-78.89622599830222
 20
47.94953079867606
 30
0.0
 40
6.844240353847482
100
AcDbArc
 50
42.03581500419129
 51
70.52223887764409
  0
ARC
  5
1AF
330
18
100
AcDbEntity
  8
0
100
AcDbCircle
 10
-78.88500362111298
 20
60.85859140840013
 30
0.0
 40
6.844240353847482
100
AcDbArc
 50
289.3781419933572
 51
317.9641849958105
  0
LWPOLYLINE
  5
1B0
330
18
100
AcDbEntity
  8
0
100
AcDbPolyline
 90
        3
 70
     0
 43
0.0
 10
-73.96564478825415
 20
56.9971985075268
 42
0.0543343483076597
 10
-75.51336616397769
 20
58.97235561841228
 42
0.1629654752986259
 10
-79.22096294718933
 20
60.74345153826762
 42
0.1655698216820057
  0
LWPOLYLINE
  5
1B5
330
18
100
AcDbEntity
  8
0
100
AcDbPolyline
 90
        3
 70
     0
 43
0.0
 10
-74.22841048851719
 20
57.00156006518218
 42
0.0511939923196752
 10
-75.67087767815076
 20
58.81879649081574
 42
0.1627465750096692
 10
-79.24918535023275
 20
60.52529158526541
 42
8.189519051210906
  0
ARC
  5
1BA
330
18
100
AcDbEntity
  8
0
100
AcDbCircle
 10
-79.07787303273646
 20
47.61506230699714
 30
0.0
 40
6.401346637997624
100
AcDbArc
 50
40.90327937967399
 51
90.91785645901488
  0
ARC
  5
1BB
330
18
100
AcDbEntity
  8
0
100
AcDbCircle
 10
-79.06665065554723
 20
61.19305990007905
 30
0.0
 40
6.401346637997622
100
AcDbArc
 50
269.082143540987
 51
319.0967206203279
  0
LWPOLYLINE
  5
1BC
330
18
100
AcDbEntity
  8
0
100
AcDbPolyline
 90
        3
 70
     0
 43
0.0
 10
-74.23963286570655
 20
51.80656214189416
 42
-0.0511939923196752
 10
-75.68210005534007
 20
49.98932571626056
 42
-0.1627465750096692
 10
-79.26040772742199
 20
48.28283062181078
 42
-8.189519051210909
  0
LWPOLYLINE
  5
1C1
330
18
100
AcDbEntity
  8
0
100
AcDbPolyline
 90
        3
 70
     0
 43
0.0
 10
-73.97686716544351
 20
51.81092369954956
 42
-0.0543343483076597
 10
-75.52458854116699
 20
49.83576658866401
 42
-0.162965475298626
 10
-79.23218532437857
 20
48.06467066880856
 42
-0.1655698216820058
  0
LINE
  5
1C6
330
18
100
AcDbEntity
  8
0
100
AcDbLine
 10
-79.26040772742197
 20
47.51470669337974
 30
0.0
 11
-79.26040772742199
 21
48.28283062181078
 31
0.0
  0
LINE
  5
1C7
330
18
100
AcDbEntity
  8
0
100
AcDbLine
 10
-79.16919339268034
 20
54.79253462734833
 30
0.0
 11
-79.18041576986976
 21
54.01558757972786
 31
0.0
  0
LINE
  5
1C8
330
18
100
AcDbEntity
  8
0
100
AcDbLine
 10
-74.23963286570655
 20
51.80656214189416
 30
0.0
 11
-73.97686716544351
 21
51.81092369954956
 31
0.0
  0
LINE
  5
1C9
330
18
100
AcDbEntity
  8
0
100
AcDbLine
 10
-74.22841048851719
 20
57.00156006518218
 30
0.0
 11
-73.96564478825415
 21
56.9971985075268
 31
0.0
  0
LWPOLYLINE
  5
1CA
330
18
100
AcDbEntity
  8
0
100
AcDbPolyline
 90
        3
 70
     0
 43
0.0
 10
-74.22841048851724
 20
64.81714703377974
 42
-0.0511939923196752
 10
-75.6708776781508
 20
62.99991060814616
 42
-0.1627465750096692
 10
-79.24918535023275
 20
61.29341551369645
 42
-8.189519051210908
  0
ARC
  5
1CF
330
18
100
AcDbEntity
  8
0
100
AcDbCircle
 10
-79.06665065554722
 20
60.62564719888281
 30
0.0
 40
6.401346637997611
100
AcDbArc
 50
40.90327937967308
 51
90.91785645901397
  0
LWPOLYLINE
  5
1D0
330
18
100
AcDbEntity
  8
0
100
AcDbPolyline
 90
        3
 70
     0
 43
0.0
 10
-73.96564478825421
 20
64.82150859143513
 42
-0.0543343483076597
 10
-75.51336616397772
 20
62.84635148054961
 42
-0.162965475298626
 10
-79.22096294718933
 20
61.07525556069423
 42
-0.1655698216820058
  0
LINE
  5
1D5
330
18
100
AcDbEntity
  8
0
100
AcDbLine
 10
-79.24918535023275
 20
61.29341551369645
 30
0.0
 11
-79.24918535023275
 21
60.52529158526541
 31
0.0
  0
LINE
  5
1D6
330
18
100
AcDbEntity
  8
0
100
AcDbLine
 10
-79.16919339268043
 20
67.02617247161352
 30
0.0
 11
-79.18041576986988
 21
67.80311951923398
 31
0.0
  0
LINE
  5
1D7
330
18
100
AcDbEntity
  8
0
100
AcDbLine
 10
-74.22841048851724
 20
64.81714703377974
 30
0.0
 11
-73.96564478825421
 21
64.82150859143513
 31
0.0
  0
ARC
  5
1D8
330
18
100
AcDbEntity
  8
0
100
AcDbCircle
 10
-65.93629684407251
 20
60.85859140840033
 30
0.0
 40
6.62426247057857
100
AcDbArc
 50
192.2125196101203
 51
216.4551166517465
  0
ARC
  5
1D9
330
18
100
AcDbEntity
  8
0
100
AcDbCircle
 10
-65.93629684407251
 20
60.85859140840033
 30
0.0
 40
6.844240353847482
100
AcDbArc
 50
198.9227865846381
 51
215.2853352856566
  0
ARC
  5
1DA
330
18
100
AcDbEntity
  8
0
100
AcDbCircle
 10
-78.88500362111298
 20
60.85859140840013
 30
0.0
 40
6.62426247057857
100
AcDbArc
 50
323.5448833482552
 51
347.7874803898814
  0
ARC
  5
1DB
330
18
100
AcDbEntity
  8
0
100
AcDbCircle
 10
-78.88500362111298
 20
60.85859140840013
 30
0.0
 40
6.844240353847482
100
AcDbArc
 50
324.7146647143452
 51
341.0772134153637
  0
LWPOLYLINE
  5
1DC
330
18
100
AcDbEntity
  8
0
100
AcDbPolyline
 90
        3
 70
     0
 43
0.0
 10
-71.07037966756961
 20
51.15770483954294
 42
0.0450649023130634
 10
-69.69573362282915
 20
49.46863346081441
 42
0.1111928492004443
 10
-67.28441496753934
 20
47.8987686575955
 42
0.1690664444963385
  0
LWPOLYLINE
  5
1E1
330
18
100
AcDbEntity
  8
0
100
AcDbPolyline
 90
        3
 70
     0
 43
0.0
 10
-71.06579337380279
 20
51.54309673807015
 42
0.0517487622861581
 10
-69.54180810830713
 20
49.61869970152914
 42
0.138356300069592
 10
-66.56302542942222
 20
47.89876865759551
 42
0.1690707126618979
  0
ARC
  5
1E6
330
18
100
AcDbEntity
  8
0
100
AcDbCircle
 10
-65.93629684407251
 20
60.85859140840033
 30
0.0
 40
6.844240353847482
100
AcDbArc
 50
222.0358150041913
 51
250.5222388776441
  0
ARC
  5
1E7
330
18
100
AcDbEntity
  8
0
100
AcDbCircle
 10
-65.93629684407251
 20
60.85859140840033
 30
0.0
 40
6.62426247057857
100
AcDbArc
 50
219.3537906074247
 51
256.9521012059447
  0
ARC
  5
1E8
330
18
100
AcDbEntity
  8
0
100
AcDbCircle
 10
-65.94751922126177
 20
47.94953079867627
 30
0.0
 40
6.62426247057857
100
AcDbArc
 50
102.9482796650566
 51
140.6462093925771
  0
ARC
  5
1E9
330
18
100
AcDbEntity
  8
0
100
AcDbCircle
 10
-65.94751922126177
 20
47.94953079867627
 30
0.0
 40
6.844240353847482
100
AcDbArc
 50
109.3781419933572
 51
137.9641849958105
  0
LINE
  5
1EA
330
18
100
AcDbEntity
  8
0
100
AcDbLine
 10
-71.06579337380279
 20
51.54309673807015
 30
0.0
 11
-71.07037966756961
 21
51.15770483954294
 31
0.0
  0
ARC
  5
1EB
330
18
100
AcDbEntity
  8
0
100
AcDbCircle
 10
-65.92127831229349
 20
47.94953079867626
 30
0.0
 40
6.066764000964369
100
AcDbArc
 50
148.0748181130514
 51
180.4794137996569
  0
LINE
  5
1EC
330
18
100
AcDbEntity
  8
0
100
AcDbLine
 10
-73.77795184576133
 20
51.5430967380701
 30
0.0
 11
-73.77336555199448
 21
51.15770483954289
 31
0.0
  0
ARC
  5
1ED
330
18
100
AcDbEntity
  8
0
100
AcDbCircle
 10
-78.92246690727052
 20
47.94953079867606
 30
0.0
 40
6.066764000964369
100
AcDbArc
 50
359.5205862003449
 51
31.92518188695038
  0
ARC
  5
1EE
330
18
100
AcDbEntity
  8
0
100
AcDbCircle
 10
-78.89622599830222
 20
47.94953079867606
 30
0.0
 40
6.844240353847482
100
AcDbArc
 50
18.92278658463816
 51
35.28533528565669
  0
ARC
  5
1EF
330
18
100
AcDbEntity
  8
0
100
AcDbCircle
 10
-78.89622599830222
 20
47.94953079867606
 30
0.0
 40
6.62426247057857
100
AcDbArc
 50
12.2125196101204
 51
36.45511665174662
  0
ARC
  5
1F0
330
18
100
AcDbEntity
  8
0
100
AcDbCircle
 10
-78.89622599830222
 20
47.94953079867606
 30
0.0
 40
6.253834540611165
100
AcDbArc
 50
359.5349271934932
 51
35.07288537556047
  0
ARC
  5
1F1
330
18
100
AcDbEntity
  8
0
100
AcDbCircle
 10
-65.94751922126177
 20
47.94953079867627
 30
0.0
 40
6.62426247057857
100
AcDbArc
 50
143.5448833482552
 51
167.7874803898814
  0
ARC
  5
1F2
330
18
100
AcDbEntity
  8
0
100
AcDbCircle
 10
-65.94751922126177
 20
47.94953079867627
 30
0.0
 40
6.253834540611165
100
AcDbArc
 50
144.9271146244413
 51
180.4650728065085
  0
ARC
  5
1F3
330
18
100
AcDbEntity
  8
0
100
AcDbCircle
 10
-65.94751922126177
 20
47.94953079867627
 30
0.0
 40
6.844240353847482
100
AcDbArc
 50
144.7146647143451
 51
161.0772134153637
  0
LWPOLYLINE
  5
1F4
330
18
100
AcDbEntity
  8
0
100
AcDbPolyline
 90
        2
 70
     0
 43
0.0
 10
-72.05824558275629
 20
54.38647287588124
 42
0.052937745383819
 10
-71.06969861947947
 20
52.15002261411764
 42
0.1690773598736531
  0
LWPOLYLINE
  5
1F8
330
18
100
AcDbEntity
  8
0
100
AcDbPolyline
 90
        2
 70
     0
 43
0.0
 10
-72.05824558275629
 20
54.38647287588124
 42
-0.0537371594643304
 10
-71.05847624229008
 20
56.65809959295882
 42
-0.1690773598736531
  0
LWPOLYLINE
  5
1FC
330
18
100
AcDbEntity
  8
0
100
AcDbPolyline
 90
        2
 70
     0
 43
0.0
 10
-72.41065023259266
 20
54.98536203318768
 42
-0.0437589691226032
 10
-71.5231507610719
 20
56.90502474887086
 42
-0.1690664444963385
  0
LWPOLYLINE
  5
200
330
18
100
AcDbEntity
  8
0
100
AcDbPolyline
 90
        2
 70
     0
 43
0.0
 10
-72.41065023259264
 20
54.29895002206724
 42
-0.0604144612114359
 10
-71.26434069595311
 20
56.92250172553574
 42
-0.1690707126618979
  0
LWPOLYLINE
  5
204
330
18
100
AcDbEntity
  8
0
100
AcDbPolyline
 90
        2
 70
     0
 43
0.0
 10
-72.41065023259264
 20
54.29895002206724
 42
0.0352885320884803
 10
-71.27556307314248
 20
51.88562048154071
 42
0.1690707126618979
  0
LWPOLYLINE
  5
208
330
18
100
AcDbEntity
  8
0
100
AcDbPolyline
 90
        2
 70
     0
 43
0.0
 10
-72.42187260978209
 20
53.82276017388871
 42
0.0437589691226032
 10
-71.53437313826126
 20
51.90309745820558
 42
0.1690664444963385
  0
LWPOLYLINE
  5
20C
330
18
100
AcDbEntity
  8
0
100
AcDbPolyline
 90
        2
 70
     0
 43
0.0
 10
-73.00540638442321
 20
54.42128084345272
 42
-0.0453006000272325
 10
-73.81282790621575
 20
52.53239997186941
 42
-0.1690824391501085
  0
LWPOLYLINE
  5
210
330
18
100
AcDbEntity
  8
0
100
AcDbPolyline
 90
        2
 70
     0
 43
0.0
 10
-72.77427725961847
 20
54.42164933119517
 42
-0.0537371594643304
 10
-73.77404660008467
 20
52.15002261411759
 42
-0.1690773598736531
  0
LWPOLYLINE
  5
214
330
18
100
AcDbEntity
  8
0
100
AcDbPolyline
 90
        2
 70
     0
 43
0.0
 10
-72.41065023259264
 20
54.29895002206724
 42
-0.0269730829729958
 10
-73.56818214642164
 20
51.88562048154067
 42
-0.1690707126618979
  0
LWPOLYLINE
  5
218
330
18
100
AcDbEntity
  8
0
100
AcDbPolyline
 90
        2
 70
     0
 43
0.0
 10
-72.42187260978209
 20
53.82276017388871
 42
-0.0437589691226032
 10
-73.30937208130286
 20
51.90309745820555
 42
-0.1690664444963385
  0
LINE
  5
21C
330
18
100
AcDbEntity
  8
0
100
AcDbLine
 10
-73.56818214642164
 20
51.88562048154067
 30
0.0
 11
-73.30937208130286
 21
51.90309745820555
 31
0.0
  0
LINE
  5
21D
330
18
100
AcDbEntity
  8
0
100
AcDbLine
 10
-73.81282790621575
 20
52.53239997186941
 30
0.0
 11
-73.77404660008467
 21
52.15002261411759
 31
0.0
  0
LWPOLYLINE
  5
21E
330
18
100
AcDbEntity
  8
0
100
AcDbPolyline
 90
        2
 70
     0
 43
0.0
 10
-72.77427725961847
 20
54.42164933119517
 42
0.0529377453838191
 10
-73.76282422289529
 20
56.65809959295877
 42
0.1690773598736531
  0
LWPOLYLINE
  5
222
330
18
100
AcDbEntity
  8
0
100
AcDbPolyline
 90
        2
 70
     0
 43
0.0
 10
-72.41065023259266
 20
54.98536203318768
 42
0.0437589691226032
 10
-73.2981497041135
 20
56.90502474887082
 42
0.1690664444963385
  0
LWPOLYLINE
  5
226
330
18
100
AcDbEntity
  8
0
100
AcDbPolyline
 90
        2
 70
     0
 43
0.0
 10
-72.41065023259264
 20
54.29895002206724
 42
0.0604144612114355
 10
-73.55695976923228
 20
56.9225017255357
 42
0.1690707126618979
  0
LWPOLYLINE
  5
22A
330
18
100
AcDbEntity
  8
0
100
AcDbPolyline
 90
        2
 70
     0
 43
0.0
 10
-73.00540638442321
 20
54.42128084345272
 42
0.0445018465927468
 10
-73.80160552902637
 20
56.27572223520695
 42
0.1690824391501085
  0
LINE
  5
22E
330
18
100
AcDbEntity
  8
0
100
AcDbLine
 10
-73.55695976923228
 20
56.9225017255357
 30
0.0
 11
-73.2981497041135
 21
56.90502474887082
 31
0.0
  0
LINE
  5
22F
330
18
100
AcDbEntity
  8
0
100
AcDbLine
 10
-73.80160552902637
 20
56.27572223520695
 30
0.0
 11
-73.76282422289529
 21
56.65809959295877
 31
0.0
  0
LWPOLYLINE
  5
230
330
18
100
AcDbEntity
  8
0
100
AcDbPolyline
 90
        2
 70
     0
 43
0.0
 10
-71.82711645795155
 20
54.38684136362368
 42
0.0445018465927467
 10
-71.03091731334839
 20
52.53239997186945
 42
0.1690824391501085
  0
LINE
  5
234
330
18
100
AcDbEntity
  8
0
100
AcDbLine
 10
-71.27556307314248
 20
51.88562048154071
 30
0.0
 11
-71.53437313826126
 21
51.90309745820558
 31
0.0
  0
LINE
  5
235
330
18
100
AcDbEntity
  8
0
100
AcDbLine
 10
-71.03091731334839
 20
52.53239997186945
 30
0.0
 11
-71.06969861947947
 21
52.15002261411764
 31
0.0
  0
LINE
  5
236
330
18
100
AcDbEntity
  8
0
100
AcDbLine
 10
-70.86687805412061
 20
51.8109236995496
 30
0.0
 11
-70.60411235385757
 21
51.80656214189423
 31
0.0
  0
LWPOLYLINE
  5
237
330
18
100
AcDbEntity
  8
0
100
AcDbPolyline
 90
        2
 70
     0
 43
0.0
 10
-71.82711645795155
 20
54.38684136362368
 42
-0.0453006000272326
 10
-71.01969493615901
 20
56.275722235207
 42
-0.1690824391501085
  0
LINE
  5
23B
330
18
100
AcDbEntity
  8
0
100
AcDbLine
 10
-71.26434069595311
 20
56.92250172553574
 30
0.0
 11
-71.5231507610719
 21
56.90502474887086
 31
0.0
  0
LINE
  5
23C
330
18
100
AcDbEntity
  8
0
100
AcDbLine
 10
-71.01969493615901
 20
56.275722235207
 30
0.0
 11
-71.05847624229008
 21
56.65809959295882
 31
0.0
  0
LINE
  5
23D
330
18
100
AcDbEntity
  8
0
100
AcDbLine
 10
-70.85565567693125
 20
56.99719850752685
 30
0.0
 11
-70.5928899766682
 21
57.00156006518223
 31
0.0
  0
LWPOLYLINE
  5
23E
330
18
100
AcDbEntity
  8
0
100
AcDbPolyline
 90
        3
 70
     0
 43
0.0
 10
-71.05915729038031
 20
64.16828973142847
 42
0.0450649023130634
 10
-69.68451124563988
 20
62.47921835269992
 42
0.1111928492004443
 10
-67.27319259035009
 20
60.90935354948098
 42
0.1690664444963385
  0
LWPOLYLINE
  5
243
330
18
100
AcDbEntity
  8
0
100
AcDbPolyline
 90
        3
 70
     0
 43
0.0
 10
-71.05457099661349
 20
64.55368162995569
 42
0.0517487622861581
 10
-69.53058573111788
 20
62.62928459341465
 42
0.138356300069592
 10
-66.55180305223298
 20
60.90935354948098
 42
0.1690707126618979
  0
LWPOLYLINE
  5
248
330
18
100
AcDbEntity
  8
0
100
AcDbPolyline
 90
        3
 70
     0
 43
0.0
 10
-71.05457099661343
 20
57.26502546900629
 42
-0.0517487622861581
 10
-69.53058573111785
 20
59.18942250554735
 42
-0.138356300069592
 10
-66.55180305223298
 20
60.90935354948108
 42
-0.1690707126618979
  0
LWPOLYLINE
  5
24D
330
18
100
AcDbEntity
  8
0
100
AcDbPolyline
 90
        3
 70
     0
 43
0.0
 10
-71.05915729038025
 20
57.6504173675335
 42
-0.0450649023130634
 10
-69.68451124563987
 20
59.33948874626207
 42
-0.1111928492004443
 10
-67.27319259035009
 20
60.90935354948107
 42
-0.1690664444963385
  0
ARC
  5
252
330
18
100
AcDbEntity
  8
0
100
AcDbCircle
 10
-65.91005593510425
 20
60.96011569056172
 30
0.0
 40
6.066764000964369
100
AcDbArc
 50
148.0748181130505
 51
180.479413799656
  0
ARC
  5
253
330
18
100
AcDbEntity
  8
0
100
AcDbCircle
 10
-78.91124453008128
 20
60.96011569056172
 30
0.0
 40
6.066764000964369
100
AcDbArc
 50
359.5205862003439
 51
31.92518188694943
  0
ARC
  5
254
330
18
100
AcDbEntity
  8
0
100
AcDbCircle
 10
-78.88500362111298
 20
60.96011569056172
 30
0.0
 40
6.253834540611165
100
AcDbArc
 50
359.5349271934923
 51
35.07288537555952
  0
ARC
  5
255
330
18
100
AcDbEntity
  8
0
100
AcDbCircle
 10
-65.93629684407251
 20
60.96011569056172
 30
0.0
 40
6.62426247057857
100
AcDbArc
 50
143.5448833482543
 51
167.7874803898805
  0
ARC
  5
256
330
18
100
AcDbEntity
  8
0
100
AcDbCircle
 10
-65.93629684407251
 20
60.96011569056172
 30
0.0
 40
6.253834540611165
100
AcDbArc
 50
144.9271146244404
 51
180.4650728065076
  0
ARC
  5
257
330
18
100
AcDbEntity
  8
0
100
AcDbCircle
 10
-78.88500362111298
 20
60.96011569056172
 30
0.0
 40
6.62426247057857
100
AcDbArc
 50
12.21251961011944
 51
36.45511665174566
  0
ARC
  5
258
330
18
100
AcDbEntity
  8
0
100
AcDbCircle
 10
-65.91005593510425
 20
60.85859140840035
 30
0.0
 40
6.066764000964369
100
AcDbArc
 50
179.5205862003449
 51
211.9251818869503
  0
ARC
  5
259
330
18
100
AcDbEntity
  8
0
100
AcDbCircle
 10
-65.93629684407251
 20
60.85859140840033
 30
0.0
 40
6.253834540611165
100
AcDbArc
 50
179.5349271934933
 51
215.0728853755605
  0
ARC
  5
25A
330
18
100
AcDbEntity
  8
0
100
AcDbCircle
 10
-78.91124453008128
 20
60.85859140840014
 30
0.0
 40
6.066764000964369
100
AcDbArc
 50
328.0748181130515
 51
0.4794137996569765
  0
ARC
  5
25B
330
18
100
AcDbEntity
  8
0
100
AcDbCircle
 10
-78.88500362111298
 20
60.85859140840013
 30
0.0
 40
6.253834540611165
100
AcDbArc
 50
324.9271146244414
 51
0.4650728065085641
  0
LINE
  5
25C
330
18
100
AcDbEntity
  8
0
100
AcDbLine
 10
-73.76672946857198
 20
57.26502546900626
 30
0.0
 11
-73.76214317480514
 21
57.65041736753346
 31
0.0
  0
LINE
  5
25D
330
18
100
AcDbEntity
  8
0
100
AcDbLine
 10
-71.05457099661343
 20
57.26502546900629
 30
0.0
 11
-71.05915729038025
 21
57.6504173675335
 31
0.0
  0
LWPOLYLINE
  5
25E
330
18
100
AcDbEntity
  8
0
100
AcDbPolyline
 90
        2
 70
     0
 43
0.0
 10
-72.18896598410663
 20
67.87462649862153
 42
0.0637314181534811
 10
-71.05847624229015
 20
65.16060750600317
 42
0.1690773598736531
  0
LWPOLYLINE
  5
262
330
18
100
AcDbEntity
  8
0
100
AcDbPolyline
 90
        2
 70
     0
 43
0.0
 10
-71.9768052872171
 20
67.93274799053995
 42
0.0568365567709805
 10
-71.01969493615908
 20
65.54298486375498
 42
0.1690824391501085
  0
ARC
  5
266
330
18
100
AcDbEntity
  8
0
100
AcDbCircle
 10
-65.93629684407251
 20
60.96011569056172
 30
0.0
 40
6.844240353847482
100
AcDbArc
 50
144.7146647143442
 51
161.0772134153627
  0
LWPOLYLINE
  5
267
330
18
100
AcDbEntity
  8
0
100
AcDbPolyline
 90
        2
 70
     0
 43
0.0
 10
-72.41065023259276
 20
67.51975707689472
 42
0.0604144612114355
 10
-71.26434069595318
 20
64.89620537342624
 42
0.1690707126618979
  0
LWPOLYLINE
  5
26B
330
18
100
AcDbEntity
  8
0
100
AcDbPolyline
 90
        2
 70
     0
 43
0.0
 10
-72.41065023259276
 20
66.83334506577427
 42
0.0437589691226032
 10
-71.52315076107196
 20
64.91368235009112
 42
0.1690664444963385
  0
LWPOLYLINE
  5
26F
330
18
100
AcDbEntity
  8
0
100
AcDbPolyline
 90
        2
 70
     0
 43
0.0
 10
-72.63233448107889
 20
67.87462649862153
 42
-0.0637314181534811
 10
-73.76282422289536
 20
65.16060750600317
 42
-0.1690773598736531
  0
LWPOLYLINE
  5
273
330
18
100
AcDbEntity
  8
0
100
AcDbPolyline
 90
        2
 70
     0
 43
0.0
 10
-72.84449517796841
 20
67.93274799053995
 42
-0.0568365567709804
 10
-73.80160552902644
 20
65.54298486375498
 42
-0.1690824391501085
  0
LWPOLYLINE
  5
277
330
18
100
AcDbEntity
  8
0
100
AcDbPolyline
 90
        2
 70
     0
 43
0.0
 10
-72.41065023259276
 20
67.51975707689472
 42
-0.0604144612114356
 10
-73.55695976923233
 20
64.89620537342624
 42
-0.1690707126618979
  0
LWPOLYLINE
  5
27B
330
18
100
AcDbEntity
  8
0
100
AcDbPolyline
 90
        2
 70
     0
 43
0.0
 10
-72.41065023259276
 20
66.83334506577427
 42
-0.0437589691226032
 10
-73.29814970411357
 20
64.91368235009112
 42
-0.1690664444963385
  0
ARC
  5
27F
330
18
100
AcDbEntity
  8
0
100
AcDbCircle
 10
-78.88500362111298
 20
60.96011569056172
 30
0.0
 40
6.844240353847482
100
AcDbArc
 50
18.92278658463721
 51
35.28533528565574
  0
LINE
  5
280
330
18
100
AcDbEntity
  8
0
100
AcDbLine
 10
-73.76672946857204
 20
64.55368162995568
 30
0.0
 11
-73.76214317480521
 21
64.16828973142847
 31
0.0
  0
LINE
  5
281
330
18
100
AcDbEntity
  8
0
100
AcDbLine
 10
-73.55695976923233
 20
64.89620537342624
 30
0.0
 11
-73.29814970411357
 21
64.91368235009112
 31
0.0
  0
LINE
  5
282
330
18
100
AcDbEntity
  8
0
100
AcDbLine
 10
-73.80160552902644
 20
65.54298486375498
 30
0.0
 11
-73.76282422289536
 21
65.16060750600317
 31
0.0
  0
LINE
  5
283
330
18
100
AcDbEntity
  8
0
100
AcDbLine
 10
-72.84449517796841
 20
67.93274799053995
 30
0.0
 11
-71.9768052872171
 21
67.93274799053995
 31
0.0
  0
LWPOLYLINE
  5
284
330
18
100
AcDbEntity
  8
0
100
AcDbPolyline
 90
        2
 70
     0
 43
0.0
 10
-72.69620136076859
 20
67.73566920220599
 42
0.0009420343158329
 10
-72.68406603492654
 20
67.69169694026139
 42
0.1690664444963385
  0
LWPOLYLINE
  5
288
330
18
100
AcDbEntity
  8
0
100
AcDbPolyline
 90
        2
 70
     0
 43
0.0
 10
-72.12509910441693
 20
67.73566920220599
 42
-0.0009420343158328
 10
-72.13723443025897
 20
67.69169694026139
 42
-0.1690664444963385
  0
LINE
  5
28C
330
18
100
AcDbEntity
  8
0
100
AcDbLine
 10
-71.05457099661349
 20
64.55368162995569
 30
0.0
 11
-71.05915729038031
 21
64.16828973142847
 31
0.0
  0
LINE
  5
28D
330
18
100
AcDbEntity
  8
0
100
AcDbLine
 10
-71.26434069595318
 20
64.89620537342624
 30
0.0
 11
-71.52315076107196
 21
64.91368235009112
 31
0.0
  0
LINE
  5
28E
330
18
100
AcDbEntity
  8
0
100
AcDbLine
 10
-71.01969493615908
 20
65.54298486375498
 30
0.0
 11
-71.05847624229015
 21
65.16060750600317
 31
0.0
  0
LINE
  5
28F
330
18
100
AcDbEntity
  8
0
100
AcDbLine
 10
-70.8556556769313
 20
64.82150859143513
 30
0.0
 11
-70.59288997666826
 21
64.81714703377976
 31
0.0
  0
LINE
  5
290
330
18
100
AcDbEntity
  8
0
100
AcDbLine
 10
-65.60418524806204
 20
48.282830621811
 30
0.0
 11
-65.60418524806202
 21
47.51470669338018
 31
0.0
  0
LINE
  5
291
330
18
100
AcDbEntity
  8
0
100
AcDbLine
 10
-65.672954828425
 20
54.02441069891751
 30
0.0
 11
-65.67295482842502
 21
54.79253462734855
 31
0.0
  0
LINE
  5
292
330
18
100
AcDbEntity
  8
0
100
AcDbLine
 10
-65.59296287087279
 20
61.29341551369645
 30
0.0
 11
-65.59296287087277
 21
60.52529158526563
 31
0.0
  0
LINE
  5
293
330
18
100
AcDbEntity
  8
0
100
AcDbLine
 10
-65.6729548284251
 20
67.02617247161352
 30
0.0
 11
-65.66173245123566
 21
67.80311951923398
 31
0.0
  0
TEXT
  5
2A1
330
18
100
AcDbEntity
  8
ADPDIM
100
AcDbText
 10
-98.04653298325348
 20
39.46389056523939
 30
0.0
 40
0.5
  1
J U L I U S  B L U M  &  C O . ,  I N C .      ( 8 0 0 )  5 2 6 - 6 2 9 3        W W W . J U L I U S B L U M . C O M        P A R T  N o .  9 6 1
 41
1.25
  7
ARIAL_WIDE
 72
     1
 11
-72.30770283318526
 21
39.96389056523939
 31
0.0
100
AcDbText
 73
     3
  0
ENDSEC
  0
SECTION
  2
OBJECTS
  0
DICTIONARY
  5
C
330
0
100
AcDbDictionary
  3
ACAD_GROUP
350
D
  3
ACAD_LAYOUT
350
29A
  3
ACAD_MLINESTYLE
350
E
  3
ACAD_PLOTSETTINGS
350
29B
  3
ACAD_PLOTSTYLENAME
350
298
  3
ACDBHEADERROUNDTRIPXREC
350
3E5
  3
ACDBVARIABLEDICTIONARY
350
2FB
  0
DICTIONARY
  5
2F5
330
18
100
AcDbDictionary
280
     1
  3
ACAD_LAYOUTSELFREF
360
406
  0
DICTIONARY
  5
2F3
330
15
100
AcDbDictionary
280
     1
  3
ACAD_LAYOUTSELFREF
360
405
  0
DICTIONARY
  5
D
102
{ACAD_REACTORS
330
C
102
}
330
C
100
AcDbDictionary
  0
DICTIONARY
  5
29A
102
{ACAD_REACTORS
330
C
102
}
330
C
100
AcDbDictionary
  0
DICTIONARY
  5
E
102
{ACAD_REACTORS
330
C
102
}
330
C
100
AcDbDictionary
  3
STANDARD
350
1B
  0
DICTIONARY
  5
29B
102
{ACAD_REACTORS
330
C
102
}
330
C
100
AcDbDictionary
  0
ACDBDICTIONARYWDFLT
  5
298
102
{ACAD_REACTORS
330
C
102
}
330
C
100
AcDbDictionary
281
     1
  3
Normal
350
299
100
AcDbDictionaryWithDefault
340
299
  0
DICTIONARY
  5
3E5
102
{ACAD_REACTORS
330
C
102
}
330
C
100
AcDbDictionary
  3
CEPSNTYPE
350
3EF
  3
FINGERPRINTGUID
350
3F0
  3
HYPERLINKBASE
350
3E8
  3
INSUNITS
350
3EE
  3
LAYOUTDICT
350
3EA
  3
LWETCUNION
350
3ED
  3
PLOTSETDICT
350
3EB
  3
PLOTSTYLNAMDICT
350
3EC
  3
PSVPSCALE
350
3F2
  3
PUCSBASE
350
3F5
  3
PUCSORGBACK
350
3FB
  3
PUCSORGBOTTOM
350
3F7
  3
PUCSORGFRONT
350
3FA
  3
PUCSORGLEFT
350
3F8
  3
PUCSORGRIGHT
350
3F9
  3
PUCSORGTOP
350
3F6
  3
PUCSORTHOREF
350
3F3
  3
PUCSORTHOVIEW
350
3F4
  3
STYLESHEET
350
3E9
  3
TSTACKALIGN
350
3E6
  3
TSTACKSIZE
350
3E7
  3
UCSBASE
350
3FE
  3
UCSORGBACK
350
404
  3
UCSORGBOTTOM
350
400
  3
UCSORGFRONT
350
403
  3
UCSORGLEFT
350
401
  3
UCSORGRIGHT
350
402
  3
UCSORGTOP
350
3FF
  3
UCSORTHOREF
350
3FC
  3
UCSORTHOVIEW
350
3FD
  3
VERSIONGUID
350
3F1
  0
DICTIONARY
  5
2FB
102
{ACAD_REACTORS
330
C
102
}
330
C
100
AcDbDictionary
  3
DIMASSOC
350
2FC
  0
XRECORD
  5
406
102
{ACAD_REACTORS
330
2F5
102
}
330
2F5
100
AcDbXrecord
340
18
  0
XRECORD
  5
405
102
{ACAD_REACTORS
330
2F3
102
}
330
2F3
100
AcDbXrecord
340
15
  0
MLINESTYLE
  5
1B
102
{ACAD_REACTORS
330
E
102
}
330
E
100
AcDbMlineStyle
  2
STANDARD
 70
     0
  3

 62
     0
 51
90.0
 52
90.0
 71
     2
 49
0.5
 62
   256
  6
BYLAYER
 49
-0.5
 62
   256
  6
BYLAYER
  0
ACDBPLACEHOLDER
  5
299
102
{ACAD_REACTORS
330
298
102
}
330
298
100
AcDbPlaceHolder
280
     0
  0
XRECORD
  5
3EF
102
{ACAD_REACTORS
330
3E5
102
}
330
3E5
100
AcDbXrecord
 90
        0
  0
XRECORD
  5
3F0
102
{ACAD_REACTORS
330
3E5
102
}
330
3E5
100
AcDbXrecord
  1
{6C208C30-1BB1-47EC-B746-A115373A892E}
  0
XRECORD
  5
3E8
102
{ACAD_REACTORS
330
3E5
102
}
330
3E5
100
AcDbXrecord
  1

  0
XRECORD
  5
3EE
102
{ACAD_REACTORS
330
3E5
102
}
330
3E5
100
AcDbXrecord
 90
        0
  0
XRECORD
  5
3EA
102
{ACAD_REACTORS
330
3E5
102
}
330
3E5
100
AcDbXrecord
340
29A
  0
XRECORD
  5
3ED
102
{ACAD_REACTORS
330
3E5
102
}
330
3E5
100
AcDbXrecord
 90
    14877
  0
XRECORD
  5
3EB
102
{ACAD_REACTORS
330
3E5
102
}
330
3E5
100
AcDbXrecord
340
29B
  0
XRECORD
  5
3EC
102
{ACAD_REACTORS
330
3E5
102
}
330
3E5
100
AcDbXrecord
340
298
  0
XRECORD
  5
3F2
102
{ACAD_REACTORS
330
3E5
102
}
330
3E5
100
AcDbXrecord
 40
0.0
  0
XRECORD
  5
3F5
102
{ACAD_REACTORS
330
3E5
102
}
330
3E5
100
AcDbXrecord
340
0
  0
XRECORD
  5
3FB
102
{ACAD_REACTORS
330
3E5
102
}
330
3E5
100
AcDbXrecord
 10
0.0
 20
0.0
 30
0.0
  0
XRECORD
  5
3F7
102
{ACAD_REACTORS
330
3E5
102
}
330
3E5
100
AcDbXrecord
 10
0.0
 20
0.0
 30
0.0
  0
XRECORD
  5
3FA
102
{ACAD_REACTORS
330
3E5
102
}
330
3E5
100
AcDbXrecord
 10
0.0
 20
0.0
 30
0.0
  0
XRECORD
  5
3F8
102
{ACAD_REACTORS
330
3E5
102
}
330
3E5
100
AcDbXrecord
 10
0.0
 20
0.0
 30
0.0
  0
XRECORD
  5
3F9
102
{ACAD_REACTORS
330
3E5
102
}
330
3E5
100
AcDbXrecord
 10
0.0
 20
0.0
 30
0.0
  0
XRECORD
  5
3F6
102
{ACAD_REACTORS
330
3E5
102
}
330
3E5
100
AcDbXrecord
 10
0.0
 20
0.0
 30
0.0
  0
XRECORD
  5
3F3
102
{ACAD_REACTORS
330
3E5
102
}
330
3E5
100
AcDbXrecord
340
0
  0
XRECORD
  5
3F4
102
{ACAD_REACTORS
330
3E5
102
}
330
3E5
100
AcDbXrecord
 70
     0
  0
XRECORD
  5
3E9
102
{ACAD_REACTORS
330
3E5
102
}
330
3E5
100
AcDbXrecord
  1

  0
XRECORD
  5
3E6
102
{ACAD_REACTORS
330
3E5
102
}
330
3E5
100
AcDbXrecord
 90
        1
  0
XRECORD
  5
3E7
102
{ACAD_REACTORS
330
3E5
102
}
330
3E5
100
AcDbXrecord
 90
       70
  0
XRECORD
  5
3FE
102
{ACAD_REACTORS
330
3E5
102
}
330
3E5
100
AcDbXrecord
340
0
  0
XRECORD
  5
404
102
{ACAD_REACTORS
330
3E5
102
}
330
3E5
100
AcDbXrecord
 10
0.0
 20
0.0
 30
0.0
  0
XRECORD
  5
400
102
{ACAD_REACTORS
330
3E5
102
}
330
3E5
100
AcDbXrecord
 10
0.0
 20
0.0
 30
0.0
  0
XRECORD
  5
403
102
{ACAD_REACTORS
330
3E5
102
}
330
3E5
100
AcDbXrecord
 10
0.0
 20
0.0
 30
0.0
  0
XRECORD
  5
401
102
{ACAD_REACTORS
330
3E5
102
}
330
3E5
100
AcDbXrecord
 10
0.0
 20
0.0
 30
0.0
  0
XRECORD
  5
402
102
{ACAD_REACTORS
330
3E5
102
}
330
3E5
100
AcDbXrecord
 10
0.0
 20
0.0
 30
0.0
  0
XRECORD
  5
3FF
102
{ACAD_REACTORS
330
3E5
102
}
330
3E5
100
AcDbXrecord
 10
0.0
 20
0.0
 30
0.0
  0
XRECORD
  5
3FC
102
{ACAD_REACTORS
330
3E5
102
}
330
3E5
100
AcDbXrecord
340
0
  0
XRECORD
  5
3FD
102
{ACAD_REACTORS
330
3E5
102
}
330
3E5
100
AcDbXrecord
 70
     0
  0
XRECORD
  5
3F1
102
{ACAD_REACTORS
330
3E5
102
}
330
3E5
100
AcDbXrecord
  1
{59F3FDAD-26CF-4506-898E-791DCAA48082}
  0
DICTIONARYVAR
  5
2FC
102
{ACAD_REACTORS
330
2FB
102
}
330
2FB
100
DictionaryVariables
280
     0
  1
1
  0
ENDSEC
  0
EOF
