  0
SECTION
  2
HEADER
  9
$ACADVER
  1
AC1014
  9
$ACADMAINTVER
 70
     9
  9
$DWGCODEPAGE
  3
ANSI_1252
  9
$INSBASE
 10
-88.43436611034716
 20
41.00501572077986
 30
0.0
  9
$EXTMIN
 10
-120.3377188156731
 20
39.43035458333864
 30
0.0
  9
$EXTMAX
 10
-68.86005851553671
 20
68.81466124985107
 30
0.0
  9
$LIMMIN
 10
0.0
 20
0.0
  9
$LIMMAX
 10
36.0
 20
36.0
  9
$ORTHOMODE
 70
     1
  9
$REGENMODE
 70
     1
  9
$FILLMODE
 70
     1
  9
$QTEXTMODE
 70
     0
  9
$MIRRTEXT
 70
     1
  9
$DRAGMODE
 70
     0
  9
$LTSCALE
 40
1.0
  9
$OSMODE
 70
    37
  9
$ATTMODE
 70
     1
  9
$TEXTSIZE
 40
0.2
  9
$TRACEWID
 40
0.05
  9
$TEXTSTYLE
  7
STANDARD
  9
$CLAYER
  8
ADPDIM
  9
$CELTYPE
  6
BYLAYER
  9
$CECOLOR
 62
   256
  9
$CELTSCALE
 40
1.0
  9
$DELOBJ
 70
     1
  9
$DISPSILH
 70
     0
  9
$DIMSCALE
 40
1.0
  9
$DIMASZ
 40
0.125
  9
$DIMEXO
 40
0.0625
  9
$DIMDLI
 40
0.38
  9
$DIMRND
 40
0.0
  9
$DIMDLE
 40
0.0
  9
$DIMEXE
 40
0.18
  9
$DIMTP
 40
0.0
  9
$DIMTM
 40
0.0
  9
$DIMTXT
 40
0.125
  9
$DIMCEN
 40
0.1875
  9
$DIMTSZ
 40
0.125
  9
$DIMTOL
 70
     0
  9
$DIMLIM
 70
     0
  9
$DIMTIH
 70
     0
  9
$DIMTOH
 70
     0
  9
$DIMSE1
 70
     0
  9
$DIMSE2
 70
     0
  9
$DIMTAD
 70
     0
  9
$DIMZIN
 70
     3
  9
$DIMBLK
  1

  9
$DIMASO
 70
     1
  9
$DIMSHO
 70
     1
  9
$DIMPOST
  1

  9
$DIMAPOST
  1

  9
$DIMALT
 70
     0
  9
$DIMALTD
 70
     1
  9
$DIMALTF
 40
25.4
  9
$DIMLFAC
 40
1.0
  9
$DIMTOFL
 70
     0
  9
$DIMTVP
 40
0.0
  9
$DIMTIX
 70
     0
  9
$DIMSOXD
 70
     0
  9
$DIMSAH
 70
     0
  9
$DIMBLK1
  1

  9
$DIMBLK2
  1

  9
$DIMSTYLE
  2
STANDARD
  9
$DIMCLRD
 70
     0
  9
$DIMCLRE
 70
     0
  9
$DIMCLRT
 70
     0
  9
$DIMTFAC
 40
1.0
  9
$DIMGAP
 40
0.125
  9
$DIMJUST
 70
     0
  9
$DIMSD1
 70
     0
  9
$DIMSD2
 70
     0
  9
$DIMTOLJ
 70
     1
  9
$DIMTZIN
 70
     0
  9
$DIMALTZ
 70
     0
  9
$DIMALTTZ
 70
     0
  9
$DIMFIT
 70
     3
  9
$DIMUPT
 70
     0
  9
$DIMUNIT
 70
     2
  9
$DIMDEC
 70
     4
  9
$DIMTDEC
 70
     4
  9
$DIMALTU
 70
     2
  9
$DIMALTTD
 70
     2
  9
$DIMTXSTY
  7
STANDARD
  9
$DIMAUNIT
 70
     0
  9
$LUNITS
 70
     5
  9
$LUPREC
 70
     5
  9
$SKETCHINC
 40
0.1
  9
$FILLETRAD
 40
0.062
  9
$AUNITS
 70
     0
  9
$AUPREC
 70
     0
  9
$MENU
  1
acad
  9
$ELEVATION
 40
0.0
  9
$PELEVATION
 40
0.0
  9
$THICKNESS
 40
0.0
  9
$LIMCHECK
 70
     0
  9
$BLIPMODE
 70
     0
  9
$CHAMFERA
 40
0.0
  9
$CHAMFERB
 40
0.0
  9
$CHAMFERC
 40
0.0
  9
$CHAMFERD
 40
0.0
  9
$SKPOLY
 70
     0
  9
$TDCREATE
 40
2450409.644232442
  9
$TDUPDATE
 40
2452297.078443287
  9
$TDINDWG
 40
0.0460056481
  9
$TDUSRTIMER
 40
0.0460056481
  9
$USRTIMER
 70
     1
  9
$ANGBASE
 50
0.0
  9
$ANGDIR
 70
     0
  9
$PDMODE
 70
     0
  9
$PDSIZE
 40
0.0
  9
$PLINEWID
 40
0.0
  9
$COORDS
 70
     2
  9
$SPLFRAME
 70
     0
  9
$SPLINETYPE
 70
     6
  9
$SPLINESEGS
 70
     8
  9
$ATTDIA
 70
     0
  9
$ATTREQ
 70
     1
  9
$HANDLING
 70
 22529
  9
$HANDSEED
  5
52D
  9
$SURFTAB1
 70
     6
  9
$SURFTAB2
 70
     6
  9
$SURFTYPE
 70
     6
  9
$SURFU
 70
     6
  9
$SURFV
 70
     6
  9
$UCSNAME
  2

  9
$UCSORG
 10
0.0
 20
0.0
 30
0.0
  9
$UCSXDIR
 10
1.0
 20
0.0
 30
0.0
  9
$UCSYDIR
 10
0.0
 20
1.0
 30
0.0
  9
$PUCSNAME
  2

  9
$PUCSORG
 10
0.0
 20
0.0
 30
0.0
  9
$PUCSXDIR
 10
1.0
 20
0.0
 30
0.0
  9
$PUCSYDIR
 10
0.0
 20
1.0
 30
0.0
  9
$USERI1
 70
     0
  9
$USERI2
 70
     0
  9
$USERI3
 70
     0
  9
$USERI4
 70
     0
  9
$USERI5
 70
     0
  9
$USERR1
 40
0.0
  9
$USERR2
 40
0.0
  9
$USERR3
 40
0.0
  9
$USERR4
 40
0.0
  9
$USERR5
 40
0.0
  9
$WORLDVIEW
 70
     1
  9
$SHADEDGE
 70
     3
  9
$SHADEDIF
 70
    70
  9
$TILEMODE
 70
     1
  9
$MAXACTVP
 70
    15
  9
$PINSBASE
 10
0.0009765857830644
 20
1.500170956078392
 30
0.0
  9
$PLIMCHECK
 70
     0
  9
$PEXTMIN
 10
1.000000000000000E+20
 20
1.000000000000000E+20
 30
1.000000000000000E+20
  9
$PEXTMAX
 10
-1.000000000000000E+20
 20
-1.000000000000000E+20
 30
-1.000000000000000E+20
  9
$PLIMMIN
 10
0.0
 20
0.0
  9
$PLIMMAX
 10
12.0
 20
9.0
  9
$UNITMODE
 70
     0
  9
$VISRETAIN
 70
     0
  9
$PLINEGEN
 70
     0
  9
$PSLTSCALE
 70
     1
  9
$TREEDEPTH
 70
  3020
  9
$PICKSTYLE
 70
     1
  9
$CMLSTYLE
  2
STANDARD
  9
$CMLJUST
 70
     0
  9
$CMLSCALE
 40
1.0
  9
$PROXYGRAPHICS
 70
     1
  9
$MEASUREMENT
 70
     0
  0
ENDSEC
  0
SECTION
  2
CLASSES
  0
CLASS
  1
ACDBDICTIONARYWDFLT
  2
AcDbDictionaryWithDefault
  3
AutoCAD 2000
 90
        0
280
     0
281
     0
  0
CLASS
  1
ACDBPLACEHOLDER
  2
AcDbPlaceHolder
  3
AutoCAD 2000
 90
        0
280
     0
281
     0
  0
CLASS
  1
LAYOUT
  2
AcDbLayout
  3
AutoCAD 2000
 90
        0
280
     0
281
     0
  0
CLASS
  1
DICTIONARYVAR
  2
AcDbDictionaryVar
  3
AutoCAD 2000
 90
        0
280
     0
281
     0
  0
CLASS
  1
LONG_TRANSACTION
  2
AcDbLongTransaction
  3
AutoCAD 2000
 90
        0
280
     0
281
     0
  0
CLASS
  1
LWPOLYLINE
  2
AcDbPolyline
  3
AutoCAD 2000
 90
        0
280
     0
281
     1
  0
CLASS
  1
HATCH
  2
AcDbHatch
  3
AutoCAD 2000
 90
        0
280
     0
281
     1
  0
CLASS
  1
XRECORD
  2
AcDbXrecord
  3
AutoCAD 2000
 90
        0
280
     0
281
     0
  0
CLASS
  1
LONG_TRANSACTION
  2
AcDbLongTransaction
  3
AutoCAD 2000
 90
        0
280
     0
281
     0
  0
CLASS
  1
LWPOLYLINE
  2
AcDbPolyline
  3
AutoCAD 2000
 90
        0
280
     0
281
     1
  0
CLASS
  1
HATCH
  2
AcDbHatch
  3
AutoCAD 2000
 90
        0
280
     0
281
     1
  0
CLASS
  1
XRECORD
  2
AcDbXrecord
  3
AutoCAD 2000
 90
        0
280
     0
281
     0
  0
CLASS
  1
LONG_TRANSACTION
  2
AcDbLongTransaction
  3
AutoCAD 2000
 90
        0
280
     0
281
     0
  0
CLASS
  1
LWPOLYLINE
  2
AcDbPolyline
  3
AutoCAD 2000
 90
        0
280
     0
281
     1
  0
CLASS
  1
HATCH
  2
AcDbHatch
  3
AutoCAD 2000
 90
        0
280
     0
281
     1
  0
CLASS
  1
XRECORD
  2
AcDbXrecord
  3
AutoCAD 2000
 90
        0
280
     0
281
     0
  0
CLASS
  1
LONG_TRANSACTION
  2
AcDbLongTransaction
  3
AutoCAD 2000
 90
        0
280
     0
281
     0
  0
CLASS
  1
LWPOLYLINE
  2
AcDbPolyline
  3
AutoCAD 2000
 90
        0
280
     0
281
     1
  0
CLASS
  1
HATCH
  2
AcDbHatch
  3
AutoCAD 2000
 90
        0
280
     0
281
     1
  0
CLASS
  1
XRECORD
  2
AcDbXrecord
  3
AutoCAD 2000
 90
        0
280
     0
281
     0
  0
CLASS
  1
LONG_TRANSACTION
  2
AcDbLongTransaction
  3
AutoCAD 2000
 90
        0
280
     0
281
     0
  0
CLASS
  1
LWPOLYLINE
  2
AcDbPolyline
  3
AutoCAD 2000
 90
        0
280
     0
281
     1
  0
CLASS
  1
HATCH
  2
AcDbHatch
  3
AutoCAD 2000
 90
        0
280
     0
281
     1
  0
CLASS
  1
XRECORD
  2
AcDbXrecord
  3
AutoCAD 2000
 90
        0
280
     0
281
     0
  0
ENDSEC
  0
SECTION
  2
TABLES
  0
TABLE
  2
VPORT
  5
8
330
0
100
AcDbSymbolTable
 70
     2
  0
VPORT
  5
50A
330
8
100
AcDbSymbolTableRecord
100
AcDbViewportTableRecord
  2
*ACTIVE
 70
     0
 10
0.0
 20
0.0
 11
1.0
 21
1.0
 12
-94.55773458904516
 22
54.12329828800128
 13
0.0
 23
0.0
 14
0.5740882589684922
 24
0.5740882589684922
 15
0.5
 25
0.5
 16
0.0
 26
0.0
 36
1.0
 17
0.0
 27
0.0
 37
0.0
 40
32.99135374401239
 41
1.570528967254408
 42
50.0
 43
0.0
 44
0.0
 50
0.0
 51
0.0
 71
     0
 72
   100
 73
     1
 74
     0
 75
     0
 76
     0
 77
     0
 78
     0
  0
ENDTAB
  0
TABLE
  2
LTYPE
  5
5
330
0
100
AcDbSymbolTable
 70
     1
  0
LTYPE
  5
12
330
5
100
AcDbSymbolTableRecord
100
AcDbLinetypeTableRecord
  2
BYBLOCK
 70
     0
  3

 72
    65
 73
     0
 40
0.0
  0
LTYPE
  5
13
330
5
100
AcDbSymbolTableRecord
100
AcDbLinetypeTableRecord
  2
BYLAYER
 70
     0
  3

 72
    65
 73
     0
 40
0.0
  0
LTYPE
  5
14
330
5
100
AcDbSymbolTableRecord
100
AcDbLinetypeTableRecord
  2
CONTINUOUS
 70
     0
  3
Solid line
 72
    65
 73
     0
 40
0.0
  0
ENDTAB
  0
TABLE
  2
LAYER
  5
2
330
0
100
AcDbSymbolTable
 70
     3
  0
LAYER
  5
F
330
2
100
AcDbSymbolTableRecord
100
AcDbLayerTableRecord
  2
0
 70
     0
 62
     7
  6
CONTINUOUS
  0
LAYER
  5
D0
330
2
100
AcDbSymbolTableRecord
100
AcDbLayerTableRecord
  2
DEFPOINTS
 70
     0
 62
     7
  6
CONTINUOUS
  0
LAYER
  5
D3
330
2
100
AcDbSymbolTableRecord
100
AcDbLayerTableRecord
  2
ADPDIM
 70
     0
 62
     3
  6
CONTINUOUS
  0
ENDTAB
  0
TABLE
  2
STYLE
  5
3
330
0
100
AcDbSymbolTable
 70
     2
  0
STYLE
  5
10
330
3
100
AcDbSymbolTableRecord
100
AcDbTextStyleTableRecord
  2
STANDARD
 70
     0
 40
0.0
 41
1.0
 50
0.0
 71
     0
 42
0.2
  3
txt
  4

  0
STYLE
  5
3C6
330
3
100
AcDbSymbolTableRecord
100
AcDbTextStyleTableRecord
  2
ARIAL_WIDE
 70
     0
 40
0.0
 41
1.25
 50
0.0
 71
     0
 42
0.2
  3
ARIAL.TTF
  4

1001
ACAD
1000
Arial
1071
       34
  0
ENDTAB
  0
TABLE
  2
VIEW
  5
6
330
0
100
AcDbSymbolTable
 70
     0
  0
ENDTAB
  0
TABLE
  2
UCS
  5
7
330
0
100
AcDbSymbolTable
 70
     0
  0
ENDTAB
  0
TABLE
  2
APPID
  5
9
330
0
100
AcDbSymbolTable
 70
     1
  0
APPID
  5
11
330
9
100
AcDbSymbolTableRecord
100
AcDbRegAppTableRecord
  2
ACAD
 70
     0
  0
ENDTAB
  0
TABLE
  2
DIMSTYLE
  5
A
330
0
100
AcDbSymbolTable
 70
     1
  0
DIMSTYLE
105
3BA
330
A
100
AcDbSymbolTableRecord
100
AcDbDimStyleTableRecord
  2
STANDARD
 70
     0
  3

  4

  5

  6

  7

 40
1.0
 41
0.18
 42
0.0625
 43
0.38
 44
0.18
 45
0.0
 46
0.0
 47
0.0
 48
0.0
140
0.18
141
0.09
142
0.0
143
25.4
144
1.0
145
0.0
146
1.0
147
0.09
 71
     0
 72
     0
 73
     1
 74
     1
 75
     0
 76
     0
 77
     0
 78
     0
170
     0
171
     2
172
     0
173
     0
174
     0
175
     0
176
     0
177
     0
178
     0
270
     2
271
     4
272
     4
273
     2
274
     2
340
10
275
     0
280
     0
281
     0
282
     0
283
     1
284
     0
285
     0
286
     0
287
     3
288
     0
  0
ENDTAB
  0
TABLE
  2
BLOCK_RECORD
  5
1
330
0
100
AcDbSymbolTable
 70
     3
  0
BLOCK_RECORD
  5
18
102
{ACAD_XDICTIONARY
360
41B
102
}
330
1
100
AcDbSymbolTableRecord
100
AcDbBlockTableRecord
  2
*MODEL_SPACE
  0
BLOCK_RECORD
  5
15
102
{ACAD_XDICTIONARY
360
419
102
}
330
1
100
AcDbSymbolTableRecord
100
AcDbBlockTableRecord
  2
*PAPER_SPACE
  0
BLOCK_RECORD
  5
94
330
1
100
AcDbSymbolTableRecord
100
AcDbBlockTableRecord
  2
960
  0
BLOCK_RECORD
  5
CA
330
1
100
AcDbSymbolTableRecord
100
AcDbBlockTableRecord
  2
*D1
  0
BLOCK_RECORD
  5
CB
330
1
100
AcDbSymbolTableRecord
100
AcDbBlockTableRecord
  2
*D2
  0
ENDTAB
  0
ENDSEC
  0
SECTION
  2
BLOCKS
  0
BLOCK
  5
D6
330
18
100
AcDbEntity
  8
0
100
AcDbBlockBegin
  2
*MODEL_SPACE
 70
     0
 10
0.0
 20
0.0
 30
0.0
  3
*MODEL_SPACE
  1

  0
ENDBLK
  5
D7
330
18
100
AcDbEntity
  8
0
100
AcDbBlockEnd
  0
BLOCK
  5
D4
330
15
100
AcDbEntity
 67
     1
  8
0
100
AcDbBlockBegin
  2
*PAPER_SPACE
 70
     0
 10
0.0
 20
0.0
 30
0.0
  3
*PAPER_SPACE
  1

  0
ENDBLK
  5
D5
330
15
100
AcDbEntity
 67
     1
  8
0
100
AcDbBlockEnd
  0
BLOCK
  5
D9
330
94
100
AcDbEntity
  8
0
100
AcDbBlockBegin
  2
960
 70
     0
 10
0.0
 20
0.0
 30
0.0
  3
960
  1

  0
LWPOLYLINE
  5
DA
330
94
100
AcDbEntity
  8
0
100
AcDbPolyline
 90
        4
 70
     0
 43
0.0
 10
6.214912033374405
 20
3.791199966760892
 42
-0.1299724708552729
 10
4.877609724051042
 20
5.91081951279548
 42
-0.2438345727178556
 10
4.86805748337313
 20
7.362090424562456
 42
-0.1373002762918617
 10
6.214912033374405
 20
9.500805653664837
 42
-0.3855036188527802
  0
LWPOLYLINE
  5
E0
330
94
100
AcDbEntity
  8
0
100
AcDbPolyline
 90
        3
 70
     0
 43
0.0
 10
4.698555377739491
 20
0.0
 42
-0.1036984510715969
 10
4.86805748337313
 20
0.6243528135230747
 42
-0.1373002762918617
 10
6.214912033374405
 20
2.763068042625455
 42
-0.3855036188527802
  0
LWPOLYLINE
  5
E5
330
94
100
AcDbEntity
  8
0
100
AcDbPolyline
 90
        3
 70
     0
 43
0.0
 10
6.214912033374405
 20
10.72007902915724
 42
-0.1299724708552729
 10
4.877609724051042
 20
12.83969857519183
 42
-0.1238639601279209
 10
4.69591524732334
 20
13.58720146906849
 42
-0.1373002762918617
  0
LWPOLYLINE
  5
EA
330
94
100
AcDbEntity
  8
0
100
AcDbPolyline
 90
        3
 70
     0
 43
0.0
 10
6.214912033374405
 20
16.43325655991427
 42
0.1299724708552729
 10
4.877609724051042
 20
14.31363701387968
 42
0.1238639601279209
 10
4.69591524732334
 20
13.56613412000302
 42
0.1373002762918617
  0
LWPOLYLINE
  5
EF
330
94
100
AcDbEntity
  8
0
100
AcDbPolyline
 90
        3
 70
     0
 43
0.0
 10
4.698555377739491
 20
27.15333558907151
 42
0.1036984510715969
 10
4.86805748337313
 20
26.52898277554844
 42
0.1373002762918617
 10
6.214912033374405
 20
24.39026754644606
 42
0.3855036188527802
  0
LWPOLYLINE
  5
F4
330
94
100
AcDbEntity
  8
0
100
AcDbPolyline
 90
        4
 70
     0
 43
0.0
 10
6.214912033374405
 20
23.36213562231062
 42
0.1299724708552729
 10
4.877609724051042
 20
21.24251607627603
 42
0.2438345727178556
 10
4.86805748337313
 20
19.79124516450906
 42
0.1373002762918617
 10
6.214912033374405
 20
17.65252993540667
 42
0.3855036188527802
  0
LINE
  5
FA
330
94
100
AcDbEntity
  8
0
100
AcDbLine
 10
4.182944888427835
 20
12.89356708480776
 30
0.0
 11
4.182944888427835
 21
14.25976850426375
 31
0.0
  0
LINE
  5
FB
330
94
100
AcDbEntity
  8
0
100
AcDbLine
 10
0.0
 20
14.25976850426375
 30
0.0
 11
0.0
 21
12.89356708480776
 31
0.0
  0
LWPOLYLINE
  5
FC
330
94
100
AcDbEntity
  8
0
100
AcDbPolyline
 90
        2
 70
     0
 43
0.0
 10
4.493616368500066
 20
13.58720146906849
 42
0.0017485052794659
 10
4.493859522717392
 20
13.57666779453575
 42
2.951708892584601
  0
LWPOLYLINE
  5
100
330
94
100
AcDbEntity
  8
0
100
AcDbPolyline
 90
        2
 70
     0
 43
0.0
 10
3.899159741120487
 20
13.58720146906849
 42
-0.0017485052794659
 10
3.898916586903162
 20
13.57666779453575
 42
-2.951708892584601
  0
LWPOLYLINE
  5
104
330
94
100
AcDbEntity
  8
0
100
AcDbPolyline
 90
        2
 70
     0
 43
0.0
 10
0.3899614182955342
 20
13.58720146906849
 42
0.0017485052794659
 10
0.3902045725128602
 20
13.57666779453575
 42
2.951708892584601
  0
LWPOLYLINE
  5
108
330
94
100
AcDbEntity
  8
0
100
AcDbPolyline
 90
        3
 70
     0
 43
0.0
 10
2.151315760036746
 20
10.72007902915724
 42
-0.1299724708552729
 10
0.8140134507133875
 20
12.83969857519183
 42
-0.123863960127921
 10
0.6323189739856839
 20
13.58720146906849
 42
-0.1373002762918617
  0
LWPOLYLINE
  5
10D
330
94
100
AcDbEntity
  8
0
100
AcDbPolyline
 90
        3
 70
     0
 43
0.0
 10
2.151315760036746
 20
10.72007902915724
 42
0.1299724708552729
 10
3.488618069360105
 20
12.83969857519183
 42
0.1238639601279209
 10
3.670312546087807
 20
13.58720146906849
 42
0.1373002762918617
  0
LWPOLYLINE
  5
112
330
94
100
AcDbEntity
  8
0
100
AcDbPolyline
 90
        2
 70
     0
 43
0.0
 10
4.493616368500066
 20
13.56613412000302
 42
-0.0017485052794659
 10
4.493859522717392
 20
13.57666779453575
 42
-2.951708892584601
  0
LWPOLYLINE
  5
116
330
94
100
AcDbEntity
  8
0
100
AcDbPolyline
 90
        2
 70
     0
 43
0.0
 10
3.899159741120487
 20
13.56613412000302
 42
0.0017485052794659
 10
3.898916586903162
 20
13.57666779453575
 42
2.951708892584601
  0
LWPOLYLINE
  5
11A
330
94
100
AcDbEntity
  8
0
100
AcDbPolyline
 90
        3
 70
     0
 43
0.0
 10
2.151315760036746
 20
16.43325655991427
 42
-0.1299724708552729
 10
3.488618069360105
 20
14.31363701387968
 42
-0.1238639601279209
 10
3.670312546087807
 20
13.56613412000302
 42
-0.1373002762918617
  0
LWPOLYLINE
  5
11F
330
94
100
AcDbEntity
  8
0
100
AcDbPolyline
 90
        2
 70
     0
 43
0.0
 10
0.3899614182955342
 20
13.56613412000302
 42
-0.0017485052794659
 10
0.3902045725128602
 20
13.57666779453575
 42
-2.951708892584601
  0
LWPOLYLINE
  5
123
330
94
100
AcDbEntity
  8
0
100
AcDbPolyline
 90
        3
 70
     0
 43
0.0
 10
2.151315760036746
 20
16.43325655991427
 42
0.1299724708552729
 10
0.8140134507133875
 20
14.31363701387968
 42
0.123863960127921
 10
0.6323189739856839
 20
13.56613412000302
 42
0.1373002762918617
  0
LWPOLYLINE
  5
128
330
94
100
AcDbEntity
  8
0
100
AcDbPolyline
 90
        4
 70
     0
 43
0.0
 10
5.893243916030543
 20
17.02582124725148
 42
-0.1553231513808616
 10
5.594110584865632
 20
16.08611376387658
 10
4.7608109029696
 20
14.47366120208271
 42
0.1592440656797207
 10
4.493859522717392
 20
13.57666779453575
 42
2.951708892584601
  0
LWPOLYLINE
  5
12E
330
94
100
AcDbEntity
  8
0
100
AcDbPolyline
 90
        4
 70
     0
 43
0.0
 10
2.499532193590011
 20
17.02582124725148
 42
0.1553231513808616
 10
2.798665524754922
 20
16.08611376387658
 10
3.631965206650954
 20
14.47366120208271
 42
-0.1592440656797207
 10
3.898916586903162
 20
13.57666779453575
 42
-2.951708892584601
  0
LWPOLYLINE
  5
134
330
94
100
AcDbEntity
  8
0
100
AcDbPolyline
 90
        4
 70
     0
 43
0.0
 10
1.78958896582601
 20
17.02582124725148
 42
-0.1553231513808616
 10
1.490455634661099
 20
16.08611376387658
 10
0.6571559527650677
 20
14.47366120208271
 42
0.1592440656797207
 10
0.3902045725128602
 20
13.57666779453575
 42
2.951708892584601
  0
LWPOLYLINE
  5
13A
330
94
100
AcDbEntity
  8
0
100
AcDbPolyline
 90
        4
 70
     0
 43
0.0
 10
2.151315760036746
 20
3.791199966760892
 42
0.1299724708552729
 10
3.488618069360105
 20
5.91081951279548
 42
0.2438345727178556
 10
3.498170310038018
 20
7.362090424562456
 42
0.1373002762918617
 10
2.151315760036746
 20
9.500805653664837
 42
0.3855036188527802
  0
LWPOLYLINE
  5
140
330
94
100
AcDbEntity
  8
0
100
AcDbPolyline
 90
        3
 70
     0
 43
0.0
 10
3.667672415671656
 20
0.0
 42
0.1036984510715969
 10
3.498170310038018
 20
0.6243528135230747
 42
0.1373002762918617
 10
2.151315760036746
 20
2.763068042625455
 42
0.3855036188527802
  0
LWPOLYLINE
  5
145
330
94
100
AcDbEntity
  8
0
100
AcDbPolyline
 90
        4
 70
     0
 43
0.0
 10
2.151315760036746
 20
3.791199966760892
 42
-0.1299724708552729
 10
0.8140134507133875
 20
5.91081951279548
 42
-0.2438345727178556
 10
0.8044612100354715
 20
7.362090424562456
 42
-0.1373002762918617
 10
2.151315760036746
 20
9.500805653664837
 42
-0.3855036188527802
  0
LWPOLYLINE
  5
14B
330
94
100
AcDbEntity
  8
0
100
AcDbPolyline
 90
        4
 70
     0
 43
0.0
 10
1.78958896582601
 20
3.229207436388577
 42
0.1553231513808616
 10
1.490455634661099
 20
4.16891491976348
 10
0.6571559527650677
 20
5.781367481557349
 42
-0.1592440656797207
 10
0.3902045725128602
 20
6.678360889104304
 42
-2.951708892584601
  0
LWPOLYLINE
  5
151
330
94
100
AcDbEntity
  8
0
100
AcDbPolyline
 90
        4
 70
     0
 43
0.0
 10
0.0
 20
0.3974546086921897
 42
0.1299724708552729
 10
1.337302309323359
 20
2.517074154726778
 42
0.2438345727178556
 10
1.346854550001273
 20
3.968345066493753
 42
0.1373002762918617
 10
0.0
 20
6.107060295596134
 42
0.3855036188527802
  0
LINE
  5
157
330
94
100
AcDbEntity
  8
0
100
AcDbLine
 10
0.6349591044018349
 20
0.0
 30
0.0
 11
0.0
 21
0.0
 31
0.0
  0
LINE
  5
158
330
94
100
AcDbEntity
  8
0
100
AcDbLine
 10
0.0
 20
0.3974546086921897
 30
0.0
 11
0.0
 21
0.0
 31
0.0
  0
LWPOLYLINE
  5
159
330
94
100
AcDbEntity
  8
0
100
AcDbPolyline
 90
        3
 70
     0
 43
0.0
 10
0.6349591044018349
 20
0.0
 42
-0.1036984510715968
 10
0.8044612100354715
 20
0.6243528135230747
 42
-0.1373002762918617
 10
2.151315760036746
 20
2.763068042625455
 42
-0.3855036188527802
  0
LWPOLYLINE
  5
15E
330
94
100
AcDbEntity
  8
0
100
AcDbPolyline
 90
        4
 70
     0
 43
0.0
 10
1.78958896582601
 20
3.229207436388577
 42
-0.1553231513808616
 10
1.490455634661099
 20
2.289499953013674
 10
0.6571559527650677
 20
0.677047391219805
 42
0.121945600453215
 10
0.4004541799048576
 20
0.0
 42
2.951708892584601
  0
LINE
  5
164
330
94
100
AcDbEntity
  8
0
100
AcDbLine
 10
2.151315760036746
 20
2.763068042625455
 30
0.0
 11
2.151315760036746
 21
3.791199966760892
 31
0.0
  0
LWPOLYLINE
  5
165
330
94
100
AcDbEntity
  8
0
100
AcDbPolyline
 90
        4
 70
     0
 43
0.0
 10
1.78958896582601
 20
10.12751434182003
 42
-0.1553231513808616
 10
1.490455634661099
 20
9.187806858445128
 10
0.6571559527650677
 20
7.575354296651259
 42
0.1592440656797207
 10
0.3902045725128602
 20
6.678360889104304
 42
2.951708892584601
  0
LWPOLYLINE
  5
16B
330
94
100
AcDbEntity
  8
0
100
AcDbPolyline
 90
        4
 70
     0
 43
0.0
 10
1.78958896582601
 20
10.12751434182003
 42
0.1553231513808616
 10
1.490455634661099
 20
11.06722182519493
 10
0.6571559527650677
 20
12.6796743869888
 42
-0.1592440656797207
 10
0.3902045725128602
 20
13.57666779453575
 42
-2.951708892584601
  0
LWPOLYLINE
  5
171
330
94
100
AcDbEntity
  8
0
100
AcDbPolyline
 90
        4
 70
     0
 43
0.0
 10
0.0
 20
7.183961397903818
 42
0.1299724708552729
 10
1.337302309323359
 20
9.303580943938406
 42
0.2438345727178556
 10
1.346854550001273
 20
10.75485185570538
 42
0.1373002762918617
 10
0.0
 20
12.89356708480776
 42
0.3855036188527802
  0
LINE
  5
177
330
94
100
AcDbEntity
  8
0
100
AcDbLine
 10
0.0
 20
6.107060295596134
 30
0.0
 11
0.0
 21
7.183961397903818
 31
0.0
  0
LINE
  5
178
330
94
100
AcDbEntity
  8
0
100
AcDbLine
 10
2.151315760036746
 20
9.500805653664837
 30
0.0
 11
2.151315760036746
 21
10.72007902915724
 31
0.0
  0
LWPOLYLINE
  5
179
330
94
100
AcDbEntity
  8
0
100
AcDbPolyline
 90
        4
 70
     0
 43
0.0
 10
5.893243916030543
 20
3.229207436388577
 42
0.1553231513808616
 10
5.594110584865632
 20
4.16891491976348
 10
4.7608109029696
 20
5.781367481557349
 42
-0.1592440656797207
 10
4.493859522717392
 20
6.678360889104304
 42
-2.951708892584601
  0
LWPOLYLINE
  5
17F
330
94
100
AcDbEntity
  8
0
100
AcDbPolyline
 90
        4
 70
     0
 43
0.0
 10
4.182944888427835
 20
0.3974546086921897
 42
0.1299724708552729
 10
5.520247197751195
 20
2.517074154726778
 42
0.2438345727178556
 10
5.529799438429109
 20
3.968345066493753
 42
0.1373002762918617
 10
4.182944888427835
 20
6.107060295596134
 42
0.3855036188527802
  0
LWPOLYLINE
  5
185
330
94
100
AcDbEntity
  8
0
100
AcDbPolyline
 90
        4
 70
     0
 43
0.0
 10
4.182944888427835
 20
0.3974546086921897
 42
-0.1299724708552729
 10
2.845642579104475
 20
2.517074154726778
 42
-0.2438345727178556
 10
2.836090338426561
 20
3.968345066493753
 42
-0.1373002762918617
 10
4.182944888427835
 20
6.107060295596134
 42
-0.3855036188527802
  0
LWPOLYLINE
  5
18B
330
94
100
AcDbEntity
  8
0
100
AcDbPolyline
 90
        4
 70
     0
 43
0.0
 10
2.499532193590011
 20
3.229207436388577
 42
-0.1553231513808616
 10
2.798665524754922
 20
4.16891491976348
 10
3.631965206650954
 20
5.781367481557349
 42
0.1592440656797207
 10
3.898916586903162
 20
6.678360889104304
 42
2.951708892584601
  0
LINE
  5
191
330
94
100
AcDbEntity
  8
0
100
AcDbLine
 10
3.667672415671656
 20
0.0
 30
0.0
 11
4.698555377739491
 21
0.0
 31
0.0
  0
LWPOLYLINE
  5
192
330
94
100
AcDbEntity
  8
0
100
AcDbPolyline
 90
        4
 70
     0
 43
0.0
 10
2.499532193590011
 20
3.229207436388577
 42
0.1553231513808616
 10
2.798665524754922
 20
2.289499953013674
 10
3.631965206650954
 20
0.677047391219805
 42
-0.121945600453215
 10
3.888666979511164
 20
0.0
 42
-2.951708892584601
  0
LWPOLYLINE
  5
198
330
94
100
AcDbEntity
  8
0
100
AcDbPolyline
 90
        4
 70
     0
 43
0.0
 10
5.893243916030543
 20
3.229207436388577
 42
-0.1553231513808616
 10
5.594110584865632
 20
2.289499953013674
 10
4.7608109029696
 20
0.677047391219805
 42
0.1219456004532151
 10
4.50410913010939
 20
0.0
 42
2.951708892584601
  0
LWPOLYLINE
  5
19E
330
94
100
AcDbEntity
  8
0
100
AcDbPolyline
 90
        4
 70
     0
 43
0.0
 10
4.182944888427835
 20
7.183961397903818
 42
0.1299724708552729
 10
5.520247197751195
 20
9.303580943938406
 42
0.2438345727178556
 10
5.529799438429109
 20
10.75485185570538
 42
0.1373002762918617
 10
4.182944888427835
 20
12.89356708480776
 42
0.3855036188527802
  0
LWPOLYLINE
  5
1A4
330
94
100
AcDbEntity
  8
0
100
AcDbPolyline
 90
        4
 70
     0
 43
0.0
 10
2.499532193590011
 20
10.12751434182003
 42
0.1553231513808616
 10
2.798665524754922
 20
9.187806858445128
 10
3.631965206650954
 20
7.575354296651259
 42
-0.1592440656797207
 10
3.898916586903162
 20
6.678360889104304
 42
-2.951708892584601
  0
LWPOLYLINE
  5
1AA
330
94
100
AcDbEntity
  8
0
100
AcDbPolyline
 90
        4
 70
     0
 43
0.0
 10
4.182944888427835
 20
7.183961397903818
 42
-0.1299724708552729
 10
2.845642579104474
 20
9.303580943938406
 42
-0.2438345727178556
 10
2.836090338426561
 20
10.75485185570538
 42
-0.1373002762918617
 10
4.182944888427835
 20
12.89356708480776
 42
-0.3855036188527802
  0
LINE
  5
1B0
330
94
100
AcDbEntity
  8
0
100
AcDbLine
 10
4.182944888427835
 20
6.107060295596134
 30
0.0
 11
4.182944888427835
 21
7.183961397903818
 31
0.0
  0
LWPOLYLINE
  5
1B1
330
94
100
AcDbEntity
  8
0
100
AcDbPolyline
 90
        4
 70
     0
 43
0.0
 10
2.499532193590011
 20
10.12751434182003
 42
-0.1553231513808616
 10
2.798665524754922
 20
11.06722182519493
 10
3.631965206650954
 20
12.6796743869888
 42
0.1592440656797207
 10
3.898916586903162
 20
13.57666779453575
 42
2.951708892584601
  0
LWPOLYLINE
  5
1B7
330
94
100
AcDbEntity
  8
0
100
AcDbPolyline
 90
        4
 70
     0
 43
0.0
 10
5.893243916030543
 20
10.12751434182003
 42
-0.1553231513808616
 10
5.594110584865632
 20
9.187806858445128
 10
4.7608109029696
 20
7.575354296651259
 42
0.1592440656797207
 10
4.493859522717392
 20
6.678360889104304
 42
2.951708892584601
  0
LWPOLYLINE
  5
1BD
330
94
100
AcDbEntity
  8
0
100
AcDbPolyline
 90
        4
 70
     0
 43
0.0
 10
5.893243916030543
 20
10.12751434182003
 42
0.1553231513808616
 10
5.594110584865632
 20
11.06722182519493
 10
4.7608109029696
 20
12.6796743869888
 42
-0.1592440656797207
 10
4.493859522717392
 20
13.57666779453575
 42
-2.951708892584601
  0
LWPOLYLINE
  5
1C3
330
94
100
AcDbEntity
  8
0
100
AcDbPolyline
 90
        3
 70
     0
 43
0.0
 10
3.667672415671656
 20
27.15333558907151
 42
-0.1036984510715969
 10
3.498170310038018
 20
26.52898277554844
 42
-0.1373002762918617
 10
2.151315760036746
 20
24.39026754644606
 42
-0.3855036188527802
  0
LWPOLYLINE
  5
1C8
330
94
100
AcDbEntity
  8
0
100
AcDbPolyline
 90
        4
 70
     0
 43
0.0
 10
2.151315760036746
 20
23.36213562231062
 42
-0.1299724708552729
 10
3.488618069360105
 20
21.24251607627603
 42
-0.2438345727178556
 10
3.498170310038018
 20
19.79124516450906
 42
-0.1373002762918617
 10
2.151315760036746
 20
17.65252993540667
 42
-0.3855036188527802
  0
LWPOLYLINE
  5
1CE
330
94
100
AcDbEntity
  8
0
100
AcDbPolyline
 90
        4
 70
     0
 43
0.0
 10
2.151315760036746
 20
23.36213562231062
 42
0.1299724708552729
 10
0.8140134507133875
 20
21.24251607627603
 42
0.2438345727178556
 10
0.8044612100354715
 20
19.79124516450906
 42
0.1373002762918617
 10
2.151315760036746
 20
17.65252993540667
 42
0.3855036188527802
  0
LWPOLYLINE
  5
1D4
330
94
100
AcDbEntity
  8
0
100
AcDbPolyline
 90
        4
 70
     0
 43
0.0
 10
0.0
 20
26.75588098037932
 42
-0.1299724708552729
 10
1.337302309323359
 20
24.63626143434474
 42
-0.2438345727178556
 10
1.346854550001273
 20
23.18499052257776
 42
-0.1373002762918617
 10
0.0
 20
21.04627529347538
 42
-0.3855036188527802
  0
LWPOLYLINE
  5
1DA
330
94
100
AcDbEntity
  8
0
100
AcDbPolyline
 90
        4
 70
     0
 43
0.0
 10
1.78958896582601
 20
23.92412815268293
 42
-0.1553231513808616
 10
1.490455634661099
 20
22.98442066930803
 10
0.6571559527650677
 20
21.37196810751416
 42
0.1592440656797207
 10
0.3902045725128602
 20
20.47497469996721
 42
2.951708892584601
  0
LWPOLYLINE
  5
1E0
330
94
100
AcDbEntity
  8
0
100
AcDbPolyline
 90
        4
 70
     0
 43
0.0
 10
0.0
 20
19.96937419116769
 42
-0.1299724708552729
 10
1.337302309323359
 20
17.84975464513311
 42
-0.2438345727178556
 10
1.346854550001273
 20
16.39848373336613
 42
-0.1373002762918617
 10
0.0
 20
14.25976850426375
 42
-0.3855036188527802
  0
LWPOLYLINE
  5
1E6
330
94
100
AcDbEntity
  8
0
100
AcDbPolyline
 90
        4
 70
     0
 43
0.0
 10
1.78958896582601
 20
17.02582124725148
 42
0.1553231513808616
 10
1.490455634661099
 20
17.96552873062639
 10
0.6571559527650677
 20
19.57798129242025
 42
-0.1592440656797207
 10
0.3902045725128602
 20
20.47497469996721
 42
-2.951708892584601
  0
LINE
  5
1EC
330
94
100
AcDbEntity
  8
0
100
AcDbLine
 10
0.0
 20
21.04627529347538
 30
0.0
 11
0.0
 21
19.96937419116769
 31
0.0
  0
LINE
  5
1ED
330
94
100
AcDbEntity
  8
0
100
AcDbLine
 10
2.151315760036746
 20
17.65252993540667
 30
0.0
 11
2.151315760036746
 21
16.43325655991427
 31
0.0
  0
LINE
  5
1EE
330
94
100
AcDbEntity
  8
0
100
AcDbLine
 10
0.6349591044018349
 20
27.15333558907151
 30
0.0
 11
0.0
 21
27.15333558907151
 31
0.0
  0
LINE
  5
1EF
330
94
100
AcDbEntity
  8
0
100
AcDbLine
 10
0.0
 20
26.75588098037932
 30
0.0
 11
0.0
 21
27.15333558907151
 31
0.0
  0
LWPOLYLINE
  5
1F0
330
94
100
AcDbEntity
  8
0
100
AcDbPolyline
 90
        4
 70
     0
 43
0.0
 10
1.78958896582601
 20
23.92412815268293
 42
0.1553231513808616
 10
1.490455634661099
 20
24.86383563605784
 10
0.6571559527650677
 20
26.47628819785171
 42
-0.121945600453215
 10
0.4004541799048576
 20
27.15333558907151
 42
-2.951708892584601
  0
LWPOLYLINE
  5
1F6
330
94
100
AcDbEntity
  8
0
100
AcDbPolyline
 90
        3
 70
     0
 43
0.0
 10
0.6349591044018349
 20
27.15333558907151
 42
0.1036984510715968
 10
0.8044612100354715
 20
26.52898277554844
 42
0.1373002762918617
 10
2.151315760036746
 20
24.39026754644606
 42
0.3855036188527802
  0
LINE
  5
1FB
330
94
100
AcDbEntity
  8
0
100
AcDbLine
 10
2.151315760036746
 20
24.39026754644606
 30
0.0
 11
2.151315760036746
 21
23.36213562231062
 31
0.0
  0
LWPOLYLINE
  5
1FC
330
94
100
AcDbEntity
  8
0
100
AcDbPolyline
 90
        4
 70
     0
 43
0.0
 10
5.893243916030543
 20
23.92412815268293
 42
-0.1553231513808616
 10
5.594110584865632
 20
22.98442066930803
 10
4.7608109029696
 20
21.37196810751416
 42
0.1592440656797207
 10
4.493859522717392
 20
20.47497469996721
 42
2.951708892584601
  0
LWPOLYLINE
  5
202
330
94
100
AcDbEntity
  8
0
100
AcDbPolyline
 90
        4
 70
     0
 43
0.0
 10
2.499532193590011
 20
23.92412815268293
 42
0.1553231513808616
 10
2.798665524754922
 20
22.98442066930803
 10
3.631965206650954
 20
21.37196810751416
 42
-0.1592440656797207
 10
3.898916586903162
 20
20.47497469996721
 42
-2.951708892584601
  0
LWPOLYLINE
  5
208
330
94
100
AcDbEntity
  8
0
100
AcDbPolyline
 90
        4
 70
     0
 43
0.0
 10
4.182944888427835
 20
26.75588098037932
 42
-0.1299724708552729
 10
5.520247197751195
 20
24.63626143434474
 42
-0.2438345727178556
 10
5.529799438429109
 20
23.18499052257776
 42
-0.1373002762918617
 10
4.182944888427835
 20
21.04627529347538
 42
-0.3855036188527802
  0
LWPOLYLINE
  5
20E
330
94
100
AcDbEntity
  8
0
100
AcDbPolyline
 90
        4
 70
     0
 43
0.0
 10
4.182944888427835
 20
26.75588098037932
 42
0.1299724708552729
 10
2.845642579104475
 20
24.63626143434474
 42
0.2438345727178556
 10
2.836090338426561
 20
23.18499052257776
 42
0.1373002762918617
 10
4.182944888427835
 20
21.04627529347538
 42
0.3855036188527802
  0
LWPOLYLINE
  5
214
330
94
100
AcDbEntity
  8
0
100
AcDbPolyline
 90
        4
 70
     0
 43
0.0
 10
4.182944888427835
 20
19.96937419116769
 42
-0.1299724708552729
 10
5.520247197751195
 20
17.84975464513311
 42
-0.2438345727178556
 10
5.529799438429109
 20
16.39848373336613
 42
-0.1373002762918617
 10
4.182944888427835
 20
14.25976850426375
 42
-0.3855036188527802
  0
LWPOLYLINE
  5
21A
330
94
100
AcDbEntity
  8
0
100
AcDbPolyline
 90
        4
 70
     0
 43
0.0
 10
4.182944888427835
 20
19.96937419116769
 42
0.1299724708552729
 10
2.845642579104474
 20
17.84975464513311
 42
0.2438345727178556
 10
2.836090338426561
 20
16.39848373336613
 42
0.1373002762918617
 10
4.182944888427835
 20
14.25976850426375
 42
0.3855036188527802
  0
LWPOLYLINE
  5
220
330
94
100
AcDbEntity
  8
0
100
AcDbPolyline
 90
        4
 70
     0
 43
0.0
 10
2.499532193590011
 20
17.02582124725148
 42
-0.1553231513808616
 10
2.798665524754922
 20
17.96552873062639
 10
3.631965206650954
 20
19.57798129242025
 42
0.1592440656797207
 10
3.898916586903162
 20
20.47497469996721
 42
2.951708892584601
  0
LINE
  5
226
330
94
100
AcDbEntity
  8
0
100
AcDbLine
 10
4.182944888427835
 20
21.04627529347538
 30
0.0
 11
4.182944888427835
 21
19.96937419116769
 31
0.0
  0
LWPOLYLINE
  5
227
330
94
100
AcDbEntity
  8
0
100
AcDbPolyline
 90
        4
 70
     0
 43
0.0
 10
5.893243916030543
 20
17.02582124725148
 42
0.1553231513808616
 10
5.594110584865632
 20
17.96552873062639
 10
4.7608109029696
 20
19.57798129242025
 42
-0.1592440656797207
 10
4.493859522717392
 20
20.47497469996721
 42
-2.951708892584601
  0
LINE
  5
22D
330
94
100
AcDbEntity
  8
0
100
AcDbLine
 10
3.667672415671656
 20
27.15333558907151
 30
0.0
 11
4.698555377739491
 21
27.15333558907151
 31
0.0
  0
LWPOLYLINE
  5
22E
330
94
100
AcDbEntity
  8
0
100
AcDbPolyline
 90
        4
 70
     0
 43
0.0
 10
2.499532193590011
 20
23.92412815268293
 42
-0.1553231513808616
 10
2.798665524754922
 20
24.86383563605784
 10
3.631965206650954
 20
26.47628819785171
 42
0.121945600453215
 10
3.888666979511164
 20
27.15333558907151
 42
2.951708892584601
  0
LWPOLYLINE
  5
234
330
94
100
AcDbEntity
  8
0
100
AcDbPolyline
 90
        4
 70
     0
 43
0.0
 10
5.893243916030543
 20
23.92412815268293
 42
0.1553231513808616
 10
5.594110584865632
 20
24.86383563605784
 10
4.7608109029696
 20
26.47628819785171
 42
-0.1219456004532151
 10
4.50410913010939
 20
27.15333558907151
 42
-2.951708892584601
  0
LINE
  5
23A
330
94
100
AcDbEntity
  8
0
100
AcDbLine
 10
8.297269253761744
 20
12.89356708480776
 30
0.0
 11
8.297269253761744
 21
14.25976850426375
 31
0.0
  0
LINE
  5
23B
330
94
100
AcDbEntity
  8
0
100
AcDbLine
 10
12.41159375148616
 20
14.25976850426375
 30
0.0
 11
12.41159375148616
 21
12.89356708480776
 31
0.0
  0
LWPOLYLINE
  5
23C
330
94
100
AcDbEntity
  8
0
100
AcDbPolyline
 90
        2
 70
     0
 43
0.0
 10
12.06641112694998
 20
13.58720146906849
 42
-0.0017485052794659
 10
12.06616797273265
 20
13.57666779453575
 42
-2.951708892584601
  0
LWPOLYLINE
  5
240
330
94
100
AcDbEntity
  8
0
100
AcDbPolyline
 90
        2
 70
     0
 43
0.0
 10
8.557212804125031
 20
13.58720146906849
 42
0.0017485052794659
 10
8.557455958342357
 20
13.57666779453575
 42
2.951708892584601
  0
LWPOLYLINE
  5
244
330
94
100
AcDbEntity
  8
0
100
AcDbPolyline
 90
        2
 70
     0
 43
0.0
 10
8.002814691325021
 20
13.58720146906849
 42
-0.0017485052794659
 10
8.002571537107694
 20
13.57666779453575
 42
-2.951708892584601
  0
LWPOLYLINE
  5
248
330
94
100
AcDbEntity
  8
0
100
AcDbPolyline
 90
        3
 70
     0
 43
0.0
 10
10.37412247032132
 20
10.72007902915724
 42
-0.1299724708552729
 10
9.036820160997958
 20
12.83969857519183
 42
-0.123863960127921
 10
8.855125684270255
 20
13.58720146906849
 42
-0.1373002762918617
  0
LWPOLYLINE
  5
24D
330
94
100
AcDbEntity
  8
0
100
AcDbPolyline
 90
        3
 70
     0
 43
0.0
 10
10.37412247032132
 20
10.72007902915724
 42
0.1299724708552729
 10
11.71142477964468
 20
12.83969857519183
 42
0.123863960127921
 10
11.89311925637238
 20
13.58720146906849
 42
0.1373002762918617
  0
LWPOLYLINE
  5
252
330
94
100
AcDbEntity
  8
0
100
AcDbPolyline
 90
        3
 70
     0
 43
0.0
 10
6.214912033374405
 20
10.72007902915724
 42
0.1299724708552729
 10
7.552214342697764
 20
12.83969857519183
 42
0.1238639601279209
 10
7.733908819425466
 20
13.58720146906849
 42
0.1373002762918617
  0
LWPOLYLINE
  5
257
330
94
100
AcDbEntity
  8
0
100
AcDbPolyline
 90
        2
 70
     0
 43
0.0
 10
12.06641112694998
 20
13.56613412000302
 42
0.0017485052794659
 10
12.06616797273265
 20
13.57666779453575
 42
2.951708892584601
  0
LWPOLYLINE
  5
25B
330
94
100
AcDbEntity
  8
0
100
AcDbPolyline
 90
        3
 70
     0
 43
0.0
 10
10.37412247032132
 20
16.43325655991427
 42
-0.1299724708552729
 10
11.71142477964468
 20
14.31363701387968
 42
-0.123863960127921
 10
11.89311925637238
 20
13.56613412000302
 42
-0.1373002762918617
  0
LWPOLYLINE
  5
260
330
94
100
AcDbEntity
  8
0
100
AcDbPolyline
 90
        2
 70
     0
 43
0.0
 10
8.557212804125031
 20
13.56613412000302
 42
-0.0017485052794659
 10
8.557455958342357
 20
13.57666779453575
 42
-2.951708892584601
  0
LWPOLYLINE
  5
264
330
94
100
AcDbEntity
  8
0
100
AcDbPolyline
 90
        3
 70
     0
 43
0.0
 10
10.37412247032132
 20
16.43325655991427
 42
0.1299724708552729
 10
9.036820160997958
 20
14.31363701387968
 42
0.123863960127921
 10
8.855125684270255
 20
13.56613412000302
 42
0.1373002762918617
  0
LWPOLYLINE
  5
269
330
94
100
AcDbEntity
  8
0
100
AcDbPolyline
 90
        2
 70
     0
 43
0.0
 10
8.002814691325021
 20
13.56613412000302
 42
0.0017485052794659
 10
8.002571537107694
 20
13.57666779453575
 42
2.951708892584601
  0
LWPOLYLINE
  5
26D
330
94
100
AcDbEntity
  8
0
100
AcDbPolyline
 90
        3
 70
     0
 43
0.0
 10
6.214912033374405
 20
16.43325655991427
 42
-0.1299724708552729
 10
7.552214342697764
 20
14.31363701387968
 42
-0.1238639601279209
 10
7.733908819425466
 20
13.56613412000302
 42
-0.1373002762918617
  0
LWPOLYLINE
  5
272
330
94
100
AcDbEntity
  8
0
100
AcDbPolyline
 90
        4
 70
     0
 43
0.0
 10
9.956840351655507
 20
17.02582124725148
 42
-0.1553231513808616
 10
9.657707020490596
 20
16.08611376387658
 10
8.824407338594564
 20
14.47366120208271
 42
0.1592440656797207
 10
8.557455958342357
 20
13.57666779453575
 42
2.951708892584601
  0
LWPOLYLINE
  5
278
330
94
100
AcDbEntity
  8
0
100
AcDbPolyline
 90
        4
 70
     0
 43
0.0
 10
10.6667835794195
 20
17.02582124725148
 42
0.1553231513808616
 10
10.96591691058441
 20
16.08611376387658
 10
11.79921659248045
 20
14.47366120208271
 42
-0.1592440656797207
 10
12.06616797273265
 20
13.57666779453575
 42
-2.951708892584601
  0
LWPOLYLINE
  5
27E
330
94
100
AcDbEntity
  8
0
100
AcDbPolyline
 90
        4
 70
     0
 43
0.0
 10
6.603187143794544
 20
17.02582124725148
 42
0.1553231513808616
 10
6.902320474959455
 20
16.08611376387658
 10
7.735620156855487
 20
14.47366120208271
 42
-0.1592440656797207
 10
8.002571537107694
 20
13.57666779453575
 42
-2.951708892584601
  0
LWPOLYLINE
  5
284
330
94
100
AcDbEntity
  8
0
100
AcDbPolyline
 90
        4
 70
     0
 43
0.0
 10
10.37412247032132
 20
3.791199966760892
 42
-0.1299724708552729
 10
9.036820160997958
 20
5.91081951279548
 42
-0.2438345727178556
 10
9.027267920320046
 20
7.362090424562456
 42
-0.1373002762918617
 10
10.37412247032132
 20
9.500805653664837
 42
-0.3855036188527802
  0
LWPOLYLINE
  5
28A
330
94
100
AcDbEntity
  8
0
100
AcDbPolyline
 90
        3
 70
     0
 43
0.0
 10
8.857765814686407
 20
0.0
 42
-0.103698451071597
 10
9.027267920320046
 20
0.6243528135230747
 42
-0.1373002762918617
 10
10.37412247032132
 20
2.763068042625455
 42
-0.3855036188527802
  0
LWPOLYLINE
  5
28F
330
94
100
AcDbEntity
  8
0
100
AcDbPolyline
 90
        4
 70
     0
 43
0.0
 10
9.956840351655507
 20
3.229207436388577
 42
0.1553231513808616
 10
9.657707020490596
 20
4.16891491976348
 10
8.824407338594564
 20
5.781367481557349
 42
-0.1592440656797207
 10
8.557455958342357
 20
6.678360889104304
 42
-2.951708892584601
  0
LWPOLYLINE
  5
295
330
94
100
AcDbEntity
  8
0
100
AcDbPolyline
 90
        4
 70
     0
 43
0.0
 10
8.297269253761744
 20
0.3974546086921897
 42
0.1299724708552729
 10
9.634571563085103
 20
2.517074154726778
 42
0.2438345727178556
 10
9.644123803763017
 20
3.968345066493753
 42
0.1373002762918617
 10
8.297269253761744
 20
6.107060295596134
 42
0.3855036188527802
  0
LWPOLYLINE
  5
29B
330
94
100
AcDbEntity
  8
0
100
AcDbPolyline
 90
        4
 70
     0
 43
0.0
 10
6.214912033374405
 20
3.791199966760892
 42
0.1299724708552729
 10
7.552214342697764
 20
5.91081951279548
 42
0.2438345727178556
 10
7.561766583375677
 20
7.362090424562456
 42
0.1373002762918617
 10
6.214912033374405
 20
9.500805653664837
 42
0.3855036188527802
  0
LWPOLYLINE
  5
2A1
330
94
100
AcDbEntity
  8
0
100
AcDbPolyline
 90
        4
 70
     0
 43
0.0
 10
8.297269253761744
 20
0.3974546086921897
 42
-0.1299724708552729
 10
6.959966944438383
 20
2.517074154726778
 42
-0.2438345727178556
 10
6.950414703760468
 20
3.968345066493753
 42
-0.1373002762918617
 10
8.297269253761744
 20
6.107060295596134
 42
-0.3855036188527802
  0
LWPOLYLINE
  5
2A7
330
94
100
AcDbEntity
  8
0
100
AcDbPolyline
 90
        4
 70
     0
 43
0.0
 10
6.603187143794544
 20
3.229207436388577
 42
-0.1553231513808616
 10
6.902320474959455
 20
4.16891491976348
 10
7.735620156855487
 20
5.781367481557349
 42
0.1592440656797207
 10
8.002571537107694
 20
6.678360889104304
 42
2.951708892584601
  0
LINE
  5
2AD
330
94
100
AcDbEntity
  8
0
100
AcDbLine
 10
7.731268689009315
 20
0.0
 30
0.0
 11
8.857765814686407
 21
0.0
 31
0.0
  0
LWPOLYLINE
  5
2AE
330
94
100
AcDbEntity
  8
0
100
AcDbPolyline
 90
        3
 70
     0
 43
0.0
 10
7.731268689009315
 20
0.0
 42
0.1036984510715969
 10
7.561766583375677
 20
0.6243528135230747
 42
0.1373002762918617
 10
6.214912033374405
 20
2.763068042625455
 42
0.3855036188527802
  0
LWPOLYLINE
  5
2B3
330
94
100
AcDbEntity
  8
0
100
AcDbPolyline
 90
        4
 70
     0
 43
0.0
 10
6.603187143794544
 20
3.229207436388577
 42
0.1553231513808616
 10
6.902320474959455
 20
2.289499953013674
 10
7.735620156855487
 20
0.677047391219805
 42
-0.121945600453215
 10
7.992321929715696
 20
0.0
 42
-2.951708892584601
  0
LINE
  5
2B9
330
94
100
AcDbEntity
  8
0
100
AcDbLine
 10
6.214912033374405
 20
2.763068042625455
 30
0.0
 11
6.214912033374405
 21
3.791199966760892
 31
0.0
  0
LWPOLYLINE
  5
2BA
330
94
100
AcDbEntity
  8
0
100
AcDbPolyline
 90
        4
 70
     0
 43
0.0
 10
9.956840351655507
 20
3.229207436388577
 42
-0.1553231513808616
 10
9.657707020490596
 20
2.289499953013674
 10
8.824407338594564
 20
0.677047391219805
 42
0.121945600453215
 10
8.567705565734355
 20
0.0
 42
2.951708892584601
  0
LWPOLYLINE
  5
2C0
330
94
100
AcDbEntity
  8
0
100
AcDbPolyline
 90
        4
 70
     0
 43
0.0
 10
8.297269253761744
 20
7.183961397903818
 42
-0.1299724708552729
 10
6.959966944438383
 20
9.303580943938406
 42
-0.2438345727178556
 10
6.950414703760468
 20
10.75485185570538
 42
-0.1373002762918617
 10
8.297269253761744
 20
12.89356708480776
 42
-0.3855036188527802
  0
LWPOLYLINE
  5
2C6
330
94
100
AcDbEntity
  8
0
100
AcDbPolyline
 90
        4
 70
     0
 43
0.0
 10
6.603187143794544
 20
10.12751434182003
 42
0.1553231513808616
 10
6.902320474959455
 20
9.187806858445128
 10
7.735620156855487
 20
7.575354296651259
 42
-0.1592440656797207
 10
8.002571537107694
 20
6.678360889104304
 42
-2.951708892584601
  0
LWPOLYLINE
  5
2CC
330
94
100
AcDbEntity
  8
0
100
AcDbPolyline
 90
        4
 70
     0
 43
0.0
 10
6.603187143794544
 20
10.12751434182003
 42
-0.1553231513808616
 10
6.902320474959455
 20
11.06722182519493
 10
7.735620156855487
 20
12.6796743869888
 42
0.1592440656797207
 10
8.002571537107694
 20
13.57666779453575
 42
2.951708892584601
  0
LINE
  5
2D2
330
94
100
AcDbEntity
  8
0
100
AcDbLine
 10
6.214912033374405
 20
9.500805653664837
 30
0.0
 11
6.214912033374405
 21
10.72007902915724
 31
0.0
  0
LWPOLYLINE
  5
2D3
330
94
100
AcDbEntity
  8
0
100
AcDbPolyline
 90
        4
 70
     0
 43
0.0
 10
9.956840351655507
 20
10.12751434182003
 42
-0.1553231513808616
 10
9.657707020490596
 20
9.187806858445128
 10
8.824407338594564
 20
7.575354296651259
 42
0.1592440656797207
 10
8.557455958342357
 20
6.678360889104304
 42
2.951708892584601
  0
LWPOLYLINE
  5
2D9
330
94
100
AcDbEntity
  8
0
100
AcDbPolyline
 90
        4
 70
     0
 43
0.0
 10
8.297269253761744
 20
7.183961397903818
 42
0.1299724708552729
 10
9.634571563085103
 20
9.303580943938406
 42
0.2438345727178556
 10
9.644123803763017
 20
10.75485185570538
 42
0.1373002762918617
 10
8.297269253761744
 20
12.89356708480776
 42
0.3855036188527802
  0
LINE
  5
2DF
330
94
100
AcDbEntity
  8
0
100
AcDbLine
 10
8.297269253761744
 20
6.107060295596134
 30
0.0
 11
8.297269253761744
 21
7.183961397903818
 31
0.0
  0
LWPOLYLINE
  5
2E0
330
94
100
AcDbEntity
  8
0
100
AcDbPolyline
 90
        4
 70
     0
 43
0.0
 10
9.956840351655507
 20
10.12751434182003
 42
0.1553231513808616
 10
9.657707020490596
 20
11.06722182519493
 10
8.824407338594564
 20
12.6796743869888
 42
-0.1592440656797207
 10
8.557455958342357
 20
13.57666779453575
 42
-2.951708892584601
  0
LWPOLYLINE
  5
2E6
330
94
100
AcDbEntity
  8
0
100
AcDbPolyline
 90
        4
 70
     0
 43
0.0
 10
10.6667835794195
 20
3.229207436388577
 42
-0.1553231513808616
 10
10.96591691058441
 20
4.16891491976348
 10
11.79921659248045
 20
5.781367481557349
 42
0.1592440656797207
 10
12.06616797273265
 20
6.678360889104304
 42
2.951708892584601
  0
LWPOLYLINE
  5
2EC
330
94
100
AcDbEntity
  8
0
100
AcDbPolyline
 90
        4
 70
     0
 43
0.0
 10
10.37412247032132
 20
3.791199966760892
 42
0.1299724708552729
 10
11.71142477964468
 20
5.91081951279548
 42
0.2438345727178556
 10
11.72097702032259
 20
7.362090424562456
 42
0.1373002762918617
 10
10.37412247032132
 20
9.500805653664837
 42
0.3855036188527802
  0
LWPOLYLINE
  5
2F2
330
94
100
AcDbEntity
  8
0
100
AcDbPolyline
 90
        4
 70
     0
 43
0.0
 10
12.41159375148616
 20
0.3974546086921897
 42
-0.1299724708552729
 10
11.0742914421628
 20
2.517074154726778
 42
-0.2438345727178556
 10
11.06473920148489
 20
3.968345066493753
 42
-0.1373002762918617
 10
12.41159375148616
 20
6.107060295596134
 42
-0.3855036188527802
  0
LINE
  5
2F8
330
94
100
AcDbEntity
  8
0
100
AcDbLine
 10
11.89047912595623
 20
0.0
 30
0.0
 11
12.41159375148616
 21
0.0000000000000001
 31
0.0
  0
LWPOLYLINE
  5
2F9
330
94
100
AcDbEntity
  8
0
100
AcDbPolyline
 90
        4
 70
     0
 43
0.0
 10
10.6667835794195
 20
3.229207436388577
 42
0.1553231513808616
 10
10.96591691058441
 20
2.289499953013674
 10
11.79921659248045
 20
0.677047391219805
 42
-0.121945600453215
 10
12.05591836534066
 20
0.0
 42
-2.951708892584601
  0
LWPOLYLINE
  5
2FF
330
94
100
AcDbEntity
  8
0
100
AcDbPolyline
 90
        3
 70
     0
 43
0.0
 10
11.89047912595623
 20
0.0
 42
0.1036984510715969
 10
11.72097702032259
 20
0.6243528135230747
 42
0.1373002762918617
 10
10.37412247032132
 20
2.763068042625455
 42
0.3855036188527802
  0
LINE
  5
304
330
94
100
AcDbEntity
  8
0
100
AcDbLine
 10
10.37412247032132
 20
2.763068042625455
 30
0.0
 11
10.37412247032132
 21
3.791199966760892
 31
0.0
  0
LINE
  5
305
330
94
100
AcDbEntity
  8
0
100
AcDbLine
 10
12.41159375148616
 20
0.3974546086921897
 30
0.0
 11
12.41159375148616
 21
0.0000000000000001
 31
0.0
  0
LWPOLYLINE
  5
306
330
94
100
AcDbEntity
  8
0
100
AcDbPolyline
 90
        4
 70
     0
 43
0.0
 10
10.6667835794195
 20
10.12751434182003
 42
0.1553231513808616
 10
10.96591691058441
 20
9.187806858445128
 10
11.79921659248045
 20
7.575354296651259
 42
-0.1592440656797207
 10
12.06616797273265
 20
6.678360889104304
 42
-2.951708892584601
  0
LWPOLYLINE
  5
30C
330
94
100
AcDbEntity
  8
0
100
AcDbPolyline
 90
        4
 70
     0
 43
0.0
 10
10.6667835794195
 20
10.12751434182003
 42
-0.1553231513808616
 10
10.96591691058441
 20
11.06722182519493
 10
11.79921659248045
 20
12.6796743869888
 42
0.1592440656797207
 10
12.06616797273265
 20
13.57666779453575
 42
2.951708892584601
  0
LWPOLYLINE
  5
312
330
94
100
AcDbEntity
  8
0
100
AcDbPolyline
 90
        4
 70
     0
 43
0.0
 10
12.41159375148616
 20
7.183961397903818
 42
-0.1299724708552729
 10
11.0742914421628
 20
9.303580943938406
 42
-0.2438345727178556
 10
11.06473920148489
 20
10.75485185570538
 42
-0.1373002762918617
 10
12.41159375148616
 20
12.89356708480776
 42
-0.3855036188527802
  0
LINE
  5
318
330
94
100
AcDbEntity
  8
0
100
AcDbLine
 10
10.37412247032132
 20
9.500805653664837
 30
0.0
 11
10.37412247032132
 21
10.72007902915724
 31
0.0
  0
LINE
  5
319
330
94
100
AcDbEntity
  8
0
100
AcDbLine
 10
12.41159375148616
 20
6.107060295596134
 30
0.0
 11
12.41159375148616
 21
7.183961397903818
 31
0.0
  0
LWPOLYLINE
  5
31A
330
94
100
AcDbEntity
  8
0
100
AcDbPolyline
 90
        3
 70
     0
 43
0.0
 10
8.857765814686407
 20
27.15333558907151
 42
0.103698451071597
 10
9.027267920320046
 20
26.52898277554844
 42
0.1373002762918617
 10
10.37412247032132
 20
24.39026754644606
 42
0.3855036188527802
  0
LWPOLYLINE
  5
31F
330
94
100
AcDbEntity
  8
0
100
AcDbPolyline
 90
        4
 70
     0
 43
0.0
 10
10.37412247032132
 20
23.36213562231062
 42
0.1299724708552729
 10
9.036820160997958
 20
21.24251607627603
 42
0.2438345727178556
 10
9.027267920320046
 20
19.79124516450906
 42
0.1373002762918617
 10
10.37412247032132
 20
17.65252993540667
 42
0.3855036188527802
  0
LWPOLYLINE
  5
325
330
94
100
AcDbEntity
  8
0
100
AcDbPolyline
 90
        4
 70
     0
 43
0.0
 10
6.214912033374405
 20
23.36213562231062
 42
-0.1299724708552729
 10
7.552214342697764
 20
21.24251607627603
 42
-0.2438345727178556
 10
7.561766583375677
 20
19.79124516450906
 42
-0.1373002762918617
 10
6.214912033374405
 20
17.65252993540667
 42
-0.3855036188527802
  0
LWPOLYLINE
  5
32B
330
94
100
AcDbEntity
  8
0
100
AcDbPolyline
 90
        4
 70
     0
 43
0.0
 10
9.956840351655507
 20
23.92412815268293
 42
-0.1553231513808616
 10
9.657707020490596
 20
22.98442066930803
 10
8.824407338594564
 20
21.37196810751416
 42
0.1592440656797207
 10
8.557455958342357
 20
20.47497469996721
 42
2.951708892584601
  0
LWPOLYLINE
  5
331
330
94
100
AcDbEntity
  8
0
100
AcDbPolyline
 90
        4
 70
     0
 43
0.0
 10
6.603187143794544
 20
23.92412815268293
 42
0.1553231513808616
 10
6.902320474959455
 20
22.98442066930803
 10
7.735620156855487
 20
21.37196810751416
 42
-0.1592440656797207
 10
8.002571537107694
 20
20.47497469996721
 42
-2.951708892584601
  0
LWPOLYLINE
  5
337
330
94
100
AcDbEntity
  8
0
100
AcDbPolyline
 90
        4
 70
     0
 43
0.0
 10
8.297269253761744
 20
26.75588098037932
 42
-0.1299724708552729
 10
9.634571563085103
 20
24.63626143434474
 42
-0.2438345727178556
 10
9.644123803763017
 20
23.18499052257776
 42
-0.1373002762918617
 10
8.297269253761744
 20
21.04627529347538
 42
-0.3855036188527802
  0
LWPOLYLINE
  5
33D
330
94
100
AcDbEntity
  8
0
100
AcDbPolyline
 90
        4
 70
     0
 43
0.0
 10
8.297269253761744
 20
26.75588098037932
 42
0.1299724708552729
 10
6.959966944438383
 20
24.63626143434474
 42
0.2438345727178556
 10
6.950414703760468
 20
23.18499052257776
 42
0.1373002762918617
 10
8.297269253761744
 20
21.04627529347538
 42
0.3855036188527802
  0
LWPOLYLINE
  5
343
330
94
100
AcDbEntity
  8
0
100
AcDbPolyline
 90
        4
 70
     0
 43
0.0
 10
8.297269253761744
 20
19.96937419116769
 42
0.1299724708552729
 10
6.959966944438383
 20
17.84975464513311
 42
0.2438345727178556
 10
6.950414703760468
 20
16.39848373336613
 42
0.1373002762918617
 10
8.297269253761744
 20
14.25976850426375
 42
0.3855036188527802
  0
LWPOLYLINE
  5
349
330
94
100
AcDbEntity
  8
0
100
AcDbPolyline
 90
        4
 70
     0
 43
0.0
 10
6.603187143794544
 20
17.02582124725148
 42
-0.1553231513808616
 10
6.902320474959455
 20
17.96552873062639
 10
7.735620156855487
 20
19.57798129242025
 42
0.1592440656797207
 10
8.002571537107694
 20
20.47497469996721
 42
2.951708892584601
  0
LINE
  5
34F
330
94
100
AcDbEntity
  8
0
100
AcDbLine
 10
6.214912033374405
 20
17.65252993540667
 30
0.0
 11
6.214912033374405
 21
16.43325655991427
 31
0.0
  0
LWPOLYLINE
  5
350
330
94
100
AcDbEntity
  8
0
100
AcDbPolyline
 90
        4
 70
     0
 43
0.0
 10
8.297269253761744
 20
19.96937419116769
 42
-0.1299724708552729
 10
9.634571563085103
 20
17.84975464513311
 42
-0.2438345727178556
 10
9.644123803763017
 20
16.39848373336613
 42
-0.1373002762918617
 10
8.297269253761744
 20
14.25976850426375
 42
-0.3855036188527802
  0
LWPOLYLINE
  5
356
330
94
100
AcDbEntity
  8
0
100
AcDbPolyline
 90
        4
 70
     0
 43
0.0
 10
9.956840351655507
 20
17.02582124725148
 42
0.1553231513808616
 10
9.657707020490596
 20
17.96552873062639
 10
8.824407338594564
 20
19.57798129242025
 42
-0.1592440656797207
 10
8.557455958342357
 20
20.47497469996721
 42
-2.951708892584601
  0
LINE
  5
35C
330
94
100
AcDbEntity
  8
0
100
AcDbLine
 10
8.297269253761744
 20
19.96937419116769
 30
0.0
 11
8.297269253761744
 21
21.04627529347538
 31
0.0
  0
LINE
  5
35D
330
94
100
AcDbEntity
  8
0
100
AcDbLine
 10
7.731268689009315
 20
27.15333558907151
 30
0.0
 11
8.857765814686407
 21
27.15333558907151
 31
0.0
  0
LWPOLYLINE
  5
35E
330
94
100
AcDbEntity
  8
0
100
AcDbPolyline
 90
        3
 70
     0
 43
0.0
 10
7.731268689009315
 20
27.15333558907151
 42
-0.1036984510715969
 10
7.561766583375677
 20
26.52898277554844
 42
-0.1373002762918617
 10
6.214912033374405
 20
24.39026754644606
 42
-0.3855036188527802
  0
LWPOLYLINE
  5
363
330
94
100
AcDbEntity
  8
0
100
AcDbPolyline
 90
        4
 70
     0
 43
0.0
 10
6.603187143794544
 20
23.92412815268293
 42
-0.1553231513808616
 10
6.902320474959455
 20
24.86383563605784
 10
7.735620156855487
 20
26.47628819785171
 42
0.121945600453215
 10
7.992321929715696
 20
27.15333558907151
 42
2.951708892584601
  0
LINE
  5
369
330
94
100
AcDbEntity
  8
0
100
AcDbLine
 10
6.214912033374405
 20
24.39026754644606
 30
0.0
 11
6.214912033374405
 21
23.36213562231062
 31
0.0
  0
LWPOLYLINE
  5
36A
330
94
100
AcDbEntity
  8
0
100
AcDbPolyline
 90
        4
 70
     0
 43
0.0
 10
9.956840351655507
 20
23.92412815268293
 42
0.1553231513808616
 10
9.657707020490596
 20
24.86383563605784
 10
8.824407338594564
 20
26.47628819785171
 42
-0.121945600453215
 10
8.567705565734355
 20
27.15333558907151
 42
-2.951708892584601
  0
LWPOLYLINE
  5
370
330
94
100
AcDbEntity
  8
0
100
AcDbPolyline
 90
        4
 70
     0
 43
0.0
 10
10.37412247032132
 20
23.36213562231062
 42
-0.1299724708552729
 10
11.71142477964468
 20
21.24251607627603
 42
-0.2438345727178556
 10
11.72097702032259
 20
19.79124516450906
 42
-0.1373002762918617
 10
10.37412247032132
 20
17.65252993540667
 42
-0.3855036188527802
  0
LWPOLYLINE
  5
376
330
94
100
AcDbEntity
  8
0
100
AcDbPolyline
 90
        4
 70
     0
 43
0.0
 10
10.6667835794195
 20
23.92412815268293
 42
0.1553231513808616
 10
10.96591691058441
 20
22.98442066930803
 10
11.79921659248045
 20
21.37196810751416
 42
-0.1592440656797207
 10
12.06616797273265
 20
20.47497469996721
 42
-2.951708892584601
  0
LWPOLYLINE
  5
37C
330
94
100
AcDbEntity
  8
0
100
AcDbPolyline
 90
        4
 70
     0
 43
0.0
 10
12.41159375148616
 20
26.75588098037932
 42
0.1299724708552729
 10
11.0742914421628
 20
24.63626143434474
 42
0.2438345727178556
 10
11.06473920148489
 20
23.18499052257776
 42
0.1373002762918617
 10
12.41159375148616
 20
21.04627529347538
 42
0.3855036188527802
  0
LWPOLYLINE
  5
382
330
94
100
AcDbEntity
  8
0
100
AcDbPolyline
 90
        4
 70
     0
 43
0.0
 10
12.41159375148616
 20
19.96937419116769
 42
0.1299724708552729
 10
11.0742914421628
 20
17.84975464513311
 42
0.2438345727178556
 10
11.06473920148489
 20
16.39848373336613
 42
0.1373002762918617
 10
12.41159375148616
 20
14.25976850426375
 42
0.3855036188527802
  0
LWPOLYLINE
  5
388
330
94
100
AcDbEntity
  8
0
100
AcDbPolyline
 90
        4
 70
     0
 43
0.0
 10
10.6667835794195
 20
17.02582124725148
 42
-0.1553231513808616
 10
10.96591691058441
 20
17.96552873062639
 10
11.79921659248045
 20
19.57798129242025
 42
0.1592440656797207
 10
12.06616797273265
 20
20.47497469996721
 42
2.951708892584601
  0
LINE
  5
38E
330
94
100
AcDbEntity
  8
0
100
AcDbLine
 10
10.37412247032132
 20
17.65252993540667
 30
0.0
 11
10.37412247032132
 21
16.43325655991427
 31
0.0
  0
LINE
  5
38F
330
94
100
AcDbEntity
  8
0
100
AcDbLine
 10
12.41159375148616
 20
21.04627529347538
 30
0.0
 11
12.41159375148616
 21
19.96937419116769
 31
0.0
  0
LINE
  5
390
330
94
100
AcDbEntity
  8
0
100
AcDbLine
 10
11.89047912595623
 20
27.15333558907151
 30
0.0
 11
12.41159375148616
 21
27.15333558907151
 31
0.0
  0
LWPOLYLINE
  5
391
330
94
100
AcDbEntity
  8
0
100
AcDbPolyline
 90
        4
 70
     0
 43
0.0
 10
10.6667835794195
 20
23.92412815268293
 42
-0.1553231513808616
 10
10.96591691058441
 20
24.86383563605784
 10
11.79921659248045
 20
26.47628819785171
 42
0.121945600453215
 10
12.05591836534066
 20
27.15333558907151
 42
2.951708892584601
  0
LWPOLYLINE
  5
397
330
94
100
AcDbEntity
  8
0
100
AcDbPolyline
 90
        3
 70
     0
 43
0.0
 10
11.89047912595623
 20
27.15333558907151
 42
-0.1036984510715969
 10
11.72097702032259
 20
26.52898277554844
 42
-0.1373002762918617
 10
10.37412247032132
 20
24.39026754644606
 42
-0.3855036188527802
  0
LINE
  5
39C
330
94
100
AcDbEntity
  8
0
100
AcDbLine
 10
10.37412247032132
 20
24.39026754644606
 30
0.0
 11
10.37412247032132
 21
23.36213562231062
 31
0.0
  0
LINE
  5
39D
330
94
100
AcDbEntity
  8
0
100
AcDbLine
 10
12.41159375148616
 20
26.75588098037932
 30
0.0
 11
12.41159375148616
 21
27.15333558907151
 31
0.0
  0
ENDBLK
  5
39E
330
94
100
AcDbEntity
  8
0
100
AcDbBlockEnd
  0
BLOCK
  5
39F
330
CA
100
AcDbEntity
  8
0
100
AcDbBlockBegin
  2
*D1
 70
     1
 10
0.0
 20
0.0
 30
0.0
  3
*D1
  1

  0
LINE
  5
3A0
330
CA
100
AcDbEntity
  8
0
  6
BYBLOCK
 62
     0
100
AcDbLine
 10
-100.7755492177341
 20
68.4305224915728
 30
0.0
 11
-100.7755492177341
 21
69.12573987599154
 31
0.0
  0
LINE
  5
3A1
330
CA
100
AcDbEntity
  8
0
  6
BYBLOCK
 62
     0
100
AcDbLine
 10
-88.4005492177342
 20
68.4305224915728
 30
0.0
 11
-88.4005492177342
 21
69.12573987599154
 31
0.0
  0
LINE
  5
3A2
330
CA
100
AcDbEntity
  8
0
  6
BYBLOCK
 62
     0
100
AcDbLine
 10
-100.7755492177341
 20
68.94573987599153
 30
0.0
 11
-95.04638255106753
 21
68.94573987599153
 31
0.0
  0
LINE
  5
3A3
330
CA
100
AcDbEntity
  8
0
  6
BYBLOCK
 62
     0
100
AcDbLine
 10
-88.4005492177342
 20
68.94573987599153
 30
0.0
 11
-94.12971588440086
 21
68.94573987599153
 31
0.0
  0
LINE
  5
3A4
330
CA
100
AcDbEntity
  8
0
  6
BYBLOCK
 62
     0
100
AcDbLine
 10
-100.9005492177341
 20
68.82073987599153
 30
0.0
 11
-100.6505492177341
 21
69.07073987599154
 31
0.0
  0
LINE
  5
3A5
330
CA
100
AcDbEntity
  8
0
  6
BYBLOCK
 62
     0
100
AcDbLine
 10
-88.52554921773419
 20
68.82073987599153
 30
0.0
 11
-88.27554921773419
 21
69.07073987599154
 31
0.0
  0
TEXT
  5
3A6
330
CA
100
AcDbEntity
  8
0
  6
BYBLOCK
 62
     0
100
AcDbText
 10
-94.92138255106752
 20
68.88323987599154
 30
0.0
 40
0.125
  1
12 3/8
 72
     1
 11
-94.58804921773419
 21
68.94573987599153
 31
0.0
100
AcDbText
 73
     2
  0
POINT
  5
3A7
330
CA
100
AcDbEntity
  8
DEFPOINTS
  6
BYBLOCK
 62
     0
100
AcDbPoint
 10
-100.7755492177341
 20
68.3680224915728
 30
0.0
  0
POINT
  5
3A8
330
CA
100
AcDbEntity
  8
DEFPOINTS
  6
BYBLOCK
 62
     0
100
AcDbPoint
 10
-88.4005492177342
 20
68.3680224915728
 30
0.0
  0
POINT
  5
3A9
330
CA
100
AcDbEntity
  8
DEFPOINTS
  6
BYBLOCK
 62
     0
100
AcDbPoint
 10
-88.4005492177342
 20
68.94573987599153
 30
0.0
  0
ENDBLK
  5
3AA
330
CA
100
AcDbEntity
  8
0
100
AcDbBlockEnd
  0
BLOCK
  5
3AB
330
CB
100
AcDbEntity
  8
0
100
AcDbBlockBegin
  2
*D2
 70
     1
 10
0.0
 20
0.0
 30
0.0
  3
*D2
  1

  0
LINE
  5
3AC
330
CB
100
AcDbEntity
  8
0
  6
BYBLOCK
 62
     0
100
AcDbLine
 10
-101.3714599597094
 20
40.99310548605459
 30
0.0
 11
-102.1557234771792
 21
40.99310548605459
 31
0.0
  0
LINE
  5
3AD
330
CB
100
AcDbEntity
  8
0
  6
BYBLOCK
 62
     0
100
AcDbLine
 10
-101.3714599597094
 20
67.99310548605459
 30
0.0
 11
-102.1557234771792
 21
67.99310548605459
 31
0.0
  0
LINE
  5
3AE
330
CB
100
AcDbEntity
  8
0
  6
BYBLOCK
 62
     0
100
AcDbLine
 10
-101.9757234771792
 20
40.99310548605459
 30
0.0
 11
-101.9757234771792
 21
54.26393881938793
 31
0.0
  0
LINE
  5
3AF
330
CB
100
AcDbEntity
  8
0
  6
BYBLOCK
 62
     0
100
AcDbLine
 10
-101.9757234771792
 20
67.99310548605459
 30
0.0
 11
-101.9757234771792
 21
54.72227215272126
 31
0.0
  0
LINE
  5
3B0
330
CB
100
AcDbEntity
  8
0
  6
BYBLOCK
 62
     0
100
AcDbLine
 10
-101.8507234771792
 20
40.86810548605459
 30
0.0
 11
-102.1007234771792
 21
41.11810548605459
 31
0.0
  0
LINE
  5
3B1
330
CB
100
AcDbEntity
  8
0
  6
BYBLOCK
 62
     0
100
AcDbLine
 10
-101.8507234771792
 20
67.86810548605458
 30
0.0
 11
-102.1007234771792
 21
68.11810548605459
 31
0.0
  0
TEXT
  5
3B2
330
CB
100
AcDbEntity
  8
0
  6
BYBLOCK
 62
     0
100
AcDbText
 10
-101.9132234771791
 20
54.38893881938793
 30
0.0
 40
0.125
  1
27
 50
90.0
 72
     1
 11
-101.9757234771792
 21
54.4931054860546
 31
0.0
100
AcDbText
 73
     2
  0
POINT
  5
3B3
330
CB
100
AcDbEntity
  8
DEFPOINTS
  6
BYBLOCK
 62
     0
100
AcDbPoint
 10
-101.3089599597094
 20
40.99310548605459
 30
0.0
  0
POINT
  5
3B4
330
CB
100
AcDbEntity
  8
DEFPOINTS
  6
BYBLOCK
 62
     0
100
AcDbPoint
 10
-101.3089599597094
 20
67.99310548605459
 30
0.0
  0
POINT
  5
3B5
330
CB
100
AcDbEntity
  8
DEFPOINTS
  6
BYBLOCK
 62
     0
100
AcDbPoint
 10
-101.9757234771792
 20
67.99310548605459
 30
0.0
  0
ENDBLK
  5
3B6
330
CB
100
AcDbEntity
  8
0
100
AcDbBlockEnd
  0
ENDSEC
  0
SECTION
  2
ENTITIES
  0
DIMENSION
  5
3B7
330
18
100
AcDbEntity
  8
ADPDIM
100
AcDbDimension
  2
*D2
 10
-101.4426347880522
 20
68.00501572077985
 30
0.0
 11
-101.4426347880522
 21
54.50501572077985
 31
0.0
 12
0.5330886891269842
 22
0.0119102347252635
 32
0.0
100
AcDbAlignedDimension
 13
-100.7758712705824
 23
41.00501572077986
 33
0.0
 14
-100.7758712705824
 24
68.00501572077985
 34
0.0
 50
90.0
100
AcDbRotatedDimension
  0
INSERT
  5
3B8
330
18
100
AcDbEntity
  8
0
100
AcDbBlockReference
  2
960
 10
-100.7758712705824
 20
41.00501572077986
 30
0.0
 41
0.9943529741099935
 42
0.9943529741099935
 43
0.9943529741099935
  0
DIMENSION
  5
3B9
330
18
100
AcDbEntity
  8
ADPDIM
100
AcDbDimension
  2
*D1
 10
-88.40855500636463
 20
68.63466124985106
 30
0.0
 11
-94.59605500636461
 21
68.63466124985106
 31
0.0
 12
-0.0080057886304274
 22
-0.3110786261404712
 32
0.0
100
AcDbAlignedDimension
 13
-100.7835550063646
 23
68.05694386543233
 33
0.0
 14
-88.40855500636463
 24
68.05694386543233
 34
0.0
100
AcDbRotatedDimension
  0
TEXT
  5
3C7
330
18
100
AcDbEntity
  8
ADPDIM
100
AcDbText
 10
-120.3377188156731
 20
39.57837641144232
 30
0.0
 40
0.5
  1
J U L I U S  B L U M  &  C O . ,  I N C .      ( 8 0 0 )  5 2 6 - 6 2 9 3        W W W . J U L I U S B L U M . C O M        P A R T  N o .  9 6 0
 41
1.25
  7
ARIAL_WIDE
 72
     1
 11
-94.59888866560493
 21
40.07837641144233
 31
0.0
100
AcDbText
 73
     3
  0
ENDSEC
  0
SECTION
  2
OBJECTS
  0
DICTIONARY
  5
C
330
0
100
AcDbDictionary
  3
ACAD_GROUP
350
D
  3
ACAD_LAYOUT
350
3C0
  3
ACAD_MLINESTYLE
350
E
  3
ACAD_PLOTSETTINGS
350
3C1
  3
ACAD_PLOTSTYLENAME
350
3BE
  3
ACDBHEADERROUNDTRIPXREC
350
50B
  3
ACDBVARIABLEDICTIONARY
350
421
  0
DICTIONARY
  5
41B
330
18
100
AcDbDictionary
280
     1
  3
ACAD_LAYOUTSELFREF
360
52C
  0
DICTIONARY
  5
419
330
15
100
AcDbDictionary
280
     1
  3
ACAD_LAYOUTSELFREF
360
52B
  0
DICTIONARY
  5
D
102
{ACAD_REACTORS
330
C
102
}
330
C
100
AcDbDictionary
  0
DICTIONARY
  5
3C0
102
{ACAD_REACTORS
330
C
102
}
330
C
100
AcDbDictionary
  0
DICTIONARY
  5
E
102
{ACAD_REACTORS
330
C
102
}
330
C
100
AcDbDictionary
  3
STANDARD
350
1B
  0
DICTIONARY
  5
3C1
102
{ACAD_REACTORS
330
C
102
}
330
C
100
AcDbDictionary
  0
ACDBDICTIONARYWDFLT
  5
3BE
102
{ACAD_REACTORS
330
C
102
}
330
C
100
AcDbDictionary
281
     1
  3
Normal
350
3BF
100
AcDbDictionaryWithDefault
340
3BF
  0
DICTIONARY
  5
50B
102
{ACAD_REACTORS
330
C
102
}
330
C
100
AcDbDictionary
  3
CEPSNTYPE
350
515
  3
FINGERPRINTGUID
350
516
  3
HYPERLINKBASE
350
50E
  3
INSUNITS
350
514
  3
LAYOUTDICT
350
510
  3
LWETCUNION
350
513
  3
PLOTSETDICT
350
511
  3
PLOTSTYLNAMDICT
350
512
  3
PSVPSCALE
350
518
  3
PUCSBASE
350
51B
  3
PUCSORGBACK
350
521
  3
PUCSORGBOTTOM
350
51D
  3
PUCSORGFRONT
350
520
  3
PUCSORGLEFT
350
51E
  3
PUCSORGRIGHT
350
51F
  3
PUCSORGTOP
350
51C
  3
PUCSORTHOREF
350
519
  3
PUCSORTHOVIEW
350
51A
  3
STYLESHEET
350
50F
  3
TSTACKALIGN
350
50C
  3
TSTACKSIZE
350
50D
  3
UCSBASE
350
524
  3
UCSORGBACK
350
52A
  3
UCSORGBOTTOM
350
526
  3
UCSORGFRONT
350
529
  3
UCSORGLEFT
350
527
  3
UCSORGRIGHT
350
528
  3
UCSORGTOP
350
525
  3
UCSORTHOREF
350
522
  3
UCSORTHOVIEW
350
523
  3
VERSIONGUID
350
517
  0
DICTIONARY
  5
421
102
{ACAD_REACTORS
330
C
102
}
330
C
100
AcDbDictionary
  3
DIMASSOC
350
422
  0
XRECORD
  5
52C
102
{ACAD_REACTORS
330
41B
102
}
330
41B
100
AcDbXrecord
340
18
  0
XRECORD
  5
52B
102
{ACAD_REACTORS
330
419
102
}
330
419
100
AcDbXrecord
340
15
  0
MLINESTYLE
  5
1B
102
{ACAD_REACTORS
330
E
102
}
330
E
100
AcDbMlineStyle
  2
STANDARD
 70
     0
  3

 62
     0
 51
90.0
 52
90.0
 71
     2
 49
0.5
 62
   256
  6
BYLAYER
 49
-0.5
 62
   256
  6
BYLAYER
  0
ACDBPLACEHOLDER
  5
3BF
102
{ACAD_REACTORS
330
3BE
102
}
330
3BE
100
AcDbPlaceHolder
280
     0
  0
XRECORD
  5
515
102
{ACAD_REACTORS
330
50B
102
}
330
50B
100
AcDbXrecord
 90
        0
  0
XRECORD
  5
516
102
{ACAD_REACTORS
330
50B
102
}
330
50B
100
AcDbXrecord
  1
{76A41E51-8208-461F-A1BD-55C331D1C5DB}
  0
XRECORD
  5
50E
102
{ACAD_REACTORS
330
50B
102
}
330
50B
100
AcDbXrecord
  1

  0
XRECORD
  5
514
102
{ACAD_REACTORS
330
50B
102
}
330
50B
100
AcDbXrecord
 90
        0
  0
XRECORD
  5
510
102
{ACAD_REACTORS
330
50B
102
}
330
50B
100
AcDbXrecord
340
3C0
  0
XRECORD
  5
513
102
{ACAD_REACTORS
330
50B
102
}
330
50B
100
AcDbXrecord
 90
    14877
  0
XRECORD
  5
511
102
{ACAD_REACTORS
330
50B
102
}
330
50B
100
AcDbXrecord
340
3C1
  0
XRECORD
  5
512
102
{ACAD_REACTORS
330
50B
102
}
330
50B
100
AcDbXrecord
340
3BE
  0
XRECORD
  5
518
102
{ACAD_REACTORS
330
50B
102
}
330
50B
100
AcDbXrecord
 40
0.0
  0
XRECORD
  5
51B
102
{ACAD_REACTORS
330
50B
102
}
330
50B
100
AcDbXrecord
340
0
  0
XRECORD
  5
521
102
{ACAD_REACTORS
330
50B
102
}
330
50B
100
AcDbXrecord
 10
0.0
 20
0.0
 30
0.0
  0
XRECORD
  5
51D
102
{ACAD_REACTORS
330
50B
102
}
330
50B
100
AcDbXrecord
 10
0.0
 20
0.0
 30
0.0
  0
XRECORD
  5
520
102
{ACAD_REACTORS
330
50B
102
}
330
50B
100
AcDbXrecord
 10
0.0
 20
0.0
 30
0.0
  0
XRECORD
  5
51E
102
{ACAD_REACTORS
330
50B
102
}
330
50B
100
AcDbXrecord
 10
0.0
 20
0.0
 30
0.0
  0
XRECORD
  5
51F
102
{ACAD_REACTORS
330
50B
102
}
330
50B
100
AcDbXrecord
 10
0.0
 20
0.0
 30
0.0
  0
XRECORD
  5
51C
102
{ACAD_REACTORS
330
50B
102
}
330
50B
100
AcDbXrecord
 10
0.0
 20
0.0
 30
0.0
  0
XRECORD
  5
519
102
{ACAD_REACTORS
330
50B
102
}
330
50B
100
AcDbXrecord
340
0
  0
XRECORD
  5
51A
102
{ACAD_REACTORS
330
50B
102
}
330
50B
100
AcDbXrecord
 70
     0
  0
XRECORD
  5
50F
102
{ACAD_REACTORS
330
50B
102
}
330
50B
100
AcDbXrecord
  1

  0
XRECORD
  5
50C
102
{ACAD_REACTORS
330
50B
102
}
330
50B
100
AcDbXrecord
 90
        1
  0
XRECORD
  5
50D
102
{ACAD_REACTORS
330
50B
102
}
330
50B
100
AcDbXrecord
 90
       70
  0
XRECORD
  5
524
102
{ACAD_REACTORS
330
50B
102
}
330
50B
100
AcDbXrecord
340
0
  0
XRECORD
  5
52A
102
{ACAD_REACTORS
330
50B
102
}
330
50B
100
AcDbXrecord
 10
0.0
 20
0.0
 30
0.0
  0
XRECORD
  5
526
102
{ACAD_REACTORS
330
50B
102
}
330
50B
100
AcDbXrecord
 10
0.0
 20
0.0
 30
0.0
  0
XRECORD
  5
529
102
{ACAD_REACTORS
330
50B
102
}
330
50B
100
AcDbXrecord
 10
0.0
 20
0.0
 30
0.0
  0
XRECORD
  5
527
102
{ACAD_REACTORS
330
50B
102
}
330
50B
100
AcDbXrecord
 10
0.0
 20
0.0
 30
0.0
  0
XRECORD
  5
528
102
{ACAD_REACTORS
330
50B
102
}
330
50B
100
AcDbXrecord
 10
0.0
 20
0.0
 30
0.0
  0
XRECORD
  5
525
102
{ACAD_REACTORS
330
50B
102
}
330
50B
100
AcDbXrecord
 10
0.0
 20
0.0
 30
0.0
  0
XRECORD
  5
522
102
{ACAD_REACTORS
330
50B
102
}
330
50B
100
AcDbXrecord
340
0
  0
XRECORD
  5
523
102
{ACAD_REACTORS
330
50B
102
}
330
50B
100
AcDbXrecord
 70
     0
  0
XRECORD
  5
517
102
{ACAD_REACTORS
330
50B
102
}
330
50B
100
AcDbXrecord
  1
{0A60DDC8-FD7A-4DA3-9D74-EF17AB4E42B4}
  0
DICTIONARYVAR
  5
422
102
{ACAD_REACTORS
330
421
102
}
330
421
100
DictionaryVariables
280
     0
  1
1
  0
ENDSEC
  0
EOF
