  0
SECTION
  2
HEADER
  9
$ACADVER
  1
AC1014
  9
$ACADMAINTVER
 70
     9
  9
$DWGCODEPAGE
  3
ANSI_1252
  9
$INSBASE
 10
15.9729049361176
 20
5.689065807701611
 30
0.0
  9
$EXTMIN
 10
12.68654835065354
 20
4.800284086152103
 30
0.0
  9
$EXTMAX
 10
25.73800639976678
 20
7.725029377699682
 30
0.0
  9
$LIMMIN
 10
0.0
 20
0.0
  9
$LIMMAX
 10
36.0
 20
36.0
  9
$ORTHOMODE
 70
     1
  9
$REGENMODE
 70
     1
  9
$FILLMODE
 70
     1
  9
$QTEXTMODE
 70
     0
  9
$MIRRTEXT
 70
     1
  9
$DRAGMODE
 70
     0
  9
$LTSCALE
 40
1.0
  9
$OSMODE
 70
    37
  9
$ATTMODE
 70
     1
  9
$TEXTSIZE
 40
0.2
  9
$TRACEWID
 40
0.05
  9
$TEXTSTYLE
  7
STANDARD
  9
$CLAYER
  8
ADPDIM
  9
$CELTYPE
  6
BYLAYER
  9
$CECOLOR
 62
   256
  9
$CELTSCALE
 40
1.0
  9
$DELOBJ
 70
     1
  9
$DISPSILH
 70
     0
  9
$DIMSCALE
 40
1.0
  9
$DIMASZ
 40
0.125
  9
$DIMEXO
 40
0.0625
  9
$DIMDLI
 40
0.38
  9
$DIMRND
 40
0.0
  9
$DIMDLE
 40
0.0
  9
$DIMEXE
 40
0.18
  9
$DIMTP
 40
0.0
  9
$DIMTM
 40
0.0
  9
$DIMTXT
 40
0.125
  9
$DIMCEN
 40
0.1875
  9
$DIMTSZ
 40
0.125
  9
$DIMTOL
 70
     0
  9
$DIMLIM
 70
     0
  9
$DIMTIH
 70
     0
  9
$DIMTOH
 70
     0
  9
$DIMSE1
 70
     0
  9
$DIMSE2
 70
     0
  9
$DIMTAD
 70
     0
  9
$DIMZIN
 70
     3
  9
$DIMBLK
  1

  9
$DIMASO
 70
     1
  9
$DIMSHO
 70
     1
  9
$DIMPOST
  1

  9
$DIMAPOST
  1

  9
$DIMALT
 70
     0
  9
$DIMALTD
 70
     1
  9
$DIMALTF
 40
25.4
  9
$DIMLFAC
 40
1.0
  9
$DIMTOFL
 70
     0
  9
$DIMTVP
 40
0.0
  9
$DIMTIX
 70
     0
  9
$DIMSOXD
 70
     0
  9
$DIMSAH
 70
     0
  9
$DIMBLK1
  1

  9
$DIMBLK2
  1

  9
$DIMSTYLE
  2
STANDARD
  9
$DIMCLRD
 70
     0
  9
$DIMCLRE
 70
     0
  9
$DIMCLRT
 70
     0
  9
$DIMTFAC
 40
1.0
  9
$DIMGAP
 40
0.125
  9
$DIMJUST
 70
     0
  9
$DIMSD1
 70
     0
  9
$DIMSD2
 70
     0
  9
$DIMTOLJ
 70
     1
  9
$DIMTZIN
 70
     3
  9
$DIMALTZ
 70
     3
  9
$DIMALTTZ
 70
     3
  9
$DIMFIT
 70
     5
  9
$DIMUPT
 70
     0
  9
$DIMUNIT
 70
     5
  9
$DIMDEC
 70
     4
  9
$DIMTDEC
 70
     4
  9
$DIMALTU
 70
     5
  9
$DIMALTTD
 70
     1
  9
$DIMTXSTY
  7
STANDARD
  9
$DIMAUNIT
 70
     0
  9
$LUNITS
 70
     5
  9
$LUPREC
 70
     4
  9
$SKETCHINC
 40
0.1
  9
$FILLETRAD
 40
0.062
  9
$AUNITS
 70
     0
  9
$AUPREC
 70
     0
  9
$MENU
  1
acad
  9
$ELEVATION
 40
0.0
  9
$PELEVATION
 40
0.0
  9
$THICKNESS
 40
0.0
  9
$LIMCHECK
 70
     0
  9
$BLIPMODE
 70
     0
  9
$CHAMFERA
 40
0.0
  9
$CHAMFERB
 40
0.0
  9
$CHAMFERC
 40
0.0
  9
$CHAMFERD
 40
0.0
  9
$SKPOLY
 70
     0
  9
$TDCREATE
 40
2450235.357822916
  9
$TDUPDATE
 40
2452297.105382303
  9
$TDINDWG
 40
0.0119988773
  9
$TDUSRTIMER
 40
0.0119988773
  9
$USRTIMER
 70
     1
  9
$ANGBASE
 50
0.0
  9
$ANGDIR
 70
     0
  9
$PDMODE
 70
     0
  9
$PDSIZE
 40
0.0
  9
$PLINEWID
 40
0.0
  9
$COORDS
 70
     2
  9
$SPLFRAME
 70
     0
  9
$SPLINETYPE
 70
     6
  9
$SPLINESEGS
 70
     8
  9
$ATTDIA
 70
     0
  9
$ATTREQ
 70
     1
  9
$HANDLING
 70
 22529
  9
$HANDSEED
  5
EC1
  9
$SURFTAB1
 70
     6
  9
$SURFTAB2
 70
     6
  9
$SURFTYPE
 70
     6
  9
$SURFU
 70
     6
  9
$SURFV
 70
     6
  9
$UCSNAME
  2

  9
$UCSORG
 10
0.0
 20
0.0
 30
0.0
  9
$UCSXDIR
 10
1.0
 20
0.0
 30
0.0
  9
$UCSYDIR
 10
0.0
 20
1.0
 30
0.0
  9
$PUCSNAME
  2

  9
$PUCSORG
 10
0.0
 20
0.0
 30
0.0
  9
$PUCSXDIR
 10
1.0
 20
0.0
 30
0.0
  9
$PUCSYDIR
 10
0.0
 20
1.0
 30
0.0
  9
$USERI1
 70
     0
  9
$USERI2
 70
     0
  9
$USERI3
 70
     0
  9
$USERI4
 70
     0
  9
$USERI5
 70
     0
  9
$USERR1
 40
0.0
  9
$USERR2
 40
0.0
  9
$USERR3
 40
0.0
  9
$USERR4
 40
0.0
  9
$USERR5
 40
0.0
  9
$WORLDVIEW
 70
     1
  9
$SHADEDGE
 70
     3
  9
$SHADEDIF
 70
    70
  9
$TILEMODE
 70
     1
  9
$MAXACTVP
 70
    15
  9
$PINSBASE
 10
0.0004882947541773
 20
0.8751380653138911
 30
0.0
  9
$PLIMCHECK
 70
     0
  9
$PEXTMIN
 10
1.000000000000000E+20
 20
1.000000000000000E+20
 30
1.000000000000000E+20
  9
$PEXTMAX
 10
-1.000000000000000E+20
 20
-1.000000000000000E+20
 30
-1.000000000000000E+20
  9
$PLIMMIN
 10
0.0
 20
0.0
  9
$PLIMMAX
 10
12.0
 20
9.0
  9
$UNITMODE
 70
     0
  9
$VISRETAIN
 70
     0
  9
$PLINEGEN
 70
     0
  9
$PSLTSCALE
 70
     1
  9
$TREEDEPTH
 70
  3020
  9
$PICKSTYLE
 70
     1
  9
$CMLSTYLE
  2
STANDARD
  9
$CMLJUST
 70
     0
  9
$CMLSCALE
 40
1.0
  9
$PROXYGRAPHICS
 70
     1
  9
$MEASUREMENT
 70
     0
  0
ENDSEC
  0
SECTION
  2
CLASSES
  0
CLASS
  1
ACDBDICTIONARYWDFLT
  2
AcDbDictionaryWithDefault
  3
AutoCAD 2000
 90
        0
280
     0
281
     0
  0
CLASS
  1
ACDBPLACEHOLDER
  2
AcDbPlaceHolder
  3
AutoCAD 2000
 90
        0
280
     0
281
     0
  0
CLASS
  1
LAYOUT
  2
AcDbLayout
  3
AutoCAD 2000
 90
        0
280
     0
281
     0
  0
CLASS
  1
DICTIONARYVAR
  2
AcDbDictionaryVar
  3
AutoCAD 2000
 90
        0
280
     0
281
     0
  0
CLASS
  1
LONG_TRANSACTION
  2
AcDbLongTransaction
  3
AutoCAD 2000
 90
        0
280
     0
281
     0
  0
CLASS
  1
LWPOLYLINE
  2
AcDbPolyline
  3
AutoCAD 2000
 90
        0
280
     0
281
     1
  0
CLASS
  1
HATCH
  2
AcDbHatch
  3
AutoCAD 2000
 90
        0
280
     0
281
     1
  0
CLASS
  1
XRECORD
  2
AcDbXrecord
  3
AutoCAD 2000
 90
        0
280
     0
281
     0
  0
CLASS
  1
LONG_TRANSACTION
  2
AcDbLongTransaction
  3
AutoCAD 2000
 90
        0
280
     0
281
     0
  0
CLASS
  1
LWPOLYLINE
  2
AcDbPolyline
  3
AutoCAD 2000
 90
        0
280
     0
281
     1
  0
CLASS
  1
HATCH
  2
AcDbHatch
  3
AutoCAD 2000
 90
        0
280
     0
281
     1
  0
CLASS
  1
XRECORD
  2
AcDbXrecord
  3
AutoCAD 2000
 90
        0
280
     0
281
     0
  0
CLASS
  1
LONG_TRANSACTION
  2
AcDbLongTransaction
  3
AutoCAD 2000
 90
        0
280
     0
281
     0
  0
CLASS
  1
LWPOLYLINE
  2
AcDbPolyline
  3
AutoCAD 2000
 90
        0
280
     0
281
     1
  0
CLASS
  1
HATCH
  2
AcDbHatch
  3
AutoCAD 2000
 90
        0
280
     0
281
     1
  0
CLASS
  1
XRECORD
  2
AcDbXrecord
  3
AutoCAD 2000
 90
        0
280
     0
281
     0
  0
CLASS
  1
LONG_TRANSACTION
  2
AcDbLongTransaction
  3
AutoCAD 2000
 90
        0
280
     0
281
     0
  0
CLASS
  1
LWPOLYLINE
  2
AcDbPolyline
  3
AutoCAD 2000
 90
        0
280
     0
281
     1
  0
CLASS
  1
HATCH
  2
AcDbHatch
  3
AutoCAD 2000
 90
        0
280
     0
281
     1
  0
CLASS
  1
XRECORD
  2
AcDbXrecord
  3
AutoCAD 2000
 90
        0
280
     0
281
     0
  0
CLASS
  1
LONG_TRANSACTION
  2
AcDbLongTransaction
  3
AutoCAD 2000
 90
        0
280
     0
281
     0
  0
CLASS
  1
LWPOLYLINE
  2
AcDbPolyline
  3
AutoCAD 2000
 90
        0
280
     0
281
     1
  0
CLASS
  1
HATCH
  2
AcDbHatch
  3
AutoCAD 2000
 90
        0
280
     0
281
     1
  0
CLASS
  1
XRECORD
  2
AcDbXrecord
  3
AutoCAD 2000
 90
        0
280
     0
281
     0
  0
CLASS
  1
LONG_TRANSACTION
  2
AcDbLongTransaction
  3
AutoCAD 2000
 90
        0
280
     0
281
     0
  0
CLASS
  1
LWPOLYLINE
  2
AcDbPolyline
  3
AutoCAD 2000
 90
        0
280
     0
281
     1
  0
CLASS
  1
HATCH
  2
AcDbHatch
  3
AutoCAD 2000
 90
        0
280
     0
281
     1
  0
CLASS
  1
XRECORD
  2
AcDbXrecord
  3
AutoCAD 2000
 90
        0
280
     0
281
     0
  0
CLASS
  1
LONG_TRANSACTION
  2
AcDbLongTransaction
  3
AutoCAD 2000
 90
        0
280
     0
281
     0
  0
CLASS
  1
LWPOLYLINE
  2
AcDbPolyline
  3
AutoCAD 2000
 90
        0
280
     0
281
     1
  0
CLASS
  1
HATCH
  2
AcDbHatch
  3
AutoCAD 2000
 90
        0
280
     0
281
     1
  0
CLASS
  1
XRECORD
  2
AcDbXrecord
  3
AutoCAD 2000
 90
        0
280
     0
281
     0
  0
CLASS
  1
LONG_TRANSACTION
  2
AcDbLongTransaction
  3
AutoCAD 2000
 90
        0
280
     0
281
     0
  0
CLASS
  1
LWPOLYLINE
  2
AcDbPolyline
  3
AutoCAD 2000
 90
        0
280
     0
281
     1
  0
CLASS
  1
HATCH
  2
AcDbHatch
  3
AutoCAD 2000
 90
        0
280
     0
281
     1
  0
CLASS
  1
XRECORD
  2
AcDbXrecord
  3
AutoCAD 2000
 90
        0
280
     0
281
     0
  0
ENDSEC
  0
SECTION
  2
TABLES
  0
TABLE
  2
VPORT
  5
8
330
0
100
AcDbSymbolTable
 70
     2
  0
VPORT
  5
E9D
330
8
100
AcDbSymbolTableRecord
100
AcDbViewportTableRecord
  2
*ACTIVE
 70
     0
 10
0.0
 20
0.0
 11
1.0
 21
1.0
 12
19.22315206689158
 22
6.26248175960789
 13
0.0
 23
0.0
 14
0.5740882589684922
 24
0.5740882589684922
 15
0.5
 25
0.5
 16
0.0
 26
0.0
 36
1.0
 17
0.0
 27
0.0
 37
0.0
 40
8.365595802020571
 41
1.570528967254408
 42
50.0
 43
0.0
 44
0.0
 50
0.0
 51
0.0
 71
     0
 72
   100
 73
     1
 74
     0
 75
     0
 76
     0
 77
     0
 78
     0
  0
ENDTAB
  0
TABLE
  2
LTYPE
  5
5
330
0
100
AcDbSymbolTable
 70
     2
  0
LTYPE
  5
13
330
5
100
AcDbSymbolTableRecord
100
AcDbLinetypeTableRecord
  2
BYBLOCK
 70
     0
  3

 72
    65
 73
     0
 40
0.0
  0
LTYPE
  5
14
330
5
100
AcDbSymbolTableRecord
100
AcDbLinetypeTableRecord
  2
BYLAYER
 70
     0
  3

 72
    65
 73
     0
 40
0.0
  0
LTYPE
  5
15
330
5
100
AcDbSymbolTableRecord
100
AcDbLinetypeTableRecord
  2
CONTINUOUS
 70
     0
  3
Solid line
 72
    65
 73
     0
 40
0.0
  0
LTYPE
  5
2A
330
5
100
AcDbSymbolTableRecord
100
AcDbLinetypeTableRecord
  2
HIDDEN2
 70
     0
  3
_ _ _ _ _ _ _ _ _ _ _ _ _ _ _ _ _ _ _ _ _ _ _ _
 72
    65
 73
     2
 40
0.1875
 49
0.125
 74
     0
 49
-0.0625
 74
     0
  0
ENDTAB
  0
TABLE
  2
LAYER
  5
2
330
0
100
AcDbSymbolTable
 70
     5
  0
LAYER
  5
10
330
2
100
AcDbSymbolTableRecord
100
AcDbLayerTableRecord
  2
0
 70
     0
 62
     7
  6
CONTINUOUS
  0
LAYER
  5
2C
330
2
100
AcDbSymbolTableRecord
100
AcDbLayerTableRecord
  2
ADPDIM
 70
     0
 62
     3
  6
CONTINUOUS
  0
LAYER
  5
2D
330
2
100
AcDbSymbolTableRecord
100
AcDbLayerTableRecord
  2
ADP1DETAIL
 70
     0
 62
     7
  6
CONTINUOUS
  0
LAYER
  5
2E
330
2
100
AcDbSymbolTableRecord
100
AcDbLayerTableRecord
  2
ADP2DETAIL
 70
     0
 62
     5
  6
CONTINUOUS
  0
LAYER
  5
2F
330
2
100
AcDbSymbolTableRecord
100
AcDbLayerTableRecord
  2
DEFPOINTS
 70
     0
 62
     7
  6
CONTINUOUS
  0
ENDTAB
  0
TABLE
  2
STYLE
  5
3
330
0
100
AcDbSymbolTable
 70
     2
  0
STYLE
  5
11
330
3
100
AcDbSymbolTableRecord
100
AcDbTextStyleTableRecord
  2
STANDARD
 70
     0
 40
0.0
 41
1.0
 50
0.0
 71
     0
 42
0.2
  3
txt
  4

  0
STYLE
  5
C24
330
3
100
AcDbSymbolTableRecord
100
AcDbTextStyleTableRecord
  2
ARIAL_WIDE
 70
     0
 40
0.0
 41
1.25
 50
0.0
 71
     0
 42
0.2
  3
ARIAL.TTF
  4

1001
ACAD
1000
Arial
1071
       34
  0
ENDTAB
  0
TABLE
  2
VIEW
  5
6
330
0
100
AcDbSymbolTable
 70
     0
  0
ENDTAB
  0
TABLE
  2
UCS
  5
7
330
0
100
AcDbSymbolTable
 70
     0
  0
ENDTAB
  0
TABLE
  2
APPID
  5
9
330
0
100
AcDbSymbolTable
 70
     1
  0
APPID
  5
12
330
9
100
AcDbSymbolTableRecord
100
AcDbRegAppTableRecord
  2
ACAD
 70
     0
  0
ENDTAB
  0
TABLE
  2
DIMSTYLE
  5
A
330
0
100
AcDbSymbolTable
 70
     1
  0
DIMSTYLE
105
C22
330
A
100
AcDbSymbolTableRecord
100
AcDbDimStyleTableRecord
  2
STANDARD
 70
     0
  3

  4

  5

  6

  7

 40
1.0
 41
0.18
 42
0.0625
 43
0.38
 44
0.18
 45
0.0
 46
0.0
 47
0.0
 48
0.0
140
0.18
141
0.09
142
0.0
143
25.4
144
1.0
145
0.0
146
1.0
147
0.09
 71
     0
 72
     0
 73
     1
 74
     1
 75
     0
 76
     0
 77
     0
 78
     0
170
     0
171
     2
172
     0
173
     0
174
     0
175
     0
176
     0
177
     0
178
     0
270
     2
271
     4
272
     4
273
     2
274
     2
340
11
275
     0
280
     0
281
     0
282
     0
283
     1
284
     0
285
     0
286
     0
287
     3
288
     0
  0
ENDTAB
  0
TABLE
  2
BLOCK_RECORD
  5
1
330
0
100
AcDbSymbolTable
 70
     2
  0
BLOCK_RECORD
  5
1E
102
{ACAD_XDICTIONARY
360
C61
102
}
330
1
100
AcDbSymbolTableRecord
100
AcDbBlockTableRecord
  2
*MODEL_SPACE
  0
BLOCK_RECORD
  5
1A
102
{ACAD_XDICTIONARY
360
C63
102
}
330
1
100
AcDbSymbolTableRecord
100
AcDbBlockTableRecord
  2
*PAPER_SPACE
  0
BLOCK_RECORD
  5
28
330
1
100
AcDbSymbolTableRecord
100
AcDbBlockTableRecord
  2
*D0
  0
BLOCK_RECORD
  5
29
330
1
100
AcDbSymbolTableRecord
100
AcDbBlockTableRecord
  2
*D1
  0
ENDTAB
  0
ENDSEC
  0
SECTION
  2
BLOCKS
  0
BLOCK
  5
32
330
1E
100
AcDbEntity
  8
0
100
AcDbBlockBegin
  2
*MODEL_SPACE
 70
     0
 10
0.0
 20
0.0
 30
0.0
  3
*MODEL_SPACE
  1

  0
ENDBLK
  5
33
330
1E
100
AcDbEntity
  8
0
100
AcDbBlockEnd
  0
BLOCK
  5
30
330
1A
100
AcDbEntity
 67
     1
  8
0
100
AcDbBlockBegin
  2
*PAPER_SPACE
 70
     0
 10
0.0
 20
0.0
 30
0.0
  3
*PAPER_SPACE
  1

  0
ENDBLK
  5
31
330
1A
100
AcDbEntity
 67
     1
  8
0
100
AcDbBlockEnd
  0
BLOCK
  5
860
330
28
100
AcDbEntity
  8
0
100
AcDbBlockBegin
  2
*D0
 70
     1
 10
0.0
 20
0.0
 30
0.0
  3
*D0
  1

  0
LINE
  5
861
330
28
100
AcDbEntity
  8
0
  6
BYBLOCK
 62
     0
100
AcDbLine
 10
15.56739959349041
 20
6.542422236890937
 30
0.0
 11
15.56739959349041
 21
7.725029377699682
 31
0.0
  0
LINE
  5
862
330
28
100
AcDbEntity
  8
0
  6
BYBLOCK
 62
     0
100
AcDbLine
 10
17.31661427798852
 20
6.542422236890928
 30
0.0
 11
17.31661427798852
 21
7.725029377699682
 31
0.0
  0
LINE
  5
863
330
28
100
AcDbEntity
  8
0
  6
BYBLOCK
 62
     0
100
AcDbLine
 10
15.56739959349041
 20
7.545029377699682
 30
0.0
 11
16.04617360240613
 21
7.545029377699682
 31
0.0
  0
LINE
  5
864
330
28
100
AcDbEntity
  8
0
  6
BYBLOCK
 62
     0
100
AcDbLine
 10
17.31661427798852
 20
7.545029377699682
 30
0.0
 11
16.8378402690728
 21
7.545029377699682
 31
0.0
  0
LINE
  5
865
330
28
100
AcDbEntity
  8
0
  6
BYBLOCK
 62
     0
100
AcDbLine
 10
15.44239959349041
 20
7.420029377699682
 30
0.0
 11
15.69239959349041
 21
7.670029377699682
 31
0.0
  0
LINE
  5
866
330
28
100
AcDbEntity
  8
0
  6
BYBLOCK
 62
     0
100
AcDbLine
 10
17.19161427798852
 20
7.420029377699682
 30
0.0
 11
17.44161427798852
 21
7.670029377699682
 31
0.0
  0
TEXT
  5
867
330
28
100
AcDbEntity
  8
0
  6
BYBLOCK
 62
     0
100
AcDbText
 10
16.17117360240613
 20
7.482529377699682
 30
0.0
 40
0.125
  1
1 3/4
 72
     1
 11
16.44200693573947
 21
7.545029377699682
 31
0.0
100
AcDbText
 73
     2
  0
POINT
  5
868
330
28
100
AcDbEntity
  8
DEFPOINTS
  6
BYBLOCK
 62
     0
100
AcDbPoint
 10
15.56739959349041
 20
6.479922236890937
 30
0.0
  0
POINT
  5
869
330
28
100
AcDbEntity
  8
DEFPOINTS
  6
BYBLOCK
 62
     0
100
AcDbPoint
 10
17.31661427798852
 20
6.479922236890928
 30
0.0
  0
POINT
  5
86A
330
28
100
AcDbEntity
  8
DEFPOINTS
  6
BYBLOCK
 62
     0
100
AcDbPoint
 10
17.31661427798852
 20
7.545029377699682
 30
0.0
  0
ENDBLK
  5
86B
330
28
100
AcDbEntity
  8
0
100
AcDbBlockEnd
  0
BLOCK
  5
86C
330
29
100
AcDbEntity
  8
0
100
AcDbBlockBegin
  2
*D1
 70
     1
 10
0.0
 20
0.0
 30
0.0
  3
*D1
  1

  0
LINE
  5
86D
330
29
100
AcDbEntity
  8
0
  6
BYBLOCK
 62
     0
100
AcDbLine
 10
17.82723438946052
 20
7.305071707167327
 30
0.0
 11
17.82723438946052
 21
7.725029377699682
 31
0.0
  0
LINE
  5
86E
330
29
100
AcDbEntity
  8
0
  6
BYBLOCK
 62
     0
100
AcDbLine
 10
22.82723438946052
 20
7.305071707167327
 30
0.0
 11
22.82723438946052
 21
7.725029377699682
 31
0.0
  0
LINE
  5
86F
330
29
100
AcDbEntity
  8
0
  6
BYBLOCK
 62
     0
100
AcDbLine
 10
17.82723438946052
 20
7.545029377699682
 30
0.0
 11
20.16056772279385
 21
7.545029377699682
 31
0.0
  0
LINE
  5
870
330
29
100
AcDbEntity
  8
0
  6
BYBLOCK
 62
     0
100
AcDbLine
 10
22.82723438946052
 20
7.545029377699682
 30
0.0
 11
20.49390105612718
 21
7.545029377699682
 31
0.0
  0
LINE
  5
871
330
29
100
AcDbEntity
  8
0
  6
BYBLOCK
 62
     0
100
AcDbLine
 10
17.70223438946052
 20
7.420029377699682
 30
0.0
 11
17.95223438946052
 21
7.670029377699682
 31
0.0
  0
LINE
  5
872
330
29
100
AcDbEntity
  8
0
  6
BYBLOCK
 62
     0
100
AcDbLine
 10
22.70223438946052
 20
7.420029377699682
 30
0.0
 11
22.95223438946052
 21
7.670029377699682
 31
0.0
  0
TEXT
  5
873
330
29
100
AcDbEntity
  8
0
  6
BYBLOCK
 62
     0
100
AcDbText
 10
20.28556772279385
 20
7.482529377699682
 30
0.0
 40
0.125
  1
5
 72
     1
 11
20.32723438946052
 21
7.545029377699682
 31
0.0
100
AcDbText
 73
     2
  0
POINT
  5
874
330
29
100
AcDbEntity
  8
DEFPOINTS
  6
BYBLOCK
 62
     0
100
AcDbPoint
 10
17.82723438946052
 20
7.242571707167327
 30
0.0
  0
POINT
  5
875
330
29
100
AcDbEntity
  8
DEFPOINTS
  6
BYBLOCK
 62
     0
100
AcDbPoint
 10
22.82723438946052
 20
7.242571707167327
 30
0.0
  0
POINT
  5
876
330
29
100
AcDbEntity
  8
DEFPOINTS
  6
BYBLOCK
 62
     0
100
AcDbPoint
 10
22.82723438946052
 20
7.545029377699682
 30
0.0
  0
ENDBLK
  5
877
330
29
100
AcDbEntity
  8
0
100
AcDbBlockEnd
  0
ENDSEC
  0
SECTION
  2
ENTITIES
  0
LINE
  5
878
330
1E
100
AcDbEntity
  8
ADP1DETAIL
100
AcDbLine
 10
17.88973438946052
 20
7.305071707167327
 30
0.0
 11
22.76473438946052
 21
7.305071707167327
 31
0.0
  0
LINE
  5
879
330
1E
100
AcDbEntity
  8
ADP2DETAIL
  6
HIDDEN2
100
AcDbLine
 10
22.82723438946052
 20
5.90189953257206
 30
0.0
 11
17.82723438946052
 21
5.90189953257206
 31
0.0
  0
LINE
  5
87A
330
1E
100
AcDbEntity
  8
ADP1DETAIL
100
AcDbLine
 10
17.82723438946052
 20
5.864252895583411
 30
0.0
 11
17.82723438946052
 21
7.242571707167327
 31
0.0
  0
LINE
  5
87B
330
1E
100
AcDbEntity
  8
ADP1DETAIL
100
AcDbLine
 10
17.88973438946052
 20
5.801752895583411
 30
0.0
 11
17.88973438946052
 21
7.305071707167327
 31
0.0
  0
LINE
  5
87C
330
1E
100
AcDbEntity
  8
ADP1DETAIL
100
AcDbLine
 10
17.82723438946052
 20
5.864252895583411
 30
0.0
 11
17.88973438946052
 21
5.801752895583411
 31
0.0
  0
LINE
  5
87D
330
1E
100
AcDbEntity
  8
ADP1DETAIL
100
AcDbLine
 10
17.88973438946052
 20
7.305071707167327
 30
0.0
 11
17.82723438946052
 21
7.242571707167327
 31
0.0
  0
LINE
  5
87E
330
1E
100
AcDbEntity
  8
ADP1DETAIL
100
AcDbLine
 10
22.82723438946052
 20
7.242571707167327
 30
0.0
 11
22.82723438946052
 21
5.864252895583411
 31
0.0
  0
LINE
  5
87F
330
1E
100
AcDbEntity
  8
ADP1DETAIL
100
AcDbLine
 10
22.76473438946052
 20
7.305071707167327
 30
0.0
 11
22.76473438946052
 21
5.801752895583411
 31
0.0
  0
LINE
  5
880
330
1E
100
AcDbEntity
  8
ADP1DETAIL
100
AcDbLine
 10
22.82723438946052
 20
5.864252895583411
 30
0.0
 11
22.76473438946052
 21
5.801752895583411
 31
0.0
  0
LINE
  5
881
330
1E
100
AcDbEntity
  8
ADP1DETAIL
100
AcDbLine
 10
22.76473438946052
 20
7.305071707167327
 30
0.0
 11
22.82723438946052
 21
7.242571707167327
 31
0.0
  0
LINE
  5
882
330
1E
100
AcDbEntity
  8
ADP1DETAIL
100
AcDbLine
 10
22.76473438946052
 20
5.801752895583411
 30
0.0
 11
17.88973438946052
 21
5.801752895583411
 31
0.0
  0
POINT
  5
883
330
1E
100
AcDbEntity
  8
DEFPOINTS
  6
BYBLOCK
 62
     0
100
AcDbPoint
 10
17.82723438946052
 20
7.242571707167327
 30
0.0
  0
POINT
  5
884
330
1E
100
AcDbEntity
  8
DEFPOINTS
  6
BYBLOCK
 62
     0
100
AcDbPoint
 10
22.82723438946052
 20
7.242571707167327
 30
0.0
  0
LWPOLYLINE
  5
885
330
1E
100
AcDbEntity
  8
ADP1DETAIL
100
AcDbPolyline
 90
        2
 70
     0
 43
0.0
 10
15.99536444933542
 20
7.151786313518876
 10
15.96107455477268
 20
7.161242056231849
  0
ARC
  5
889
330
1E
100
AcDbEntity
  8
ADP1DETAIL
100
AcDbCircle
 10
15.87687980140007
 20
5.85408318242853
 30
0.0
 40
0.0646958434783718
100
AcDbArc
 50
237.6255770379718
 51
332.1988658577537
  0
ARC
  5
88A
330
1E
100
AcDbEntity
  8
ADP1DETAIL
100
AcDbCircle
 10
16.44200693573947
 20
6.402025558615054
 30
0.0
 40
0.7251325789867501
100
AcDbArc
 50
316.9619666157536
 51
223.0380333842467
  0
LWPOLYLINE
  5
88B
330
1E
100
AcDbEntity
  8
ADP1DETAIL
100
AcDbPolyline
 90
        2
 70
     0
 43
0.0
 10
15.59271893368494
 20
6.403580497156276
 10
15.56738507300249
 20
6.378612448728339
  0
LWPOLYLINE
  5
88F
330
1E
100
AcDbEntity
  8
ADP1DETAIL
100
AcDbPolyline
 90
        2
 70
     0
 43
0.0
 10
15.60272233776561
 20
6.177716845810858
 10
15.63403089139871
 20
6.160835423809683
  0
LWPOLYLINE
  5
893
330
1E
100
AcDbEntity
  8
ADP1DETAIL
100
AcDbPolyline
 90
        2
 70
     0
 43
0.0
 10
15.62146962830518
 20
6.208405910162539
 10
15.60257667334508
 20
6.178268488370795
  0
LWPOLYLINE
  5
897
330
1E
100
AcDbEntity
  8
ADP1DETAIL
100
AcDbPolyline
 90
        2
 70
     0
 43
0.0
 10
15.58953249576234
 20
6.226942006310882
 10
15.61980651288391
 20
6.208268714509459
  0
LWPOLYLINE
  5
89B
330
1E
100
AcDbEntity
  8
ADP1DETAIL
100
AcDbPolyline
 90
        2
 70
     0
 43
0.0
 10
15.59563276991036
 20
6.354241767174382
 10
15.57179353301463
 20
6.327842927737638
  0
LWPOLYLINE
  5
89F
330
1E
100
AcDbEntity
  8
ADP1DETAIL
100
AcDbPolyline
 90
        2
 70
     0
 43
0.0
 10
15.61003247924962
 20
6.25648909162192
 10
15.58941915294522
 20
6.227501185211727
  0
LWPOLYLINE
  5
8A3
330
1E
100
AcDbEntity
  8
ADP1DETAIL
100
AcDbPolyline
 90
        2
 70
     0
 43
0.0
 10
15.57922715741953
 20
6.276850806736905
 10
15.60836420033864
 20
6.256448829643797
  0
LWPOLYLINE
  5
8A7
330
1E
100
AcDbEntity
  8
ADP1DETAIL
100
AcDbPolyline
 90
        2
 70
     0
 43
0.0
 10
15.60141046839952
 20
6.305155935023516
 10
15.57914651972204
 20
6.277415629894261
  0
LWPOLYLINE
  5
8AB
330
1E
100
AcDbEntity
  8
ADP1DETAIL
100
AcDbPolyline
 90
        2
 70
     0
 43
0.0
 10
15.60141046839952
 20
6.305155935023512
 10
15.57914651972204
 20
6.277415629894259
  0
LWPOLYLINE
  5
8AF
330
1E
100
AcDbEntity
  8
ADP1DETAIL
100
AcDbPolyline
 90
        2
 70
     0
 43
0.0
 10
15.57922715741953
 20
6.276850806736903
 10
15.60836420033864
 20
6.256448829643796
  0
LWPOLYLINE
  5
8B3
330
1E
100
AcDbEntity
  8
ADP1DETAIL
100
AcDbPolyline
 90
        2
 70
     0
 43
0.0
 10
15.57922715741953
 20
6.276850806736903
 10
15.60836420033864
 20
6.256448829643797
  0
LWPOLYLINE
  5
8B7
330
1E
100
AcDbEntity
  8
ADP1DETAIL
100
AcDbPolyline
 90
        2
 70
     0
 43
0.0
 10
15.60141046839952
 20
6.305155935023516
 10
15.57914651972204
 20
6.277415629894263
  0
LWPOLYLINE
  5
8BB
330
1E
100
AcDbEntity
  8
ADP1DETAIL
100
AcDbPolyline
 90
        2
 70
     0
 43
0.0
 10
15.57922715741953
 20
6.276850806736907
 10
15.60836420033864
 20
6.256448829643799
  0
LWPOLYLINE
  5
8BF
330
1E
100
AcDbEntity
  8
ADP1DETAIL
100
AcDbPolyline
 90
        2
 70
     0
 43
0.0
 10
15.57184119274005
 20
6.327274371506545
 10
15.59974267092659
 20
6.305212742954144
  0
LWPOLYLINE
  5
8C3
330
1E
100
AcDbEntity
  8
ADP1DETAIL
100
AcDbPolyline
 90
        2
 70
     0
 43
0.0
 10
15.56739959349041
 20
6.378042083237823
 10
15.59397109717419
 20
6.354395452793704
  0
LWPOLYLINE
  5
8C7
330
1E
100
AcDbEntity
  8
ADP1DETAIL
100
AcDbPolyline
 90
        2
 70
     0
 43
0.0
 10
15.84168890769941
 20
5.82768887046074
 10
15.84039583964728
 20
5.792142620104471
  0
LWPOLYLINE
  5
8CB
330
1E
100
AcDbEntity
  8
ADP1DETAIL
100
AcDbPolyline
 90
        2
 70
     0
 43
0.0
 10
15.61875205317916
 20
6.129341887598108
 10
15.65098920508877
 20
6.114309456785547
  0
LWPOLYLINE
  5
8CF
330
1E
100
AcDbEntity
  8
ADP1DETAIL
100
AcDbPolyline
 90
        2
 70
     0
 43
0.0
 10
15.80774245534074
 20
5.863611552571559
 10
15.80438474430972
 20
5.828200626065605
  0
LWPOLYLINE
  5
8D3
330
1E
100
AcDbEntity
  8
ADP1DETAIL
100
AcDbPolyline
 90
        2
 70
     0
 43
0.0
 10
15.77088340650663
 20
5.865842654210711
 10
15.80631781441229
 20
5.862742545220209
  0
LWPOLYLINE
  5
8D7
330
1E
100
AcDbEntity
  8
ADP1DETAIL
100
AcDbPolyline
 90
        2
 70
     0
 43
0.0
 10
15.77594215321205
 20
5.90144726985429
 10
15.77053116063342
 20
5.866291486564882
  0
LWPOLYLINE
  5
8DB
330
1E
100
AcDbEntity
  8
ADP1DETAIL
100
AcDbPolyline
 90
        2
 70
     0
 43
0.0
 10
15.73927519107793
 20
5.905817759910848
 10
15.77446939426681
 20
5.900662568228883
  0
LWPOLYLINE
  5
8DF
330
1E
100
AcDbEntity
  8
ADP1DETAIL
100
AcDbPolyline
 90
        2
 70
     0
 43
0.0
 10
15.7463956034696
 20
5.941067998218259
 10
15.73894963842943
 20
5.906286314187745
  0
LWPOLYLINE
  5
8E3
330
1E
100
AcDbEntity
  8
ADP1DETAIL
100
AcDbPolyline
 90
        2
 70
     0
 43
0.0
 10
15.71004479742867
 20
5.947563088337322
 10
15.74487970985764
 20
5.940370257500704
  0
LWPOLYLINE
  5
8E7
330
1E
100
AcDbEntity
  8
ADP1DETAIL
100
AcDbPolyline
 90
        2
 70
     0
 43
0.0
 10
15.71920278228497
 20
5.982339673660329
 10
15.70974703957199
 20
5.948049779097589
  0
LWPOLYLINE
  5
8EB
330
1E
100
AcDbEntity
  8
ADP1DETAIL
100
AcDbPolyline
 90
        2
 70
     0
 43
0.0
 10
15.6832911319583
 20
5.990937386512903
 10
15.71764888331043
 20
5.981731254784349
  0
LWPOLYLINE
  5
8EF
330
1E
100
AcDbEntity
  8
ADP1DETAIL
100
AcDbPolyline
 90
        2
 70
     0
 43
0.0
 10
15.69445570155737
 20
6.025122645895046
 10
15.68302217641178
 20
5.991440566949067
  0
LWPOLYLINE
  5
8F3
330
1E
100
AcDbEntity
  8
ADP1DETAIL
100
AcDbPolyline
 90
        2
 70
     0
 43
0.0
 10
15.69445570155737
 20
6.025122645895041
 10
15.68302217641179
 20
5.991440566949065
  0
LWPOLYLINE
  5
8F7
330
1E
100
AcDbEntity
  8
ADP1DETAIL
100
AcDbPolyline
 90
        2
 70
     0
 43
0.0
 10
15.68329113195831
 20
5.9909373865129
 10
15.71764888331044
 20
5.981731254784348
  0
LWPOLYLINE
  5
8FB
330
1E
100
AcDbEntity
  8
ADP1DETAIL
100
AcDbPolyline
 90
        2
 70
     0
 43
0.0
 10
15.68329113195831
 20
5.990937386512902
 10
15.71764888331044
 20
5.981731254784349
  0
LWPOLYLINE
  5
8FF
330
1E
100
AcDbEntity
  8
ADP1DETAIL
100
AcDbPolyline
 90
        2
 70
     0
 43
0.0
 10
15.69445570155737
 20
6.025122645895046
 10
15.68302217641179
 20
5.991440566949068
  0
LWPOLYLINE
  5
903
330
1E
100
AcDbEntity
  8
ADP1DETAIL
100
AcDbPolyline
 90
        2
 70
     0
 43
0.0
 10
15.68329113195831
 20
5.990937386512904
 10
15.71764888331043
 20
5.98173125478435
  0
LWPOLYLINE
  5
907
330
1E
100
AcDbEntity
  8
ADP1DETAIL
100
AcDbPolyline
 90
        2
 70
     0
 43
0.0
 10
15.65910472060211
 20
6.035793889542381
 10
15.69286905512251
 20
6.024605607557528
  0
LWPOLYLINE
  5
90B
330
1E
100
AcDbEntity
  8
ADP1DETAIL
100
AcDbPolyline
 90
        2
 70
     0
 43
0.0
 10
15.67223809757448
 20
6.069272150886996
 10
15.65886547742618
 20
6.036311857051122
  0
LWPOLYLINE
  5
90F
330
1E
100
AcDbEntity
  8
ADP1DETAIL
100
AcDbPolyline
 90
        2
 70
     0
 43
0.0
 10
15.63756740252009
 20
6.081980817218492
 10
15.6706240723886
 20
6.068848242582009
  0
LWPOLYLINE
  5
913
330
1E
100
AcDbEntity
  8
ADP1DETAIL
100
AcDbPolyline
 90
        2
 70
     0
 43
0.0
 10
15.65262514767536
 20
6.114638800686483
 10
15.63735868123792
 20
6.08251181916172
  0
LWPOLYLINE
  5
917
330
1E
100
AcDbEntity
  8
ADP1DETAIL
100
AcDbPolyline
 90
        2
 70
     0
 43
0.0
 10
15.80476249151911
 20
5.827773034340774
 10
15.8403172053217
 20
5.826738497829245
  0
LWPOLYLINE
  5
91B
330
1E
100
AcDbEntity
  8
ADP1DETAIL
100
AcDbPolyline
 90
        2
 70
     0
 43
0.0
 10
15.63568321587414
 20
6.161069088911061
 10
15.6185745600375
 20
6.129884127233332
  0
LWPOLYLINE
  5
91F
330
1E
100
AcDbEntity
  8
ADP1DETAIL
100
AcDbPolyline
 90
        2
 70
     0
 43
0.0
 10
15.62111265779758
 20
6.648226177895023
 10
15.5896821679537
 20
6.631572882498855
  0
LWPOLYLINE
  5
923
330
1E
100
AcDbEntity
  8
ADP1DETAIL
100
AcDbPolyline
 90
        2
 70
     0
 43
0.0
 10
15.63524938689829
 20
6.695586009061402
 10
15.60290376945708
 20
6.680788408859851
  0
LWPOLYLINE
  5
927
330
1E
100
AcDbEntity
  8
ADP1DETAIL
100
AcDbPolyline
 90
        2
 70
     0
 43
0.0
 10
15.60272233776561
 20
6.680247474317901
 10
15.61960375976679
 20
6.648938920684805
  0
LWPOLYLINE
  5
92B
330
1E
100
AcDbEntity
  8
ADP1DETAIL
100
AcDbPolyline
 90
        2
 70
     0
 43
0.0
 10
15.56591738863652
 20
6.42898216006438
 10
15.59106900826009
 20
6.403830540440804
  0
LWPOLYLINE
  5
92F
330
1E
100
AcDbEntity
  8
ADP1DETAIL
100
AcDbPolyline
 90
        2
 70
     0
 43
0.0
 10
15.5926788192227
 20
6.453005178324743
 10
15.56593605651882
 20
6.429552404878045
  0
LWPOLYLINE
  5
933
330
1E
100
AcDbEntity
  8
ADP1DETAIL
100
AcDbPolyline
 90
        2
 70
     0
 43
0.0
 10
15.56739959349041
 20
6.479922236890937
 10
15.59104622393452
 20
6.45335073320715
  0
LWPOLYLINE
  5
937
330
1E
100
AcDbEntity
  8
ADP1DETAIL
100
AcDbPolyline
 90
        2
 70
     0
 43
0.0
 10
15.59551256225827
 20
6.502348573203724
 10
15.56745138657674
 20
6.480490431499807
  0
LWPOLYLINE
  5
93B
330
1E
100
AcDbEntity
  8
ADP1DETAIL
100
AcDbPolyline
 90
        2
 70
     0
 43
0.0
 10
15.57184119274005
 20
6.530689948622214
 10
15.59390282129245
 20
6.502788470435673
  0
LWPOLYLINE
  5
93F
330
1E
100
AcDbEntity
  8
ADP1DETAIL
100
AcDbPolyline
 90
        2
 70
     0
 43
0.0
 10
15.60121057430222
 20
6.551443719364232
 10
15.571925935779
 20
6.531254170435593
  0
LWPOLYLINE
  5
943
330
1E
100
AcDbEntity
  8
ADP1DETAIL
100
AcDbPolyline
 90
        2
 70
     0
 43
0.0
 10
15.57922715741953
 20
6.581113513391854
 10
15.59962913451263
 20
6.551976470472737
  0
LWPOLYLINE
  5
947
330
1E
100
AcDbEntity
  8
ADP1DETAIL
100
AcDbPolyline
 90
        2
 70
     0
 43
0.0
 10
15.60975357508547
 20
6.600124494372363
 10
15.57934456366747
 20
6.581671853261723
  0
LWPOLYLINE
  5
94B
330
1E
100
AcDbEntity
  8
ADP1DETAIL
100
AcDbPolyline
 90
        2
 70
     0
 43
0.0
 10
15.60975357508547
 20
6.600124494372359
 10
15.57934456366747
 20
6.581671853261719
  0
LWPOLYLINE
  5
94F
330
1E
100
AcDbEntity
  8
ADP1DETAIL
100
AcDbPolyline
 90
        2
 70
     0
 43
0.0
 10
15.57922715741953
 20
6.581113513391851
 10
15.59962913451263
 20
6.551976470472732
  0
LWPOLYLINE
  5
953
330
1E
100
AcDbEntity
  8
ADP1DETAIL
100
AcDbPolyline
 90
        2
 70
     0
 43
0.0
 10
15.57922715741953
 20
6.581113513391851
 10
15.59962913451263
 20
6.551976470472734
  0
LWPOLYLINE
  5
957
330
1E
100
AcDbEntity
  8
ADP1DETAIL
100
AcDbPolyline
 90
        2
 70
     0
 43
0.0
 10
15.60975357508547
 20
6.600124494372363
 10
15.57934456366747
 20
6.581671853261723
  0
LWPOLYLINE
  5
95B
330
1E
100
AcDbEntity
  8
ADP1DETAIL
100
AcDbPolyline
 90
        2
 70
     0
 43
0.0
 10
15.57922715741953
 20
6.581113513391854
 10
15.59962913451263
 20
6.551976470472737
  0
LWPOLYLINE
  5
95F
330
1E
100
AcDbEntity
  8
ADP1DETAIL
100
AcDbPolyline
 90
        2
 70
     0
 43
0.0
 10
15.58953249576234
 20
6.631022313817877
 10
15.60820578756376
 20
6.600748296696307
  0
LWPOLYLINE
  5
963
330
1E
100
AcDbEntity
  8
ADP1DETAIL
100
AcDbPolyline
 90
        2
 70
     0
 43
0.0
 10
15.84079781001586
 20
7.066226604284735
 10
15.83976327350434
 20
7.030671890482141
  0
LWPOLYLINE
  5
967
330
1E
100
AcDbEntity
  8
ADP1DETAIL
100
AcDbPolyline
 90
        2
 70
     0
 43
0.0
 10
15.87663632824665
 20
7.063246640463101
 10
15.8412254017407
 20
7.066604351494116
  0
LWPOLYLINE
  5
96B
330
1E
100
AcDbEntity
  8
ADP1DETAIL
100
AcDbPolyline
 90
        2
 70
     0
 43
0.0
 10
15.8788674298858
 20
7.100105689297215
 10
15.8757673208953
 20
7.06467128139155
  0
LWPOLYLINE
  5
96F
330
1E
100
AcDbEntity
  8
ADP1DETAIL
100
AcDbPolyline
 90
        2
 70
     0
 43
0.0
 10
15.91447204552938
 20
7.095046942591793
 10
15.87931626223998
 20
7.100457935170423
  0
LWPOLYLINE
  5
973
330
1E
100
AcDbEntity
  8
ADP1DETAIL
100
AcDbPolyline
 90
        2
 70
     0
 43
0.0
 10
15.91447204552938
 20
7.095046942591791
 10
15.87931626223997
 20
7.10045793517042
  0
LWPOLYLINE
  5
977
330
1E
100
AcDbEntity
  8
ADP1DETAIL
100
AcDbPolyline
 90
        2
 70
     0
 43
0.0
 10
15.8788674298858
 20
7.100105689297214
 10
15.8757673208953
 20
7.064671281391549
  0
LWPOLYLINE
  5
97B
330
1E
100
AcDbEntity
  8
ADP1DETAIL
100
AcDbPolyline
 90
        2
 70
     0
 43
0.0
 10
15.8788674298858
 20
7.100105689297214
 10
15.8757673208953
 20
7.06467128139155
  0
LWPOLYLINE
  5
97F
330
1E
100
AcDbEntity
  8
ADP1DETAIL
100
AcDbPolyline
 90
        2
 70
     0
 43
0.0
 10
15.91447204552938
 20
7.095046942591794
 10
15.87931626223997
 20
7.100457935170423
  0
LWPOLYLINE
  5
983
330
1E
100
AcDbEntity
  8
ADP1DETAIL
100
AcDbPolyline
 90
        2
 70
     0
 43
0.0
 10
15.8788674298858
 20
7.100105689297217
 10
15.8757673208953
 20
7.064671281391552
  0
LWPOLYLINE
  5
987
330
1E
100
AcDbEntity
  8
ADP1DETAIL
100
AcDbPolyline
 90
        2
 70
     0
 43
0.0
 10
15.91884253558594
 20
7.131713904725918
 10
15.91368734390397
 20
7.096519701537037
  0
LWPOLYLINE
  5
98B
330
1E
100
AcDbEntity
  8
ADP1DETAIL
100
AcDbPolyline
 90
        2
 70
     0
 43
0.0
 10
15.95409277389335
 20
7.124593492334247
 10
15.91931108986284
 20
7.132039457374414
  0
LWPOLYLINE
  5
98F
330
1E
100
AcDbEntity
  8
ADP1DETAIL
100
AcDbPolyline
 90
        2
 70
     0
 43
0.0
 10
15.96058786401241
 20
7.160944298375174
 10
15.95339503317579
 20
7.126109385946207
  0
LWPOLYLINE
  5
993
330
1E
100
AcDbEntity
  8
ADP1DETAIL
100
AcDbPolyline
 90
        2
 70
     0
 43
0.0
 10
15.80682555018213
 20
6.99332244956506
 10
15.77126425323485
 20
6.992546499305326
  0
LWPOLYLINE
  5
997
330
1E
100
AcDbEntity
  8
ADP1DETAIL
100
AcDbPolyline
 90
        2
 70
     0
 43
0.0
 10
15.80476249151911
 20
7.030191285787983
 10
15.80579702803064
 20
6.99463657198539
  0
LWPOLYLINE
  5
99B
330
1E
100
AcDbEntity
  8
ADP1DETAIL
100
AcDbPolyline
 90
        2
 70
     0
 43
0.0
 10
15.77508670697522
 20
6.955435162123728
 10
15.73963069160914
 20
6.952592819122189
  0
LWPOLYLINE
  5
99F
330
1E
100
AcDbEntity
  8
ADP1DETAIL
100
AcDbPolyline
 90
        2
 70
     0
 43
0.0
 10
15.77088340650663
 20
6.992121665918047
 10
15.77398351549713
 20
6.956687258012382
  0
LWPOLYLINE
  5
9A3
330
1E
100
AcDbEntity
  8
ADP1DETAIL
100
AcDbPolyline
 90
        2
 70
     0
 43
0.0
 10
15.84071364613583
 20
7.029300188104429
 10
15.80516739577956
 20
7.030593256156558
  0
LWPOLYLINE
  5
9A7
330
1E
100
AcDbEntity
  8
ADP1DETAIL
100
AcDbPolyline
 90
        2
 70
     0
 43
0.0
 10
15.61875205317916
 20
6.728622432530651
 10
15.63378448399172
 20
6.696385280621035
  0
LWPOLYLINE
  5
9AB
330
1E
100
AcDbEntity
  8
ADP1DETAIL
100
AcDbPolyline
 90
        2
 70
     0
 43
0.0
 10
15.65211592817119
 20
6.742043737194235
 10
15.61896463046331
 20
6.729151902582312
  0
LWPOLYLINE
  5
9AF
330
1E
100
AcDbEntity
  8
ADP1DETAIL
100
AcDbPolyline
 90
        2
 70
     0
 43
0.0
 10
15.6375674025201
 20
6.775983502910266
 10
15.65069997715657
 20
6.742926833041762
  0
LWPOLYLINE
  5
9B3
330
1E
100
AcDbEntity
  8
ADP1DETAIL
100
AcDbPolyline
 90
        2
 70
     0
 43
0.0
 10
15.6716552105796
 20
6.787442164047363
 10
15.63781040610269
 20
6.776499716912582
  0
LWPOLYLINE
  5
9B7
330
1E
100
AcDbEntity
  8
ADP1DETAIL
100
AcDbPolyline
 90
        2
 70
     0
 43
0.0
 10
15.65910472060212
 20
6.822170430586377
 10
15.67029300258697
 20
6.788406096065978
  0
LWPOLYLINE
  5
9BB
330
1E
100
AcDbEntity
  8
ADP1DETAIL
100
AcDbPolyline
 90
        2
 70
     0
 43
0.0
 10
15.69380111937687
 20
6.831627675714854
 10
15.65937732823596
 20
6.822671641834569
  0
LWPOLYLINE
  5
9BF
330
1E
100
AcDbEntity
  8
ADP1DETAIL
100
AcDbPolyline
 90
        2
 70
     0
 43
0.0
 10
15.68329113195831
 20
6.867026933615855
 10
15.69249726368686
 20
6.832669182263727
  0
LWPOLYLINE
  5
9C3
330
1E
100
AcDbEntity
  8
ADP1DETAIL
100
AcDbPolyline
 90
        2
 70
     0
 43
0.0
 10
15.71847871981774
 20
6.874450762411816
 10
15.68359242122546
 20
6.867511446169713
  0
LWPOLYLINE
  5
9C7
330
1E
100
AcDbEntity
  8
ADP1DETAIL
100
AcDbPolyline
 90
        2
 70
     0
 43
0.0
 10
15.71847871981774
 20
6.874450762411814
 10
15.68359242122546
 20
6.867511446169708
  0
LWPOLYLINE
  5
9CB
330
1E
100
AcDbEntity
  8
ADP1DETAIL
100
AcDbPolyline
 90
        2
 70
     0
 43
0.0
 10
15.68329113195831
 20
6.867026933615851
 10
15.69249726368686
 20
6.832669182263724
  0
LWPOLYLINE
  5
9CF
330
1E
100
AcDbEntity
  8
ADP1DETAIL
100
AcDbPolyline
 90
        2
 70
     0
 43
0.0
 10
15.68329113195831
 20
6.867026933615851
 10
15.69249726368686
 20
6.832669182263725
  0
LWPOLYLINE
  5
9D3
330
1E
100
AcDbEntity
  8
ADP1DETAIL
100
AcDbPolyline
 90
        2
 70
     0
 43
0.0
 10
15.71847871981774
 20
6.874450762411816
 10
15.68359242122546
 20
6.867511446169713
  0
LWPOLYLINE
  5
9D7
330
1E
100
AcDbEntity
  8
ADP1DETAIL
100
AcDbPolyline
 90
        2
 70
     0
 43
0.0
 10
15.68329113195831
 20
6.867026933615855
 10
15.69249726368686
 20
6.832669182263727
  0
LWPOLYLINE
  5
9DB
330
1E
100
AcDbEntity
  8
ADP1DETAIL
100
AcDbPolyline
 90
        2
 70
     0
 43
0.0
 10
15.71004479742868
 20
6.910401231791436
 10
15.71723762826529
 20
6.875566319362468
  0
LWPOLYLINE
  5
9DF
330
1E
100
AcDbEntity
  8
ADP1DETAIL
100
AcDbPolyline
 90
        2
 70
     0
 43
0.0
 10
15.74560451071383
 20
6.915766524368195
 10
15.71037374886161
 20
6.910867406213847
  0
LWPOLYLINE
  5
9E3
330
1E
100
AcDbEntity
  8
ADP1DETAIL
100
AcDbPolyline
 90
        2
 70
     0
 43
0.0
 10
15.73927519107793
 20
6.952146560217908
 10
15.74443038275989
 20
6.916952357029027
  0
LWPOLYLINE
  5
9E7
330
1E
100
AcDbEntity
  8
ADP1DETAIL
100
AcDbPolyline
 90
        2
 70
     0
 43
0.0
 10
16.84465245138995
 20
7.177187976426973
 10
16.83569641750966
 20
7.211611767567884
  0
LWPOLYLINE
  5
9EB
330
1E
100
AcDbEntity
  8
ADP1DETAIL
100
AcDbPolyline
 90
        2
 70
     0
 43
0.0
 10
16.04881866521747
 20
7.21188437520173
 10
16.03763038323262
 20
7.178120040681331
  0
ARC
  5
9EF
330
1E
100
AcDbEntity
  8
ADP1DETAIL
100
AcDbCircle
 10
15.87637866925481
 20
5.853132746341767
 30
0.0
 40
0.0646958434783718
100
AcDbArc
 50
332.1988658577534
 51
56.58466916873241
  0
LINE
  5
9F0
330
1E
100
AcDbEntity
  8
ADP1DETAIL
100
AcDbLine
 10
15.93360678429463
 20
5.822958336449161
 30
0.0
 11
15.93410791643989
 21
5.823908772535925
 31
0.0
  0
LWPOLYLINE
  5
9F1
330
1E
100
AcDbEntity
  8
ADP1DETAIL
100
AcDbPolyline
 90
        2
 70
     0
 43
0.0
 10
16.003962162188
 20
7.187697963845537
 10
15.99475603045944
 20
7.153340212493412
  0
LWPOLYLINE
  5
9F5
330
1E
100
AcDbEntity
  8
ADP1DETAIL
100
AcDbPolyline
 90
        2
 70
     0
 43
0.0
 10
16.03814742157014
 20
7.176533394246473
 10
16.00446534262416
 20
7.187966919392057
  0
LWPOLYLINE
  5
9F9
330
1E
100
AcDbEntity
  8
ADP1DETAIL
100
AcDbPolyline
 90
        2
 70
     0
 43
0.0
 10
17.31661427798852
 20
6.378042083237814
 10
17.29296764754441
 20
6.404613586921601
  0
LWPOLYLINE
  5
9FD
330
1E
100
AcDbEntity
  8
ADP1DETAIL
100
AcDbPolyline
 90
        2
 70
     0
 43
0.0
 10
17.10892716450372
 20
5.902529158005022
 10
17.1443831798698
 20
5.905371501006562
  0
LWPOLYLINE
  5
A01
330
1E
100
AcDbEntity
  8
ADP1DETAIL
100
AcDbPolyline
 90
        2
 70
     0
 43
0.0
 10
17.07925137995982
 20
5.827773034340768
 10
17.0782168434483
 20
5.86332774814336
  0
LWPOLYLINE
  5
A05
330
1E
100
AcDbEntity
  8
ADP1DETAIL
100
AcDbPolyline
 90
        2
 70
     0
 43
0.0
 10
17.0433002253431
 20
5.828664132024321
 10
17.07884647569937
 20
5.827371063972193
  0
LWPOLYLINE
  5
A09
330
1E
100
AcDbEntity
  8
ADP1DETAIL
100
AcDbPolyline
 90
        2
 70
     0
 43
0.0
 10
17.04321606146307
 20
5.791737715844016
 10
17.0442505979746
 20
5.82729242964661
  0
LWPOLYLINE
  5
A0D
330
1E
100
AcDbEntity
  8
ADP1DETAIL
100
AcDbPolyline
 90
        2
 70
     0
 43
0.0
 10
17.1131304649723
 20
5.865842654210704
 10
17.11003035598181
 20
5.901277062116369
  0
LWPOLYLINE
  5
A11
330
1E
100
AcDbEntity
  8
ADP1DETAIL
100
AcDbPolyline
 90
        2
 70
     0
 43
0.0
 10
17.07718832129681
 20
5.86464187056369
 10
17.11274961824408
 20
5.865417820823424
  0
LINE
  5
A15
330
1E
100
AcDbEntity
  8
ADPDIM
100
AcDbLine
 10
16.95053628586523
 20
5.822927547273889
 30
0.0
 11
16.95004423862005
 21
5.823857357885837
 31
0.0
  0
ARC
  5
A16
330
1E
100
AcDbEntity
  8
ADP1DETAIL
100
AcDbCircle
 10
17.0077189140026
 20
5.853188069455135
 30
0.0
 40
0.0646958434783718
100
AcDbArc
 50
123.5041945653647
 51
207.8873825072968
  0
ARC
  5
A17
330
1E
100
AcDbEntity
  8
ADP1DETAIL
100
AcDbCircle
 10
17.00722686675742
 20
5.854117880067083
 30
0.0
 40
0.0646958434783718
100
AcDbArc
 50
207.8873825072969
 51
302.4606713270785
  0
LWPOLYLINE
  5
A18
330
1E
100
AcDbEntity
  8
ADP1DETAIL
100
AcDbPolyline
 90
        2
 70
     0
 43
0.0
 10
17.31217267873889
 20
6.327274371506537
 10
17.29011105018648
 20
6.355175849693079
  0
LWPOLYLINE
  5
A1C
330
1E
100
AcDbEntity
  8
ADP1DETAIL
100
AcDbPolyline
 90
        2
 70
     0
 43
0.0
 10
17.28280329717671
 20
6.306520600764518
 10
17.31208793569994
 20
6.326710149693159
  0
LWPOLYLINE
  5
A20
330
1E
100
AcDbEntity
  8
ADP1DETAIL
100
AcDbPolyline
 90
        2
 70
     0
 43
0.0
 10
17.30478671405941
 20
6.276850806736897
 10
17.2843847369663
 20
6.305987849656014
  0
LWPOLYLINE
  5
A24
330
1E
100
AcDbEntity
  8
ADP1DETAIL
100
AcDbPolyline
 90
        2
 70
     0
 43
0.0
 10
17.27426029639347
 20
6.25783982575639
 10
17.30466930781146
 20
6.276292466867028
  0
LWPOLYLINE
  5
A28
330
1E
100
AcDbEntity
  8
ADP1DETAIL
100
AcDbPolyline
 90
        2
 70
     0
 43
0.0
 10
17.27426029639346
 20
6.257839825756393
 10
17.30466930781146
 20
6.276292466867032
  0
LWPOLYLINE
  5
A2C
330
1E
100
AcDbEntity
  8
ADP1DETAIL
100
AcDbPolyline
 90
        2
 70
     0
 43
0.0
 10
17.30478671405941
 20
6.2768508067369
 10
17.2843847369663
 20
6.305987849656019
  0
LWPOLYLINE
  5
A30
330
1E
100
AcDbEntity
  8
ADP1DETAIL
100
AcDbPolyline
 90
        2
 70
     0
 43
0.0
 10
17.30478671405941
 20
6.276850806736902
 10
17.2843847369663
 20
6.305987849656017
  0
LWPOLYLINE
  5
A34
330
1E
100
AcDbEntity
  8
ADP1DETAIL
100
AcDbPolyline
 90
        2
 70
     0
 43
0.0
 10
17.27426029639346
 20
6.25783982575639
 10
17.30466930781146
 20
6.276292466867028
  0
LWPOLYLINE
  5
A38
330
1E
100
AcDbEntity
  8
ADP1DETAIL
100
AcDbPolyline
 90
        2
 70
     0
 43
0.0
 10
17.30478671405941
 20
6.276850806736898
 10
17.2843847369663
 20
6.305987849656016
  0
LWPOLYLINE
  5
A3C
330
1E
100
AcDbEntity
  8
ADP1DETAIL
100
AcDbPolyline
 90
        2
 70
     0
 43
0.0
 10
17.29448137571659
 20
6.226942006310874
 10
17.27580808391517
 20
6.257216023432444
  0
LWPOLYLINE
  5
A40
330
1E
100
AcDbEntity
  8
ADP1DETAIL
100
AcDbPolyline
 90
        2
 70
     0
 43
0.0
 10
17.26290121368136
 20
6.209738142233728
 10
17.29433170352523
 20
6.226391437629896
  0
LWPOLYLINE
  5
A44
330
1E
100
AcDbEntity
  8
ADP1DETAIL
100
AcDbPolyline
 90
        2
 70
     0
 43
0.0
 10
17.24876448458065
 20
6.16237831106735
 10
17.28111010202185
 20
6.1771759112689
  0
LWPOLYLINE
  5
A48
330
1E
100
AcDbEntity
  8
ADP1DETAIL
100
AcDbPolyline
 90
        2
 70
     0
 43
0.0
 10
17.28129153371332
 20
6.177716845810851
 10
17.26441011171215
 20
6.209025399443946
  0
LWPOLYLINE
  5
A4C
330
1E
100
AcDbEntity
  8
ADP1DETAIL
100
AcDbPolyline
 90
        2
 70
     0
 43
0.0
 10
17.28850130922067
 20
6.355615746925028
 10
17.31656248490219
 20
6.377473888628944
  0
LWPOLYLINE
  5
A50
330
1E
100
AcDbEntity
  8
ADP1DETAIL
100
AcDbPolyline
 90
        2
 70
     0
 43
0.0
 10
17.23189794330774
 20
6.115920582934518
 10
17.26504924101563
 20
6.12881241754644
  0
LWPOLYLINE
  5
A54
330
1E
100
AcDbEntity
  8
ADP1DETAIL
100
AcDbPolyline
 90
        2
 70
     0
 43
0.0
 10
17.24644646895884
 20
6.081980817218486
 10
17.23331389432236
 20
6.11503748708699
  0
LWPOLYLINE
  5
A58
330
1E
100
AcDbEntity
  8
ADP1DETAIL
100
AcDbPolyline
 90
        2
 70
     0
 43
0.0
 10
17.21235866089933
 20
6.070522156081388
 10
17.24620346537624
 20
6.081464603216168
  0
LWPOLYLINE
  5
A5C
330
1E
100
AcDbEntity
  8
ADP1DETAIL
100
AcDbPolyline
 90
        2
 70
     0
 43
0.0
 10
17.22490915087681
 20
6.035793889542374
 10
17.21372086889197
 20
6.069558224062775
  0
LWPOLYLINE
  5
A60
330
1E
100
AcDbEntity
  8
ADP1DETAIL
100
AcDbPolyline
 90
        2
 70
     0
 43
0.0
 10
17.19021275210207
 20
6.026336644413898
 10
17.22463654324298
 20
6.035292678294183
  0
LWPOLYLINE
  5
A64
330
1E
100
AcDbEntity
  8
ADP1DETAIL
100
AcDbPolyline
 90
        2
 70
     0
 43
0.0
 10
17.20072273952062
 20
5.990937386512896
 10
17.19151660779207
 20
6.025295137865024
  0
LWPOLYLINE
  5
A68
330
1E
100
AcDbEntity
  8
ADP1DETAIL
100
AcDbPolyline
 90
        2
 70
     0
 43
0.0
 10
17.16553515166119
 20
5.983513557716936
 10
17.20042145025348
 20
5.990452873959039
  0
LWPOLYLINE
  5
A6C
330
1E
100
AcDbEntity
  8
ADP1DETAIL
100
AcDbPolyline
 90
        2
 70
     0
 43
0.0
 10
17.1655351516612
 20
5.983513557716938
 10
17.20042145025348
 20
5.990452873959043
  0
LWPOLYLINE
  5
A70
330
1E
100
AcDbEntity
  8
ADP1DETAIL
100
AcDbPolyline
 90
        2
 70
     0
 43
0.0
 10
17.20072273952063
 20
5.990937386512899
 10
17.19151660779207
 20
6.025295137865027
  0
LWPOLYLINE
  5
A74
330
1E
100
AcDbEntity
  8
ADP1DETAIL
100
AcDbPolyline
 90
        2
 70
     0
 43
0.0
 10
17.20072273952062
 20
5.9909373865129
 10
17.19151660779207
 20
6.025295137865025
  0
LWPOLYLINE
  5
A78
330
1E
100
AcDbEntity
  8
ADP1DETAIL
100
AcDbPolyline
 90
        2
 70
     0
 43
0.0
 10
17.16553515166119
 20
5.983513557716935
 10
17.20042145025348
 20
5.990452873959039
  0
LWPOLYLINE
  5
A7C
330
1E
100
AcDbEntity
  8
ADP1DETAIL
100
AcDbPolyline
 90
        2
 70
     0
 43
0.0
 10
17.20072273952062
 20
5.990937386512896
 10
17.19151660779207
 20
6.025295137865024
  0
LWPOLYLINE
  5
A80
330
1E
100
AcDbEntity
  8
ADP1DETAIL
100
AcDbPolyline
 90
        2
 70
     0
 43
0.0
 10
17.17396907405026
 20
5.947563088337314
 10
17.16677624321365
 20
5.982398000766282
  0
LWPOLYLINE
  5
A84
330
1E
100
AcDbEntity
  8
ADP1DETAIL
100
AcDbPolyline
 90
        2
 70
     0
 43
0.0
 10
17.1384093607651
 20
5.942197795760556
 10
17.17364012261732
 20
5.947096913914904
  0
LWPOLYLINE
  5
A88
330
1E
100
AcDbEntity
  8
ADP1DETAIL
100
AcDbPolyline
 90
        2
 70
     0
 43
0.0
 10
17.144738680401
 20
5.905817759910843
 10
17.13958348871904
 20
5.941011963099723
  0
LWPOLYLINE
  5
A8C
330
1E
100
AcDbEntity
  8
ADP1DETAIL
100
AcDbPolyline
 90
        2
 70
     0
 43
0.0
 10
17.26526181829978
 20
6.1293418875981
 10
17.25022938748722
 20
6.161579039507716
  0
LWPOLYLINE
  5
A90
330
1E
100
AcDbEntity
  8
ADP1DETAIL
100
AcDbPolyline
 90
        2
 70
     0
 43
0.0
 10
17.14473868040101
 20
6.952146560217901
 10
17.10954447721213
 20
6.957301751899867
  0
LWPOLYLINE
  5
A94
330
1E
100
AcDbEntity
  8
ADP1DETAIL
100
AcDbPolyline
 90
        2
 70
     0
 43
0.0
 10
17.00514644159314
 20
7.10010568929721
 10
16.96971203368748
 20
7.097005580306713
  0
LWPOLYLINE
  5
A98
330
1E
100
AcDbEntity
  8
ADP1DETAIL
100
AcDbPolyline
 90
        2
 70
     0
 43
0.0
 10
17.00634722524015
 20
7.064163545621718
 10
17.00557127498042
 20
7.099724842568992
  0
LWPOLYLINE
  5
A9C
330
1E
100
AcDbEntity
  8
ADP1DETAIL
100
AcDbPolyline
 90
        2
 70
     0
 43
0.0
 10
17.00634722524015
 20
7.064163545621719
 10
17.00557127498042
 20
7.099724842568995
  0
LWPOLYLINE
  5
AA0
330
1E
100
AcDbEntity
  8
ADP1DETAIL
100
AcDbPolyline
 90
        2
 70
     0
 43
0.0
 10
17.00514644159314
 20
7.100105689297213
 10
16.96971203368747
 20
7.097005580306714
  0
LWPOLYLINE
  5
AA4
330
1E
100
AcDbEntity
  8
ADP1DETAIL
100
AcDbPolyline
 90
        2
 70
     0
 43
0.0
 10
17.00514644159314
 20
7.100105689297212
 10
16.96971203368748
 20
7.097005580306713
  0
LWPOLYLINE
  5
AA8
330
1E
100
AcDbEntity
  8
ADP1DETAIL
100
AcDbPolyline
 90
        2
 70
     0
 43
0.0
 10
17.00634722524015
 20
7.064163545621717
 10
17.00557127498042
 20
7.099724842568992
  0
LWPOLYLINE
  5
AAC
330
1E
100
AcDbEntity
  8
ADP1DETAIL
100
AcDbPolyline
 90
        2
 70
     0
 43
0.0
 10
17.00514644159314
 20
7.10010568929721
 10
16.96971203368748
 20
7.097005580306713
  0
LWPOLYLINE
  5
AB0
330
1E
100
AcDbEntity
  8
ADP1DETAIL
100
AcDbPolyline
 90
        2
 70
     0
 43
0.0
 10
17.04321606146308
 20
7.066226604284729
 10
17.00766134766048
 20
7.065192067773204
  0
LWPOLYLINE
  5
AB4
330
1E
100
AcDbEntity
  8
ADP1DETAIL
100
AcDbPolyline
 90
        2
 70
     0
 43
0.0
 10
17.04232496377952
 20
7.030275449668012
 10
17.04361803183165
 20
7.065821700024279
  0
LWPOLYLINE
  5
AB8
330
1E
100
AcDbEntity
  8
ADP1DETAIL
100
AcDbPolyline
 90
        2
 70
     0
 43
0.0
 10
17.07925137995983
 20
7.030191285787977
 10
17.04369666615723
 20
7.031225822299505
  0
LWPOLYLINE
  5
ABC
330
1E
100
AcDbEntity
  8
ADP1DETAIL
100
AcDbPolyline
 90
        2
 70
     0
 43
0.0
 10
17.0762714161382
 20
6.994352767557191
 10
17.07962912716921
 20
7.029763694063144
  0
LWPOLYLINE
  5
AC0
330
1E
100
AcDbEntity
  8
ADP1DETAIL
100
AcDbPolyline
 90
        2
 70
     0
 43
0.0
 10
17.11313046497231
 20
6.992121665918039
 10
17.07769605706664
 20
6.995221774908541
  0
LWPOLYLINE
  5
AC4
330
1E
100
AcDbEntity
  8
ADP1DETAIL
100
AcDbPolyline
 90
        2
 70
     0
 43
0.0
 10
17.10807171826689
 20
6.95651705027446
 10
17.11348271084552
 20
6.991672833563869
  0
LWPOLYLINE
  5
AC8
330
1E
100
AcDbEntity
  8
ADP1DETAIL
100
AcDbPolyline
 90
        2
 70
     0
 43
0.0
 10
16.88005170929095
 20
7.187697963845531
 10
16.84569395793882
 20
7.178491832116982
  0
LWPOLYLINE
  5
ACC
330
1E
100
AcDbEntity
  8
ADP1DETAIL
100
AcDbPolyline
 90
        2
 70
     0
 43
0.0
 10
16.88747553808691
 20
7.152510375986103
 10
16.88053622184481
 20
7.187396674578387
  0
LWPOLYLINE
  5
AD0
330
1E
100
AcDbEntity
  8
ADP1DETAIL
100
AcDbPolyline
 90
        2
 70
     0
 43
0.0
 10
16.92342600746653
 20
7.160944298375168
 10
16.88859109503756
 20
7.153751467538555
  0
LWPOLYLINE
  5
AD4
330
1E
100
AcDbEntity
  8
ADP1DETAIL
100
AcDbPolyline
 90
        2
 70
     0
 43
0.0
 10
16.92879130004329
 20
7.125384585090012
 10
16.92389218188894
 20
7.160615346942229
  0
LWPOLYLINE
  5
AD8
330
1E
100
AcDbEntity
  8
ADP1DETAIL
100
AcDbPolyline
 90
        2
 70
     0
 43
0.0
 10
16.965171335893
 20
7.131713904725913
 10
16.92997713270412
 20
7.12655871304395
  0
LWPOLYLINE
  5
ADC
330
1E
100
AcDbEntity
  8
ADP1DETAIL
100
AcDbPolyline
 90
        2
 70
     0
 43
0.0
 10
16.96845993779882
 20
7.095902388828625
 10
16.96561759479728
 20
7.131358404194701
  0
LWPOLYLINE
  5
AE0
330
1E
100
AcDbEntity
  8
ADP1DETAIL
100
AcDbPolyline
 90
        2
 70
     0
 43
0.0
 10
17.23138872380357
 20
6.743325519442267
 10
17.24665519024101
 20
6.77545250096703
  0
LWPOLYLINE
  5
AE4
330
1E
100
AcDbEntity
  8
ADP1DETAIL
100
AcDbPolyline
 90
        2
 70
     0
 43
0.0
 10
17.26526181829978
 20
6.728622432530642
 10
17.23302466639017
 20
6.743654863343205
  0
LWPOLYLINE
  5
AE8
330
1E
100
AcDbEntity
  8
ADP1DETAIL
100
AcDbPolyline
 90
        2
 70
     0
 43
0.0
 10
17.24833065560479
 20
6.696895231217689
 10
17.26543931144143
 20
6.728080192895418
  0
LWPOLYLINE
  5
AEC
330
1E
100
AcDbEntity
  8
ADP1DETAIL
100
AcDbPolyline
 90
        2
 70
     0
 43
0.0
 10
17.28129153371332
 20
6.680247474317893
 10
17.24998298008023
 20
6.697128896319067
  0
LWPOLYLINE
  5
AF0
330
1E
100
AcDbEntity
  8
ADP1DETAIL
100
AcDbPolyline
 90
        2
 70
     0
 43
0.0
 10
17.26254424317375
 20
6.649558409966211
 10
17.28143719813385
 20
6.679695831757956
  0
LWPOLYLINE
  5
AF4
330
1E
100
AcDbEntity
  8
ADP1DETAIL
100
AcDbPolyline
 90
        2
 70
     0
 43
0.0
 10
17.2944813757166
 20
6.631022313817869
 10
17.26420735859503
 20
6.649695605619291
  0
LWPOLYLINE
  5
AF8
330
1E
100
AcDbEntity
  8
ADP1DETAIL
100
AcDbPolyline
 90
        2
 70
     0
 43
0.0
 10
17.27398139222931
 20
6.601475228506831
 10
17.29459471853371
 20
6.630463134917023
  0
LWPOLYLINE
  5
AFC
330
1E
100
AcDbEntity
  8
ADP1DETAIL
100
AcDbPolyline
 90
        2
 70
     0
 43
0.0
 10
17.30478671405941
 20
6.581113513391844
 10
17.27564967114029
 20
6.601515490484952
  0
LWPOLYLINE
  5
B00
330
1E
100
AcDbEntity
  8
ADP1DETAIL
100
AcDbPolyline
 90
        2
 70
     0
 43
0.0
 10
17.28260340307941
 20
6.552808385105235
 10
17.3048673517569
 20
6.580548690234489
  0
LWPOLYLINE
  5
B04
330
1E
100
AcDbEntity
  8
ADP1DETAIL
100
AcDbPolyline
 90
        2
 70
     0
 43
0.0
 10
17.28260340307941
 20
6.552808385105239
 10
17.3048673517569
 20
6.580548690234493
  0
LWPOLYLINE
  5
B08
330
1E
100
AcDbEntity
  8
ADP1DETAIL
100
AcDbPolyline
 90
        2
 70
     0
 43
0.0
 10
17.30478671405941
 20
6.581113513391848
 10
17.27564967114029
 20
6.601515490484955
  0
LWPOLYLINE
  5
B0C
330
1E
100
AcDbEntity
  8
ADP1DETAIL
100
AcDbPolyline
 90
        2
 70
     0
 43
0.0
 10
17.30478671405941
 20
6.581113513391848
 10
17.27564967114029
 20
6.601515490484954
  0
LWPOLYLINE
  5
B10
330
1E
100
AcDbEntity
  8
ADP1DETAIL
100
AcDbPolyline
 90
        2
 70
     0
 43
0.0
 10
17.28260340307941
 20
6.552808385105235
 10
17.3048673517569
 20
6.580548690234489
  0
LWPOLYLINE
  5
B14
330
1E
100
AcDbEntity
  8
ADP1DETAIL
100
AcDbPolyline
 90
        2
 70
     0
 43
0.0
 10
17.30478671405941
 20
6.581113513391844
 10
17.27564967114029
 20
6.601515490484952
  0
LWPOLYLINE
  5
B18
330
1E
100
AcDbEntity
  8
ADP1DETAIL
100
AcDbPolyline
 90
        2
 70
     0
 43
0.0
 10
17.31217267873889
 20
6.530689948622206
 10
17.28427120055235
 20
6.552751577174607
  0
LWPOLYLINE
  5
B1C
330
1E
100
AcDbEntity
  8
ADP1DETAIL
100
AcDbPolyline
 90
        2
 70
     0
 43
0.0
 10
17.28838110156857
 20
6.503722552954369
 10
17.3122203384643
 20
6.530121392391113
  0
LWPOLYLINE
  5
B20
330
1E
100
AcDbEntity
  8
ADP1DETAIL
100
AcDbPolyline
 90
        2
 70
     0
 43
0.0
 10
17.31661427798852
 20
6.479922236890928
 10
17.29004277430474
 20
6.503568867335046
  0
LWPOLYLINE
  5
B24
330
1E
100
AcDbEntity
  8
ADP1DETAIL
100
AcDbPolyline
 90
        2
 70
     0
 43
0.0
 10
17.29129493779399
 20
6.454383822972475
 10
17.31662879847645
 20
6.479351871400412
  0
LWPOLYLINE
  5
B28
330
1E
100
AcDbEntity
  8
ADP1DETAIL
100
AcDbPolyline
 90
        2
 70
     0
 43
0.0
 10
17.31809648284242
 20
6.428982160064371
 10
17.29294486321885
 20
6.454133779687948
  0
LWPOLYLINE
  5
B2C
330
1E
100
AcDbEntity
  8
ADP1DETAIL
100
AcDbPolyline
 90
        2
 70
     0
 43
0.0
 10
17.29133505225624
 20
6.404959141804008
 10
17.31807781496011
 20
6.428411915250705
  0
LWPOLYLINE
  5
B30
330
1E
100
AcDbEntity
  8
ADP1DETAIL
100
AcDbPolyline
 90
        2
 70
     0
 43
0.0
 10
17.17396907405027
 20
6.910401231791428
 10
17.1391341616213
 20
6.917594062628046
  0
LWPOLYLINE
  5
B34
330
1E
100
AcDbEntity
  8
ADP1DETAIL
100
AcDbPolyline
 90
        2
 70
     0
 43
0.0
 10
17.16481108919397
 20
6.875624646468421
 10
17.17426683190694
 20
6.909914541031162
  0
LWPOLYLINE
  5
B38
330
1E
100
AcDbEntity
  8
ADP1DETAIL
100
AcDbPolyline
 90
        2
 70
     0
 43
0.0
 10
17.20072273952063
 20
6.867026933615847
 10
17.16636498816851
 20
6.876233065344401
  0
LWPOLYLINE
  5
B3C
330
1E
100
AcDbEntity
  8
ADP1DETAIL
100
AcDbPolyline
 90
        2
 70
     0
 43
0.0
 10
17.18955816992156
 20
6.832841674233704
 10
17.20099169506715
 20
6.866523753179683
  0
LWPOLYLINE
  5
B40
330
1E
100
AcDbEntity
  8
ADP1DETAIL
100
AcDbPolyline
 90
        2
 70
     0
 43
0.0
 10
17.18955816992156
 20
6.832841674233709
 10
17.20099169506715
 20
6.866523753179688
  0
LWPOLYLINE
  5
B44
330
1E
100
AcDbEntity
  8
ADP1DETAIL
100
AcDbPolyline
 90
        2
 70
     0
 43
0.0
 10
17.20072273952063
 20
6.86702693361585
 10
17.1663649881685
 20
6.876233065344404
  0
LWPOLYLINE
  5
B48
330
1E
100
AcDbEntity
  8
ADP1DETAIL
100
AcDbPolyline
 90
        2
 70
     0
 43
0.0
 10
17.20072273952063
 20
6.86702693361585
 10
17.1663649881685
 20
6.876233065344401
  0
LWPOLYLINE
  5
B4C
330
1E
100
AcDbEntity
  8
ADP1DETAIL
100
AcDbPolyline
 90
        2
 70
     0
 43
0.0
 10
17.18955816992156
 20
6.832841674233705
 10
17.20099169506715
 20
6.866523753179683
  0
LWPOLYLINE
  5
B50
330
1E
100
AcDbEntity
  8
ADP1DETAIL
100
AcDbPolyline
 90
        2
 70
     0
 43
0.0
 10
17.20072273952063
 20
6.867026933615847
 10
17.16636498816851
 20
6.876233065344401
  0
LWPOLYLINE
  5
B54
330
1E
100
AcDbEntity
  8
ADP1DETAIL
100
AcDbPolyline
 90
        2
 70
     0
 43
0.0
 10
17.22490915087682
 20
6.822170430586369
 10
17.19114481635642
 20
6.833358712571223
  0
LWPOLYLINE
  5
B58
330
1E
100
AcDbEntity
  8
ADP1DETAIL
100
AcDbPolyline
 90
        2
 70
     0
 43
0.0
 10
17.21177577390446
 20
6.788692169241755
 10
17.22514839405275
 20
6.821652463077629
  0
LWPOLYLINE
  5
B5C
330
1E
100
AcDbEntity
  8
ADP1DETAIL
100
AcDbPolyline
 90
        2
 70
     0
 43
0.0
 10
17.24644646895884
 20
6.775983502910259
 10
17.21338979909034
 20
6.789116077546742
  0
LWPOLYLINE
  5
B60
330
1E
100
AcDbEntity
  8
ADP1DETAIL
100
AcDbPolyline
 90
        2
 70
     0
 43
0.0
 10
17.13761826800934
 20
6.916896321910492
 10
17.14506423304951
 20
6.951678005941005
  0
LWPOLYLINE
  5
B64
330
1E
100
AcDbEntity
  8
ADP1DETAIL
100
AcDbPolyline
 90
        2
 70
     0
 43
0.0
 10
16.75506851286932
 20
7.218873167632655
 10
16.7421766782574
 20
7.252024465340538
  0
LWPOLYLINE
  5
B68
330
1E
100
AcDbEntity
  8
ADP1DETAIL
100
AcDbPolyline
 90
        2
 70
     0
 43
0.0
 10
16.75506851286932
 20
7.218873167632653
 10
16.7421766782574
 20
7.252024465340537
  0
LWPOLYLINE
  5
B6C
330
1E
100
AcDbEntity
  8
ADP1DETAIL
100
AcDbPolyline
 90
        2
 70
     0
 43
0.0
 10
16.75506851286932
 20
7.218873167632654
 10
16.7421766782574
 20
7.252024465340537
  0
LWPOLYLINE
  5
B70
330
1E
100
AcDbEntity
  8
ADP1DETAIL
100
AcDbPolyline
 90
        2
 70
     0
 43
0.0
 10
16.39106685891291
 20
7.303589502313433
 10
16.36742022846879
 20
7.277017998629649
  0
LWPOLYLINE
  5
B74
330
1E
100
AcDbEntity
  8
ADP1DETAIL
100
AcDbPolyline
 90
        2
 70
     0
 43
0.0
 10
16.23996678198597
 20
7.281456600041503
 10
16.22129349018455
 20
7.251182582919937
  0
LWPOLYLINE
  5
B78
330
1E
100
AcDbEntity
  8
ADP1DETAIL
100
AcDbPolyline
 90
        2
 70
     0
 43
0.0
 10
16.26951386729701
 20
7.260956616554218
 10
16.24052596088682
 20
7.281569942858621
  0
LWPOLYLINE
  5
B7C
330
1E
100
AcDbEntity
  8
ADP1DETAIL
100
AcDbPolyline
 90
        2
 70
     0
 43
0.0
 10
16.289875582412
 20
7.291761938384317
 10
16.26947360531889
 20
7.262624895465201
  0
LWPOLYLINE
  5
B80
330
1E
100
AcDbEntity
  8
ADP1DETAIL
100
AcDbPolyline
 90
        2
 70
     0
 43
0.0
 10
16.31818071069861
 20
7.269578627404319
 10
16.29044040556935
 20
7.291842576081805
  0
LWPOLYLINE
  5
B84
330
1E
100
AcDbEntity
  8
ADP1DETAIL
100
AcDbPolyline
 90
        2
 70
     0
 43
0.0
 10
16.34029914718164
 20
7.299147903063793
 10
16.31823751862923
 20
7.271246424877254
  0
LWPOLYLINE
  5
B88
330
1E
100
AcDbEntity
  8
ADP1DETAIL
100
AcDbPolyline
 90
        2
 70
     0
 43
0.0
 10
16.36726654284947
 20
7.275356325893479
 10
16.34086770341273
 20
7.299195562789213
  0
LWPOLYLINE
  5
B8C
330
1E
100
AcDbEntity
  8
ADP1DETAIL
100
AcDbPolyline
 90
        2
 70
     0
 43
0.0
 10
16.1423666632732
 20
7.25223704262469
 10
16.12733423246064
 20
7.219999890715075
  0
LWPOLYLINE
  5
B90
330
1E
100
AcDbEntity
  8
ADP1DETAIL
100
AcDbPolyline
 90
        2
 70
     0
 43
0.0
 10
16.17409386458615
 20
7.235305879929706
 10
16.14290890290842
 20
7.252414535766342
  0
LWPOLYLINE
  5
B94
330
1E
100
AcDbEntity
  8
ADP1DETAIL
100
AcDbPolyline
 90
        2
 70
     0
 43
0.0
 10
16.17409386458615
 20
7.235305879929703
 10
16.14290890290842
 20
7.252414535766339
  0
LWPOLYLINE
  5
B98
330
1E
100
AcDbEntity
  8
ADP1DETAIL
100
AcDbPolyline
 90
        2
 70
     0
 43
0.0
 10
16.14236666327319
 20
7.252237042624687
 10
16.12733423246064
 20
7.219999890715071
  0
LWPOLYLINE
  5
B9C
330
1E
100
AcDbEntity
  8
ADP1DETAIL
100
AcDbPolyline
 90
        2
 70
     0
 43
0.0
 10
16.14236666327319
 20
7.252237042624686
 10
16.12733423246064
 20
7.219999890715071
  0
LWPOLYLINE
  5
BA0
330
1E
100
AcDbEntity
  8
ADP1DETAIL
100
AcDbPolyline
 90
        2
 70
     0
 43
0.0
 10
16.17409386458615
 20
7.235305879929705
 10
16.14290890290842
 20
7.252414535766339
  0
LWPOLYLINE
  5
BA4
330
1E
100
AcDbEntity
  8
ADP1DETAIL
100
AcDbPolyline
 90
        2
 70
     0
 43
0.0
 10
16.1423666632732
 20
7.252237042624688
 10
16.12733423246064
 20
7.219999890715073
  0
LWPOLYLINE
  5
BA8
330
1E
100
AcDbEntity
  8
ADP1DETAIL
100
AcDbPolyline
 90
        2
 70
     0
 43
0.0
 10
16.19074162148595
 20
7.26826675803823
 10
16.17386019948478
 20
7.236958204405137
  0
LWPOLYLINE
  5
BAC
330
1E
100
AcDbEntity
  8
ADP1DETAIL
100
AcDbPolyline
 90
        2
 70
     0
 43
0.0
 10
16.08229692656209
 20
7.198750998229361
 10
16.04933663272621
 20
7.212123618377662
  0
LWPOLYLINE
  5
BB0
330
1E
100
AcDbEntity
  8
ADP1DETAIL
100
AcDbPolyline
 90
        2
 70
     0
 43
0.0
 10
16.09500559289358
 20
7.233421693283752
 10
16.0818730182571
 20
7.200365023415248
  0
LWPOLYLINE
  5
BB4
330
1E
100
AcDbEntity
  8
ADP1DETAIL
100
AcDbPolyline
 90
        2
 70
     0
 43
0.0
 10
16.12766357636158
 20
7.218363948128481
 10
16.09553659483681
 20
7.233630414565919
  0
LWPOLYLINE
  5
BB8
330
1E
100
AcDbEntity
  8
ADP1DETAIL
100
AcDbPolyline
 90
        2
 70
     0
 43
0.0
 10
16.22143068583763
 20
7.24951946749866
 10
16.19129326404589
 20
7.268412422458759
  0
LWPOLYLINE
  5
BBC
330
1E
100
AcDbEntity
  8
ADP1DETAIL
100
AcDbPolyline
 90
        2
 70
     0
 43
0.0
 10
16.74164720820574
 20
7.252237042624686
 10
16.70941005629613
 20
7.237204611812128
  0
LWPOLYLINE
  5
BC0
330
1E
100
AcDbEntity
  8
ADP1DETAIL
100
AcDbPolyline
 90
        2
 70
     0
 43
0.0
 10
16.74164720820574
 20
7.252237042624686
 10
16.70941005629613
 20
7.237204611812126
  0
LWPOLYLINE
  5
BC4
330
1E
100
AcDbEntity
  8
ADP1DETAIL
100
AcDbPolyline
 90
        2
 70
     0
 43
0.0
 10
16.74164720820575
 20
7.252237042624686
 10
16.70941005629613
 20
7.237204611812128
  0
LWPOLYLINE
  5
BC8
330
1E
100
AcDbEntity
  8
ADP1DETAIL
100
AcDbPolyline
 90
        2
 70
     0
 43
0.0
 10
16.74164720820574
 20
7.252237042624686
 10
16.70941005629613
 20
7.237204611812128
  0
LWPOLYLINE
  5
BCC
330
1E
100
AcDbEntity
  8
ADP1DETAIL
100
AcDbPolyline
 90
        2
 70
     0
 43
0.0
 10
16.70861078473649
 20
7.235739708905558
 10
16.69381318453494
 20
7.268085326346765
  0
LWPOLYLINE
  5
BD0
330
1E
100
AcDbEntity
  8
ADP1DETAIL
100
AcDbPolyline
 90
        2
 70
     0
 43
0.0
 10
16.66125095357011
 20
7.249876438006266
 10
16.64459765817395
 20
7.28130692785014
  0
LWPOLYLINE
  5
BD4
330
1E
100
AcDbEntity
  8
ADP1DETAIL
100
AcDbPolyline
 90
        2
 70
     0
 43
0.0
 10
16.69327224999299
 20
7.268266758038229
 10
16.6619636963599
 20
7.251385336037058
  0
LWPOLYLINE
  5
BD8
330
1E
100
AcDbEntity
  8
ADP1DETAIL
100
AcDbPolyline
 90
        2
 70
     0
 43
0.0
 10
16.64404708949297
 20
7.281456600041502
 10
16.6137730723714
 20
7.262783308240083
  0
LWPOLYLINE
  5
BDC
330
1E
100
AcDbEntity
  8
ADP1DETAIL
100
AcDbPolyline
 90
        2
 70
     0
 43
0.0
 10
16.61314927004745
 20
7.261235520718375
 10
16.59469662893681
 20
7.29164453213637
  0
LWPOLYLINE
  5
BE0
330
1E
100
AcDbEntity
  8
ADP1DETAIL
100
AcDbPolyline
 90
        2
 70
     0
 43
0.0
 10
16.41660527283137
 20
7.278270162118899
 10
16.39163722440343
 20
7.303604022801356
  0
LWPOLYLINE
  5
BE4
330
1E
100
AcDbEntity
  8
ADP1DETAIL
100
AcDbPolyline
 90
        2
 70
     0
 43
0.0
 10
16.44200693573947
 20
7.305071707167328
 10
16.4168553161159
 20
7.279920087543754
  0
LWPOLYLINE
  5
BE8
330
1E
100
AcDbEntity
  8
ADP1DETAIL
100
AcDbPolyline
 90
        2
 70
     0
 43
0.0
 10
16.46602995399983
 20
7.278310276581147
 10
16.44257718055313
 20
7.305053039285021
  0
LWPOLYLINE
  5
BEC
330
1E
100
AcDbEntity
  8
ADP1DETAIL
100
AcDbPolyline
 90
        2
 70
     0
 43
0.0
 10
16.56446849503932
 20
7.269778521501621
 10
16.54427894611068
 20
7.299063160024845
  0
LWPOLYLINE
  5
BF0
330
1E
100
AcDbEntity
  8
ADP1DETAIL
100
AcDbPolyline
 90
        2
 70
     0
 43
0.0
 10
16.54371472429731
 20
7.299147903063793
 10
16.51581324611076
 20
7.277086274511395
  0
LWPOLYLINE
  5
BF4
330
1E
100
AcDbEntity
  8
ADP1DETAIL
100
AcDbPolyline
 90
        2
 70
     0
 43
0.0
 10
16.51537334887882
 20
7.275476533545575
 10
16.4935152071749
 20
7.3035377092271
  0
LWPOLYLINE
  5
BF8
330
1E
100
AcDbEntity
  8
ADP1DETAIL
100
AcDbPolyline
 90
        2
 70
     0
 43
0.0
 10
16.49294701256603
 20
7.303589502313431
 10
16.46637550888224
 20
7.279942871869316
  0
LWPOLYLINE
  5
BFC
330
1E
100
AcDbEntity
  8
ADP1DETAIL
100
AcDbPolyline
 90
        2
 70
     0
 43
0.0
 10
16.44200693573947
 20
7.305071707167327
 10
16.4168553161159
 20
7.279920087543754
  0
LWPOLYLINE
  5
C00
330
1E
100
AcDbEntity
  8
ADP1DETAIL
100
AcDbPolyline
 90
        2
 70
     0
 43
0.0
 10
16.46602995399983
 20
7.278310276581147
 10
16.44257718055314
 20
7.305053039285021
  0
LWPOLYLINE
  5
C04
330
1E
100
AcDbEntity
  8
ADP1DETAIL
100
AcDbPolyline
 90
        2
 70
     0
 43
0.0
 10
16.44200693573947
 20
7.305071707167327
 10
16.4168553161159
 20
7.279920087543752
  0
LWPOLYLINE
  5
C08
330
1E
100
AcDbEntity
  8
ADP1DETAIL
100
AcDbPolyline
 90
        2
 70
     0
 43
0.0
 10
16.44200693573947
 20
7.305071707167327
 10
16.41685531611589
 20
7.279920087543752
  0
LWPOLYLINE
  5
C0C
330
1E
100
AcDbEntity
  8
ADP1DETAIL
100
AcDbPolyline
 90
        2
 70
     0
 43
0.0
 10
16.46602995399983
 20
7.278310276581147
 10
16.44257718055313
 20
7.305053039285021
  0
LWPOLYLINE
  5
C10
330
1E
100
AcDbEntity
  8
ADP1DETAIL
100
AcDbPolyline
 90
        2
 70
     0
 43
0.0
 10
16.59413828906695
 20
7.291761938384315
 10
16.56500124614783
 20
7.271359961291212
  0
LWPOLYLINE
  5
C14
330
1E
100
AcDbEntity
  8
ADP1DETAIL
100
AcDbPolyline
 90
        2
 70
     0
 43
0.0
 10
16.78900827858536
 20
7.233421693283746
 10
16.75595160871686
 20
7.220289118647268
  0
LWPOLYLINE
  5
C18
330
1E
100
AcDbEntity
  8
ADP1DETAIL
100
AcDbPolyline
 90
        2
 70
     0
 43
0.0
 10
16.80046693972246
 20
7.199333885224239
 10
16.78952449258768
 20
7.233178689701151
  0
LWPOLYLINE
  5
C1C
330
1E
100
AcDbEntity
  8
ADP1DETAIL
100
AcDbPolyline
 90
        2
 70
     0
 43
0.0
 10
16.83519520626147
 20
7.211884375201725
 10
16.80143087174107
 20
7.200696093216875
  0
DIMENSION
  5
C20
330
1E
100
AcDbEntity
  8
ADPDIM
100
AcDbDimension
  2
*D0
 10
17.31661427798852
 20
7.545029377699682
 30
0.0
 11
16.44200693573947
 21
7.545029377699682
 31
0.0
100
AcDbAlignedDimension
 13
15.56739959349041
 23
6.479922236890937
 33
0.0
 14
17.31661427798852
 24
6.479922236890928
 34
0.0
100
AcDbRotatedDimension
  0
DIMENSION
  5
C21
330
1E
100
AcDbEntity
  8
ADPDIM
100
AcDbDimension
  2
*D1
 10
22.82723438946052
 20
7.545029377699682
 30
0.0
 11
20.32723438946052
 21
7.545029377699682
 31
0.0
100
AcDbAlignedDimension
 13
17.82723438946052
 23
7.242571707167327
 33
0.0
 14
22.82723438946052
 24
7.242571707167327
 34
0.0
100
AcDbRotatedDimension
  0
TEXT
  5
CD7
330
1E
100
AcDbEntity
  8
ADPDIM
100
AcDbText
 10
12.68654835065354
 20
4.837289543178024
 30
0.0
 40
0.125
  1
J U L I U S  B L U M  &  C O . ,  I N C .      ( 8 0 0 )  5 2 6 - 6 2 9 3        W W W . J U L I U S B L U M . C O M        P A R T  N o .  9 3 6 3
 41
1.25
  7
ARIAL_WIDE
 72
     1
 11
19.21227737521016
 21
4.962289543178024
 31
0.0
100
AcDbText
 73
     3
  0
ENDSEC
  0
SECTION
  2
OBJECTS
  0
DICTIONARY
  5
C
330
0
100
AcDbDictionary
  3
ACAD_GROUP
350
D
  3
ACAD_LAYOUT
350
19
  3
ACAD_MLINESTYLE
350
16
  3
ACAD_PLOTSETTINGS
350
18
  3
ACAD_PLOTSTYLENAME
350
E
  3
ACDBHEADERROUNDTRIPXREC
350
E9E
  3
ACDBVARIABLEDICTIONARY
350
C96
  0
DICTIONARY
  5
C61
330
1E
100
AcDbDictionary
280
     1
  3
ACAD_LAYOUTSELFREF
360
EC0
  0
DICTIONARY
  5
C63
330
1A
100
AcDbDictionary
280
     1
  3
ACAD_LAYOUTSELFREF
360
EBF
  0
DICTIONARY
  5
D
102
{ACAD_REACTORS
330
C
102
}
330
C
100
AcDbDictionary
  0
DICTIONARY
  5
19
102
{ACAD_REACTORS
330
C
102
}
330
C
100
AcDbDictionary
  0
DICTIONARY
  5
16
102
{ACAD_REACTORS
330
C
102
}
330
C
100
AcDbDictionary
  3
STANDARD
350
17
  0
DICTIONARY
  5
18
102
{ACAD_REACTORS
330
C
102
}
330
C
100
AcDbDictionary
  0
ACDBDICTIONARYWDFLT
  5
E
102
{ACAD_REACTORS
330
C
102
}
330
C
100
AcDbDictionary
281
     1
  3
Normal
350
F
100
AcDbDictionaryWithDefault
340
F
  0
DICTIONARY
  5
E9E
102
{ACAD_REACTORS
330
C
102
}
330
C
100
AcDbDictionary
  3
CEPSNTYPE
350
EA8
  3
DIMSTYLEDATA
350
EAC
  3
FINGERPRINTGUID
350
EA9
  3
HYPERLINKBASE
350
EA1
  3
INSUNITS
350
EA7
  3
LAYOUTDICT
350
EA3
  3
LWETCUNION
350
EA6
  3
PLOTSETDICT
350
EA4
  3
PLOTSTYLNAMDICT
350
EA5
  3
PSVPSCALE
350
EAB
  3
PUCSBASE
350
EAF
  3
PUCSORGBACK
350
EB5
  3
PUCSORGBOTTOM
350
EB1
  3
PUCSORGFRONT
350
EB4
  3
PUCSORGLEFT
350
EB2
  3
PUCSORGRIGHT
350
EB3
  3
PUCSORGTOP
350
EB0
  3
PUCSORTHOREF
350
EAD
  3
PUCSORTHOVIEW
350
EAE
  3
STYLESHEET
350
EA2
  3
TSTACKALIGN
350
E9F
  3
TSTACKSIZE
350
EA0
  3
UCSBASE
350
EB8
  3
UCSORGBACK
350
EBE
  3
UCSORGBOTTOM
350
EBA
  3
UCSORGFRONT
350
EBD
  3
UCSORGLEFT
350
EBB
  3
UCSORGRIGHT
350
EBC
  3
UCSORGTOP
350
EB9
  3
UCSORTHOREF
350
EB6
  3
UCSORTHOVIEW
350
EB7
  3
VERSIONGUID
350
EAA
  0
DICTIONARY
  5
C96
102
{ACAD_REACTORS
330
C
102
}
330
C
100
AcDbDictionary
  3
DIMASSOC
350
C98
  3
HIDETEXT
350
C97
  0
XRECORD
  5
EC0
102
{ACAD_REACTORS
330
C61
102
}
330
C61
100
AcDbXrecord
340
1E
  0
XRECORD
  5
EBF
102
{ACAD_REACTORS
330
C63
102
}
330
C63
100
AcDbXrecord
340
1A
  0
MLINESTYLE
  5
17
102
{ACAD_REACTORS
330
16
102
}
330
16
100
AcDbMlineStyle
  2
STANDARD
 70
     0
  3

 62
   256
 51
90.0
 52
90.0
 71
     2
 49
0.5
 62
   256
  6
BYLAYER
 49
-0.5
 62
   256
  6
BYLAYER
  0
ACDBPLACEHOLDER
  5
F
102
{ACAD_REACTORS
330
E
102
}
330
E
100
AcDbPlaceHolder
280
     0
  0
XRECORD
  5
EA8
102
{ACAD_REACTORS
330
E9E
102
}
330
E9E
100
AcDbXrecord
 90
        0
  0
XRECORD
  5
EAC
102
{ACAD_REACTORS
330
E9E
102
}
330
E9E
100
AcDbXrecord
1000
DSTYLE
1002
{
1070
   277
 70
     5
1070
   279
 70
     2
1002
}
  0
XRECORD
  5
EA9
102
{ACAD_REACTORS
330
E9E
102
}
330
E9E
100
AcDbXrecord
  1
{B66584D7-8745-43A5-ABBA-EECA6DA855F5}
  0
XRECORD
  5
EA1
102
{ACAD_REACTORS
330
E9E
102
}
330
E9E
100
AcDbXrecord
  1

  0
XRECORD
  5
EA7
102
{ACAD_REACTORS
330
E9E
102
}
330
E9E
100
AcDbXrecord
 90
        0
  0
XRECORD
  5
EA3
102
{ACAD_REACTORS
330
E9E
102
}
330
E9E
100
AcDbXrecord
340
19
  0
XRECORD
  5
EA6
102
{ACAD_REACTORS
330
E9E
102
}
330
E9E
100
AcDbXrecord
 90
    14877
  0
XRECORD
  5
EA4
102
{ACAD_REACTORS
330
E9E
102
}
330
E9E
100
AcDbXrecord
340
18
  0
XRECORD
  5
EA5
102
{ACAD_REACTORS
330
E9E
102
}
330
E9E
100
AcDbXrecord
340
E
  0
XRECORD
  5
EAB
102
{ACAD_REACTORS
330
E9E
102
}
330
E9E
100
AcDbXrecord
 40
0.0
  0
XRECORD
  5
EAF
102
{ACAD_REACTORS
330
E9E
102
}
330
E9E
100
AcDbXrecord
340
0
  0
XRECORD
  5
EB5
102
{ACAD_REACTORS
330
E9E
102
}
330
E9E
100
AcDbXrecord
 10
0.0
 20
0.0
 30
0.0
  0
XRECORD
  5
EB1
102
{ACAD_REACTORS
330
E9E
102
}
330
E9E
100
AcDbXrecord
 10
0.0
 20
0.0
 30
0.0
  0
XRECORD
  5
EB4
102
{ACAD_REACTORS
330
E9E
102
}
330
E9E
100
AcDbXrecord
 10
0.0
 20
0.0
 30
0.0
  0
XRECORD
  5
EB2
102
{ACAD_REACTORS
330
E9E
102
}
330
E9E
100
AcDbXrecord
 10
0.0
 20
0.0
 30
0.0
  0
XRECORD
  5
EB3
102
{ACAD_REACTORS
330
E9E
102
}
330
E9E
100
AcDbXrecord
 10
0.0
 20
0.0
 30
0.0
  0
XRECORD
  5
EB0
102
{ACAD_REACTORS
330
E9E
102
}
330
E9E
100
AcDbXrecord
 10
0.0
 20
0.0
 30
0.0
  0
XRECORD
  5
EAD
102
{ACAD_REACTORS
330
E9E
102
}
330
E9E
100
AcDbXrecord
340
0
  0
XRECORD
  5
EAE
102
{ACAD_REACTORS
330
E9E
102
}
330
E9E
100
AcDbXrecord
 70
     0
  0
XRECORD
  5
EA2
102
{ACAD_REACTORS
330
E9E
102
}
330
E9E
100
AcDbXrecord
  1

  0
XRECORD
  5
E9F
102
{ACAD_REACTORS
330
E9E
102
}
330
E9E
100
AcDbXrecord
 90
        1
  0
XRECORD
  5
EA0
102
{ACAD_REACTORS
330
E9E
102
}
330
E9E
100
AcDbXrecord
 90
       70
  0
XRECORD
  5
EB8
102
{ACAD_REACTORS
330
E9E
102
}
330
E9E
100
AcDbXrecord
340
0
  0
XRECORD
  5
EBE
102
{ACAD_REACTORS
330
E9E
102
}
330
E9E
100
AcDbXrecord
 10
0.0
 20
0.0
 30
0.0
  0
XRECORD
  5
EBA
102
{ACAD_REACTORS
330
E9E
102
}
330
E9E
100
AcDbXrecord
 10
0.0
 20
0.0
 30
0.0
  0
XRECORD
  5
EBD
102
{ACAD_REACTORS
330
E9E
102
}
330
E9E
100
AcDbXrecord
 10
0.0
 20
0.0
 30
0.0
  0
XRECORD
  5
EBB
102
{ACAD_REACTORS
330
E9E
102
}
330
E9E
100
AcDbXrecord
 10
0.0
 20
0.0
 30
0.0
  0
XRECORD
  5
EBC
102
{ACAD_REACTORS
330
E9E
102
}
330
E9E
100
AcDbXrecord
 10
0.0
 20
0.0
 30
0.0
  0
XRECORD
  5
EB9
102
{ACAD_REACTORS
330
E9E
102
}
330
E9E
100
AcDbXrecord
 10
0.0
 20
0.0
 30
0.0
  0
XRECORD
  5
EB6
102
{ACAD_REACTORS
330
E9E
102
}
330
E9E
100
AcDbXrecord
340
0
  0
XRECORD
  5
EB7
102
{ACAD_REACTORS
330
E9E
102
}
330
E9E
100
AcDbXrecord
 70
     0
  0
XRECORD
  5
EAA
102
{ACAD_REACTORS
330
E9E
102
}
330
E9E
100
AcDbXrecord
  1
{90119A05-4281-4F35-9986-6CACBE90FCFD}
  0
DICTIONARYVAR
  5
C98
102
{ACAD_REACTORS
330
C96
102
}
330
C96
100
DictionaryVariables
280
     0
  1
2
  0
DICTIONARYVAR
  5
C97
102
{ACAD_REACTORS
330
C96
102
}
330
C96
100
DictionaryVariables
280
     0
  1
1
  0
ENDSEC
  0
EOF
