  0
SECTION
  2
HEADER
  9
$ACADVER
  1
AC1014
  9
$ACADMAINTVER
 70
     9
  9
$DWGCODEPAGE
  3
ANSI_1252
  9
$INSBASE
 10
-141.6623267852876
 20
109.4716128342841
 30
0.0
  9
$EXTMIN
 10
-151.4789855975815
 20
105.4333206734249
 30
0.0
  9
$EXTMAX
 10
-131.9017985239116
 20
115.4915293886327
 30
0.0
  9
$LIMMIN
 10
0.0
 20
0.0
  9
$LIMMAX
 10
36.0
 20
36.0
  9
$ORTHOMODE
 70
     1
  9
$REGENMODE
 70
     1
  9
$FILLMODE
 70
     1
  9
$QTEXTMODE
 70
     0
  9
$MIRRTEXT
 70
     1
  9
$DRAGMODE
 70
     0
  9
$LTSCALE
 40
1.0
  9
$OSMODE
 70
    37
  9
$ATTMODE
 70
     1
  9
$TEXTSIZE
 40
0.2
  9
$TRACEWID
 40
0.05
  9
$TEXTSTYLE
  7
STANDARD
  9
$CLAYER
  8
0
  9
$CELTYPE
  6
BYLAYER
  9
$CECOLOR
 62
   256
  9
$CELTSCALE
 40
1.0
  9
$DELOBJ
 70
     1
  9
$DISPSILH
 70
     0
  9
$DIMSCALE
 40
1.0
  9
$DIMASZ
 40
0.125
  9
$DIMEXO
 40
0.0625
  9
$DIMDLI
 40
0.38
  9
$DIMRND
 40
0.0
  9
$DIMDLE
 40
0.0
  9
$DIMEXE
 40
0.18
  9
$DIMTP
 40
0.0
  9
$DIMTM
 40
0.0
  9
$DIMTXT
 40
0.125
  9
$DIMCEN
 40
0.1875
  9
$DIMTSZ
 40
0.125
  9
$DIMTOL
 70
     0
  9
$DIMLIM
 70
     0
  9
$DIMTIH
 70
     0
  9
$DIMTOH
 70
     0
  9
$DIMSE1
 70
     0
  9
$DIMSE2
 70
     0
  9
$DIMTAD
 70
     0
  9
$DIMZIN
 70
     3
  9
$DIMBLK
  1

  9
$DIMASO
 70
     1
  9
$DIMSHO
 70
     1
  9
$DIMPOST
  1

  9
$DIMAPOST
  1

  9
$DIMALT
 70
     0
  9
$DIMALTD
 70
     1
  9
$DIMALTF
 40
25.4
  9
$DIMLFAC
 40
1.0
  9
$DIMTOFL
 70
     0
  9
$DIMTVP
 40
0.0
  9
$DIMTIX
 70
     0
  9
$DIMSOXD
 70
     0
  9
$DIMSAH
 70
     0
  9
$DIMBLK1
  1

  9
$DIMBLK2
  1

  9
$DIMSTYLE
  2
STANDARD
  9
$DIMCLRD
 70
     0
  9
$DIMCLRE
 70
     0
  9
$DIMCLRT
 70
     0
  9
$DIMTFAC
 40
1.0
  9
$DIMGAP
 40
0.125
  9
$DIMJUST
 70
     0
  9
$DIMSD1
 70
     0
  9
$DIMSD2
 70
     0
  9
$DIMTOLJ
 70
     1
  9
$DIMTZIN
 70
     3
  9
$DIMALTZ
 70
     3
  9
$DIMALTTZ
 70
     3
  9
$DIMFIT
 70
     5
  9
$DIMUPT
 70
     0
  9
$DIMUNIT
 70
     5
  9
$DIMDEC
 70
     4
  9
$DIMTDEC
 70
     4
  9
$DIMALTU
 70
     5
  9
$DIMALTTD
 70
     1
  9
$DIMTXSTY
  7
STANDARD
  9
$DIMAUNIT
 70
     0
  9
$LUNITS
 70
     5
  9
$LUPREC
 70
     4
  9
$SKETCHINC
 40
0.1
  9
$FILLETRAD
 40
0.062
  9
$AUNITS
 70
     0
  9
$AUPREC
 70
     0
  9
$MENU
  1
acad
  9
$ELEVATION
 40
0.0
  9
$PELEVATION
 40
0.0
  9
$THICKNESS
 40
0.0
  9
$LIMCHECK
 70
     0
  9
$BLIPMODE
 70
     0
  9
$CHAMFERA
 40
0.0
  9
$CHAMFERB
 40
0.0
  9
$CHAMFERC
 40
0.0
  9
$CHAMFERD
 40
0.0
  9
$SKPOLY
 70
     0
  9
$TDCREATE
 40
2450387.552859953
  9
$TDUPDATE
 40
2452297.105075949
  9
$TDINDWG
 40
0.0122459259
  9
$TDUSRTIMER
 40
0.0122459259
  9
$USRTIMER
 70
     1
  9
$ANGBASE
 50
0.0
  9
$ANGDIR
 70
     0
  9
$PDMODE
 70
     0
  9
$PDSIZE
 40
0.0
  9
$PLINEWID
 40
0.0
  9
$COORDS
 70
     2
  9
$SPLFRAME
 70
     0
  9
$SPLINETYPE
 70
     6
  9
$SPLINESEGS
 70
     8
  9
$ATTDIA
 70
     0
  9
$ATTREQ
 70
     1
  9
$HANDLING
 70
 22529
  9
$HANDSEED
  5
69E
  9
$SURFTAB1
 70
     6
  9
$SURFTAB2
 70
     6
  9
$SURFTYPE
 70
     6
  9
$SURFU
 70
     6
  9
$SURFV
 70
     6
  9
$UCSNAME
  2

  9
$UCSORG
 10
0.0
 20
0.0
 30
0.0
  9
$UCSXDIR
 10
1.0
 20
0.0
 30
0.0
  9
$UCSYDIR
 10
0.0
 20
1.0
 30
0.0
  9
$PUCSNAME
  2

  9
$PUCSORG
 10
0.0
 20
0.0
 30
0.0
  9
$PUCSXDIR
 10
1.0
 20
0.0
 30
0.0
  9
$PUCSYDIR
 10
0.0
 20
1.0
 30
0.0
  9
$USERI1
 70
     0
  9
$USERI2
 70
     0
  9
$USERI3
 70
     0
  9
$USERI4
 70
     0
  9
$USERI5
 70
     0
  9
$USERR1
 40
0.0
  9
$USERR2
 40
0.0
  9
$USERR3
 40
0.0
  9
$USERR4
 40
0.0
  9
$USERR5
 40
0.0
  9
$WORLDVIEW
 70
     1
  9
$SHADEDGE
 70
     3
  9
$SHADEDIF
 70
    70
  9
$TILEMODE
 70
     1
  9
$MAXACTVP
 70
    15
  9
$PINSBASE
 10
0.0
 20
0.0
 30
0.0
  9
$PLIMCHECK
 70
     0
  9
$PEXTMIN
 10
1.000000000000000E+20
 20
1.000000000000000E+20
 30
1.000000000000000E+20
  9
$PEXTMAX
 10
-1.000000000000000E+20
 20
-1.000000000000000E+20
 30
-1.000000000000000E+20
  9
$PLIMMIN
 10
0.0
 20
0.0
  9
$PLIMMAX
 10
12.0
 20
9.0
  9
$UNITMODE
 70
     0
  9
$VISRETAIN
 70
     0
  9
$PLINEGEN
 70
     0
  9
$PSLTSCALE
 70
     1
  9
$TREEDEPTH
 70
  3020
  9
$PICKSTYLE
 70
     1
  9
$CMLSTYLE
  2
STANDARD
  9
$CMLJUST
 70
     0
  9
$CMLSCALE
 40
1.0
  9
$PROXYGRAPHICS
 70
     1
  9
$MEASUREMENT
 70
     0
  0
ENDSEC
  0
SECTION
  2
CLASSES
  0
CLASS
  1
ACDBDICTIONARYWDFLT
  2
AcDbDictionaryWithDefault
  3
AutoCAD 2000
 90
        0
280
     0
281
     0
  0
CLASS
  1
ACDBPLACEHOLDER
  2
AcDbPlaceHolder
  3
AutoCAD 2000
 90
        0
280
     0
281
     0
  0
CLASS
  1
LAYOUT
  2
AcDbLayout
  3
AutoCAD 2000
 90
        0
280
     0
281
     0
  0
CLASS
  1
DICTIONARYVAR
  2
AcDbDictionaryVar
  3
AutoCAD 2000
 90
        0
280
     0
281
     0
  0
CLASS
  1
LONG_TRANSACTION
  2
AcDbLongTransaction
  3
AutoCAD 2000
 90
        0
280
     0
281
     0
  0
CLASS
  1
LWPOLYLINE
  2
AcDbPolyline
  3
AutoCAD 2000
 90
        0
280
     0
281
     1
  0
CLASS
  1
HATCH
  2
AcDbHatch
  3
AutoCAD 2000
 90
        0
280
     0
281
     1
  0
CLASS
  1
XRECORD
  2
AcDbXrecord
  3
AutoCAD 2000
 90
        0
280
     0
281
     0
  0
CLASS
  1
LONG_TRANSACTION
  2
AcDbLongTransaction
  3
AutoCAD 2000
 90
        0
280
     0
281
     0
  0
CLASS
  1
LWPOLYLINE
  2
AcDbPolyline
  3
AutoCAD 2000
 90
        0
280
     0
281
     1
  0
CLASS
  1
HATCH
  2
AcDbHatch
  3
AutoCAD 2000
 90
        0
280
     0
281
     1
  0
CLASS
  1
XRECORD
  2
AcDbXrecord
  3
AutoCAD 2000
 90
        0
280
     0
281
     0
  0
CLASS
  1
LONG_TRANSACTION
  2
AcDbLongTransaction
  3
AutoCAD 2000
 90
        0
280
     0
281
     0
  0
CLASS
  1
LWPOLYLINE
  2
AcDbPolyline
  3
AutoCAD 2000
 90
        0
280
     0
281
     1
  0
CLASS
  1
HATCH
  2
AcDbHatch
  3
AutoCAD 2000
 90
        0
280
     0
281
     1
  0
CLASS
  1
XRECORD
  2
AcDbXrecord
  3
AutoCAD 2000
 90
        0
280
     0
281
     0
  0
CLASS
  1
LONG_TRANSACTION
  2
AcDbLongTransaction
  3
AutoCAD 2000
 90
        0
280
     0
281
     0
  0
CLASS
  1
LWPOLYLINE
  2
AcDbPolyline
  3
AutoCAD 2000
 90
        0
280
     0
281
     1
  0
CLASS
  1
HATCH
  2
AcDbHatch
  3
AutoCAD 2000
 90
        0
280
     0
281
     1
  0
CLASS
  1
XRECORD
  2
AcDbXrecord
  3
AutoCAD 2000
 90
        0
280
     0
281
     0
  0
CLASS
  1
LONG_TRANSACTION
  2
AcDbLongTransaction
  3
AutoCAD 2000
 90
        0
280
     0
281
     0
  0
CLASS
  1
LWPOLYLINE
  2
AcDbPolyline
  3
AutoCAD 2000
 90
        0
280
     0
281
     1
  0
CLASS
  1
HATCH
  2
AcDbHatch
  3
AutoCAD 2000
 90
        0
280
     0
281
     1
  0
CLASS
  1
XRECORD
  2
AcDbXrecord
  3
AutoCAD 2000
 90
        0
280
     0
281
     0
  0
CLASS
  1
LONG_TRANSACTION
  2
AcDbLongTransaction
  3
AutoCAD 2000
 90
        0
280
     0
281
     0
  0
CLASS
  1
LWPOLYLINE
  2
AcDbPolyline
  3
AutoCAD 2000
 90
        0
280
     0
281
     1
  0
CLASS
  1
HATCH
  2
AcDbHatch
  3
AutoCAD 2000
 90
        0
280
     0
281
     1
  0
CLASS
  1
XRECORD
  2
AcDbXrecord
  3
AutoCAD 2000
 90
        0
280
     0
281
     0
  0
CLASS
  1
LONG_TRANSACTION
  2
AcDbLongTransaction
  3
AutoCAD 2000
 90
        0
280
     0
281
     0
  0
CLASS
  1
LWPOLYLINE
  2
AcDbPolyline
  3
AutoCAD 2000
 90
        0
280
     0
281
     1
  0
CLASS
  1
HATCH
  2
AcDbHatch
  3
AutoCAD 2000
 90
        0
280
     0
281
     1
  0
CLASS
  1
XRECORD
  2
AcDbXrecord
  3
AutoCAD 2000
 90
        0
280
     0
281
     0
  0
CLASS
  1
LONG_TRANSACTION
  2
AcDbLongTransaction
  3
AutoCAD 2000
 90
        0
280
     0
281
     0
  0
CLASS
  1
LWPOLYLINE
  2
AcDbPolyline
  3
AutoCAD 2000
 90
        0
280
     0
281
     1
  0
CLASS
  1
HATCH
  2
AcDbHatch
  3
AutoCAD 2000
 90
        0
280
     0
281
     1
  0
CLASS
  1
XRECORD
  2
AcDbXrecord
  3
AutoCAD 2000
 90
        0
280
     0
281
     0
  0
ENDSEC
  0
SECTION
  2
TABLES
  0
TABLE
  2
VPORT
  5
8
330
0
100
AcDbSymbolTable
 70
     2
  0
VPORT
  5
67A
330
8
100
AcDbSymbolTableRecord
100
AcDbViewportTableRecord
  2
*ACTIVE
 70
     0
 10
0.0
 20
0.0
 11
1.0
 21
1.0
 12
-141.673298878974
 22
110.4628044636628
 13
0.0
 23
0.0
 14
0.5740882589684922
 24
0.5740882589684922
 15
0.5
 25
0.5
 16
0.0
 26
0.0
 36
1.0
 17
0.0
 27
0.0
 37
0.0
 40
12.54890146091659
 41
1.570528967254408
 42
50.0
 43
0.0
 44
0.0
 50
0.0
 51
0.0
 71
     0
 72
   100
 73
     1
 74
     0
 75
     0
 76
     0
 77
     0
 78
     0
  0
ENDTAB
  0
TABLE
  2
LTYPE
  5
5
330
0
100
AcDbSymbolTable
 70
     2
  0
LTYPE
  5
13
330
5
100
AcDbSymbolTableRecord
100
AcDbLinetypeTableRecord
  2
BYBLOCK
 70
     0
  3

 72
    65
 73
     0
 40
0.0
  0
LTYPE
  5
14
330
5
100
AcDbSymbolTableRecord
100
AcDbLinetypeTableRecord
  2
BYLAYER
 70
     0
  3

 72
    65
 73
     0
 40
0.0
  0
LTYPE
  5
15
330
5
100
AcDbSymbolTableRecord
100
AcDbLinetypeTableRecord
  2
CONTINUOUS
 70
     0
  3
Solid line
 72
    65
 73
     0
 40
0.0
  0
LTYPE
  5
3A5
330
5
100
AcDbSymbolTableRecord
100
AcDbLinetypeTableRecord
  2
CENTER2
 70
     0
  3
___ _ ___ _ ___ _ ___ _ ___ _ ___ _ ___ _ ___ _
 72
    65
 73
     4
 40
1.125
 49
0.75
 74
     0
 49
-0.125
 74
     0
 49
0.125
 74
     0
 49
-0.125
 74
     0
  0
ENDTAB
  0
TABLE
  2
LAYER
  5
2
330
0
100
AcDbSymbolTable
 70
     5
  0
LAYER
  5
10
330
2
100
AcDbSymbolTableRecord
100
AcDbLayerTableRecord
  2
0
 70
     0
 62
     7
  6
CONTINUOUS
  0
LAYER
  5
3A6
330
2
100
AcDbSymbolTableRecord
100
AcDbLayerTableRecord
  2
ADP1DETAIL
 70
     0
 62
     7
  6
CONTINUOUS
  0
LAYER
  5
3A7
330
2
100
AcDbSymbolTableRecord
100
AcDbLayerTableRecord
  2
DEFPOINTS
 70
     0
 62
     7
  6
CONTINUOUS
  0
LAYER
  5
3AB
330
2
100
AcDbSymbolTableRecord
100
AcDbLayerTableRecord
  2
ADP3DETAIL
 70
     0
 62
     1
  6
CONTINUOUS
  0
LAYER
  5
3B0
330
2
100
AcDbSymbolTableRecord
100
AcDbLayerTableRecord
  2
ADPDIM
 70
     0
 62
     3
  6
CONTINUOUS
  0
ENDTAB
  0
TABLE
  2
STYLE
  5
3
330
0
100
AcDbSymbolTable
 70
     2
  0
STYLE
  5
11
330
3
100
AcDbSymbolTableRecord
100
AcDbTextStyleTableRecord
  2
STANDARD
 70
     0
 40
0.0
 41
1.0
 50
0.0
 71
     0
 42
0.2
  3
txt
  4

  0
STYLE
  5
402
330
3
100
AcDbSymbolTableRecord
100
AcDbTextStyleTableRecord
  2
ARIAL_WIDE
 70
     0
 40
0.0
 41
1.25
 50
0.0
 71
     0
 42
0.2
  3
ARIAL.TTF
  4

1001
ACAD
1000
Arial
1071
       34
  0
ENDTAB
  0
TABLE
  2
VIEW
  5
6
330
0
100
AcDbSymbolTable
 70
     0
  0
ENDTAB
  0
TABLE
  2
UCS
  5
7
330
0
100
AcDbSymbolTable
 70
     0
  0
ENDTAB
  0
TABLE
  2
APPID
  5
9
330
0
100
AcDbSymbolTable
 70
     1
  0
APPID
  5
12
330
9
100
AcDbSymbolTableRecord
100
AcDbRegAppTableRecord
  2
ACAD
 70
     0
  0
ENDTAB
  0
TABLE
  2
DIMSTYLE
  5
A
330
0
100
AcDbSymbolTable
 70
     1
  0
DIMSTYLE
105
400
330
A
100
AcDbSymbolTableRecord
100
AcDbDimStyleTableRecord
  2
STANDARD
 70
     0
  3

  4

  5

  6

  7

 40
1.0
 41
0.18
 42
0.0625
 43
0.38
 44
0.18
 45
0.0
 46
0.0
 47
0.0
 48
0.0
140
0.18
141
0.09
142
0.0
143
25.4
144
1.0
145
0.0
146
1.0
147
0.09
 71
     0
 72
     0
 73
     1
 74
     1
 75
     0
 76
     0
 77
     0
 78
     0
170
     0
171
     2
172
     0
173
     0
174
     0
175
     0
176
     0
177
     0
178
     0
270
     2
271
     4
272
     4
273
     2
274
     2
340
11
275
     0
280
     0
281
     0
282
     0
283
     1
284
     0
285
     0
286
     0
287
     3
288
     0
  0
ENDTAB
  0
TABLE
  2
BLOCK_RECORD
  5
1
330
0
100
AcDbSymbolTable
 70
     5
  0
BLOCK_RECORD
  5
1E
102
{ACAD_XDICTIONARY
360
43F
102
}
330
1
100
AcDbSymbolTableRecord
100
AcDbBlockTableRecord
  2
*MODEL_SPACE
  0
BLOCK_RECORD
  5
1A
102
{ACAD_XDICTIONARY
360
441
102
}
330
1
100
AcDbSymbolTableRecord
100
AcDbBlockTableRecord
  2
*PAPER_SPACE
  0
BLOCK_RECORD
  5
381
330
1
100
AcDbSymbolTableRecord
100
AcDbBlockTableRecord
  2
*D0
  0
BLOCK_RECORD
  5
3A0
330
1
100
AcDbSymbolTableRecord
100
AcDbBlockTableRecord
  2
*D1
  0
BLOCK_RECORD
  5
3A1
330
1
100
AcDbSymbolTableRecord
100
AcDbBlockTableRecord
  2
*D2
  0
BLOCK_RECORD
  5
3A2
330
1
100
AcDbSymbolTableRecord
100
AcDbBlockTableRecord
  2
*D3
  0
BLOCK_RECORD
  5
3A3
330
1
100
AcDbSymbolTableRecord
100
AcDbBlockTableRecord
  2
*D4
  0
ENDTAB
  0
ENDSEC
  0
SECTION
  2
BLOCKS
  0
BLOCK
  5
3B3
330
1E
100
AcDbEntity
  8
0
100
AcDbBlockBegin
  2
*MODEL_SPACE
 70
     0
 10
0.0
 20
0.0
 30
0.0
  3
*MODEL_SPACE
  1

  0
ENDBLK
  5
3B4
330
1E
100
AcDbEntity
  8
0
100
AcDbBlockEnd
  0
BLOCK
  5
3B1
330
1A
100
AcDbEntity
 67
     1
  8
0
100
AcDbBlockBegin
  2
*PAPER_SPACE
 70
     0
 10
0.0
 20
0.0
 30
0.0
  3
*PAPER_SPACE
  1

  0
ENDBLK
  5
3B2
330
1A
100
AcDbEntity
 67
     1
  8
0
100
AcDbBlockEnd
  0
BLOCK
  5
3B6
330
381
100
AcDbEntity
  8
0
100
AcDbBlockBegin
  2
*D0
 70
     1
 10
0.0
 20
0.0
 30
0.0
  3
*D0
  1

  0
LINE
  5
3B7
330
381
100
AcDbEntity
  8
0
  6
BYBLOCK
 62
     0
100
AcDbLine
 10
-141.7455400902165
 20
103.3046780721094
 30
0.0
 11
-141.7455400902165
 21
103.4221780721094
 31
0.0
  0
LINE
  5
3B8
330
381
100
AcDbEntity
  8
0
  6
BYBLOCK
 62
     0
100
AcDbLine
 10
-141.6830400902165
 20
103.3046780721094
 30
0.0
 11
-141.6830400902165
 21
103.4221780721094
 31
0.0
  0
LINE
  5
3B9
330
381
100
AcDbEntity
  8
0
  6
BYBLOCK
 62
     0
100
AcDbLine
 10
-141.7455400902165
 20
103.2421780721094
 30
0.0
 11
-141.9955400902165
 21
103.2421780721094
 31
0.0
  0
LINE
  5
3BA
330
381
100
AcDbEntity
  8
0
  6
BYBLOCK
 62
     0
100
AcDbLine
 10
-141.6830400902165
 20
103.2421780721094
 30
0.0
 11
-141.4330400902165
 21
103.2421780721094
 31
0.0
  0
LINE
  5
3BB
330
381
100
AcDbEntity
  8
0
  6
BYBLOCK
 62
     0
100
AcDbLine
 10
-141.8705400902165
 20
103.1171780721094
 30
0.0
 11
-141.6205400902165
 21
103.3671780721094
 31
0.0
  0
LINE
  5
3BC
330
381
100
AcDbEntity
  8
0
  6
BYBLOCK
 62
     0
100
AcDbLine
 10
-141.8080400902165
 20
103.1171780721094
 30
0.0
 11
-141.5580400902165
 21
103.3671780721094
 31
0.0
  0
TEXT
  5
3BD
330
381
100
AcDbEntity
  8
0
  6
BYBLOCK
 62
     0
100
AcDbText
 10
-141.3080400902165
 20
103.1796780721094
 30
0.0
 40
0.125
  1
1/16
 72
     1
 11
-141.1205400902165
 21
103.2421780721094
 31
0.0
100
AcDbText
 73
     2
  0
POINT
  5
3BF
330
381
100
AcDbEntity
  8
DEFPOINTS
  6
BYBLOCK
 62
     0
100
AcDbPoint
 10
-141.7455400902165
 20
103.2421780721094
 30
0.0
  0
POINT
  5
3C0
330
381
100
AcDbEntity
  8
DEFPOINTS
  6
BYBLOCK
 62
     0
100
AcDbPoint
 10
-141.6830400902165
 20
103.2421780721094
 30
0.0
  0
POINT
  5
3C1
330
381
100
AcDbEntity
  8
DEFPOINTS
  6
BYBLOCK
 62
     0
100
AcDbPoint
 10
-141.6830400902165
 20
103.2421780721094
 30
0.0
  0
ENDBLK
  5
3C2
330
381
100
AcDbEntity
  8
0
100
AcDbBlockEnd
  0
BLOCK
  5
3C3
330
3A0
100
AcDbEntity
  8
0
100
AcDbBlockBegin
  2
*D1
 70
     1
 10
0.0
 20
0.0
 30
0.0
  3
*D1
  1

  0
LINE
  5
3C4
330
3A0
100
AcDbEntity
  8
0
  6
BYBLOCK
 62
     0
100
AcDbLine
 10
-140.287212979408
 20
114.3698124643272
 30
0.0
 11
-141.1373297378369
 21
115.4579122956654
 31
0.0
  0
LINE
  5
3C5
330
3A0
100
AcDbEntity
  8
0
  6
BYBLOCK
 62
     0
100
AcDbLine
 10
-142.6512452402282
 20
112.5228280383502
 30
0.0
 11
-143.5013619986571
 21
113.6109278696884
 31
0.0
  0
LINE
  5
3C6
330
3A0
100
AcDbEntity
  8
0
  6
BYBLOCK
 62
     0
100
AcDbLine
 10
-141.0265106722783
 20
115.3160703600162
 30
0.0
 11
-142.0771916770872
 21
114.4951883929153
 31
0.0
  0
LINE
  5
3C7
330
3A0
100
AcDbEntity
  8
0
  6
BYBLOCK
 62
     0
100
AcDbLine
 10
-143.3905429330985
 20
113.4690859340392
 30
0.0
 11
-142.3398619282895
 21
114.2899679011401
 31
0.0
  0
LINE
  5
3C8
330
3A0
100
AcDbEntity
  8
0
  6
BYBLOCK
 62
     0
100
AcDbLine
 10
-141.0480543320634
 20
115.1406113313996
 30
0.0
 11
-141.0049670124932
 21
115.4915293886327
 31
0.0
  0
LINE
  5
3C9
330
3A0
100
AcDbEntity
  8
0
  6
BYBLOCK
 62
     0
100
AcDbLine
 10
-143.4120865928836
 20
113.2936269054226
 30
0.0
 11
-143.3689992733133
 21
113.6445449626557
 31
0.0
  0
TEXT
  5
3CA
330
3A0
100
AcDbEntity
  8
0
  6
BYBLOCK
 62
     0
100
AcDbText
 10
-142.2028817418808
 20
114.3176749134554
 30
0.0
 40
0.125
  1
3
 50
38.00000000000028
 72
     1
 11
-142.2085268026884
 21
114.3925781470277
 31
0.0
100
AcDbText
 73
     2
  0
POINT
  5
3CB
330
3A0
100
AcDbEntity
  8
DEFPOINTS
  6
BYBLOCK
 62
     0
100
AcDbPoint
 10
-140.2487341372002
 20
114.3205617922268
 30
0.0
  0
POINT
  5
3CC
330
3A0
100
AcDbEntity
  8
DEFPOINTS
  6
BYBLOCK
 62
     0
100
AcDbPoint
 10
-142.6127663980203
 20
112.4735773662498
 30
0.0
  0
POINT
  5
3CD
330
3A0
100
AcDbEntity
  8
DEFPOINTS
  6
BYBLOCK
 62
     0
100
AcDbPoint
 10
-143.3905429330985
 20
113.4690859340392
 30
0.0
  0
ENDBLK
  5
3CE
330
3A0
100
AcDbEntity
  8
0
100
AcDbBlockEnd
  0
BLOCK
  5
3CF
330
3A1
100
AcDbEntity
  8
0
100
AcDbBlockBegin
  2
*D2
 70
     1
 10
0.0
 20
0.0
 30
0.0
  3
*D2
  1

  0
LINE
  5
3D0
330
3A1
100
AcDbEntity
  8
0
  6
BYBLOCK
 62
     0
100
AcDbLine
 10
-142.328633183689
 20
112.2828104324054
 30
0.0
 11
-139.6273731682695
 21
111.0164126144596
 31
0.0
  0
LINE
  5
3D1
330
3A1
100
AcDbEntity
  8
0
  6
BYBLOCK
 62
     0
100
AcDbLine
 10
-142.4948731096544
 20
112.2226914918373
 30
0.0
 11
-142.1623932577237
 21
112.3429293729734
 31
0.0
  0
TEXT
  5
3D2
330
3A1
100
AcDbEntity
  8
0
  6
BYBLOCK
 62
     0
100
AcDbText
 10
-139.5407239813521
 20
110.9067624051276
 30
0.0
 40
0.125
  1
R3
 50
334.8819970288079
 72
     1
 11
-139.4198775406138
 21
110.9191350445121
 31
0.0
100
AcDbText
 73
     2
  0
POINT
  5
3D3
330
3A1
100
AcDbEntity
  8
DEFPOINTS
  6
BYBLOCK
 62
     0
100
AcDbPoint
 10
-142.328633183689
 20
112.2828104324054
 30
0.0
  0
POINT
  5
3D4
330
3A1
100
AcDbEntity
  8
DEFPOINTS
  6
BYBLOCK
 62
     0
100
AcDbPoint
 10
-139.6123267852877
 20
111.0093586076378
 30
0.0
  0
ENDBLK
  5
3D5
330
3A1
100
AcDbEntity
  8
0
100
AcDbBlockEnd
  0
BLOCK
  5
3D6
330
3A2
100
AcDbEntity
  8
0
100
AcDbBlockBegin
  2
*D3
 70
     1
 10
0.0
 20
0.0
 30
0.0
  3
*D3
  1

  0
LINE
  5
3D7
330
3A2
100
AcDbEntity
  8
0
  6
BYBLOCK
 62
     0
100
AcDbLine
 10
-143.5623267852877
 20
109.4091128342842
 30
0.0
 11
-143.5623267852877
 21
108.6436924100101
 31
0.0
  0
LINE
  5
3D8
330
3A2
100
AcDbEntity
  8
0
  6
BYBLOCK
 62
     0
100
AcDbLine
 10
-141.6623267852876
 20
109.4091128342842
 30
0.0
 11
-141.6623267852876
 21
108.6436924100101
 31
0.0
  0
LINE
  5
3D9
330
3A2
100
AcDbEntity
  8
0
  6
BYBLOCK
 62
     0
100
AcDbLine
 10
-143.5623267852877
 20
108.8236924100101
 30
0.0
 11
-142.945660118621
 21
108.8236924100101
 31
0.0
  0
LINE
  5
3DA
330
3A2
100
AcDbEntity
  8
0
  6
BYBLOCK
 62
     0
100
AcDbLine
 10
-141.6623267852876
 20
108.8236924100101
 30
0.0
 11
-142.2789934519543
 21
108.8236924100101
 31
0.0
  0
LINE
  5
3DB
330
3A2
100
AcDbEntity
  8
0
  6
BYBLOCK
 62
     0
100
AcDbLine
 10
-143.6873267852877
 20
108.6986924100101
 30
0.0
 11
-143.4373267852876
 21
108.9486924100101
 31
0.0
  0
LINE
  5
3DC
330
3A2
100
AcDbEntity
  8
0
  6
BYBLOCK
 62
     0
100
AcDbLine
 10
-141.7873267852876
 20
108.6986924100101
 30
0.0
 11
-141.5373267852876
 21
108.9486924100101
 31
0.0
  0
TEXT
  5
3DD
330
3A2
100
AcDbEntity
  8
0
  6
BYBLOCK
 62
     0
100
AcDbText
 10
-142.820660118621
 20
108.7611924100101
 30
0.0
 40
0.125
  1
1.900
 72
     1
 11
-142.6123267852876
 21
108.8236924100101
 31
0.0
100
AcDbText
 73
     2
  0
POINT
  5
3DE
330
3A2
100
AcDbEntity
  8
DEFPOINTS
  6
BYBLOCK
 62
     0
100
AcDbPoint
 10
-143.5623267852877
 20
109.4716128342841
 30
0.0
  0
POINT
  5
3DF
330
3A2
100
AcDbEntity
  8
DEFPOINTS
  6
BYBLOCK
 62
     0
100
AcDbPoint
 10
-141.6623267852876
 20
109.4716128342841
 30
0.0
  0
POINT
  5
3E0
330
3A2
100
AcDbEntity
  8
DEFPOINTS
  6
BYBLOCK
 62
     0
100
AcDbPoint
 10
-141.6623267852876
 20
108.8236924100101
 30
0.0
  0
ENDBLK
  5
3E1
330
3A2
100
AcDbEntity
  8
0
100
AcDbBlockEnd
  0
BLOCK
  5
3E2
330
3A3
100
AcDbEntity
  8
0
100
AcDbBlockBegin
  2
*D4
 70
     1
 10
0.0
 20
0.0
 30
0.0
  3
*D4
  1

  0
LINE
  5
3E3
330
3A3
100
AcDbEntity
  8
0
  6
BYBLOCK
 62
     0
100
AcDbLine
 10
-143.6248267852876
 20
109.4716128342841
 30
0.0
 11
-144.1574208563972
 21
109.4716128342841
 31
0.0
  0
LINE
  5
3E4
330
3A3
100
AcDbEntity
  8
0
  6
BYBLOCK
 62
     0
100
AcDbLine
 10
-142.6675520182683
 20
112.4716128342842
 30
0.0
 11
-144.1574208563972
 21
112.4716128342842
 31
0.0
  0
LINE
  5
3E5
330
3A3
100
AcDbEntity
  8
0
  6
BYBLOCK
 62
     0
100
AcDbLine
 10
-143.9774208563972
 20
109.4716128342841
 30
0.0
 11
-143.9774208563972
 21
110.8049461676175
 31
0.0
  0
LINE
  5
3E6
330
3A3
100
AcDbEntity
  8
0
  6
BYBLOCK
 62
     0
100
AcDbLine
 10
-143.9774208563972
 20
112.4716128342842
 30
0.0
 11
-143.9774208563972
 21
111.1382795009508
 31
0.0
  0
LINE
  5
3E7
330
3A3
100
AcDbEntity
  8
0
  6
BYBLOCK
 62
     0
100
AcDbLine
 10
-143.8524208563972
 20
109.3466128342841
 30
0.0
 11
-144.1024208563972
 21
109.5966128342842
 31
0.0
  0
LINE
  5
3E8
330
3A3
100
AcDbEntity
  8
0
  6
BYBLOCK
 62
     0
100
AcDbLine
 10
-143.8524208563972
 20
112.3466128342842
 30
0.0
 11
-144.1024208563972
 21
112.5966128342842
 31
0.0
  0
TEXT
  5
3E9
330
3A3
100
AcDbEntity
  8
0
  6
BYBLOCK
 62
     0
100
AcDbText
 10
-143.9149208563972
 20
110.9299461676175
 30
0.0
 40
0.125
  1
3
 50
90.0
 72
     1
 11
-143.9774208563972
 21
110.9716128342842
 31
0.0
100
AcDbText
 73
     2
  0
POINT
  5
3EA
330
3A3
100
AcDbEntity
  8
DEFPOINTS
  6
BYBLOCK
 62
     0
100
AcDbPoint
 10
-143.5623267852877
 20
109.4716128342841
 30
0.0
  0
POINT
  5
3EB
330
3A3
100
AcDbEntity
  8
DEFPOINTS
  6
BYBLOCK
 62
     0
100
AcDbPoint
 10
-142.6050520182683
 20
112.4716128342842
 30
0.0
  0
POINT
  5
3EC
330
3A3
100
AcDbEntity
  8
DEFPOINTS
  6
BYBLOCK
 62
     0
100
AcDbPoint
 10
-143.9774208563972
 20
112.4716128342842
 30
0.0
  0
ENDBLK
  5
3ED
330
3A3
100
AcDbEntity
  8
0
100
AcDbBlockEnd
  0
ENDSEC
  0
SECTION
  2
ENTITIES
  0
DIMENSION
  5
3EE
330
1E
100
AcDbEntity
  8
ADPDIM
100
AcDbDimension
  2
*D1
 10
-143.3905429330985
 20
113.4690859340392
 30
0.0
 11
-142.2085268026884
 21
114.3925781470277
 31
0.0
 70
     1
100
AcDbAlignedDimension
 13
-140.2487341372002
 23
114.3205617922268
 33
0.0
 14
-142.6127663980203
 24
112.4735773662498
 34
0.0
  0
LINE
  5
3EF
330
1E
100
AcDbEntity
  8
ADP3DETAIL
  6
CENTER2
100
AcDbLine
 10
-141.3343047747046
 20
113.3674617729093
 30
0.0
 11
-139.6818791475451
 21
114.5257546129304
 31
0.0
  0
LINE
  5
3F0
330
1E
100
AcDbEntity
  8
ADP1DETAIL
100
AcDbLine
 10
-140.7008118968136
 20
114.97202560159
 30
0.0
 11
-139.6096017972272
 21
113.4166283794758
 31
0.0
  0
ARC
  5
3F1
330
1E
100
AcDbEntity
  8
ADP1DETAIL
100
AcDbCircle
 10
-139.6123267852876
 20
110.9105331652936
 30
0.0
 40
3.95
100
AcDbArc
 50
125.0521026195022
 51
180.0
  0
DIMENSION
  5
3F2
330
1E
100
AcDbEntity
  8
ADPDIM
100
AcDbDimension
  2
*D2
 10
-139.6123267852877
 20
111.0093586076378
 30
0.0
 11
-139.4198775406138
 21
110.9191350445121
 31
0.0
 70
     4
100
AcDbRadialDimension
 15
-142.328633183689
 25
112.2828104324054
 35
0.0
 40
-2.983382158591496
  0
LINE
  5
3F3
330
1E
100
AcDbEntity
  8
ADP1DETAIL
100
AcDbLine
 10
-140.778437265178
 20
112.608211955364
 30
0.0
 11
-139.6110171183441
 21
113.4156373609608
 31
0.0
  0
DIMENSION
  5
3F4
330
1E
100
AcDbEntity
  8
ADPDIM
100
AcDbDimension
  2
*D3
 10
-141.6623267852876
 20
108.8236924100101
 30
0.0
 11
-142.6123267852876
 21
108.8236924100101
 31
0.0
  1
1.900
100
AcDbAlignedDimension
 13
-143.5623267852877
 23
109.4716128342841
 33
0.0
 14
-141.6623267852876
 24
109.4716128342841
 34
0.0
100
AcDbRotatedDimension
  0
LINE
  5
3F5
330
1E
100
AcDbEntity
  8
ADP3DETAIL
  6
CENTER2
100
AcDbLine
 10
-142.6123267852877
 20
109.0407279932178
 30
0.0
 11
-142.6123267852877
 21
110.9108804483927
 31
0.0
  0
CIRCLE
  5
3F6
330
1E
100
AcDbEntity
  8
0
100
AcDbCircle
 10
-142.6166226177166
 20
106.9319531898842
 30
0.0
 40
0.8875
  0
CIRCLE
  5
3F7
330
1E
100
AcDbEntity
  8
0
100
AcDbCircle
 10
-142.6166226177166
 20
106.9319531898842
 30
0.0
 40
0.95
  0
DIMENSION
  5
3F8
330
1E
100
AcDbEntity
  8
ADPDIM
100
AcDbDimension
  2
*D0
 10
-141.6830400902165
 20
106.9115486411835
 30
0.0
 11
-141.1205400902165
 21
106.9115486411835
 31
0.0
 12
0.0
 22
3.669370569074146
 32
0.0
100
AcDbAlignedDimension
 13
-141.7455400902165
 23
106.9115486411835
 33
0.0
 14
-141.6830400902165
 24
106.9115486411835
 34
0.0
100
AcDbRotatedDimension
  0
DIMENSION
  5
3F9
330
1E
100
AcDbEntity
  8
ADPDIM
100
AcDbDimension
  2
*D4
 10
-143.9774208563972
 20
112.4716128342842
 30
0.0
 11
-143.9774208563972
 21
110.9716128342842
 31
0.0
100
AcDbAlignedDimension
 13
-143.5623267852877
 23
109.4716128342841
 33
0.0
 14
-142.6050520182683
 24
112.4716128342842
 34
0.0
 50
90.0
100
AcDbRotatedDimension
  0
ARC
  5
3FA
330
1E
100
AcDbEntity
  8
ADP1DETAIL
100
AcDbCircle
 10
-139.6123267852876
 20
110.922185161778
 30
0.0
 40
2.049999999999999
100
AcDbArc
 50
124.6689834922905
 51
180.0
  0
ARC
  5
3FB
330
1E
100
AcDbEntity
  8
ADP3DETAIL
  6
CENTER2
100
AcDbCircle
 10
-139.6123267852876
 20
110.9108804483927
 30
0.0
 40
3.0
100
AcDbArc
 50
125.0291182612622
 51
180.0
  0
LINE
  5
3FC
330
1E
100
AcDbEntity
  8
ADP1DETAIL
100
AcDbLine
 10
-141.6623267852876
 20
109.4716128342841
 30
0.0
 11
-143.5623267852877
 21
109.4716128342841
 31
0.0
  0
LINE
  5
3FD
330
1E
100
AcDbEntity
  8
ADP1DETAIL
100
AcDbLine
 10
-143.5623267852877
 20
109.4716128342841
 30
0.0
 11
-143.5623267852877
 21
110.9105331652936
 31
0.0
  0
LINE
  5
3FE
330
1E
100
AcDbEntity
  8
ADP1DETAIL
100
AcDbLine
 10
-141.6623267852876
 20
110.922185161778
 30
0.0
 11
-141.6623267852876
 21
109.4716128342841
 31
0.0
  0
LINE
  5
3FF
330
1E
100
AcDbEntity
  8
ADP1DETAIL
100
AcDbLine
 10
-141.8808951502173
 20
114.1441221270573
 30
0.0
 11
-140.7008118968136
 21
114.97202560159
 31
0.0
  0
TEXT
  5
4B5
330
1E
100
AcDbEntity
  8
ADPDIM
100
AcDbText
 10
-151.4789855975815
 20
105.4888288589638
 30
0.0
 40
0.1875
  1
J U L I U S  B L U M  &  C O . ,  I N C .      ( 8 0 0 )  5 2 6 - 6 2 9 3        W W W . J U L I U S B L U M . C O M        P A R T  N o .  9 3 2 8
 41
1.25
  7
ARIAL_WIDE
 72
     1
 11
-141.6903920607466
 21
105.6763288589638
 31
0.0
100
AcDbText
 73
     3
  0
ENDSEC
  0
SECTION
  2
OBJECTS
  0
DICTIONARY
  5
C
330
0
100
AcDbDictionary
  3
ACAD_GROUP
350
D
  3
ACAD_LAYOUT
350
19
  3
ACAD_MLINESTYLE
350
16
  3
ACAD_PLOTSETTINGS
350
18
  3
ACAD_PLOTSTYLENAME
350
E
  3
ACDBHEADERROUNDTRIPXREC
350
67B
  3
ACDBVARIABLEDICTIONARY
350
474
  0
DICTIONARY
  5
43F
330
1E
100
AcDbDictionary
280
     1
  3
ACAD_LAYOUTSELFREF
360
69D
  0
DICTIONARY
  5
441
330
1A
100
AcDbDictionary
280
     1
  3
ACAD_LAYOUTSELFREF
360
69C
  0
DICTIONARY
  5
D
102
{ACAD_REACTORS
330
C
102
}
330
C
100
AcDbDictionary
  0
DICTIONARY
  5
19
102
{ACAD_REACTORS
330
C
102
}
330
C
100
AcDbDictionary
  0
DICTIONARY
  5
16
102
{ACAD_REACTORS
330
C
102
}
330
C
100
AcDbDictionary
  3
STANDARD
350
17
  0
DICTIONARY
  5
18
102
{ACAD_REACTORS
330
C
102
}
330
C
100
AcDbDictionary
  0
ACDBDICTIONARYWDFLT
  5
E
102
{ACAD_REACTORS
330
C
102
}
330
C
100
AcDbDictionary
281
     1
  3
Normal
350
F
100
AcDbDictionaryWithDefault
340
F
  0
DICTIONARY
  5
67B
102
{ACAD_REACTORS
330
C
102
}
330
C
100
AcDbDictionary
  3
CEPSNTYPE
350
685
  3
DIMSTYLEDATA
350
689
  3
FINGERPRINTGUID
350
686
  3
HYPERLINKBASE
350
67E
  3
INSUNITS
350
684
  3
LAYOUTDICT
350
680
  3
LWETCUNION
350
683
  3
PLOTSETDICT
350
681
  3
PLOTSTYLNAMDICT
350
682
  3
PSVPSCALE
350
688
  3
PUCSBASE
350
68C
  3
PUCSORGBACK
350
692
  3
PUCSORGBOTTOM
350
68E
  3
PUCSORGFRONT
350
691
  3
PUCSORGLEFT
350
68F
  3
PUCSORGRIGHT
350
690
  3
PUCSORGTOP
350
68D
  3
PUCSORTHOREF
350
68A
  3
PUCSORTHOVIEW
350
68B
  3
STYLESHEET
350
67F
  3
TSTACKALIGN
350
67C
  3
TSTACKSIZE
350
67D
  3
UCSBASE
350
695
  3
UCSORGBACK
350
69B
  3
UCSORGBOTTOM
350
697
  3
UCSORGFRONT
350
69A
  3
UCSORGLEFT
350
698
  3
UCSORGRIGHT
350
699
  3
UCSORGTOP
350
696
  3
UCSORTHOREF
350
693
  3
UCSORTHOVIEW
350
694
  3
VERSIONGUID
350
687
  0
DICTIONARY
  5
474
102
{ACAD_REACTORS
330
C
102
}
330
C
100
AcDbDictionary
  3
DIMASSOC
350
476
  3
HIDETEXT
350
475
  0
XRECORD
  5
69D
102
{ACAD_REACTORS
330
43F
102
}
330
43F
100
AcDbXrecord
340
1E
  0
XRECORD
  5
69C
102
{ACAD_REACTORS
330
441
102
}
330
441
100
AcDbXrecord
340
1A
  0
MLINESTYLE
  5
17
102
{ACAD_REACTORS
330
16
102
}
330
16
100
AcDbMlineStyle
  2
STANDARD
 70
     0
  3

 62
   256
 51
90.0
 52
90.0
 71
     2
 49
0.5
 62
   256
  6
BYLAYER
 49
-0.5
 62
   256
  6
BYLAYER
  0
ACDBPLACEHOLDER
  5
F
102
{ACAD_REACTORS
330
E
102
}
330
E
100
AcDbPlaceHolder
280
     0
  0
XRECORD
  5
685
102
{ACAD_REACTORS
330
67B
102
}
330
67B
100
AcDbXrecord
 90
        0
  0
XRECORD
  5
689
102
{ACAD_REACTORS
330
67B
102
}
330
67B
100
AcDbXrecord
1000
DSTYLE
1002
{
1070
   277
 70
     5
1070
   279
 70
     2
1002
}
  0
XRECORD
  5
686
102
{ACAD_REACTORS
330
67B
102
}
330
67B
100
AcDbXrecord
  1
{46243009-890A-4166-846D-576947345A3E}
  0
XRECORD
  5
67E
102
{ACAD_REACTORS
330
67B
102
}
330
67B
100
AcDbXrecord
  1

  0
XRECORD
  5
684
102
{ACAD_REACTORS
330
67B
102
}
330
67B
100
AcDbXrecord
 90
        0
  0
XRECORD
  5
680
102
{ACAD_REACTORS
330
67B
102
}
330
67B
100
AcDbXrecord
340
19
  0
XRECORD
  5
683
102
{ACAD_REACTORS
330
67B
102
}
330
67B
100
AcDbXrecord
 90
    14877
  0
XRECORD
  5
681
102
{ACAD_REACTORS
330
67B
102
}
330
67B
100
AcDbXrecord
340
18
  0
XRECORD
  5
682
102
{ACAD_REACTORS
330
67B
102
}
330
67B
100
AcDbXrecord
340
E
  0
XRECORD
  5
688
102
{ACAD_REACTORS
330
67B
102
}
330
67B
100
AcDbXrecord
 40
0.0
  0
XRECORD
  5
68C
102
{ACAD_REACTORS
330
67B
102
}
330
67B
100
AcDbXrecord
340
0
  0
XRECORD
  5
692
102
{ACAD_REACTORS
330
67B
102
}
330
67B
100
AcDbXrecord
 10
0.0
 20
0.0
 30
0.0
  0
XRECORD
  5
68E
102
{ACAD_REACTORS
330
67B
102
}
330
67B
100
AcDbXrecord
 10
0.0
 20
0.0
 30
0.0
  0
XRECORD
  5
691
102
{ACAD_REACTORS
330
67B
102
}
330
67B
100
AcDbXrecord
 10
0.0
 20
0.0
 30
0.0
  0
XRECORD
  5
68F
102
{ACAD_REACTORS
330
67B
102
}
330
67B
100
AcDbXrecord
 10
0.0
 20
0.0
 30
0.0
  0
XRECORD
  5
690
102
{ACAD_REACTORS
330
67B
102
}
330
67B
100
AcDbXrecord
 10
0.0
 20
0.0
 30
0.0
  0
XRECORD
  5
68D
102
{ACAD_REACTORS
330
67B
102
}
330
67B
100
AcDbXrecord
 10
0.0
 20
0.0
 30
0.0
  0
XRECORD
  5
68A
102
{ACAD_REACTORS
330
67B
102
}
330
67B
100
AcDbXrecord
340
0
  0
XRECORD
  5
68B
102
{ACAD_REACTORS
330
67B
102
}
330
67B
100
AcDbXrecord
 70
     0
  0
XRECORD
  5
67F
102
{ACAD_REACTORS
330
67B
102
}
330
67B
100
AcDbXrecord
  1

  0
XRECORD
  5
67C
102
{ACAD_REACTORS
330
67B
102
}
330
67B
100
AcDbXrecord
 90
        1
  0
XRECORD
  5
67D
102
{ACAD_REACTORS
330
67B
102
}
330
67B
100
AcDbXrecord
 90
       70
  0
XRECORD
  5
695
102
{ACAD_REACTORS
330
67B
102
}
330
67B
100
AcDbXrecord
340
0
  0
XRECORD
  5
69B
102
{ACAD_REACTORS
330
67B
102
}
330
67B
100
AcDbXrecord
 10
0.0
 20
0.0
 30
0.0
  0
XRECORD
  5
697
102
{ACAD_REACTORS
330
67B
102
}
330
67B
100
AcDbXrecord
 10
0.0
 20
0.0
 30
0.0
  0
XRECORD
  5
69A
102
{ACAD_REACTORS
330
67B
102
}
330
67B
100
AcDbXrecord
 10
0.0
 20
0.0
 30
0.0
  0
XRECORD
  5
698
102
{ACAD_REACTORS
330
67B
102
}
330
67B
100
AcDbXrecord
 10
0.0
 20
0.0
 30
0.0
  0
XRECORD
  5
699
102
{ACAD_REACTORS
330
67B
102
}
330
67B
100
AcDbXrecord
 10
0.0
 20
0.0
 30
0.0
  0
XRECORD
  5
696
102
{ACAD_REACTORS
330
67B
102
}
330
67B
100
AcDbXrecord
 10
0.0
 20
0.0
 30
0.0
  0
XRECORD
  5
693
102
{ACAD_REACTORS
330
67B
102
}
330
67B
100
AcDbXrecord
340
0
  0
XRECORD
  5
694
102
{ACAD_REACTORS
330
67B
102
}
330
67B
100
AcDbXrecord
 70
     0
  0
XRECORD
  5
687
102
{ACAD_REACTORS
330
67B
102
}
330
67B
100
AcDbXrecord
  1
{E46BCDCE-4EC2-424D-ADD5-C79D35484292}
  0
DICTIONARYVAR
  5
476
102
{ACAD_REACTORS
330
474
102
}
330
474
100
DictionaryVariables
280
     0
  1
2
  0
DICTIONARYVAR
  5
475
102
{ACAD_REACTORS
330
474
102
}
330
474
100
DictionaryVariables
280
     0
  1
1
  0
ENDSEC
  0
EOF
