  0
SECTION
  2
HEADER
  9
$ACADVER
  1
AC1014
  9
$ACADMAINTVER
 70
     9
  9
$DWGCODEPAGE
  3
ANSI_1252
  9
$INSBASE
 10
0.4592271286797754
 20
-7.825945560439371
 30
0.0
  9
$EXTMIN
 10
-9.746039704567916
 20
-11.91634513643818
 30
0.0
  9
$EXTMAX
 10
9.831147369101934
 20
-2.069255861173912
 30
0.0
  9
$LIMMIN
 10
0.0
 20
0.0
  9
$LIMMAX
 10
36.0
 20
36.0
  9
$ORTHOMODE
 70
     1
  9
$REGENMODE
 70
     1
  9
$FILLMODE
 70
     1
  9
$QTEXTMODE
 70
     0
  9
$MIRRTEXT
 70
     1
  9
$DRAGMODE
 70
     0
  9
$LTSCALE
 40
1.0
  9
$OSMODE
 70
    37
  9
$ATTMODE
 70
     1
  9
$TEXTSIZE
 40
0.2
  9
$TRACEWID
 40
0.05
  9
$TEXTSTYLE
  7
STANDARD
  9
$CLAYER
  8
0
  9
$CELTYPE
  6
BYLAYER
  9
$CECOLOR
 62
   256
  9
$CELTSCALE
 40
1.0
  9
$DELOBJ
 70
     1
  9
$DISPSILH
 70
     0
  9
$DIMSCALE
 40
1.0
  9
$DIMASZ
 40
0.125
  9
$DIMEXO
 40
0.0625
  9
$DIMDLI
 40
0.38
  9
$DIMRND
 40
0.0
  9
$DIMDLE
 40
0.0
  9
$DIMEXE
 40
0.18
  9
$DIMTP
 40
0.0
  9
$DIMTM
 40
0.0
  9
$DIMTXT
 40
0.125
  9
$DIMCEN
 40
0.1875
  9
$DIMTSZ
 40
0.125
  9
$DIMTOL
 70
     0
  9
$DIMLIM
 70
     0
  9
$DIMTIH
 70
     0
  9
$DIMTOH
 70
     0
  9
$DIMSE1
 70
     0
  9
$DIMSE2
 70
     0
  9
$DIMTAD
 70
     0
  9
$DIMZIN
 70
     3
  9
$DIMBLK
  1

  9
$DIMASO
 70
     1
  9
$DIMSHO
 70
     1
  9
$DIMPOST
  1

  9
$DIMAPOST
  1

  9
$DIMALT
 70
     0
  9
$DIMALTD
 70
     1
  9
$DIMALTF
 40
25.4
  9
$DIMLFAC
 40
1.0
  9
$DIMTOFL
 70
     0
  9
$DIMTVP
 40
0.0
  9
$DIMTIX
 70
     0
  9
$DIMSOXD
 70
     0
  9
$DIMSAH
 70
     0
  9
$DIMBLK1
  1

  9
$DIMBLK2
  1

  9
$DIMSTYLE
  2
STANDARD
  9
$DIMCLRD
 70
     0
  9
$DIMCLRE
 70
     0
  9
$DIMCLRT
 70
     0
  9
$DIMTFAC
 40
1.0
  9
$DIMGAP
 40
0.125
  9
$DIMJUST
 70
     0
  9
$DIMSD1
 70
     0
  9
$DIMSD2
 70
     0
  9
$DIMTOLJ
 70
     1
  9
$DIMTZIN
 70
     3
  9
$DIMALTZ
 70
     3
  9
$DIMALTTZ
 70
     3
  9
$DIMFIT
 70
     5
  9
$DIMUPT
 70
     0
  9
$DIMUNIT
 70
     5
  9
$DIMDEC
 70
     4
  9
$DIMTDEC
 70
     4
  9
$DIMALTU
 70
     5
  9
$DIMALTTD
 70
     1
  9
$DIMTXSTY
  7
STANDARD
  9
$DIMAUNIT
 70
     0
  9
$LUNITS
 70
     5
  9
$LUPREC
 70
     4
  9
$SKETCHINC
 40
0.1
  9
$FILLETRAD
 40
0.062
  9
$AUNITS
 70
     0
  9
$AUPREC
 70
     0
  9
$MENU
  1
acad
  9
$ELEVATION
 40
0.0
  9
$PELEVATION
 40
0.0
  9
$THICKNESS
 40
0.0
  9
$LIMCHECK
 70
     0
  9
$BLIPMODE
 70
     0
  9
$CHAMFERA
 40
0.0
  9
$CHAMFERB
 40
0.0
  9
$CHAMFERC
 40
0.0
  9
$CHAMFERD
 40
0.0
  9
$SKPOLY
 70
     0
  9
$TDCREATE
 40
2450387.532619791
  9
$TDUPDATE
 40
2452297.104990775
  9
$TDINDWG
 40
0.0134865046
  9
$TDUSRTIMER
 40
0.0134865046
  9
$USRTIMER
 70
     1
  9
$ANGBASE
 50
0.0
  9
$ANGDIR
 70
     0
  9
$PDMODE
 70
     0
  9
$PDSIZE
 40
0.0
  9
$PLINEWID
 40
0.0
  9
$COORDS
 70
     2
  9
$SPLFRAME
 70
     0
  9
$SPLINETYPE
 70
     6
  9
$SPLINESEGS
 70
     8
  9
$ATTDIA
 70
     0
  9
$ATTREQ
 70
     1
  9
$HANDLING
 70
 22529
  9
$HANDSEED
  5
5C0
  9
$SURFTAB1
 70
     6
  9
$SURFTAB2
 70
     6
  9
$SURFTYPE
 70
     6
  9
$SURFU
 70
     6
  9
$SURFV
 70
     6
  9
$UCSNAME
  2

  9
$UCSORG
 10
0.0
 20
0.0
 30
0.0
  9
$UCSXDIR
 10
1.0
 20
0.0
 30
0.0
  9
$UCSYDIR
 10
0.0
 20
1.0
 30
0.0
  9
$PUCSNAME
  2

  9
$PUCSORG
 10
0.0
 20
0.0
 30
0.0
  9
$PUCSXDIR
 10
1.0
 20
0.0
 30
0.0
  9
$PUCSYDIR
 10
0.0
 20
1.0
 30
0.0
  9
$USERI1
 70
     0
  9
$USERI2
 70
     0
  9
$USERI3
 70
     0
  9
$USERI4
 70
     0
  9
$USERI5
 70
     0
  9
$USERR1
 40
0.0
  9
$USERR2
 40
0.0
  9
$USERR3
 40
0.0
  9
$USERR4
 40
0.0
  9
$USERR5
 40
0.0
  9
$WORLDVIEW
 70
     1
  9
$SHADEDGE
 70
     3
  9
$SHADEDIF
 70
    70
  9
$TILEMODE
 70
     1
  9
$MAXACTVP
 70
    15
  9
$PINSBASE
 10
0.0
 20
0.0
 30
0.0
  9
$PLIMCHECK
 70
     0
  9
$PEXTMIN
 10
1.000000000000000E+20
 20
1.000000000000000E+20
 30
1.000000000000000E+20
  9
$PEXTMAX
 10
-1.000000000000000E+20
 20
-1.000000000000000E+20
 30
-1.000000000000000E+20
  9
$PLIMMIN
 10
0.0
 20
0.0
  9
$PLIMMAX
 10
12.0
 20
9.0
  9
$UNITMODE
 70
     0
  9
$VISRETAIN
 70
     0
  9
$PLINEGEN
 70
     0
  9
$PSLTSCALE
 70
     1
  9
$TREEDEPTH
 70
  3020
  9
$PICKSTYLE
 70
     1
  9
$CMLSTYLE
  2
STANDARD
  9
$CMLJUST
 70
     0
  9
$CMLSCALE
 40
1.0
  9
$PROXYGRAPHICS
 70
     1
  9
$MEASUREMENT
 70
     0
  0
ENDSEC
  0
SECTION
  2
CLASSES
  0
CLASS
  1
ACDBDICTIONARYWDFLT
  2
AcDbDictionaryWithDefault
  3
AutoCAD 2000
 90
        0
280
     0
281
     0
  0
CLASS
  1
ACDBPLACEHOLDER
  2
AcDbPlaceHolder
  3
AutoCAD 2000
 90
        0
280
     0
281
     0
  0
CLASS
  1
LAYOUT
  2
AcDbLayout
  3
AutoCAD 2000
 90
        0
280
     0
281
     0
  0
CLASS
  1
DICTIONARYVAR
  2
AcDbDictionaryVar
  3
AutoCAD 2000
 90
        0
280
     0
281
     0
  0
CLASS
  1
LONG_TRANSACTION
  2
AcDbLongTransaction
  3
AutoCAD 2000
 90
        0
280
     0
281
     0
  0
CLASS
  1
LWPOLYLINE
  2
AcDbPolyline
  3
AutoCAD 2000
 90
        0
280
     0
281
     1
  0
CLASS
  1
HATCH
  2
AcDbHatch
  3
AutoCAD 2000
 90
        0
280
     0
281
     1
  0
CLASS
  1
XRECORD
  2
AcDbXrecord
  3
AutoCAD 2000
 90
        0
280
     0
281
     0
  0
CLASS
  1
LONG_TRANSACTION
  2
AcDbLongTransaction
  3
AutoCAD 2000
 90
        0
280
     0
281
     0
  0
CLASS
  1
LWPOLYLINE
  2
AcDbPolyline
  3
AutoCAD 2000
 90
        0
280
     0
281
     1
  0
CLASS
  1
HATCH
  2
AcDbHatch
  3
AutoCAD 2000
 90
        0
280
     0
281
     1
  0
CLASS
  1
XRECORD
  2
AcDbXrecord
  3
AutoCAD 2000
 90
        0
280
     0
281
     0
  0
CLASS
  1
LONG_TRANSACTION
  2
AcDbLongTransaction
  3
AutoCAD 2000
 90
        0
280
     0
281
     0
  0
CLASS
  1
LWPOLYLINE
  2
AcDbPolyline
  3
AutoCAD 2000
 90
        0
280
     0
281
     1
  0
CLASS
  1
HATCH
  2
AcDbHatch
  3
AutoCAD 2000
 90
        0
280
     0
281
     1
  0
CLASS
  1
XRECORD
  2
AcDbXrecord
  3
AutoCAD 2000
 90
        0
280
     0
281
     0
  0
CLASS
  1
LONG_TRANSACTION
  2
AcDbLongTransaction
  3
AutoCAD 2000
 90
        0
280
     0
281
     0
  0
CLASS
  1
LWPOLYLINE
  2
AcDbPolyline
  3
AutoCAD 2000
 90
        0
280
     0
281
     1
  0
CLASS
  1
HATCH
  2
AcDbHatch
  3
AutoCAD 2000
 90
        0
280
     0
281
     1
  0
CLASS
  1
XRECORD
  2
AcDbXrecord
  3
AutoCAD 2000
 90
        0
280
     0
281
     0
  0
CLASS
  1
LONG_TRANSACTION
  2
AcDbLongTransaction
  3
AutoCAD 2000
 90
        0
280
     0
281
     0
  0
CLASS
  1
LWPOLYLINE
  2
AcDbPolyline
  3
AutoCAD 2000
 90
        0
280
     0
281
     1
  0
CLASS
  1
HATCH
  2
AcDbHatch
  3
AutoCAD 2000
 90
        0
280
     0
281
     1
  0
CLASS
  1
XRECORD
  2
AcDbXrecord
  3
AutoCAD 2000
 90
        0
280
     0
281
     0
  0
CLASS
  1
LONG_TRANSACTION
  2
AcDbLongTransaction
  3
AutoCAD 2000
 90
        0
280
     0
281
     0
  0
CLASS
  1
LWPOLYLINE
  2
AcDbPolyline
  3
AutoCAD 2000
 90
        0
280
     0
281
     1
  0
CLASS
  1
HATCH
  2
AcDbHatch
  3
AutoCAD 2000
 90
        0
280
     0
281
     1
  0
CLASS
  1
XRECORD
  2
AcDbXrecord
  3
AutoCAD 2000
 90
        0
280
     0
281
     0
  0
CLASS
  1
LONG_TRANSACTION
  2
AcDbLongTransaction
  3
AutoCAD 2000
 90
        0
280
     0
281
     0
  0
CLASS
  1
LWPOLYLINE
  2
AcDbPolyline
  3
AutoCAD 2000
 90
        0
280
     0
281
     1
  0
CLASS
  1
HATCH
  2
AcDbHatch
  3
AutoCAD 2000
 90
        0
280
     0
281
     1
  0
CLASS
  1
XRECORD
  2
AcDbXrecord
  3
AutoCAD 2000
 90
        0
280
     0
281
     0
  0
CLASS
  1
LONG_TRANSACTION
  2
AcDbLongTransaction
  3
AutoCAD 2000
 90
        0
280
     0
281
     0
  0
CLASS
  1
LWPOLYLINE
  2
AcDbPolyline
  3
AutoCAD 2000
 90
        0
280
     0
281
     1
  0
CLASS
  1
HATCH
  2
AcDbHatch
  3
AutoCAD 2000
 90
        0
280
     0
281
     1
  0
CLASS
  1
XRECORD
  2
AcDbXrecord
  3
AutoCAD 2000
 90
        0
280
     0
281
     0
  0
ENDSEC
  0
SECTION
  2
TABLES
  0
TABLE
  2
VPORT
  5
8
330
0
100
AcDbSymbolTable
 70
     2
  0
VPORT
  5
59C
330
8
100
AcDbSymbolTableRecord
100
AcDbViewportTableRecord
  2
*ACTIVE
 70
     0
 10
0.0
 20
0.0
 11
1.0
 21
1.0
 12
0.0567773050463689
 22
-6.992923517636065
 13
0.0
 23
0.0
 14
0.5740882589684922
 24
0.5740882589684922
 15
0.5
 25
0.5
 16
0.0
 26
0.0
 36
1.0
 17
0.0
 27
0.0
 37
0.0
 40
12.54759315156418
 41
1.570528967254407
 42
50.0
 43
0.0
 44
0.0
 50
0.0
 51
0.0
 71
     0
 72
   100
 73
     1
 74
     0
 75
     0
 76
     0
 77
     0
 78
     0
  0
ENDTAB
  0
TABLE
  2
LTYPE
  5
5
330
0
100
AcDbSymbolTable
 70
     2
  0
LTYPE
  5
13
330
5
100
AcDbSymbolTableRecord
100
AcDbLinetypeTableRecord
  2
BYBLOCK
 70
     0
  3

 72
    65
 73
     0
 40
0.0
  0
LTYPE
  5
14
330
5
100
AcDbSymbolTableRecord
100
AcDbLinetypeTableRecord
  2
BYLAYER
 70
     0
  3

 72
    65
 73
     0
 40
0.0
  0
LTYPE
  5
15
330
5
100
AcDbSymbolTableRecord
100
AcDbLinetypeTableRecord
  2
CONTINUOUS
 70
     0
  3
Solid line
 72
    65
 73
     0
 40
0.0
  0
LTYPE
  5
2D6
330
5
100
AcDbSymbolTableRecord
100
AcDbLinetypeTableRecord
  2
CENTER2
 70
     0
  3
___ _ ___ _ ___ _ ___ _ ___ _ ___ _ ___ _ ___ _
 72
    65
 73
     4
 40
1.125
 49
0.75
 74
     0
 49
-0.125
 74
     0
 49
0.125
 74
     0
 49
-0.125
 74
     0
  0
ENDTAB
  0
TABLE
  2
LAYER
  5
2
330
0
100
AcDbSymbolTable
 70
     5
  0
LAYER
  5
10
330
2
100
AcDbSymbolTableRecord
100
AcDbLayerTableRecord
  2
0
 70
     0
 62
     7
  6
CONTINUOUS
  0
LAYER
  5
2D7
330
2
100
AcDbSymbolTableRecord
100
AcDbLayerTableRecord
  2
ADP1DETAIL
 70
     0
 62
     7
  6
CONTINUOUS
  0
LAYER
  5
2D8
330
2
100
AcDbSymbolTableRecord
100
AcDbLayerTableRecord
  2
DEFPOINTS
 70
     0
 62
     7
  6
CONTINUOUS
  0
LAYER
  5
2DC
330
2
100
AcDbSymbolTableRecord
100
AcDbLayerTableRecord
  2
ADP3DETAIL
 70
     0
 62
     1
  6
CONTINUOUS
  0
LAYER
  5
2DF
330
2
100
AcDbSymbolTableRecord
100
AcDbLayerTableRecord
  2
ADPDIM
 70
     0
 62
     3
  6
CONTINUOUS
  0
ENDTAB
  0
TABLE
  2
STYLE
  5
3
330
0
100
AcDbSymbolTable
 70
     2
  0
STYLE
  5
11
330
3
100
AcDbSymbolTableRecord
100
AcDbTextStyleTableRecord
  2
STANDARD
 70
     0
 40
0.0
 41
1.0
 50
0.0
 71
     0
 42
0.2
  3
txt
  4

  0
STYLE
  5
324
330
3
100
AcDbSymbolTableRecord
100
AcDbTextStyleTableRecord
  2
ARIAL_WIDE
 70
     0
 40
0.0
 41
1.25
 50
0.0
 71
     0
 42
0.2
  3
ARIAL.TTF
  4

1001
ACAD
1000
Arial
1071
       34
  0
ENDTAB
  0
TABLE
  2
VIEW
  5
6
330
0
100
AcDbSymbolTable
 70
     0
  0
ENDTAB
  0
TABLE
  2
UCS
  5
7
330
0
100
AcDbSymbolTable
 70
     0
  0
ENDTAB
  0
TABLE
  2
APPID
  5
9
330
0
100
AcDbSymbolTable
 70
     1
  0
APPID
  5
12
330
9
100
AcDbSymbolTableRecord
100
AcDbRegAppTableRecord
  2
ACAD
 70
     0
  0
ENDTAB
  0
TABLE
  2
DIMSTYLE
  5
A
330
0
100
AcDbSymbolTable
 70
     1
  0
DIMSTYLE
105
322
330
A
100
AcDbSymbolTableRecord
100
AcDbDimStyleTableRecord
  2
STANDARD
 70
     0
  3

  4

  5

  6

  7

 40
1.0
 41
0.18
 42
0.0625
 43
0.38
 44
0.18
 45
0.0
 46
0.0
 47
0.0
 48
0.0
140
0.18
141
0.09
142
0.0
143
25.4
144
1.0
145
0.0
146
1.0
147
0.09
 71
     0
 72
     0
 73
     1
 74
     1
 75
     0
 76
     0
 77
     0
 78
     0
170
     0
171
     2
172
     0
173
     0
174
     0
175
     0
176
     0
177
     0
178
     0
270
     2
271
     4
272
     4
273
     2
274
     2
340
11
275
     0
280
     0
281
     0
282
     0
283
     1
284
     0
285
     0
286
     0
287
     3
288
     0
  0
ENDTAB
  0
TABLE
  2
BLOCK_RECORD
  5
1
330
0
100
AcDbSymbolTable
 70
     4
  0
BLOCK_RECORD
  5
1E
102
{ACAD_XDICTIONARY
360
361
102
}
330
1
100
AcDbSymbolTableRecord
100
AcDbBlockTableRecord
  2
*MODEL_SPACE
  0
BLOCK_RECORD
  5
1A
102
{ACAD_XDICTIONARY
360
363
102
}
330
1
100
AcDbSymbolTableRecord
100
AcDbBlockTableRecord
  2
*PAPER_SPACE
  0
BLOCK_RECORD
  5
224
330
1
100
AcDbSymbolTableRecord
100
AcDbBlockTableRecord
  2
*D0
  0
BLOCK_RECORD
  5
2D2
330
1
100
AcDbSymbolTableRecord
100
AcDbBlockTableRecord
  2
*D1
  0
BLOCK_RECORD
  5
2D3
330
1
100
AcDbSymbolTableRecord
100
AcDbBlockTableRecord
  2
*D2
  0
BLOCK_RECORD
  5
2D4
330
1
100
AcDbSymbolTableRecord
100
AcDbBlockTableRecord
  2
*D3
  0
ENDTAB
  0
ENDSEC
  0
SECTION
  2
BLOCKS
  0
BLOCK
  5
2E2
330
1E
100
AcDbEntity
  8
0
100
AcDbBlockBegin
  2
*MODEL_SPACE
 70
     0
 10
0.0
 20
0.0
 30
0.0
  3
*MODEL_SPACE
  1

  0
ENDBLK
  5
2E3
330
1E
100
AcDbEntity
  8
0
100
AcDbBlockEnd
  0
BLOCK
  5
2E0
330
1A
100
AcDbEntity
 67
     1
  8
0
100
AcDbBlockBegin
  2
*PAPER_SPACE
 70
     0
 10
0.0
 20
0.0
 30
0.0
  3
*PAPER_SPACE
  1

  0
ENDBLK
  5
2E1
330
1A
100
AcDbEntity
 67
     1
  8
0
100
AcDbBlockEnd
  0
BLOCK
  5
2E5
330
224
100
AcDbEntity
  8
0
100
AcDbBlockBegin
  2
*D0
 70
     1
 10
0.0
 20
0.0
 30
0.0
  3
*D0
  1

  0
LINE
  5
2E6
330
224
100
AcDbEntity
  8
0
  6
BYBLOCK
 62
     0
100
AcDbLine
 10
0.3780517913071153
 20
-13.73136196054191
 30
0.0
 11
0.3780517913071153
 21
-13.61386196054191
 31
0.0
  0
LINE
  5
2E7
330
224
100
AcDbEntity
  8
0
  6
BYBLOCK
 62
     0
100
AcDbLine
 10
0.4405517913071153
 20
-13.73136196054191
 30
0.0
 11
0.4405517913071153
 21
-13.61386196054191
 31
0.0
  0
LINE
  5
2E8
330
224
100
AcDbEntity
  8
0
  6
BYBLOCK
 62
     0
100
AcDbLine
 10
0.3780517913071153
 20
-13.79386196054191
 30
0.0
 11
0.1280517913071153
 21
-13.79386196054191
 31
0.0
  0
LINE
  5
2E9
330
224
100
AcDbEntity
  8
0
  6
BYBLOCK
 62
     0
100
AcDbLine
 10
0.4405517913071153
 20
-13.79386196054191
 30
0.0
 11
0.6905517913071153
 21
-13.79386196054191
 31
0.0
  0
LINE
  5
2EA
330
224
100
AcDbEntity
  8
0
  6
BYBLOCK
 62
     0
100
AcDbLine
 10
0.2530517913071153
 20
-13.91886196054191
 30
0.0
 11
0.5030517913071153
 21
-13.66886196054191
 31
0.0
  0
LINE
  5
2EB
330
224
100
AcDbEntity
  8
0
  6
BYBLOCK
 62
     0
100
AcDbLine
 10
0.3155517913071153
 20
-13.91886196054191
 30
0.0
 11
0.5655517913071153
 21
-13.66886196054191
 31
0.0
  0
TEXT
  5
2EC
330
224
100
AcDbEntity
  8
0
  6
BYBLOCK
 62
     0
100
AcDbText
 10
0.8155517913071152
 20
-13.85636196054191
 30
0.0
 40
0.125
  1
1/16
 72
     1
 11
1.003051791307115
 21
-13.79386196054191
 31
0.0
100
AcDbText
 73
     2
  0
POINT
  5
2EE
330
224
100
AcDbEntity
  8
DEFPOINTS
  6
BYBLOCK
 62
     0
100
AcDbPoint
 10
0.3780517913071153
 20
-13.79386196054191
 30
0.0
  0
POINT
  5
2EF
330
224
100
AcDbEntity
  8
DEFPOINTS
  6
BYBLOCK
 62
     0
100
AcDbPoint
 10
0.4405517913071153
 20
-13.79386196054191
 30
0.0
  0
POINT
  5
2F0
330
224
100
AcDbEntity
  8
DEFPOINTS
  6
BYBLOCK
 62
     0
100
AcDbPoint
 10
0.4405517913071153
 20
-13.79386196054191
 30
0.0
  0
ENDBLK
  5
2F1
330
224
100
AcDbEntity
  8
0
100
AcDbBlockEnd
  0
BLOCK
  5
2F2
330
2D2
100
AcDbEntity
  8
0
100
AcDbBlockBegin
  2
*D1
 70
     1
 10
0.0
 20
0.0
 30
0.0
  3
*D1
  1

  0
LINE
  5
2F3
330
2D2
100
AcDbEntity
  8
0
  6
BYBLOCK
 62
     0
100
AcDbLine
 10
-1.503272871320224
 20
-7.825945560439371
 30
0.0
 11
-1.865509826183948
 21
-7.825945560439371
 31
0.0
  0
LINE
  5
2F4
330
2D2
100
AcDbEntity
  8
0
  6
BYBLOCK
 62
     0
100
AcDbLine
 10
-0.7115220166370469
 20
-4.822709841529214
 30
0.0
 11
-1.865509826183948
 21
-4.822709841529214
 31
0.0
  0
LINE
  5
2F5
330
2D2
100
AcDbEntity
  8
0
  6
BYBLOCK
 62
     0
100
AcDbLine
 10
-1.685509826183948
 20
-7.825945560439371
 30
0.0
 11
-1.685509826183948
 21
-6.49099436765096
 31
0.0
  0
LINE
  5
2F6
330
2D2
100
AcDbEntity
  8
0
  6
BYBLOCK
 62
     0
100
AcDbLine
 10
-1.685509826183947
 20
-4.822709841529214
 30
0.0
 11
-1.685509826183948
 21
-6.157661034317626
 31
0.0
  0
LINE
  5
2F7
330
2D2
100
AcDbEntity
  8
0
  6
BYBLOCK
 62
     0
100
AcDbLine
 10
-1.560509826183948
 20
-7.950945560439371
 30
0.0
 11
-1.810509826183947
 21
-7.700945560439371
 31
0.0
  0
LINE
  5
2F8
330
2D2
100
AcDbEntity
  8
0
  6
BYBLOCK
 62
     0
100
AcDbLine
 10
-1.560509826183947
 20
-4.947709841529214
 30
0.0
 11
-1.810509826183947
 21
-4.697709841529214
 31
0.0
  0
TEXT
  5
2F9
330
2D2
100
AcDbEntity
  8
0
  6
BYBLOCK
 62
     0
100
AcDbText
 10
-1.623009826183948
 20
-6.36599436765096
 30
0.0
 40
0.125
  1
3
 50
90.0
 72
     1
 11
-1.685509826183948
 21
-6.324327700984293
 31
0.0
100
AcDbText
 73
     2
  0
POINT
  5
2FA
330
2D2
100
AcDbEntity
  8
DEFPOINTS
  6
BYBLOCK
 62
     0
100
AcDbPoint
 10
-1.440772871320224
 20
-7.825945560439371
 30
0.0
  0
POINT
  5
2FB
330
2D2
100
AcDbEntity
  8
DEFPOINTS
  6
BYBLOCK
 62
     0
100
AcDbPoint
 10
-0.6490220166370469
 20
-4.822709841529214
 30
0.0
  0
POINT
  5
2FC
330
2D2
100
AcDbEntity
  8
DEFPOINTS
  6
BYBLOCK
 62
     0
100
AcDbPoint
 10
-1.685509826183947
 20
-4.822709841529214
 30
0.0
  0
ENDBLK
  5
2FD
330
2D2
100
AcDbEntity
  8
0
100
AcDbBlockEnd
  0
BLOCK
  5
2FE
330
2D3
100
AcDbEntity
  8
0
100
AcDbBlockBegin
  2
*D2
 70
     1
 10
0.0
 20
0.0
 30
0.0
  3
*D2
  1

  0
LINE
  5
2FF
330
2D3
100
AcDbEntity
  8
0
  6
BYBLOCK
 62
     0
100
AcDbLine
 10
-0.0478469217835665
 20
-5.02317781924068
 30
0.0
 11
2.494534953812153
 21
-6.583039657603729
 31
0.0
  0
LINE
  5
300
330
2D3
100
AcDbEntity
  8
0
  6
BYBLOCK
 62
     0
100
AcDbLine
 10
-0.2197615124923026
 20
-5.064352732737222
 30
0.0
 11
0.1240676689251696
 21
-4.982002905744137
 31
0.0
  0
TEXT
  5
301
330
2D3
100
AcDbEntity
  8
0
  6
BYBLOCK
 62
     0
100
AcDbText
 10
2.568394786611745
 20
-6.701681872261145
 30
0.0
 40
0.125
  1
R3
 50
328.4690740829759
 72
     1
 11
2.689866999333659
 21
-6.702884361714906
 31
0.0
100
AcDbText
 73
     2
  0
POINT
  5
302
330
2D3
100
AcDbEntity
  8
DEFPOINTS
  6
BYBLOCK
 62
     0
100
AcDbPoint
 10
-0.0478469217835665
 20
-5.02317781924068
 30
0.0
  0
POINT
  5
303
330
2D3
100
AcDbEntity
  8
DEFPOINTS
  6
BYBLOCK
 62
     0
100
AcDbPoint
 10
2.509227128679776
 20
-6.592053945787005
 30
0.0
  0
ENDBLK
  5
304
330
2D3
100
AcDbEntity
  8
0
100
AcDbBlockEnd
  0
BLOCK
  5
305
330
2D4
100
AcDbEntity
  8
0
100
AcDbBlockBegin
  2
*D3
 70
     1
 10
0.0
 20
0.0
 30
0.0
  3
*D3
  1

  0
LINE
  5
306
330
2D4
100
AcDbEntity
  8
0
  6
BYBLOCK
 62
     0
100
AcDbLine
 10
2.102658768969225
 20
-3.314843852104258
 30
0.0
 11
1.419145337193856
 21
-2.081752979812037
 31
0.0
  0
LINE
  5
307
330
2D4
100
AcDbEntity
  8
0
  6
BYBLOCK
 62
     0
100
AcDbLine
 10
-0.5212003524489602
 20
-4.769272712843269
 30
0.0
 11
-1.204713784224328
 21
-3.536181840551049
 31
0.0
  0
LINE
  5
308
330
2D4
100
AcDbEntity
  8
0
  6
BYBLOCK
 62
     0
100
AcDbLine
 10
1.506411068838197
 20
-2.239184527097128
 30
0.0
 11
0.3402514593190041
 21
-2.885597354092245
 31
0.0
  0
LINE
  5
309
330
2D4
100
AcDbEntity
  8
0
  6
BYBLOCK
 62
     0
100
AcDbLine
 10
-1.117448052579988
 20
-3.69361338783614
 30
0.0
 11
0.0487115569392055
 21
-3.047200560841024
 31
0.0
  0
LINE
  5
30A
330
2D4
100
AcDbEntity
  8
0
  6
BYBLOCK
 62
     0
100
AcDbLine
 10
1.457684807976565
 20
-2.409113193020345
 30
0.0
 11
1.555137329699829
 21
-2.069255861173912
 31
0.0
  0
LINE
  5
30B
330
2D4
100
AcDbEntity
  8
0
  6
BYBLOCK
 62
     0
100
AcDbLine
 10
-1.16617431344162
 20
-3.863542053759357
 30
0.0
 11
-1.068721791718355
 21
-3.523684721912923
 31
0.0
  0
TEXT
  5
30C
330
2D4
100
AcDbEntity
  8
0
  6
BYBLOCK
 62
     0
100
AcDbText
 10
0.1883396215970261
 20
-3.041263090006444
 30
0.0
 40
0.125
  1
3
 50
29.00000000000003
 72
     1
 11
0.1944815081291048
 21
-2.966398957466634
 31
0.0
100
AcDbText
 73
     2
  0
POINT
  5
30D
330
2D4
100
AcDbEntity
  8
DEFPOINTS
  6
BYBLOCK
 62
     0
100
AcDbPoint
 10
2.132959370234621
 20
-3.36950758380047
 30
0.0
  0
POINT
  5
30E
330
2D4
100
AcDbEntity
  8
DEFPOINTS
  6
BYBLOCK
 62
     0
100
AcDbPoint
 10
-0.490899751183564
 20
-4.823936444539481
 30
0.0
  0
POINT
  5
30F
330
2D4
100
AcDbEntity
  8
DEFPOINTS
  6
BYBLOCK
 62
     0
100
AcDbPoint
 10
-1.117448052579988
 20
-3.69361338783614
 30
0.0
  0
ENDBLK
  5
310
330
2D4
100
AcDbEntity
  8
0
100
AcDbBlockEnd
  0
ENDSEC
  0
SECTION
  2
ENTITIES
  0
ARC
  5
311
330
1E
100
AcDbEntity
  8
ADP1DETAIL
100
AcDbCircle
 10
2.509227128679775
 20
-6.592284916085336
 30
0.0
 40
2.049999999999999
100
AcDbArc
 50
119.0521026195022
 51
180.0
  0
DIMENSION
  5
312
330
1E
100
AcDbEntity
  8
ADPDIM
100
AcDbDimension
  2
*D1
 10
-1.685509826183947
 20
-4.822709841529214
 30
0.0
 11
-1.685509826183948
 21
-6.324327700984293
 31
0.0
100
AcDbAlignedDimension
 13
-1.440772871320224
 23
-7.825945560439371
 33
0.0
 14
-0.6490220166370469
 24
-4.822709841529214
 34
0.0
 50
90.0
100
AcDbRotatedDimension
  0
ARC
  5
313
330
1E
100
AcDbEntity
  8
ADP3DETAIL
  6
CENTER2
100
AcDbCircle
 10
2.509227128679775
 20
-6.592053945787004
 30
0.0
 40
3.0
100
AcDbArc
 50
119.0291182612622
 51
180.0
  0
ARC
  5
314
330
1E
100
AcDbEntity
  8
ADP1DETAIL
100
AcDbCircle
 10
2.509227128679775
 20
-6.592284916085336
 30
0.0
 40
3.95
100
AcDbArc
 50
119.0521026195022
 51
180.0
  0
DIMENSION
  5
315
330
1E
100
AcDbEntity
  8
ADPDIM
100
AcDbDimension
  2
*D0
 10
0.4405517913071154
 20
-10.45252317132692
 30
0.0
 11
1.003051791307115
 21
-10.45252317132692
 31
0.0
 12
0.0
 22
3.341338789214988
 32
0.0
100
AcDbAlignedDimension
 13
0.3780517913071153
 23
-10.45252317132692
 33
0.0
 14
0.4405517913071154
 24
-10.45252317132692
 34
0.0
100
AcDbRotatedDimension
  0
CIRCLE
  5
316
330
1E
100
AcDbEntity
  8
ADP1DETAIL
100
AcDbCircle
 10
-0.4930307361930061
 20
-10.43211862262632
 30
0.0
 40
0.95
  0
CIRCLE
  5
317
330
1E
100
AcDbEntity
  8
ADP1DETAIL
100
AcDbCircle
 10
-0.4930307361930061
 20
-10.43211862262632
 30
0.0
 40
0.8875
  0
DIMENSION
  5
318
330
1E
100
AcDbEntity
  8
ADPDIM
100
AcDbDimension
  2
*D2
 10
2.509227128679776
 20
-6.592053945787005
 30
0.0
 11
2.689866999333659
 21
-6.702884361714906
 31
0.0
 70
     4
100
AcDbRadialDimension
 15
-0.0478469217835665
 25
-5.02317781924068
 35
0.0
 40
-2.982762906457529
  0
LINE
  5
319
330
1E
100
AcDbEntity
  8
ADP1DETAIL
100
AcDbLine
 10
0.4592271286797754
 20
-6.592284916085336
 30
0.0
 11
0.4592271286797754
 21
-7.825945560439371
 31
0.0
  0
LINE
  5
31A
330
1E
100
AcDbEntity
  8
ADP3DETAIL
  6
CENTER2
100
AcDbLine
 10
-0.4907728713202245
 20
-8.256830401505729
 30
0.0
 11
-0.4907728713202248
 21
-6.592053945787004
 31
0.0
  0
LINE
  5
31B
330
1E
100
AcDbEntity
  8
ADP1DETAIL
100
AcDbLine
 10
-1.440772871320224
 20
-7.825945560439371
 30
0.0
 11
-1.440772871320224
 21
-6.592284916085336
 31
0.0
  0
LINE
  5
31C
330
1E
100
AcDbEntity
  8
ADP1DETAIL
100
AcDbLine
 10
0.4592271286797754
 20
-7.825945560439371
 30
0.0
 11
-1.440772871320224
 21
-7.825945560439371
 31
0.0
  0
LINE
  5
31D
330
1E
100
AcDbEntity
  8
ADP1DETAIL
100
AcDbLine
 10
0.5910883036298753
 20
-3.139279927986391
 30
0.0
 11
1.671634842690975
 21
-2.539038029700723
 31
0.0
  0
DIMENSION
  5
31E
330
1E
100
AcDbEntity
  8
ADPDIM
100
AcDbDimension
  2
*D3
 10
-1.117448052579988
 20
-3.69361338783614
 30
0.0
 11
0.1944815081291048
 21
-2.966398957466634
 31
0.0
 70
     1
100
AcDbAlignedDimension
 13
2.132959370234622
 23
-3.36950758380047
 33
0.0
 14
-0.4908997511835642
 24
-4.823936444539482
 34
0.0
  0
LINE
  5
31F
330
1E
100
AcDbEntity
  8
ADP1DETAIL
100
AcDbLine
 10
1.671634842690975
 20
-2.539038029700723
 30
0.0
 11
2.594283897778269
 21
-4.199977137900216
 31
0.0
  0
LINE
  5
320
330
1E
100
AcDbEntity
  8
ADP3DETAIL
  6
CENTER2
100
AcDbLine
 10
1.053464985606098
 20
-3.968934317788018
 30
0.0
 11
2.638337751100743
 21
-3.089371773644499
 31
0.0
  0
LINE
  5
321
330
1E
100
AcDbEntity
  8
ADP1DETAIL
100
AcDbLine
 10
2.594283897778269
 20
-4.199977137900216
 30
0.0
 11
1.513737358717169
 21
-4.800219036185884
 31
0.0
  0
TEXT
  5
3D7
330
1E
100
AcDbEntity
  8
ADPDIM
100
AcDbText
 10
-9.746039704567916
 20
-11.8608369508993
 30
0.0
 40
0.1875
  1
J U L I U S  B L U M  &  C O . ,  I N C .      ( 8 0 0 )  5 2 6 - 6 2 9 3        W W W . J U L I U S B L U M . C O M        P A R T  N o .  9 3 1 9
 41
1.25
  7
ARIAL_WIDE
 72
     1
 11
0.0425538322670089
 21
-11.6733369508993
 31
0.0
100
AcDbText
 73
     3
  0
ENDSEC
  0
SECTION
  2
OBJECTS
  0
DICTIONARY
  5
C
330
0
100
AcDbDictionary
  3
ACAD_GROUP
350
D
  3
ACAD_LAYOUT
350
19
  3
ACAD_MLINESTYLE
350
16
  3
ACAD_PLOTSETTINGS
350
18
  3
ACAD_PLOTSTYLENAME
350
E
  3
ACDBHEADERROUNDTRIPXREC
350
59D
  3
ACDBVARIABLEDICTIONARY
350
396
  0
DICTIONARY
  5
361
330
1E
100
AcDbDictionary
280
     1
  3
ACAD_LAYOUTSELFREF
360
5BF
  0
DICTIONARY
  5
363
330
1A
100
AcDbDictionary
280
     1
  3
ACAD_LAYOUTSELFREF
360
5BE
  0
DICTIONARY
  5
D
102
{ACAD_REACTORS
330
C
102
}
330
C
100
AcDbDictionary
  0
DICTIONARY
  5
19
102
{ACAD_REACTORS
330
C
102
}
330
C
100
AcDbDictionary
  0
DICTIONARY
  5
16
102
{ACAD_REACTORS
330
C
102
}
330
C
100
AcDbDictionary
  3
STANDARD
350
17
  0
DICTIONARY
  5
18
102
{ACAD_REACTORS
330
C
102
}
330
C
100
AcDbDictionary
  0
ACDBDICTIONARYWDFLT
  5
E
102
{ACAD_REACTORS
330
C
102
}
330
C
100
AcDbDictionary
281
     1
  3
Normal
350
F
100
AcDbDictionaryWithDefault
340
F
  0
DICTIONARY
  5
59D
102
{ACAD_REACTORS
330
C
102
}
330
C
100
AcDbDictionary
  3
CEPSNTYPE
350
5A7
  3
DIMSTYLEDATA
350
5AB
  3
FINGERPRINTGUID
350
5A8
  3
HYPERLINKBASE
350
5A0
  3
INSUNITS
350
5A6
  3
LAYOUTDICT
350
5A2
  3
LWETCUNION
350
5A5
  3
PLOTSETDICT
350
5A3
  3
PLOTSTYLNAMDICT
350
5A4
  3
PSVPSCALE
350
5AA
  3
PUCSBASE
350
5AE
  3
PUCSORGBACK
350
5B4
  3
PUCSORGBOTTOM
350
5B0
  3
PUCSORGFRONT
350
5B3
  3
PUCSORGLEFT
350
5B1
  3
PUCSORGRIGHT
350
5B2
  3
PUCSORGTOP
350
5AF
  3
PUCSORTHOREF
350
5AC
  3
PUCSORTHOVIEW
350
5AD
  3
STYLESHEET
350
5A1
  3
TSTACKALIGN
350
59E
  3
TSTACKSIZE
350
59F
  3
UCSBASE
350
5B7
  3
UCSORGBACK
350
5BD
  3
UCSORGBOTTOM
350
5B9
  3
UCSORGFRONT
350
5BC
  3
UCSORGLEFT
350
5BA
  3
UCSORGRIGHT
350
5BB
  3
UCSORGTOP
350
5B8
  3
UCSORTHOREF
350
5B5
  3
UCSORTHOVIEW
350
5B6
  3
VERSIONGUID
350
5A9
  0
DICTIONARY
  5
396
102
{ACAD_REACTORS
330
C
102
}
330
C
100
AcDbDictionary
  3
DIMASSOC
350
398
  3
HIDETEXT
350
397
  0
XRECORD
  5
5BF
102
{ACAD_REACTORS
330
361
102
}
330
361
100
AcDbXrecord
340
1E
  0
XRECORD
  5
5BE
102
{ACAD_REACTORS
330
363
102
}
330
363
100
AcDbXrecord
340
1A
  0
MLINESTYLE
  5
17
102
{ACAD_REACTORS
330
16
102
}
330
16
100
AcDbMlineStyle
  2
STANDARD
 70
     0
  3

 62
   256
 51
90.0
 52
90.0
 71
     2
 49
0.5
 62
   256
  6
BYLAYER
 49
-0.5
 62
   256
  6
BYLAYER
  0
ACDBPLACEHOLDER
  5
F
102
{ACAD_REACTORS
330
E
102
}
330
E
100
AcDbPlaceHolder
280
     0
  0
XRECORD
  5
5A7
102
{ACAD_REACTORS
330
59D
102
}
330
59D
100
AcDbXrecord
 90
        0
  0
XRECORD
  5
5AB
102
{ACAD_REACTORS
330
59D
102
}
330
59D
100
AcDbXrecord
1000
DSTYLE
1002
{
1070
   277
 70
     5
1070
   279
 70
     2
1002
}
  0
XRECORD
  5
5A8
102
{ACAD_REACTORS
330
59D
102
}
330
59D
100
AcDbXrecord
  1
{1E0B2DD2-BBB7-45AA-947E-A41FF1BE3A74}
  0
XRECORD
  5
5A0
102
{ACAD_REACTORS
330
59D
102
}
330
59D
100
AcDbXrecord
  1

  0
XRECORD
  5
5A6
102
{ACAD_REACTORS
330
59D
102
}
330
59D
100
AcDbXrecord
 90
        0
  0
XRECORD
  5
5A2
102
{ACAD_REACTORS
330
59D
102
}
330
59D
100
AcDbXrecord
340
19
  0
XRECORD
  5
5A5
102
{ACAD_REACTORS
330
59D
102
}
330
59D
100
AcDbXrecord
 90
    14877
  0
XRECORD
  5
5A3
102
{ACAD_REACTORS
330
59D
102
}
330
59D
100
AcDbXrecord
340
18
  0
XRECORD
  5
5A4
102
{ACAD_REACTORS
330
59D
102
}
330
59D
100
AcDbXrecord
340
E
  0
XRECORD
  5
5AA
102
{ACAD_REACTORS
330
59D
102
}
330
59D
100
AcDbXrecord
 40
0.0
  0
XRECORD
  5
5AE
102
{ACAD_REACTORS
330
59D
102
}
330
59D
100
AcDbXrecord
340
0
  0
XRECORD
  5
5B4
102
{ACAD_REACTORS
330
59D
102
}
330
59D
100
AcDbXrecord
 10
0.0
 20
0.0
 30
0.0
  0
XRECORD
  5
5B0
102
{ACAD_REACTORS
330
59D
102
}
330
59D
100
AcDbXrecord
 10
0.0
 20
0.0
 30
0.0
  0
XRECORD
  5
5B3
102
{ACAD_REACTORS
330
59D
102
}
330
59D
100
AcDbXrecord
 10
0.0
 20
0.0
 30
0.0
  0
XRECORD
  5
5B1
102
{ACAD_REACTORS
330
59D
102
}
330
59D
100
AcDbXrecord
 10
0.0
 20
0.0
 30
0.0
  0
XRECORD
  5
5B2
102
{ACAD_REACTORS
330
59D
102
}
330
59D
100
AcDbXrecord
 10
0.0
 20
0.0
 30
0.0
  0
XRECORD
  5
5AF
102
{ACAD_REACTORS
330
59D
102
}
330
59D
100
AcDbXrecord
 10
0.0
 20
0.0
 30
0.0
  0
XRECORD
  5
5AC
102
{ACAD_REACTORS
330
59D
102
}
330
59D
100
AcDbXrecord
340
0
  0
XRECORD
  5
5AD
102
{ACAD_REACTORS
330
59D
102
}
330
59D
100
AcDbXrecord
 70
     0
  0
XRECORD
  5
5A1
102
{ACAD_REACTORS
330
59D
102
}
330
59D
100
AcDbXrecord
  1

  0
XRECORD
  5
59E
102
{ACAD_REACTORS
330
59D
102
}
330
59D
100
AcDbXrecord
 90
        1
  0
XRECORD
  5
59F
102
{ACAD_REACTORS
330
59D
102
}
330
59D
100
AcDbXrecord
 90
       70
  0
XRECORD
  5
5B7
102
{ACAD_REACTORS
330
59D
102
}
330
59D
100
AcDbXrecord
340
0
  0
XRECORD
  5
5BD
102
{ACAD_REACTORS
330
59D
102
}
330
59D
100
AcDbXrecord
 10
0.0
 20
0.0
 30
0.0
  0
XRECORD
  5
5B9
102
{ACAD_REACTORS
330
59D
102
}
330
59D
100
AcDbXrecord
 10
0.0
 20
0.0
 30
0.0
  0
XRECORD
  5
5BC
102
{ACAD_REACTORS
330
59D
102
}
330
59D
100
AcDbXrecord
 10
0.0
 20
0.0
 30
0.0
  0
XRECORD
  5
5BA
102
{ACAD_REACTORS
330
59D
102
}
330
59D
100
AcDbXrecord
 10
0.0
 20
0.0
 30
0.0
  0
XRECORD
  5
5BB
102
{ACAD_REACTORS
330
59D
102
}
330
59D
100
AcDbXrecord
 10
0.0
 20
0.0
 30
0.0
  0
XRECORD
  5
5B8
102
{ACAD_REACTORS
330
59D
102
}
330
59D
100
AcDbXrecord
 10
0.0
 20
0.0
 30
0.0
  0
XRECORD
  5
5B5
102
{ACAD_REACTORS
330
59D
102
}
330
59D
100
AcDbXrecord
340
0
  0
XRECORD
  5
5B6
102
{ACAD_REACTORS
330
59D
102
}
330
59D
100
AcDbXrecord
 70
     0
  0
XRECORD
  5
5A9
102
{ACAD_REACTORS
330
59D
102
}
330
59D
100
AcDbXrecord
  1
{00D740C4-AC20-4525-931C-9B7BCFFB664C}
  0
DICTIONARYVAR
  5
398
102
{ACAD_REACTORS
330
396
102
}
330
396
100
DictionaryVariables
280
     0
  1
2
  0
DICTIONARYVAR
  5
397
102
{ACAD_REACTORS
330
396
102
}
330
396
100
DictionaryVariables
280
     0
  1
1
  0
ENDSEC
  0
EOF
