  0
SECTION
  2
HEADER
  9
$ACADVER
  1
AC1014
  9
$ACADMAINTVER
 70
     9
  9
$DWGCODEPAGE
  3
ANSI_1252
  9
$INSBASE
 10
-0.1950040945178544
 20
15.87010624740999
 30
0.0
  9
$EXTMIN
 10
-9.438323506964936
 20
10.84045213928275
 30
0.0
  9
$EXTMAX
 10
10.13886356670491
 20
21.72285587976747
 30
0.0
  9
$LIMMIN
 10
0.0
 20
0.0
  9
$LIMMAX
 10
36.0
 20
36.0
  9
$ORTHOMODE
 70
     1
  9
$REGENMODE
 70
     1
  9
$FILLMODE
 70
     1
  9
$QTEXTMODE
 70
     0
  9
$MIRRTEXT
 70
     1
  9
$DRAGMODE
 70
     0
  9
$LTSCALE
 40
1.0
  9
$OSMODE
 70
    37
  9
$ATTMODE
 70
     1
  9
$TEXTSIZE
 40
0.2
  9
$TRACEWID
 40
0.05
  9
$TEXTSTYLE
  7
STANDARD
  9
$CLAYER
  8
0
  9
$CELTYPE
  6
BYLAYER
  9
$CECOLOR
 62
   256
  9
$CELTSCALE
 40
1.0
  9
$DELOBJ
 70
     1
  9
$DISPSILH
 70
     0
  9
$DIMSCALE
 40
1.0
  9
$DIMASZ
 40
0.125
  9
$DIMEXO
 40
0.0625
  9
$DIMDLI
 40
0.38
  9
$DIMRND
 40
0.0
  9
$DIMDLE
 40
0.0
  9
$DIMEXE
 40
0.18
  9
$DIMTP
 40
0.0
  9
$DIMTM
 40
0.0
  9
$DIMTXT
 40
0.125
  9
$DIMCEN
 40
0.1875
  9
$DIMTSZ
 40
0.125
  9
$DIMTOL
 70
     0
  9
$DIMLIM
 70
     0
  9
$DIMTIH
 70
     0
  9
$DIMTOH
 70
     0
  9
$DIMSE1
 70
     0
  9
$DIMSE2
 70
     0
  9
$DIMTAD
 70
     0
  9
$DIMZIN
 70
     3
  9
$DIMBLK
  1

  9
$DIMASO
 70
     1
  9
$DIMSHO
 70
     1
  9
$DIMPOST
  1

  9
$DIMAPOST
  1

  9
$DIMALT
 70
     0
  9
$DIMALTD
 70
     1
  9
$DIMALTF
 40
25.4
  9
$DIMLFAC
 40
1.0
  9
$DIMTOFL
 70
     0
  9
$DIMTVP
 40
0.0
  9
$DIMTIX
 70
     0
  9
$DIMSOXD
 70
     0
  9
$DIMSAH
 70
     0
  9
$DIMBLK1
  1

  9
$DIMBLK2
  1

  9
$DIMSTYLE
  2
STANDARD
  9
$DIMCLRD
 70
     0
  9
$DIMCLRE
 70
     0
  9
$DIMCLRT
 70
     0
  9
$DIMTFAC
 40
1.0
  9
$DIMGAP
 40
0.125
  9
$DIMJUST
 70
     0
  9
$DIMSD1
 70
     0
  9
$DIMSD2
 70
     0
  9
$DIMTOLJ
 70
     1
  9
$DIMTZIN
 70
     3
  9
$DIMALTZ
 70
     3
  9
$DIMALTTZ
 70
     3
  9
$DIMFIT
 70
     5
  9
$DIMUPT
 70
     0
  9
$DIMUNIT
 70
     5
  9
$DIMDEC
 70
     4
  9
$DIMTDEC
 70
     4
  9
$DIMALTU
 70
     5
  9
$DIMALTTD
 70
     1
  9
$DIMTXSTY
  7
STANDARD
  9
$DIMAUNIT
 70
     0
  9
$LUNITS
 70
     5
  9
$LUPREC
 70
     4
  9
$SKETCHINC
 40
0.1
  9
$FILLETRAD
 40
0.062
  9
$AUNITS
 70
     0
  9
$AUPREC
 70
     0
  9
$MENU
  1
acad
  9
$ELEVATION
 40
0.0
  9
$PELEVATION
 40
0.0
  9
$THICKNESS
 40
0.0
  9
$LIMCHECK
 70
     0
  9
$BLIPMODE
 70
     0
  9
$CHAMFERA
 40
0.0
  9
$CHAMFERB
 40
0.0
  9
$CHAMFERC
 40
0.0
  9
$CHAMFERD
 40
0.0
  9
$SKPOLY
 70
     0
  9
$TDCREATE
 40
2450387.529863808
  9
$TDUPDATE
 40
2452297.104936157
  9
$TDINDWG
 40
0.0145267361
  9
$TDUSRTIMER
 40
0.0145267361
  9
$USRTIMER
 70
     1
  9
$ANGBASE
 50
0.0
  9
$ANGDIR
 70
     0
  9
$PDMODE
 70
     0
  9
$PDSIZE
 40
0.0
  9
$PLINEWID
 40
0.0
  9
$COORDS
 70
     2
  9
$SPLFRAME
 70
     0
  9
$SPLINETYPE
 70
     6
  9
$SPLINESEGS
 70
     8
  9
$ATTDIA
 70
     0
  9
$ATTREQ
 70
     1
  9
$HANDLING
 70
 22529
  9
$HANDSEED
  5
5C8
  9
$SURFTAB1
 70
     6
  9
$SURFTAB2
 70
     6
  9
$SURFTYPE
 70
     6
  9
$SURFU
 70
     6
  9
$SURFV
 70
     6
  9
$UCSNAME
  2

  9
$UCSORG
 10
0.0
 20
0.0
 30
0.0
  9
$UCSXDIR
 10
1.0
 20
0.0
 30
0.0
  9
$UCSYDIR
 10
0.0
 20
1.0
 30
0.0
  9
$PUCSNAME
  2

  9
$PUCSORG
 10
0.0
 20
0.0
 30
0.0
  9
$PUCSXDIR
 10
1.0
 20
0.0
 30
0.0
  9
$PUCSYDIR
 10
0.0
 20
1.0
 30
0.0
  9
$USERI1
 70
     0
  9
$USERI2
 70
     0
  9
$USERI3
 70
     0
  9
$USERI4
 70
     0
  9
$USERI5
 70
     0
  9
$USERR1
 40
0.0
  9
$USERR2
 40
0.0
  9
$USERR3
 40
0.0
  9
$USERR4
 40
0.0
  9
$USERR5
 40
0.0
  9
$WORLDVIEW
 70
     1
  9
$SHADEDGE
 70
     3
  9
$SHADEDIF
 70
    70
  9
$TILEMODE
 70
     1
  9
$MAXACTVP
 70
    15
  9
$PINSBASE
 10
0.0
 20
0.0
 30
0.0
  9
$PLIMCHECK
 70
     0
  9
$PEXTMIN
 10
1.000000000000000E+20
 20
1.000000000000000E+20
 30
1.000000000000000E+20
  9
$PEXTMAX
 10
-1.000000000000000E+20
 20
-1.000000000000000E+20
 30
-1.000000000000000E+20
  9
$PLIMMIN
 10
0.0
 20
0.0
  9
$PLIMMAX
 10
12.0
 20
9.0
  9
$UNITMODE
 70
     0
  9
$VISRETAIN
 70
     0
  9
$PLINEGEN
 70
     0
  9
$PSLTSCALE
 70
     1
  9
$TREEDEPTH
 70
  3020
  9
$PICKSTYLE
 70
     1
  9
$CMLSTYLE
  2
STANDARD
  9
$CMLJUST
 70
     0
  9
$CMLSCALE
 40
1.0
  9
$PROXYGRAPHICS
 70
     1
  9
$MEASUREMENT
 70
     0
  0
ENDSEC
  0
SECTION
  2
CLASSES
  0
CLASS
  1
ACDBDICTIONARYWDFLT
  2
AcDbDictionaryWithDefault
  3
AutoCAD 2000
 90
        0
280
     0
281
     0
  0
CLASS
  1
ACDBPLACEHOLDER
  2
AcDbPlaceHolder
  3
AutoCAD 2000
 90
        0
280
     0
281
     0
  0
CLASS
  1
LAYOUT
  2
AcDbLayout
  3
AutoCAD 2000
 90
        0
280
     0
281
     0
  0
CLASS
  1
DICTIONARYVAR
  2
AcDbDictionaryVar
  3
AutoCAD 2000
 90
        0
280
     0
281
     0
  0
CLASS
  1
LONG_TRANSACTION
  2
AcDbLongTransaction
  3
AutoCAD 2000
 90
        0
280
     0
281
     0
  0
CLASS
  1
LWPOLYLINE
  2
AcDbPolyline
  3
AutoCAD 2000
 90
        0
280
     0
281
     1
  0
CLASS
  1
HATCH
  2
AcDbHatch
  3
AutoCAD 2000
 90
        0
280
     0
281
     1
  0
CLASS
  1
XRECORD
  2
AcDbXrecord
  3
AutoCAD 2000
 90
        0
280
     0
281
     0
  0
CLASS
  1
LONG_TRANSACTION
  2
AcDbLongTransaction
  3
AutoCAD 2000
 90
        0
280
     0
281
     0
  0
CLASS
  1
LWPOLYLINE
  2
AcDbPolyline
  3
AutoCAD 2000
 90
        0
280
     0
281
     1
  0
CLASS
  1
HATCH
  2
AcDbHatch
  3
AutoCAD 2000
 90
        0
280
     0
281
     1
  0
CLASS
  1
XRECORD
  2
AcDbXrecord
  3
AutoCAD 2000
 90
        0
280
     0
281
     0
  0
CLASS
  1
LONG_TRANSACTION
  2
AcDbLongTransaction
  3
AutoCAD 2000
 90
        0
280
     0
281
     0
  0
CLASS
  1
LWPOLYLINE
  2
AcDbPolyline
  3
AutoCAD 2000
 90
        0
280
     0
281
     1
  0
CLASS
  1
HATCH
  2
AcDbHatch
  3
AutoCAD 2000
 90
        0
280
     0
281
     1
  0
CLASS
  1
XRECORD
  2
AcDbXrecord
  3
AutoCAD 2000
 90
        0
280
     0
281
     0
  0
CLASS
  1
LONG_TRANSACTION
  2
AcDbLongTransaction
  3
AutoCAD 2000
 90
        0
280
     0
281
     0
  0
CLASS
  1
LWPOLYLINE
  2
AcDbPolyline
  3
AutoCAD 2000
 90
        0
280
     0
281
     1
  0
CLASS
  1
HATCH
  2
AcDbHatch
  3
AutoCAD 2000
 90
        0
280
     0
281
     1
  0
CLASS
  1
XRECORD
  2
AcDbXrecord
  3
AutoCAD 2000
 90
        0
280
     0
281
     0
  0
CLASS
  1
LONG_TRANSACTION
  2
AcDbLongTransaction
  3
AutoCAD 2000
 90
        0
280
     0
281
     0
  0
CLASS
  1
LWPOLYLINE
  2
AcDbPolyline
  3
AutoCAD 2000
 90
        0
280
     0
281
     1
  0
CLASS
  1
HATCH
  2
AcDbHatch
  3
AutoCAD 2000
 90
        0
280
     0
281
     1
  0
CLASS
  1
XRECORD
  2
AcDbXrecord
  3
AutoCAD 2000
 90
        0
280
     0
281
     0
  0
CLASS
  1
LONG_TRANSACTION
  2
AcDbLongTransaction
  3
AutoCAD 2000
 90
        0
280
     0
281
     0
  0
CLASS
  1
LWPOLYLINE
  2
AcDbPolyline
  3
AutoCAD 2000
 90
        0
280
     0
281
     1
  0
CLASS
  1
HATCH
  2
AcDbHatch
  3
AutoCAD 2000
 90
        0
280
     0
281
     1
  0
CLASS
  1
XRECORD
  2
AcDbXrecord
  3
AutoCAD 2000
 90
        0
280
     0
281
     0
  0
CLASS
  1
LONG_TRANSACTION
  2
AcDbLongTransaction
  3
AutoCAD 2000
 90
        0
280
     0
281
     0
  0
CLASS
  1
LWPOLYLINE
  2
AcDbPolyline
  3
AutoCAD 2000
 90
        0
280
     0
281
     1
  0
CLASS
  1
HATCH
  2
AcDbHatch
  3
AutoCAD 2000
 90
        0
280
     0
281
     1
  0
CLASS
  1
XRECORD
  2
AcDbXrecord
  3
AutoCAD 2000
 90
        0
280
     0
281
     0
  0
CLASS
  1
LONG_TRANSACTION
  2
AcDbLongTransaction
  3
AutoCAD 2000
 90
        0
280
     0
281
     0
  0
CLASS
  1
LWPOLYLINE
  2
AcDbPolyline
  3
AutoCAD 2000
 90
        0
280
     0
281
     1
  0
CLASS
  1
HATCH
  2
AcDbHatch
  3
AutoCAD 2000
 90
        0
280
     0
281
     1
  0
CLASS
  1
XRECORD
  2
AcDbXrecord
  3
AutoCAD 2000
 90
        0
280
     0
281
     0
  0
ENDSEC
  0
SECTION
  2
TABLES
  0
TABLE
  2
VPORT
  5
8
330
0
100
AcDbSymbolTable
 70
     2
  0
VPORT
  5
5A4
330
8
100
AcDbSymbolTableRecord
100
AcDbViewportTableRecord
  2
*ACTIVE
 70
     0
 10
0.0
 20
0.0
 11
1.0
 21
1.0
 12
0.3652867653094063
 22
16.28201302127215
 13
0.0
 23
0.0
 14
0.5740882589684922
 24
0.5740882589684922
 15
0.5
 25
0.5
 16
0.0
 26
0.0
 36
1.0
 17
0.0
 27
0.0
 37
0.0
 40
12.5473444792904
 41
1.570528967254408
 42
50.0
 43
0.0
 44
0.0
 50
0.0
 51
0.0
 71
     0
 72
   100
 73
     1
 74
     0
 75
     0
 76
     0
 77
     0
 78
     0
  0
ENDTAB
  0
TABLE
  2
LTYPE
  5
5
330
0
100
AcDbSymbolTable
 70
     2
  0
LTYPE
  5
13
330
5
100
AcDbSymbolTableRecord
100
AcDbLinetypeTableRecord
  2
BYBLOCK
 70
     0
  3

 72
    65
 73
     0
 40
0.0
  0
LTYPE
  5
14
330
5
100
AcDbSymbolTableRecord
100
AcDbLinetypeTableRecord
  2
BYLAYER
 70
     0
  3

 72
    65
 73
     0
 40
0.0
  0
LTYPE
  5
15
330
5
100
AcDbSymbolTableRecord
100
AcDbLinetypeTableRecord
  2
CONTINUOUS
 70
     0
  3
Solid line
 72
    65
 73
     0
 40
0.0
  0
LTYPE
  5
2C4
330
5
100
AcDbSymbolTableRecord
100
AcDbLinetypeTableRecord
  2
CENTER2
 70
     0
  3
___ _ ___ _ ___ _ ___ _ ___ _ ___ _ ___ _ ___ _
 72
    65
 73
     4
 40
1.125
 49
0.75
 74
     0
 49
-0.125
 74
     0
 49
0.125
 74
     0
 49
-0.125
 74
     0
  0
ENDTAB
  0
TABLE
  2
LAYER
  5
2
330
0
100
AcDbSymbolTable
 70
     5
  0
LAYER
  5
10
330
2
100
AcDbSymbolTableRecord
100
AcDbLayerTableRecord
  2
0
 70
     0
 62
     7
  6
CONTINUOUS
  0
LAYER
  5
2C5
330
2
100
AcDbSymbolTableRecord
100
AcDbLayerTableRecord
  2
ADP1DETAIL
 70
     0
 62
     7
  6
CONTINUOUS
  0
LAYER
  5
2C6
330
2
100
AcDbSymbolTableRecord
100
AcDbLayerTableRecord
  2
DEFPOINTS
 70
     0
 62
     7
  6
CONTINUOUS
  0
LAYER
  5
2CA
330
2
100
AcDbSymbolTableRecord
100
AcDbLayerTableRecord
  2
ADP3DETAIL
 70
     0
 62
     1
  6
CONTINUOUS
  0
LAYER
  5
2CD
330
2
100
AcDbSymbolTableRecord
100
AcDbLayerTableRecord
  2
ADPDIM
 70
     0
 62
     3
  6
CONTINUOUS
  0
ENDTAB
  0
TABLE
  2
STYLE
  5
3
330
0
100
AcDbSymbolTable
 70
     2
  0
STYLE
  5
11
330
3
100
AcDbSymbolTableRecord
100
AcDbTextStyleTableRecord
  2
STANDARD
 70
     0
 40
0.0
 41
1.0
 50
0.0
 71
     0
 42
0.2
  3
txt
  4

  0
STYLE
  5
32C
330
3
100
AcDbSymbolTableRecord
100
AcDbTextStyleTableRecord
  2
ARIAL_WIDE
 70
     0
 40
0.0
 41
1.25
 50
0.0
 71
     0
 42
0.2
  3
ARIAL.TTF
  4

1001
ACAD
1000
Arial
1071
       34
  0
ENDTAB
  0
TABLE
  2
VIEW
  5
6
330
0
100
AcDbSymbolTable
 70
     0
  0
ENDTAB
  0
TABLE
  2
UCS
  5
7
330
0
100
AcDbSymbolTable
 70
     0
  0
ENDTAB
  0
TABLE
  2
APPID
  5
9
330
0
100
AcDbSymbolTable
 70
     1
  0
APPID
  5
12
330
9
100
AcDbSymbolTableRecord
100
AcDbRegAppTableRecord
  2
ACAD
 70
     0
  0
ENDTAB
  0
TABLE
  2
DIMSTYLE
  5
A
330
0
100
AcDbSymbolTable
 70
     1
  0
DIMSTYLE
105
32A
330
A
100
AcDbSymbolTableRecord
100
AcDbDimStyleTableRecord
  2
STANDARD
 70
     0
  3

  4

  5

  6

  7

 40
1.0
 41
0.18
 42
0.0625
 43
0.38
 44
0.18
 45
0.0
 46
0.0
 47
0.0
 48
0.0
140
0.18
141
0.09
142
0.0
143
25.4
144
1.0
145
0.0
146
1.0
147
0.09
 71
     0
 72
     0
 73
     1
 74
     1
 75
     0
 76
     0
 77
     0
 78
     0
170
     0
171
     2
172
     0
173
     0
174
     0
175
     0
176
     0
177
     0
178
     0
270
     2
271
     4
272
     4
273
     2
274
     2
340
11
275
     0
280
     0
281
     0
282
     0
283
     1
284
     0
285
     0
286
     0
287
     3
288
     0
  0
ENDTAB
  0
TABLE
  2
BLOCK_RECORD
  5
1
330
0
100
AcDbSymbolTable
 70
     6
  0
BLOCK_RECORD
  5
1E
102
{ACAD_XDICTIONARY
360
369
102
}
330
1
100
AcDbSymbolTableRecord
100
AcDbBlockTableRecord
  2
*MODEL_SPACE
  0
BLOCK_RECORD
  5
1A
102
{ACAD_XDICTIONARY
360
36B
102
}
330
1
100
AcDbSymbolTableRecord
100
AcDbBlockTableRecord
  2
*PAPER_SPACE
  0
BLOCK_RECORD
  5
233
330
1
100
AcDbSymbolTableRecord
100
AcDbBlockTableRecord
  2
*D0
  0
BLOCK_RECORD
  5
2BC
330
1
100
AcDbSymbolTableRecord
100
AcDbBlockTableRecord
  2
*D1
  0
BLOCK_RECORD
  5
2BF
330
1
100
AcDbSymbolTableRecord
100
AcDbBlockTableRecord
  2
*D2
  0
BLOCK_RECORD
  5
2C0
330
1
100
AcDbSymbolTableRecord
100
AcDbBlockTableRecord
  2
*D3
  0
BLOCK_RECORD
  5
2C1
330
1
100
AcDbSymbolTableRecord
100
AcDbBlockTableRecord
  2
*D4
  0
BLOCK_RECORD
  5
2C2
330
1
100
AcDbSymbolTableRecord
100
AcDbBlockTableRecord
  2
*D5
  0
ENDTAB
  0
ENDSEC
  0
SECTION
  2
BLOCKS
  0
BLOCK
  5
2D0
330
1E
100
AcDbEntity
  8
0
100
AcDbBlockBegin
  2
*MODEL_SPACE
 70
     0
 10
0.0
 20
0.0
 30
0.0
  3
*MODEL_SPACE
  1

  0
ENDBLK
  5
2D1
330
1E
100
AcDbEntity
  8
0
100
AcDbBlockEnd
  0
BLOCK
  5
2CE
330
1A
100
AcDbEntity
 67
     1
  8
0
100
AcDbBlockBegin
  2
*PAPER_SPACE
 70
     0
 10
0.0
 20
0.0
 30
0.0
  3
*PAPER_SPACE
  1

  0
ENDBLK
  5
2CF
330
1A
100
AcDbEntity
 67
     1
  8
0
100
AcDbBlockEnd
  0
BLOCK
  5
2D3
330
233
100
AcDbEntity
  8
0
100
AcDbBlockBegin
  2
*D0
 70
     1
 10
0.0
 20
0.0
 30
0.0
  3
*D0
  1

  0
LINE
  5
2D4
330
233
100
AcDbEntity
  8
0
  6
BYBLOCK
 62
     0
100
AcDbLine
 10
-0.2017493132387751
 20
9.690098689151525
 30
0.0
 11
-0.2017493132387751
 21
9.807598689151525
 31
0.0
  0
LINE
  5
2D5
330
233
100
AcDbEntity
  8
0
  6
BYBLOCK
 62
     0
100
AcDbLine
 10
-0.1392493132387751
 20
9.690098689151525
 30
0.0
 11
-0.1392493132387751
 21
9.807598689151525
 31
0.0
  0
LINE
  5
2D6
330
233
100
AcDbEntity
  8
0
  6
BYBLOCK
 62
     0
100
AcDbLine
 10
-0.2017493132387751
 20
9.627598689151525
 30
0.0
 11
-0.4517493132387751
 21
9.627598689151525
 31
0.0
  0
LINE
  5
2D7
330
233
100
AcDbEntity
  8
0
  6
BYBLOCK
 62
     0
100
AcDbLine
 10
-0.1392493132387751
 20
9.627598689151525
 30
0.0
 11
0.1107506867612249
 21
9.627598689151525
 31
0.0
  0
LINE
  5
2D8
330
233
100
AcDbEntity
  8
0
  6
BYBLOCK
 62
     0
100
AcDbLine
 10
-0.3267493132387751
 20
9.502598689151525
 30
0.0
 11
-0.0767493132387751
 21
9.752598689151525
 31
0.0
  0
LINE
  5
2D9
330
233
100
AcDbEntity
  8
0
  6
BYBLOCK
 62
     0
100
AcDbLine
 10
-0.2642493132387751
 20
9.502598689151525
 30
0.0
 11
-0.0142493132387751
 21
9.752598689151525
 31
0.0
  0
TEXT
  5
2DA
330
233
100
AcDbEntity
  8
0
  6
BYBLOCK
 62
     0
100
AcDbText
 10
0.2357506867612249
 20
9.565098689151525
 30
0.0
 40
0.125
  1
1/16
 72
     1
 11
0.423250686761225
 21
9.627598689151525
 31
0.0
100
AcDbText
 73
     2
  0
POINT
  5
2DC
330
233
100
AcDbEntity
  8
DEFPOINTS
  6
BYBLOCK
 62
     0
100
AcDbPoint
 10
-0.2017493132387751
 20
9.627598689151525
 30
0.0
  0
POINT
  5
2DD
330
233
100
AcDbEntity
  8
DEFPOINTS
  6
BYBLOCK
 62
     0
100
AcDbPoint
 10
-0.1392493132387751
 20
9.627598689151525
 30
0.0
  0
POINT
  5
2DE
330
233
100
AcDbEntity
  8
DEFPOINTS
  6
BYBLOCK
 62
     0
100
AcDbPoint
 10
-0.1392493132387751
 20
9.627598689151525
 30
0.0
  0
ENDBLK
  5
2DF
330
233
100
AcDbEntity
  8
0
100
AcDbBlockEnd
  0
BLOCK
  5
2E0
330
2BC
100
AcDbEntity
  8
0
100
AcDbBlockBegin
  2
*D1
 70
     1
 10
0.0
 20
0.0
 30
0.0
  3
*D1
  1

  0
LINE
  5
2E1
330
2BC
100
AcDbEntity
  8
0
  6
BYBLOCK
 62
     0
100
AcDbLine
 10
-0.2650785077576345
 20
14.15869626442374
 30
0.0
 11
-0.2650785077576345
 21
14.27619626442374
 31
0.0
  0
LINE
  5
2E2
330
2BC
100
AcDbEntity
  8
0
  6
BYBLOCK
 62
     0
100
AcDbLine
 10
-0.1200785077576345
 20
14.15869626442374
 30
0.0
 11
-0.1200785077576345
 21
14.27619626442374
 31
0.0
  0
LINE
  5
2E3
330
2BC
100
AcDbEntity
  8
0
  6
BYBLOCK
 62
     0
100
AcDbLine
 10
-0.2650785077576345
 20
14.09619626442374
 30
0.0
 11
-0.5150785077576346
 21
14.09619626442374
 31
0.0
  0
LINE
  5
2E4
330
2BC
100
AcDbEntity
  8
0
  6
BYBLOCK
 62
     0
100
AcDbLine
 10
-0.1200785077576345
 20
14.09619626442374
 30
0.0
 11
0.1299214922423655
 21
14.09619626442374
 31
0.0
  0
LINE
  5
2E5
330
2BC
100
AcDbEntity
  8
0
  6
BYBLOCK
 62
     0
100
AcDbLine
 10
-0.3900785077576345
 20
13.97119626442374
 30
0.0
 11
-0.1400785077576345
 21
14.22119626442374
 31
0.0
  0
LINE
  5
2E6
330
2BC
100
AcDbEntity
  8
0
  6
BYBLOCK
 62
     0
100
AcDbLine
 10
-0.2450785077576345
 20
13.97119626442374
 30
0.0
 11
0.0049214922423655
 21
14.22119626442374
 31
0.0
  0
TEXT
  5
2E7
330
2BC
100
AcDbEntity
  8
0
  6
BYBLOCK
 62
     0
100
AcDbText
 10
0.2549214922423655
 20
14.03369626442374
 30
0.0
 40
0.125
  1
0.145
 72
     1
 11
0.4736714922423655
 21
14.09619626442374
 31
0.0
100
AcDbText
 73
     2
  0
POINT
  5
2E8
330
2BC
100
AcDbEntity
  8
DEFPOINTS
  6
BYBLOCK
 62
     0
100
AcDbPoint
 10
-0.2650785077576345
 20
14.09619626442374
 30
0.0
  0
POINT
  5
2E9
330
2BC
100
AcDbEntity
  8
DEFPOINTS
  6
BYBLOCK
 62
     0
100
AcDbPoint
 10
-0.1200785077576345
 20
14.09619626442374
 30
0.0
  0
POINT
  5
2EA
330
2BC
100
AcDbEntity
  8
DEFPOINTS
  6
BYBLOCK
 62
     0
100
AcDbPoint
 10
-0.1200785077576345
 20
14.09619626442374
 30
0.0
  0
ENDBLK
  5
2EB
330
2BC
100
AcDbEntity
  8
0
100
AcDbBlockEnd
  0
BLOCK
  5
2EC
330
2BF
100
AcDbEntity
  8
0
100
AcDbBlockBegin
  2
*D2
 70
     1
 10
0.0
 20
0.0
 30
0.0
  3
*D2
  1

  0
LINE
  5
2ED
330
2BF
100
AcDbEntity
  8
0
  6
BYBLOCK
 62
     0
100
AcDbLine
 10
-2.081036008309919
 20
15.85703345132627
 30
0.0
 11
-2.702268438355092
 21
15.85703345132627
 31
0.0
  0
LINE
  5
2EE
330
2BF
100
AcDbEntity
  8
0
  6
BYBLOCK
 62
     0
100
AcDbLine
 10
-1.268340183727124
 20
19.86713162441242
 30
0.0
 11
-2.702268438355092
 21
19.86713162441242
 31
0.0
  0
LINE
  5
2EF
330
2BF
100
AcDbEntity
  8
0
  6
BYBLOCK
 62
     0
100
AcDbLine
 10
-2.522268438355092
 20
15.85703345132627
 30
0.0
 11
-2.522268438355092
 21
17.69541587120268
 31
0.0
  0
LINE
  5
2F0
330
2BF
100
AcDbEntity
  8
0
  6
BYBLOCK
 62
     0
100
AcDbLine
 10
-2.522268438355092
 20
19.86713162441242
 30
0.0
 11
-2.522268438355092
 21
18.02874920453602
 31
0.0
  0
LINE
  5
2F1
330
2BF
100
AcDbEntity
  8
0
  6
BYBLOCK
 62
     0
100
AcDbLine
 10
-2.397268438355092
 20
15.73203345132627
 30
0.0
 11
-2.647268438355092
 21
15.98203345132627
 31
0.0
  0
LINE
  5
2F2
330
2BF
100
AcDbEntity
  8
0
  6
BYBLOCK
 62
     0
100
AcDbLine
 10
-2.397268438355092
 20
19.74213162441243
 30
0.0
 11
-2.647268438355092
 21
19.99213162441242
 31
0.0
  0
TEXT
  5
2F3
330
2BF
100
AcDbEntity
  8
0
  6
BYBLOCK
 62
     0
100
AcDbText
 10
-2.459768438355092
 20
17.82041587120268
 30
0.0
 40
0.125
  1
4
 50
90.0
 72
     1
 11
-2.522268438355092
 21
17.86208253786935
 31
0.0
100
AcDbText
 73
     2
  0
POINT
  5
2F4
330
2BF
100
AcDbEntity
  8
DEFPOINTS
  6
BYBLOCK
 62
     0
100
AcDbPoint
 10
-2.018536008309919
 20
15.85703345132627
 30
0.0
  0
POINT
  5
2F5
330
2BF
100
AcDbEntity
  8
DEFPOINTS
  6
BYBLOCK
 62
     0
100
AcDbPoint
 10
-1.205840183727124
 20
19.86713162441242
 30
0.0
  0
POINT
  5
2F6
330
2BF
100
AcDbEntity
  8
DEFPOINTS
  6
BYBLOCK
 62
     0
100
AcDbPoint
 10
-2.522268438355092
 20
19.86713162441242
 30
0.0
  0
ENDBLK
  5
2F7
330
2BF
100
AcDbEntity
  8
0
100
AcDbBlockEnd
  0
BLOCK
  5
2F8
330
2C0
100
AcDbEntity
  8
0
100
AcDbBlockBegin
  2
*D3
 70
     1
 10
0.0
 20
0.0
 30
0.0
  3
*D3
  1

  0
LINE
  5
2F9
330
2C0
100
AcDbEntity
  8
0
  6
BYBLOCK
 62
     0
100
AcDbLine
 10
-2.018536008309919
 20
15.79453345132627
 30
0.0
 11
-2.018536008309919
 21
15.01804225421549
 31
0.0
  0
LINE
  5
2FA
330
2C0
100
AcDbEntity
  8
0
  6
BYBLOCK
 62
     0
100
AcDbLine
 10
-0.1950040945178544
 20
15.87010624740999
 30
0.0
 11
-0.1950040945178544
 21
15.01804225421549
 31
0.0
  0
LINE
  5
2FB
330
2C0
100
AcDbEntity
  8
0
  6
BYBLOCK
 62
     0
100
AcDbLine
 10
-2.018536008309919
 20
15.19804225421549
 30
0.0
 11
-1.440103384747219
 21
15.19804225421549
 31
0.0
  0
LINE
  5
2FC
330
2C0
100
AcDbEntity
  8
0
  6
BYBLOCK
 62
     0
100
AcDbLine
 10
-0.1950040945178544
 20
15.19804225421549
 30
0.0
 11
-0.7734367180805535
 21
15.19804225421549
 31
0.0
  0
LINE
  5
2FD
330
2C0
100
AcDbEntity
  8
0
  6
BYBLOCK
 62
     0
100
AcDbLine
 10
-2.143536008309919
 20
15.07304225421549
 30
0.0
 11
-1.893536008309919
 21
15.32304225421549
 31
0.0
  0
LINE
  5
2FE
330
2C0
100
AcDbEntity
  8
0
  6
BYBLOCK
 62
     0
100
AcDbLine
 10
-0.3200040945178544
 20
15.07304225421549
 30
0.0
 11
-0.0700040945178544
 21
15.32304225421549
 31
0.0
  0
TEXT
  5
2FF
330
2C0
100
AcDbEntity
  8
0
  6
BYBLOCK
 62
     0
100
AcDbText
 10
-1.315103384747219
 20
15.13554225421549
 30
0.0
 40
0.125
  1
1.900
 72
     1
 11
-1.106770051413886
 21
15.19804225421549
 31
0.0
100
AcDbText
 73
     2
  0
POINT
  5
300
330
2C0
100
AcDbEntity
  8
DEFPOINTS
  6
BYBLOCK
 62
     0
100
AcDbPoint
 10
-2.018536008309919
 20
15.85703345132627
 30
0.0
  0
POINT
  5
301
330
2C0
100
AcDbEntity
  8
DEFPOINTS
  6
BYBLOCK
 62
     0
100
AcDbPoint
 10
-0.1950040945178544
 20
15.93260624740999
 30
0.0
  0
POINT
  5
302
330
2C0
100
AcDbEntity
  8
DEFPOINTS
  6
BYBLOCK
 62
     0
100
AcDbPoint
 10
-0.1950040945178544
 20
15.19804225421549
 30
0.0
  0
ENDBLK
  5
303
330
2C0
100
AcDbEntity
  8
0
100
AcDbBlockEnd
  0
BLOCK
  5
304
330
2C1
100
AcDbEntity
  8
0
100
AcDbBlockBegin
  2
*D4
 70
     1
 10
0.0
 20
0.0
 30
0.0
  3
*D4
  1

  0
LINE
  5
305
330
2C1
100
AcDbEntity
  8
0
  6
BYBLOCK
 62
     0
100
AcDbLine
 10
-0.3088562067205372
 20
19.05583760457323
 30
0.0
 11
1.916191490962322
 21
17.0742036606362
 31
0.0
  0
LINE
  5
306
330
2C1
100
AcDbEntity
  8
0
  6
BYBLOCK
 62
     0
100
AcDbLine
 10
-0.4853377015483141
 20
19.04562574953345
 30
0.0
 11
-0.1323747118927604
 21
19.06604945961301
 31
0.0
  0
TEXT
  5
307
330
2C1
100
AcDbEntity
  8
0
  6
BYBLOCK
 62
     0
100
AcDbText
 10
1.967970755949097
 20
16.94439550327531
 30
0.0
 40
0.125
  1
R3
 50
318.3116474811233
 72
     1
 11
2.087327061674244
 21
16.92178982416387
 31
0.0
100
AcDbText
 73
     2
  0
POINT
  5
308
330
2C1
100
AcDbEntity
  8
DEFPOINTS
  6
BYBLOCK
 62
     0
100
AcDbPoint
 10
-0.3088562067205372
 20
19.05583760457323
 30
0.0
  0
POINT
  5
309
330
2C1
100
AcDbEntity
  8
DEFPOINTS
  6
BYBLOCK
 62
     0
100
AcDbPoint
 10
1.931463991690081
 20
17.06060192711721
 30
0.0
  0
ENDBLK
  5
30A
330
2C1
100
AcDbEntity
  8
0
100
AcDbBlockEnd
  0
BLOCK
  5
30B
330
2C2
100
AcDbEntity
  8
0
100
AcDbBlockBegin
  2
*D5
 70
     1
 10
0.0
 20
0.0
 30
0.0
  3
*D5
  1

  0
LINE
  5
30C
330
2C2
100
AcDbEntity
  8
0
  6
BYBLOCK
 62
     0
100
AcDbLine
 10
2.918094509981456
 20
20.20028159857643
 30
0.0
 11
2.823084760951824
 21
21.55898431058318
 31
0.0
  0
LINE
  5
30D
330
2C2
100
AcDbEntity
  8
0
  6
BYBLOCK
 62
     0
100
AcDbLine
 10
-1.07216169105784
 20
19.92125570359993
 30
0.0
 11
-1.167171440087472
 21
21.27995841560668
 31
0.0
  0
LINE
  5
30E
330
2C2
100
AcDbEntity
  8
0
  6
BYBLOCK
 62
     0
100
AcDbLine
 10
2.835640926225766
 20
21.3794227815364
 30
0.0
 11
1.006773500749422
 21
21.25153591300551
 31
0.0
  0
LINE
  5
30F
330
2C2
100
AcDbEntity
  8
0
  6
BYBLOCK
 62
     0
100
AcDbLine
 10
-1.15461527481353
 20
21.10039688655991
 30
0.0
 11
0.6742521506628142
 21
21.2282837550908
 31
0.0
  0
LINE
  5
310
330
2C2
100
AcDbEntity
  8
0
  6
BYBLOCK
 62
     0
100
AcDbLine
 10
2.719664979161304
 20
21.24600771603591
 30
0.0
 11
2.951616873290229
 21
21.5128378470369
 31
0.0
  0
LINE
  5
311
330
2C2
100
AcDbEntity
  8
0
  6
BYBLOCK
 62
     0
100
AcDbLine
 10
-1.270591221877992
 20
20.96698182105942
 30
0.0
 11
-1.038639327749067
 21
21.2338119520604
 31
0.0
  0
TEXT
  5
312
330
2C2
100
AcDbEntity
  8
0
  6
BYBLOCK
 62
     0
100
AcDbText
 10
0.8033074365542997
 20
21.17465556116758
 30
0.0
 40
0.125
  1
4
 50
3.999999999999954
 72
     1
 11
0.840512825706118
 21
21.23990983404815
 31
0.0
100
AcDbText
 73
     2
  0
POINT
  5
313
330
2C2
100
AcDbEntity
  8
DEFPOINTS
  6
BYBLOCK
 62
     0
100
AcDbPoint
 10
2.922454289590463
 20
20.13793384543519
 30
0.0
  0
POINT
  5
314
330
2C2
100
AcDbEntity
  8
DEFPOINTS
  6
BYBLOCK
 62
     0
100
AcDbPoint
 10
-1.067801911448833
 20
19.8589079504587
 30
0.0
  0
POINT
  5
315
330
2C2
100
AcDbEntity
  8
DEFPOINTS
  6
BYBLOCK
 62
     0
100
AcDbPoint
 10
-1.15461527481353
 20
21.10039688655991
 30
0.0
  0
ENDBLK
  5
316
330
2C2
100
AcDbEntity
  8
0
100
AcDbBlockEnd
  0
ENDSEC
  0
SECTION
  2
ENTITIES
  0
CIRCLE
  5
317
330
1E
100
AcDbEntity
  8
ADP1DETAIL
100
AcDbCircle
 10
-1.072831840738896
 20
12.30221893847841
 30
0.0
 40
0.8875
  0
CIRCLE
  5
318
330
1E
100
AcDbEntity
  8
ADP1DETAIL
100
AcDbCircle
 10
-1.072831840738896
 20
12.30221893847841
 30
0.0
 40
0.95
  0
DIMENSION
  5
319
330
1E
100
AcDbEntity
  8
ADPDIM
100
AcDbDimension
  2
*D2
 10
-2.522268438355092
 20
19.86713162441242
 30
0.0
 11
-2.522268438355092
 21
17.86208253786935
 31
0.0
100
AcDbAlignedDimension
 13
-2.018536008309919
 23
15.85703345132627
 33
0.0
 14
-1.205840183727124
 24
19.86713162441242
 34
0.0
 50
90.0
100
AcDbRotatedDimension
  0
LINE
  5
31A
330
1E
100
AcDbEntity
  8
ADP1DETAIL
100
AcDbLine
 10
2.855323877308862
 20
21.08555903914149
 30
0.0
 11
2.989584701872065
 21
19.1903086517289
 31
0.0
  0
ARC
  5
31B
330
1E
100
AcDbEntity
  8
ADP3DETAIL
  6
CENTER2
100
AcDbCircle
 10
1.931463991690082
 20
17.06060192711721
 30
0.0
 40
3.0
100
AcDbArc
 50
94.02275874336794
 51
180.0
  0
ARC
  5
31C
330
1E
100
AcDbEntity
  8
ADP1DETAIL
100
AcDbCircle
 10
1.931463991690081
 20
17.06021323750352
 30
0.0
 40
3.95
100
AcDbArc
 50
94.05210261950223
 51
180.0
  0
LINE
  5
31D
330
1E
100
AcDbEntity
  8
ADP3DETAIL
  6
CENTER2
100
AcDbLine
 10
-1.068536008309916
 20
15.42614861025991
 30
0.0
 11
-1.068536008309917
 21
17.06060192711721
 31
0.0
  0
DIMENSION
  5
31E
330
1E
100
AcDbEntity
  8
ADPDIM
100
AcDbDimension
  2
*D3
 10
-0.1950040945178544
 20
15.19804225421549
 30
0.0
 11
-1.106770051413886
 21
15.19804225421549
 31
0.0
  1
1.900
100
AcDbAlignedDimension
 13
-2.018536008309919
 23
15.85703345132627
 33
0.0
 14
-0.1950040945178544
 24
15.93260624740999
 34
0.0
100
AcDbRotatedDimension
  0
DIMENSION
  5
31F
330
1E
100
AcDbEntity
  8
ADPDIM
100
AcDbDimension
  2
*D0
 10
-0.1392493132387751
 20
12.2818143897778
 30
0.0
 11
0.423250686761225
 21
12.2818143897778
 31
0.0
 12
0.0
 22
2.654215700626282
 32
0.0
100
AcDbAlignedDimension
 13
-0.2017493132387751
 23
12.2818143897778
 33
0.0
 14
-0.1392493132387751
 24
12.2818143897778
 34
0.0
100
AcDbRotatedDimension
  0
DIMENSION
  5
320
330
1E
100
AcDbEntity
  8
ADPDIM
100
AcDbDimension
  2
*D1
 10
-0.1200785077576345
 20
14.09619626442374
 30
0.0
 11
0.4736714922423655
 21
14.09619626442374
 31
0.0
  1
0.145
100
AcDbAlignedDimension
 13
-0.2650785077576345
 23
14.09619626442374
 33
0.0
 14
-0.1200785077576345
 24
14.09619626442374
 34
0.0
100
AcDbRotatedDimension
  0
DIMENSION
  5
321
330
1E
100
AcDbEntity
  8
ADPDIM
100
AcDbDimension
  2
*D4
 10
1.931463991690081
 20
17.06060192711721
 30
0.0
 11
2.087327061674244
 21
16.92178982416387
 31
0.0
 70
     4
100
AcDbRadialDimension
 15
-0.3088562067205372
 25
19.05583760457323
 35
0.0
 40
-2.979548681382336
  0
ARC
  5
322
330
1E
100
AcDbEntity
  8
ADP1DETAIL
100
AcDbCircle
 10
1.931463991690079
 20
17.06823793379474
 30
0.0
 40
2.049999999999999
100
AcDbArc
 50
93.66898349229058
 51
180.0
  0
LINE
  5
323
330
1E
100
AcDbEntity
  8
ADP1DETAIL
100
AcDbLine
 10
-0.1185360083099205
 20
15.85703345132627
 30
0.0
 11
-2.018536008309919
 21
15.85703345132627
 31
0.0
  0
LINE
  5
324
330
1E
100
AcDbEntity
  8
ADP1DETAIL
100
AcDbLine
 10
-2.018536008309919
 20
15.85703345132627
 30
0.0
 11
-2.018536008309919
 21
17.06021323750352
 31
0.0
  0
LINE
  5
325
330
1E
100
AcDbEntity
  8
ADP1DETAIL
100
AcDbLine
 10
-0.1185360083099205
 20
17.06823793379474
 30
0.0
 11
-0.1185360083099205
 21
15.85703345132627
 31
0.0
  0
LINE
  5
326
330
1E
100
AcDbEntity
  8
ADP1DETAIL
100
AcDbLine
 10
1.800280213337297
 20
19.11403626605946
 30
0.0
 11
2.987861122622524
 21
19.19018812732684
 31
0.0
  0
DIMENSION
  5
327
330
1E
100
AcDbEntity
  8
ADPDIM
100
AcDbDimension
  2
*D5
 10
-1.15461527481353
 20
21.10039688655991
 30
0.0
 11
0.840512825706118
 21
21.23990983404815
 31
0.0
 70
     1
100
AcDbAlignedDimension
 13
2.922454289590463
 23
20.13793384543519
 33
0.0
 14
-1.067801911448833
 24
19.8589079504587
 34
0.0
  0
LINE
  5
328
330
1E
100
AcDbEntity
  8
ADP1DETAIL
100
AcDbLine
 10
1.652342803782366
 20
21.00033904291393
 30
0.0
 11
2.855323877308862
 21
21.08555903914149
 31
0.0
  0
LINE
  5
329
330
1E
100
AcDbEntity
  8
ADP3DETAIL
  6
CENTER2
100
AcDbLine
 10
1.721005844769413
 20
20.05321071685146
 30
0.0
 11
3.498873160708836
 21
20.1782409787644
 31
0.0
  0
TEXT
  5
3DF
330
1E
100
AcDbEntity
  8
ADPDIM
100
AcDbText
 10
-9.438323506964936
 20
10.89596032482163
 30
0.0
 40
0.1875
  1
J U L I U S  B L U M  &  C O . ,  I N C .      ( 8 0 0 )  5 2 6 - 6 2 9 3        W W W . J U L I U S B L U M . C O M        P A R T  N o .  9 3 1 6
 41
1.25
  7
ARIAL_WIDE
 72
     1
 11
0.3502700298699892
 21
11.08346032482163
 31
0.0
100
AcDbText
 73
     3
  0
ENDSEC
  0
SECTION
  2
OBJECTS
  0
DICTIONARY
  5
C
330
0
100
AcDbDictionary
  3
ACAD_GROUP
350
D
  3
ACAD_LAYOUT
350
19
  3
ACAD_MLINESTYLE
350
16
  3
ACAD_PLOTSETTINGS
350
18
  3
ACAD_PLOTSTYLENAME
350
E
  3
ACDBHEADERROUNDTRIPXREC
350
5A5
  3
ACDBVARIABLEDICTIONARY
350
39E
  0
DICTIONARY
  5
369
330
1E
100
AcDbDictionary
280
     1
  3
ACAD_LAYOUTSELFREF
360
5C7
  0
DICTIONARY
  5
36B
330
1A
100
AcDbDictionary
280
     1
  3
ACAD_LAYOUTSELFREF
360
5C6
  0
DICTIONARY
  5
D
102
{ACAD_REACTORS
330
C
102
}
330
C
100
AcDbDictionary
  0
DICTIONARY
  5
19
102
{ACAD_REACTORS
330
C
102
}
330
C
100
AcDbDictionary
  0
DICTIONARY
  5
16
102
{ACAD_REACTORS
330
C
102
}
330
C
100
AcDbDictionary
  3
STANDARD
350
17
  0
DICTIONARY
  5
18
102
{ACAD_REACTORS
330
C
102
}
330
C
100
AcDbDictionary
  0
ACDBDICTIONARYWDFLT
  5
E
102
{ACAD_REACTORS
330
C
102
}
330
C
100
AcDbDictionary
281
     1
  3
Normal
350
F
100
AcDbDictionaryWithDefault
340
F
  0
DICTIONARY
  5
5A5
102
{ACAD_REACTORS
330
C
102
}
330
C
100
AcDbDictionary
  3
CEPSNTYPE
350
5AF
  3
DIMSTYLEDATA
350
5B3
  3
FINGERPRINTGUID
350
5B0
  3
HYPERLINKBASE
350
5A8
  3
INSUNITS
350
5AE
  3
LAYOUTDICT
350
5AA
  3
LWETCUNION
350
5AD
  3
PLOTSETDICT
350
5AB
  3
PLOTSTYLNAMDICT
350
5AC
  3
PSVPSCALE
350
5B2
  3
PUCSBASE
350
5B6
  3
PUCSORGBACK
350
5BC
  3
PUCSORGBOTTOM
350
5B8
  3
PUCSORGFRONT
350
5BB
  3
PUCSORGLEFT
350
5B9
  3
PUCSORGRIGHT
350
5BA
  3
PUCSORGTOP
350
5B7
  3
PUCSORTHOREF
350
5B4
  3
PUCSORTHOVIEW
350
5B5
  3
STYLESHEET
350
5A9
  3
TSTACKALIGN
350
5A6
  3
TSTACKSIZE
350
5A7
  3
UCSBASE
350
5BF
  3
UCSORGBACK
350
5C5
  3
UCSORGBOTTOM
350
5C1
  3
UCSORGFRONT
350
5C4
  3
UCSORGLEFT
350
5C2
  3
UCSORGRIGHT
350
5C3
  3
UCSORGTOP
350
5C0
  3
UCSORTHOREF
350
5BD
  3
UCSORTHOVIEW
350
5BE
  3
VERSIONGUID
350
5B1
  0
DICTIONARY
  5
39E
102
{ACAD_REACTORS
330
C
102
}
330
C
100
AcDbDictionary
  3
DIMASSOC
350
3A0
  3
HIDETEXT
350
39F
  0
XRECORD
  5
5C7
102
{ACAD_REACTORS
330
369
102
}
330
369
100
AcDbXrecord
340
1E
  0
XRECORD
  5
5C6
102
{ACAD_REACTORS
330
36B
102
}
330
36B
100
AcDbXrecord
340
1A
  0
MLINESTYLE
  5
17
102
{ACAD_REACTORS
330
16
102
}
330
16
100
AcDbMlineStyle
  2
STANDARD
 70
     0
  3

 62
   256
 51
90.0
 52
90.0
 71
     2
 49
0.5
 62
   256
  6
BYLAYER
 49
-0.5
 62
   256
  6
BYLAYER
  0
ACDBPLACEHOLDER
  5
F
102
{ACAD_REACTORS
330
E
102
}
330
E
100
AcDbPlaceHolder
280
     0
  0
XRECORD
  5
5AF
102
{ACAD_REACTORS
330
5A5
102
}
330
5A5
100
AcDbXrecord
 90
        0
  0
XRECORD
  5
5B3
102
{ACAD_REACTORS
330
5A5
102
}
330
5A5
100
AcDbXrecord
1000
DSTYLE
1002
{
1070
   277
 70
     5
1070
   279
 70
     2
1002
}
  0
XRECORD
  5
5B0
102
{ACAD_REACTORS
330
5A5
102
}
330
5A5
100
AcDbXrecord
  1
{7455BB11-D253-4317-91D9-F77566CA3B58}
  0
XRECORD
  5
5A8
102
{ACAD_REACTORS
330
5A5
102
}
330
5A5
100
AcDbXrecord
  1

  0
XRECORD
  5
5AE
102
{ACAD_REACTORS
330
5A5
102
}
330
5A5
100
AcDbXrecord
 90
        0
  0
XRECORD
  5
5AA
102
{ACAD_REACTORS
330
5A5
102
}
330
5A5
100
AcDbXrecord
340
19
  0
XRECORD
  5
5AD
102
{ACAD_REACTORS
330
5A5
102
}
330
5A5
100
AcDbXrecord
 90
    14877
  0
XRECORD
  5
5AB
102
{ACAD_REACTORS
330
5A5
102
}
330
5A5
100
AcDbXrecord
340
18
  0
XRECORD
  5
5AC
102
{ACAD_REACTORS
330
5A5
102
}
330
5A5
100
AcDbXrecord
340
E
  0
XRECORD
  5
5B2
102
{ACAD_REACTORS
330
5A5
102
}
330
5A5
100
AcDbXrecord
 40
0.0
  0
XRECORD
  5
5B6
102
{ACAD_REACTORS
330
5A5
102
}
330
5A5
100
AcDbXrecord
340
0
  0
XRECORD
  5
5BC
102
{ACAD_REACTORS
330
5A5
102
}
330
5A5
100
AcDbXrecord
 10
0.0
 20
0.0
 30
0.0
  0
XRECORD
  5
5B8
102
{ACAD_REACTORS
330
5A5
102
}
330
5A5
100
AcDbXrecord
 10
0.0
 20
0.0
 30
0.0
  0
XRECORD
  5
5BB
102
{ACAD_REACTORS
330
5A5
102
}
330
5A5
100
AcDbXrecord
 10
0.0
 20
0.0
 30
0.0
  0
XRECORD
  5
5B9
102
{ACAD_REACTORS
330
5A5
102
}
330
5A5
100
AcDbXrecord
 10
0.0
 20
0.0
 30
0.0
  0
XRECORD
  5
5BA
102
{ACAD_REACTORS
330
5A5
102
}
330
5A5
100
AcDbXrecord
 10
0.0
 20
0.0
 30
0.0
  0
XRECORD
  5
5B7
102
{ACAD_REACTORS
330
5A5
102
}
330
5A5
100
AcDbXrecord
 10
0.0
 20
0.0
 30
0.0
  0
XRECORD
  5
5B4
102
{ACAD_REACTORS
330
5A5
102
}
330
5A5
100
AcDbXrecord
340
0
  0
XRECORD
  5
5B5
102
{ACAD_REACTORS
330
5A5
102
}
330
5A5
100
AcDbXrecord
 70
     0
  0
XRECORD
  5
5A9
102
{ACAD_REACTORS
330
5A5
102
}
330
5A5
100
AcDbXrecord
  1

  0
XRECORD
  5
5A6
102
{ACAD_REACTORS
330
5A5
102
}
330
5A5
100
AcDbXrecord
 90
        1
  0
XRECORD
  5
5A7
102
{ACAD_REACTORS
330
5A5
102
}
330
5A5
100
AcDbXrecord
 90
       70
  0
XRECORD
  5
5BF
102
{ACAD_REACTORS
330
5A5
102
}
330
5A5
100
AcDbXrecord
340
0
  0
XRECORD
  5
5C5
102
{ACAD_REACTORS
330
5A5
102
}
330
5A5
100
AcDbXrecord
 10
0.0
 20
0.0
 30
0.0
  0
XRECORD
  5
5C1
102
{ACAD_REACTORS
330
5A5
102
}
330
5A5
100
AcDbXrecord
 10
0.0
 20
0.0
 30
0.0
  0
XRECORD
  5
5C4
102
{ACAD_REACTORS
330
5A5
102
}
330
5A5
100
AcDbXrecord
 10
0.0
 20
0.0
 30
0.0
  0
XRECORD
  5
5C2
102
{ACAD_REACTORS
330
5A5
102
}
330
5A5
100
AcDbXrecord
 10
0.0
 20
0.0
 30
0.0
  0
XRECORD
  5
5C3
102
{ACAD_REACTORS
330
5A5
102
}
330
5A5
100
AcDbXrecord
 10
0.0
 20
0.0
 30
0.0
  0
XRECORD
  5
5C0
102
{ACAD_REACTORS
330
5A5
102
}
330
5A5
100
AcDbXrecord
 10
0.0
 20
0.0
 30
0.0
  0
XRECORD
  5
5BD
102
{ACAD_REACTORS
330
5A5
102
}
330
5A5
100
AcDbXrecord
340
0
  0
XRECORD
  5
5BE
102
{ACAD_REACTORS
330
5A5
102
}
330
5A5
100
AcDbXrecord
 70
     0
  0
XRECORD
  5
5B1
102
{ACAD_REACTORS
330
5A5
102
}
330
5A5
100
AcDbXrecord
  1
{0896702D-C47F-47FF-B374-6A9C70CB4FE0}
  0
DICTIONARYVAR
  5
3A0
102
{ACAD_REACTORS
330
39E
102
}
330
39E
100
DictionaryVariables
280
     0
  1
2
  0
DICTIONARYVAR
  5
39F
102
{ACAD_REACTORS
330
39E
102
}
330
39E
100
DictionaryVariables
280
     0
  1
1
  0
ENDSEC
  0
EOF
