  0
SECTION
  2
HEADER
  9
$ACADVER
  1
AC1014
  9
$ACADMAINTVER
 70
     9
  9
$DWGCODEPAGE
  3
ANSI_1252
  9
$INSBASE
 10
6.895749471138305
 20
24.05056311379675
 30
0.0
  9
$EXTMIN
 10
-3.919624790497481
 20
20.88603319005067
 30
0.0
  9
$EXTMAX
 10
15.65756228317237
 20
26.68573428595322
 30
0.0
  9
$LIMMIN
 10
0.0
 20
0.0
  9
$LIMMAX
 10
36.0
 20
36.0
  9
$ORTHOMODE
 70
     1
  9
$REGENMODE
 70
     1
  9
$FILLMODE
 70
     1
  9
$QTEXTMODE
 70
     0
  9
$MIRRTEXT
 70
     1
  9
$DRAGMODE
 70
     0
  9
$LTSCALE
 40
1.0
  9
$OSMODE
 70
    37
  9
$ATTMODE
 70
     1
  9
$TEXTSIZE
 40
0.2
  9
$TRACEWID
 40
0.05
  9
$TEXTSTYLE
  7
STANDARD
  9
$CLAYER
  8
0
  9
$CELTYPE
  6
BYLAYER
  9
$CECOLOR
 62
   256
  9
$CELTSCALE
 40
1.0
  9
$DELOBJ
 70
     1
  9
$DISPSILH
 70
     0
  9
$DIMSCALE
 40
1.0
  9
$DIMASZ
 40
0.125
  9
$DIMEXO
 40
0.0625
  9
$DIMDLI
 40
0.38
  9
$DIMRND
 40
0.0
  9
$DIMDLE
 40
0.0
  9
$DIMEXE
 40
0.18
  9
$DIMTP
 40
0.0
  9
$DIMTM
 40
0.0
  9
$DIMTXT
 40
0.125
  9
$DIMCEN
 40
0.1875
  9
$DIMTSZ
 40
0.125
  9
$DIMTOL
 70
     0
  9
$DIMLIM
 70
     0
  9
$DIMTIH
 70
     0
  9
$DIMTOH
 70
     0
  9
$DIMSE1
 70
     0
  9
$DIMSE2
 70
     0
  9
$DIMTAD
 70
     0
  9
$DIMZIN
 70
     3
  9
$DIMBLK
  1

  9
$DIMASO
 70
     1
  9
$DIMSHO
 70
     1
  9
$DIMPOST
  1

  9
$DIMAPOST
  1

  9
$DIMALT
 70
     0
  9
$DIMALTD
 70
     1
  9
$DIMALTF
 40
25.4
  9
$DIMLFAC
 40
1.0
  9
$DIMTOFL
 70
     0
  9
$DIMTVP
 40
0.0
  9
$DIMTIX
 70
     0
  9
$DIMSOXD
 70
     0
  9
$DIMSAH
 70
     0
  9
$DIMBLK1
  1

  9
$DIMBLK2
  1

  9
$DIMSTYLE
  2
STANDARD
  9
$DIMCLRD
 70
     0
  9
$DIMCLRE
 70
     0
  9
$DIMCLRT
 70
     0
  9
$DIMTFAC
 40
1.0
  9
$DIMGAP
 40
0.125
  9
$DIMJUST
 70
     0
  9
$DIMSD1
 70
     0
  9
$DIMSD2
 70
     0
  9
$DIMTOLJ
 70
     1
  9
$DIMTZIN
 70
     3
  9
$DIMALTZ
 70
     3
  9
$DIMALTTZ
 70
     3
  9
$DIMFIT
 70
     5
  9
$DIMUPT
 70
     0
  9
$DIMUNIT
 70
     5
  9
$DIMDEC
 70
     4
  9
$DIMTDEC
 70
     4
  9
$DIMALTU
 70
     5
  9
$DIMALTTD
 70
     1
  9
$DIMTXSTY
  7
STANDARD
  9
$DIMAUNIT
 70
     0
  9
$LUNITS
 70
     5
  9
$LUPREC
 70
     4
  9
$SKETCHINC
 40
0.1
  9
$FILLETRAD
 40
0.062
  9
$AUNITS
 70
     0
  9
$AUPREC
 70
     0
  9
$MENU
  1
acad
  9
$ELEVATION
 40
0.0
  9
$PELEVATION
 40
0.0
  9
$THICKNESS
 40
0.0
  9
$LIMCHECK
 70
     0
  9
$BLIPMODE
 70
     0
  9
$CHAMFERA
 40
0.0
  9
$CHAMFERB
 40
0.0
  9
$CHAMFERC
 40
0.0
  9
$CHAMFERD
 40
0.0
  9
$SKPOLY
 70
     0
  9
$TDCREATE
 40
2450387.528943669
  9
$TDUPDATE
 40
2452297.104905590
  9
$TDINDWG
 40
0.0150591088
  9
$TDUSRTIMER
 40
0.0150591088
  9
$USRTIMER
 70
     1
  9
$ANGBASE
 50
0.0
  9
$ANGDIR
 70
     0
  9
$PDMODE
 70
     0
  9
$PDSIZE
 40
0.0
  9
$PLINEWID
 40
0.0
  9
$COORDS
 70
     2
  9
$SPLFRAME
 70
     0
  9
$SPLINETYPE
 70
     6
  9
$SPLINESEGS
 70
     8
  9
$ATTDIA
 70
     0
  9
$ATTREQ
 70
     1
  9
$HANDLING
 70
 22529
  9
$HANDSEED
  5
5B1
  9
$SURFTAB1
 70
     6
  9
$SURFTAB2
 70
     6
  9
$SURFTYPE
 70
     6
  9
$SURFU
 70
     6
  9
$SURFV
 70
     6
  9
$UCSNAME
  2

  9
$UCSORG
 10
0.0
 20
0.0
 30
0.0
  9
$UCSXDIR
 10
1.0
 20
0.0
 30
0.0
  9
$UCSYDIR
 10
0.0
 20
1.0
 30
0.0
  9
$PUCSNAME
  2

  9
$PUCSORG
 10
0.0
 20
0.0
 30
0.0
  9
$PUCSXDIR
 10
1.0
 20
0.0
 30
0.0
  9
$PUCSYDIR
 10
0.0
 20
1.0
 30
0.0
  9
$USERI1
 70
     0
  9
$USERI2
 70
     0
  9
$USERI3
 70
     0
  9
$USERI4
 70
     0
  9
$USERI5
 70
     0
  9
$USERR1
 40
0.0
  9
$USERR2
 40
0.0
  9
$USERR3
 40
0.0
  9
$USERR4
 40
0.0
  9
$USERR5
 40
0.0
  9
$WORLDVIEW
 70
     1
  9
$SHADEDGE
 70
     3
  9
$SHADEDIF
 70
    70
  9
$TILEMODE
 70
     1
  9
$MAXACTVP
 70
    15
  9
$PINSBASE
 10
0.0
 20
0.0
 30
0.0
  9
$PLIMCHECK
 70
     0
  9
$PEXTMIN
 10
1.000000000000000E+20
 20
1.000000000000000E+20
 30
1.000000000000000E+20
  9
$PEXTMAX
 10
-1.000000000000000E+20
 20
-1.000000000000000E+20
 30
-1.000000000000000E+20
  9
$PLIMMIN
 10
0.0
 20
0.0
  9
$PLIMMAX
 10
12.0
 20
9.0
  9
$UNITMODE
 70
     0
  9
$VISRETAIN
 70
     0
  9
$PLINEGEN
 70
     0
  9
$PSLTSCALE
 70
     1
  9
$TREEDEPTH
 70
  3020
  9
$PICKSTYLE
 70
     1
  9
$CMLSTYLE
  2
STANDARD
  9
$CMLJUST
 70
     0
  9
$CMLSCALE
 40
1.0
  9
$PROXYGRAPHICS
 70
     1
  9
$MEASUREMENT
 70
     0
  0
ENDSEC
  0
SECTION
  2
CLASSES
  0
CLASS
  1
ACDBDICTIONARYWDFLT
  2
AcDbDictionaryWithDefault
  3
AutoCAD 2000
 90
        0
280
     0
281
     0
  0
CLASS
  1
ACDBPLACEHOLDER
  2
AcDbPlaceHolder
  3
AutoCAD 2000
 90
        0
280
     0
281
     0
  0
CLASS
  1
LAYOUT
  2
AcDbLayout
  3
AutoCAD 2000
 90
        0
280
     0
281
     0
  0
CLASS
  1
DICTIONARYVAR
  2
AcDbDictionaryVar
  3
AutoCAD 2000
 90
        0
280
     0
281
     0
  0
CLASS
  1
LONG_TRANSACTION
  2
AcDbLongTransaction
  3
AutoCAD 2000
 90
        0
280
     0
281
     0
  0
CLASS
  1
LWPOLYLINE
  2
AcDbPolyline
  3
AutoCAD 2000
 90
        0
280
     0
281
     1
  0
CLASS
  1
HATCH
  2
AcDbHatch
  3
AutoCAD 2000
 90
        0
280
     0
281
     1
  0
CLASS
  1
XRECORD
  2
AcDbXrecord
  3
AutoCAD 2000
 90
        0
280
     0
281
     0
  0
CLASS
  1
LONG_TRANSACTION
  2
AcDbLongTransaction
  3
AutoCAD 2000
 90
        0
280
     0
281
     0
  0
CLASS
  1
LWPOLYLINE
  2
AcDbPolyline
  3
AutoCAD 2000
 90
        0
280
     0
281
     1
  0
CLASS
  1
HATCH
  2
AcDbHatch
  3
AutoCAD 2000
 90
        0
280
     0
281
     1
  0
CLASS
  1
XRECORD
  2
AcDbXrecord
  3
AutoCAD 2000
 90
        0
280
     0
281
     0
  0
CLASS
  1
LONG_TRANSACTION
  2
AcDbLongTransaction
  3
AutoCAD 2000
 90
        0
280
     0
281
     0
  0
CLASS
  1
LWPOLYLINE
  2
AcDbPolyline
  3
AutoCAD 2000
 90
        0
280
     0
281
     1
  0
CLASS
  1
HATCH
  2
AcDbHatch
  3
AutoCAD 2000
 90
        0
280
     0
281
     1
  0
CLASS
  1
XRECORD
  2
AcDbXrecord
  3
AutoCAD 2000
 90
        0
280
     0
281
     0
  0
CLASS
  1
LONG_TRANSACTION
  2
AcDbLongTransaction
  3
AutoCAD 2000
 90
        0
280
     0
281
     0
  0
CLASS
  1
LWPOLYLINE
  2
AcDbPolyline
  3
AutoCAD 2000
 90
        0
280
     0
281
     1
  0
CLASS
  1
HATCH
  2
AcDbHatch
  3
AutoCAD 2000
 90
        0
280
     0
281
     1
  0
CLASS
  1
XRECORD
  2
AcDbXrecord
  3
AutoCAD 2000
 90
        0
280
     0
281
     0
  0
CLASS
  1
LONG_TRANSACTION
  2
AcDbLongTransaction
  3
AutoCAD 2000
 90
        0
280
     0
281
     0
  0
CLASS
  1
LWPOLYLINE
  2
AcDbPolyline
  3
AutoCAD 2000
 90
        0
280
     0
281
     1
  0
CLASS
  1
HATCH
  2
AcDbHatch
  3
AutoCAD 2000
 90
        0
280
     0
281
     1
  0
CLASS
  1
XRECORD
  2
AcDbXrecord
  3
AutoCAD 2000
 90
        0
280
     0
281
     0
  0
CLASS
  1
LONG_TRANSACTION
  2
AcDbLongTransaction
  3
AutoCAD 2000
 90
        0
280
     0
281
     0
  0
CLASS
  1
LWPOLYLINE
  2
AcDbPolyline
  3
AutoCAD 2000
 90
        0
280
     0
281
     1
  0
CLASS
  1
HATCH
  2
AcDbHatch
  3
AutoCAD 2000
 90
        0
280
     0
281
     1
  0
CLASS
  1
XRECORD
  2
AcDbXrecord
  3
AutoCAD 2000
 90
        0
280
     0
281
     0
  0
CLASS
  1
LONG_TRANSACTION
  2
AcDbLongTransaction
  3
AutoCAD 2000
 90
        0
280
     0
281
     0
  0
CLASS
  1
LWPOLYLINE
  2
AcDbPolyline
  3
AutoCAD 2000
 90
        0
280
     0
281
     1
  0
CLASS
  1
HATCH
  2
AcDbHatch
  3
AutoCAD 2000
 90
        0
280
     0
281
     1
  0
CLASS
  1
XRECORD
  2
AcDbXrecord
  3
AutoCAD 2000
 90
        0
280
     0
281
     0
  0
CLASS
  1
LONG_TRANSACTION
  2
AcDbLongTransaction
  3
AutoCAD 2000
 90
        0
280
     0
281
     0
  0
CLASS
  1
LWPOLYLINE
  2
AcDbPolyline
  3
AutoCAD 2000
 90
        0
280
     0
281
     1
  0
CLASS
  1
HATCH
  2
AcDbHatch
  3
AutoCAD 2000
 90
        0
280
     0
281
     1
  0
CLASS
  1
XRECORD
  2
AcDbXrecord
  3
AutoCAD 2000
 90
        0
280
     0
281
     0
  0
ENDSEC
  0
SECTION
  2
TABLES
  0
TABLE
  2
VPORT
  5
8
330
0
100
AcDbSymbolTable
 70
     2
  0
VPORT
  5
58D
330
8
100
AcDbSymbolTableRecord
100
AcDbViewportTableRecord
  2
*ACTIVE
 70
     0
 10
0.0
 20
0.0
 11
1.0
 21
1.0
 12
5.884759381110856
 22
23.78567513938257
 13
0.0
 23
0.0
 14
0.5740882589684922
 24
0.5740882589684922
 15
0.5
 25
0.5
 16
0.0
 26
0.0
 36
1.0
 17
0.0
 27
0.0
 37
0.0
 40
12.54762964610983
 41
1.570528967254408
 42
50.0
 43
0.0
 44
0.0
 50
0.0
 51
0.0
 71
     0
 72
   100
 73
     1
 74
     0
 75
     0
 76
     0
 77
     0
 78
     0
  0
ENDTAB
  0
TABLE
  2
LTYPE
  5
5
330
0
100
AcDbSymbolTable
 70
     2
  0
LTYPE
  5
13
330
5
100
AcDbSymbolTableRecord
100
AcDbLinetypeTableRecord
  2
BYBLOCK
 70
     0
  3

 72
    65
 73
     0
 40
0.0
  0
LTYPE
  5
14
330
5
100
AcDbSymbolTableRecord
100
AcDbLinetypeTableRecord
  2
BYLAYER
 70
     0
  3

 72
    65
 73
     0
 40
0.0
  0
LTYPE
  5
15
330
5
100
AcDbSymbolTableRecord
100
AcDbLinetypeTableRecord
  2
CONTINUOUS
 70
     0
  3
Solid line
 72
    65
 73
     0
 40
0.0
  0
LTYPE
  5
2BA
330
5
100
AcDbSymbolTableRecord
100
AcDbLinetypeTableRecord
  2
CENTER2
 70
     0
  3
___ _ ___ _ ___ _ ___ _ ___ _ ___ _ ___ _ ___ _
 72
    65
 73
     4
 40
1.125
 49
0.75
 74
     0
 49
-0.125
 74
     0
 49
0.125
 74
     0
 49
-0.125
 74
     0
  0
ENDTAB
  0
TABLE
  2
LAYER
  5
2
330
0
100
AcDbSymbolTable
 70
     5
  0
LAYER
  5
10
330
2
100
AcDbSymbolTableRecord
100
AcDbLayerTableRecord
  2
0
 70
     0
 62
     7
  6
CONTINUOUS
  0
LAYER
  5
2BB
330
2
100
AcDbSymbolTableRecord
100
AcDbLayerTableRecord
  2
ADP1DETAIL
 70
     0
 62
     7
  6
CONTINUOUS
  0
LAYER
  5
2BC
330
2
100
AcDbSymbolTableRecord
100
AcDbLayerTableRecord
  2
DEFPOINTS
 70
     0
 62
     7
  6
CONTINUOUS
  0
LAYER
  5
2C0
330
2
100
AcDbSymbolTableRecord
100
AcDbLayerTableRecord
  2
ADP3DETAIL
 70
     0
 62
     1
  6
CONTINUOUS
  0
LAYER
  5
2C3
330
2
100
AcDbSymbolTableRecord
100
AcDbLayerTableRecord
  2
ADPDIM
 70
     0
 62
     3
  6
CONTINUOUS
  0
ENDTAB
  0
TABLE
  2
STYLE
  5
3
330
0
100
AcDbSymbolTable
 70
     2
  0
STYLE
  5
11
330
3
100
AcDbSymbolTableRecord
100
AcDbTextStyleTableRecord
  2
STANDARD
 70
     0
 40
0.0
 41
1.0
 50
0.0
 71
     0
 42
0.2
  3
txt
  4

  0
STYLE
  5
315
330
3
100
AcDbSymbolTableRecord
100
AcDbTextStyleTableRecord
  2
ARIAL_WIDE
 70
     0
 40
0.0
 41
1.25
 50
0.0
 71
     0
 42
0.2
  3
ARIAL.TTF
  4

1001
ACAD
1000
Arial
1071
       34
  0
ENDTAB
  0
TABLE
  2
VIEW
  5
6
330
0
100
AcDbSymbolTable
 70
     0
  0
ENDTAB
  0
TABLE
  2
UCS
  5
7
330
0
100
AcDbSymbolTable
 70
     0
  0
ENDTAB
  0
TABLE
  2
APPID
  5
9
330
0
100
AcDbSymbolTable
 70
     1
  0
APPID
  5
12
330
9
100
AcDbSymbolTableRecord
100
AcDbRegAppTableRecord
  2
ACAD
 70
     0
  0
ENDTAB
  0
TABLE
  2
DIMSTYLE
  5
A
330
0
100
AcDbSymbolTable
 70
     1
  0
DIMSTYLE
105
313
330
A
100
AcDbSymbolTableRecord
100
AcDbDimStyleTableRecord
  2
STANDARD
 70
     0
  3

  4

  5

  6

  7

 40
1.0
 41
0.18
 42
0.0625
 43
0.38
 44
0.18
 45
0.0
 46
0.0
 47
0.0
 48
0.0
140
0.18
141
0.09
142
0.0
143
25.4
144
1.0
145
0.0
146
1.0
147
0.09
 71
     0
 72
     0
 73
     1
 74
     1
 75
     0
 76
     0
 77
     0
 78
     0
170
     0
171
     2
172
     0
173
     0
174
     0
175
     0
176
     0
177
     0
178
     0
270
     2
271
     4
272
     4
273
     2
274
     2
340
11
275
     0
280
     0
281
     0
282
     0
283
     1
284
     0
285
     0
286
     0
287
     3
288
     0
  0
ENDTAB
  0
TABLE
  2
BLOCK_RECORD
  5
1
330
0
100
AcDbSymbolTable
 70
     5
  0
BLOCK_RECORD
  5
1E
102
{ACAD_XDICTIONARY
360
352
102
}
330
1
100
AcDbSymbolTableRecord
100
AcDbBlockTableRecord
  2
*MODEL_SPACE
  0
BLOCK_RECORD
  5
1A
102
{ACAD_XDICTIONARY
360
354
102
}
330
1
100
AcDbSymbolTableRecord
100
AcDbBlockTableRecord
  2
*PAPER_SPACE
  0
BLOCK_RECORD
  5
23D
330
1
100
AcDbSymbolTableRecord
100
AcDbBlockTableRecord
  2
*D0
  0
BLOCK_RECORD
  5
2B5
330
1
100
AcDbSymbolTableRecord
100
AcDbBlockTableRecord
  2
*D1
  0
BLOCK_RECORD
  5
2B6
330
1
100
AcDbSymbolTableRecord
100
AcDbBlockTableRecord
  2
*D2
  0
BLOCK_RECORD
  5
2B7
330
1
100
AcDbSymbolTableRecord
100
AcDbBlockTableRecord
  2
*D3
  0
BLOCK_RECORD
  5
2B8
330
1
100
AcDbSymbolTableRecord
100
AcDbBlockTableRecord
  2
*D4
  0
ENDTAB
  0
ENDSEC
  0
SECTION
  2
BLOCKS
  0
BLOCK
  5
2C6
330
1E
100
AcDbEntity
  8
0
100
AcDbBlockBegin
  2
*MODEL_SPACE
 70
     0
 10
0.0
 20
0.0
 30
0.0
  3
*MODEL_SPACE
  1

  0
ENDBLK
  5
2C7
330
1E
100
AcDbEntity
  8
0
100
AcDbBlockEnd
  0
BLOCK
  5
2C4
330
1A
100
AcDbEntity
 67
     1
  8
0
100
AcDbBlockBegin
  2
*PAPER_SPACE
 70
     0
 10
0.0
 20
0.0
 30
0.0
  3
*PAPER_SPACE
  1

  0
ENDBLK
  5
2C5
330
1A
100
AcDbEntity
 67
     1
  8
0
100
AcDbBlockEnd
  0
BLOCK
  5
2C9
330
23D
100
AcDbEntity
  8
0
100
AcDbBlockBegin
  2
*D0
 70
     1
 10
0.0
 20
0.0
 30
0.0
  3
*D0
  1

  0
LINE
  5
2CA
330
23D
100
AcDbEntity
  8
0
  6
BYBLOCK
 62
     0
100
AcDbLine
 10
13.87481850806379
 20
25.87325246938133
 30
0.0
 11
13.9923184647703
 21
25.87335333546983
 31
0.0
  0
LINE
  5
2CB
330
23D
100
AcDbEntity
  8
0
  6
BYBLOCK
 62
     0
100
AcDbLine
 10
13.87476485588905
 20
25.93575244635287
 30
0.0
 11
13.99226481259557
 21
25.93585331244138
 31
0.0
  0
LINE
  5
2CC
330
23D
100
AcDbEntity
  8
0
  6
BYBLOCK
 62
     0
100
AcDbLine
 10
13.81231853109224
 20
25.87319881720659
 30
0.0
 11
13.81253313979118
 21
25.6231989093204
 31
0.0
  0
LINE
  5
2CD
330
23D
100
AcDbEntity
  8
0
  6
BYBLOCK
 62
     0
100
AcDbLine
 10
13.81226487891751
 20
25.93569879417814
 30
0.0
 11
13.81205027021857
 21
26.18569870206433
 31
0.0
  0
LINE
  5
2CE
330
23D
100
AcDbEntity
  8
0
  6
BYBLOCK
 62
     0
100
AcDbLine
 10
13.68721127279967
 20
25.99809146680022
 30
0.0
 11
13.93742578938481
 21
25.74830616761297
 31
0.0
  0
LINE
  5
2CF
330
23D
100
AcDbEntity
  8
0
  6
BYBLOCK
 62
     0
100
AcDbLine
 10
13.68715762062494
 20
26.06059144377177
 30
0.0
 11
13.93737213721007
 21
25.81080614458452
 31
0.0
  0
TEXT
  5
2D0
330
23D
100
AcDbEntity
  8
0
  6
BYBLOCK
 62
     0
100
AcDbText
 10
13.74912107584914
 20
26.685644865662
 30
0.0
 40
0.125
  1
1/16
 50
270.0491846968248
 72
     1
 11
13.81178200934489
 21
26.49819858692208
 31
0.0
100
AcDbText
 73
     2
  0
POINT
  5
2D2
330
23D
100
AcDbEntity
  8
DEFPOINTS
  6
BYBLOCK
 62
     0
100
AcDbPoint
 10
13.81231853109224
 20
25.87319881720659
 30
0.0
  0
POINT
  5
2D3
330
23D
100
AcDbEntity
  8
DEFPOINTS
  6
BYBLOCK
 62
     0
100
AcDbPoint
 10
13.8122648789175
 20
25.93569879417814
 30
0.0
  0
POINT
  5
2D4
330
23D
100
AcDbEntity
  8
DEFPOINTS
  6
BYBLOCK
 62
     0
100
AcDbPoint
 10
13.81226487891751
 20
25.93569879417814
 30
0.0
  0
ENDBLK
  5
2D5
330
23D
100
AcDbEntity
  8
0
100
AcDbBlockEnd
  0
BLOCK
  5
2D6
330
2B5
100
AcDbEntity
  8
0
100
AcDbBlockBegin
  2
*D1
 70
     1
 10
0.0
 20
0.0
 30
0.0
  3
*D1
  1

  0
LINE
  5
2D7
330
2B5
100
AcDbEntity
  8
0
  6
BYBLOCK
 62
     0
100
AcDbLine
 10
6.894021683083902
 20
26.01306232820407
 30
0.0
 11
6.894021683083902
 21
26.60705579443055
 31
0.0
  0
LINE
  5
2D8
330
2B5
100
AcDbEntity
  8
0
  6
BYBLOCK
 62
     0
100
AcDbLine
 10
-0.1053196785755763
 20
25.40811429896449
 30
0.0
 11
-0.1053196785755763
 21
26.60705579443055
 31
0.0
  0
LINE
  5
2D9
330
2B5
100
AcDbEntity
  8
0
  6
BYBLOCK
 62
     0
100
AcDbLine
 10
6.894021683083902
 20
26.42705579443055
 30
0.0
 11
3.561017668920829
 21
26.42705579443055
 31
0.0
  0
LINE
  5
2DA
330
2B5
100
AcDbEntity
  8
0
  6
BYBLOCK
 62
     0
100
AcDbLine
 10
-0.1053196785755763
 20
26.42705579443055
 30
0.0
 11
3.227684335587496
 21
26.42705579443055
 31
0.0
  0
LINE
  5
2DB
330
2B5
100
AcDbEntity
  8
0
  6
BYBLOCK
 62
     0
100
AcDbLine
 10
6.769021683083902
 20
26.30205579443055
 30
0.0
 11
7.019021683083902
 21
26.55205579443055
 31
0.0
  0
LINE
  5
2DC
330
2B5
100
AcDbEntity
  8
0
  6
BYBLOCK
 62
     0
100
AcDbLine
 10
-0.2303196785755763
 20
26.30205579443055
 30
0.0
 11
0.0196803214244237
 21
26.55205579443055
 31
0.0
  0
TEXT
  5
2DD
330
2B5
100
AcDbEntity
  8
0
  6
BYBLOCK
 62
     0
100
AcDbText
 10
3.352684335587496
 20
26.36455579443055
 30
0.0
 40
0.125
  1
7
 72
     1
 11
3.394351002254163
 21
26.42705579443055
 31
0.0
100
AcDbText
 73
     2
  0
POINT
  5
2DE
330
2B5
100
AcDbEntity
  8
DEFPOINTS
  6
BYBLOCK
 62
     0
100
AcDbPoint
 10
6.894021683083902
 20
25.95056232820407
 30
0.0
  0
POINT
  5
2DF
330
2B5
100
AcDbEntity
  8
DEFPOINTS
  6
BYBLOCK
 62
     0
100
AcDbPoint
 10
-0.1053196785755763
 20
25.34561429896449
 30
0.0
  0
POINT
  5
2E0
330
2B5
100
AcDbEntity
  8
DEFPOINTS
  6
BYBLOCK
 62
     0
100
AcDbPoint
 10
-0.1053196785755763
 20
26.42705579443055
 30
0.0
  0
ENDBLK
  5
2E1
330
2B5
100
AcDbEntity
  8
0
100
AcDbBlockEnd
  0
BLOCK
  5
2E2
330
2B6
100
AcDbEntity
  8
0
100
AcDbBlockBegin
  2
*D2
 70
     1
 10
0.0
 20
0.0
 30
0.0
  3
*D2
  1

  0
LINE
  5
2E3
330
2B6
100
AcDbEntity
  8
0
  6
BYBLOCK
 62
     0
100
AcDbLine
 10
-2.599282150115351
 20
23.32921168977701
 30
0.0
 11
-3.427390145496361
 21
24.5118724727476
 31
0.0
  0
LINE
  5
2E4
330
2B6
100
AcDbEntity
  8
0
  6
BYBLOCK
 62
     0
100
AcDbLine
 10
-0.1418260172483777
 20
25.04994099883015
 30
0.0
 11
-0.9699340126293877
 21
26.23260178180074
 31
0.0
  0
LINE
  5
2E5
330
2B6
100
AcDbEntity
  8
0
  6
BYBLOCK
 62
     0
100
AcDbLine
 10
-3.324146386953173
 20
24.36442510477558
 30
0.0
 11
-2.231943661234518
 21
25.12919368657698
 31
0.0
  0
LINE
  5
2E6
330
2B6
100
AcDbEntity
  8
0
  6
BYBLOCK
 62
     0
100
AcDbLine
 10
-0.8666902540861993
 20
26.08515441382873
 30
0.0
 11
-1.958892979804855
 21
25.32038583202733
 31
0.0
  0
LINE
  5
2E7
330
2B6
100
AcDbEntity
  8
0
  6
BYBLOCK
 62
     0
100
AcDbLine
 10
-3.354843337945416
 20
24.19033404469558
 30
0.0
 11
-3.29344943596093
 21
24.53851616485559
 31
0.0
  0
LINE
  5
2E8
330
2B6
100
AcDbEntity
  8
0
  6
BYBLOCK
 62
     0
100
AcDbLine
 10
-0.8973872050784425
 20
25.91106335374872
 30
0.0
 11
-0.8359933030939563
 21
26.25924547390873
 31
0.0
  0
TEXT
  5
2E9
330
2B6
100
AcDbEntity
  8
0
  6
BYBLOCK
 62
     0
100
AcDbText
 10
-2.093701128426453
 20
25.1496937383528
 30
0.0
 40
0.125
  1
3
 50
35.00000000000004
 72
     1
 11
-2.095418320519686
 21
25.22478975930216
 31
0.0
100
AcDbText
 73
     2
  0
POINT
  5
2EA
330
2B6
100
AcDbEntity
  8
DEFPOINTS
  6
BYBLOCK
 62
     0
100
AcDbPoint
 10
-2.563433622843411
 20
23.27801468700894
 30
0.0
  0
POINT
  5
2EB
330
2B6
100
AcDbEntity
  8
DEFPOINTS
  6
BYBLOCK
 62
     0
100
AcDbPoint
 10
-0.1059774899764372
 20
24.99874399606209
 30
0.0
  0
POINT
  5
2EC
330
2B6
100
AcDbEntity
  8
DEFPOINTS
  6
BYBLOCK
 62
     0
100
AcDbPoint
 10
-0.8666902540861993
 20
26.08515441382873
 30
0.0
  0
ENDBLK
  5
2ED
330
2B6
100
AcDbEntity
  8
0
100
AcDbBlockEnd
  0
BLOCK
  5
2EE
330
2B7
100
AcDbEntity
  8
0
100
AcDbBlockBegin
  2
*D3
 70
     1
 10
0.0
 20
0.0
 30
0.0
  3
*D3
  1

  0
LINE
  5
2EF
330
2B7
100
AcDbEntity
  8
0
  6
BYBLOCK
 62
     0
100
AcDbLine
 10
-0.0585440475006043
 20
24.86116974549506
 30
0.0
 11
0.8368259179722318
 21
22.00985287223172
 31
0.0
  0
LINE
  5
2F0
330
2B7
100
AcDbEntity
  8
0
  6
BYBLOCK
 62
     0
100
AcDbLine
 10
-0.2152517915579335
 20
24.94297856502244
 30
0.0
 11
0.0981636965567249
 21
24.77936092596769
 31
0.0
  0
TEXT
  5
2F1
330
2B7
100
AcDbEntity
  8
0
  6
BYBLOCK
 62
     0
100
AcDbText
 10
0.8146462393410331
 20
21.87186985930688
 30
0.0
 40
0.125
  1
R3
 50
287.4333214415422
 72
     1
 11
0.9054832654580234
 21
21.79121268894574
 31
0.0
100
AcDbText
 73
     2
  0
POINT
  5
2F2
330
2B7
100
AcDbEntity
  8
DEFPOINTS
  6
BYBLOCK
 62
     0
100
AcDbPoint
 10
-0.0585440475006043
 20
24.86116974549506
 30
0.0
  0
POINT
  5
2F3
330
2B7
100
AcDbEntity
  8
DEFPOINTS
  6
BYBLOCK
 62
     0
100
AcDbPoint
 10
0.8402430468588454
 20
21.99897098247861
 30
0.0
  0
ENDBLK
  5
2F4
330
2B7
100
AcDbEntity
  8
0
100
AcDbBlockEnd
  0
BLOCK
  5
2F5
330
2B8
100
AcDbEntity
  8
0
100
AcDbBlockBegin
  2
*D4
 70
     1
 10
0.0
 20
0.0
 30
0.0
  3
*D4
  1

  0
LINE
  5
2F6
330
2B8
100
AcDbEntity
  8
0
  6
BYBLOCK
 62
     0
100
AcDbLine
 10
6.956521683083902
 20
25.95056232820407
 30
0.0
 11
7.770984603976751
 21
25.95056232820407
 31
0.0
  0
LINE
  5
2F7
330
2B8
100
AcDbEntity
  8
0
  6
BYBLOCK
 62
     0
100
AcDbLine
 10
6.956521683083902
 20
24.05056311379675
 30
0.0
 11
7.770984603976751
 21
24.05056311379675
 31
0.0
  0
LINE
  5
2F8
330
2B8
100
AcDbEntity
  8
0
  6
BYBLOCK
 62
     0
100
AcDbLine
 10
7.590984603976751
 20
25.95056232820407
 30
0.0
 11
7.590984603976751
 21
25.33389605433375
 31
0.0
  0
LINE
  5
2F9
330
2B8
100
AcDbEntity
  8
0
  6
BYBLOCK
 62
     0
100
AcDbLine
 10
7.590984603976751
 20
24.05056311379675
 30
0.0
 11
7.590984603976751
 21
24.66722938766708
 31
0.0
  0
LINE
  5
2FA
330
2B8
100
AcDbEntity
  8
0
  6
BYBLOCK
 62
     0
100
AcDbLine
 10
7.715984603976751
 20
25.82556232820408
 30
0.0
 11
7.465984603976751
 21
26.07556232820408
 31
0.0
  0
LINE
  5
2FB
330
2B8
100
AcDbEntity
  8
0
  6
BYBLOCK
 62
     0
100
AcDbLine
 10
7.715984603976751
 20
23.92556311379675
 30
0.0
 11
7.465984603976751
 21
24.17556311379675
 31
0.0
  0
TEXT
  5
2FC
330
2B8
100
AcDbEntity
  8
0
  6
BYBLOCK
 62
     0
100
AcDbText
 10
7.653484603976751
 20
24.79222938766708
 30
0.0
 40
0.125
  1
1.900
 50
90.0
 72
     1
 11
7.590984603976751
 21
25.00056272100041
 31
0.0
100
AcDbText
 73
     2
  0
POINT
  5
2FD
330
2B8
100
AcDbEntity
  8
DEFPOINTS
  6
BYBLOCK
 62
     0
100
AcDbPoint
 10
6.894021683083902
 20
25.95056232820407
 30
0.0
  0
POINT
  5
2FE
330
2B8
100
AcDbEntity
  8
DEFPOINTS
  6
BYBLOCK
 62
     0
100
AcDbPoint
 10
6.894021683083902
 20
24.05056311379675
 30
0.0
  0
POINT
  5
2FF
330
2B8
100
AcDbEntity
  8
DEFPOINTS
  6
BYBLOCK
 62
     0
100
AcDbPoint
 10
7.590984603976751
 20
24.05056311379675
 30
0.0
  0
ENDBLK
  5
300
330
2B8
100
AcDbEntity
  8
0
100
AcDbBlockEnd
  0
ENDSEC
  0
SECTION
  2
ENTITIES
  0
DIMENSION
  5
301
330
1E
100
AcDbEntity
  8
ADPDIM
100
AcDbDimension
  2
*D1
 10
-0.1053196785755763
 20
26.42705579443055
 30
0.0
 11
3.394351002254163
 21
26.42705579443055
 31
0.0
100
AcDbAlignedDimension
 13
6.894021683083902
 23
25.95056232820407
 33
0.0
 14
-0.1053196785755763
 24
25.34561429896449
 34
0.0
100
AcDbRotatedDimension
  0
LINE
  5
302
330
1E
100
AcDbEntity
  8
ADP3DETAIL
  6
CENTER2
100
AcDbLine
 10
0.8395231106943704
 20
24.99897089609393
 30
0.0
 11
7.060205033440034
 21
24.99873658145784
 31
0.0
  0
LINE
  5
303
330
1E
100
AcDbEntity
  8
ADP1DETAIL
100
AcDbLine
 10
0.8633039454271074
 20
24.06231688770883
 30
0.0
 11
6.894021683083902
 21
24.05056311379675
 31
0.0
  0
LINE
  5
304
330
1E
100
AcDbEntity
  8
ADP1DETAIL
100
AcDbLine
 10
0.5393217514071154
 20
25.94863608677521
 30
0.0
 11
6.894021683083902
 21
25.95056232820407
 31
0.0
  0
DIMENSION
  5
305
330
1E
100
AcDbEntity
  8
ADPDIM
100
AcDbDimension
  2
*D2
 10
-0.8666902540861993
 20
26.08515441382873
 30
0.0
 11
-2.095418320519686
 21
25.22478975930216
 31
0.0
 70
     1
100
AcDbAlignedDimension
 13
-2.563433622843412
 23
23.27801468700894
 33
0.0
 14
-0.105977489976437
 24
24.99874399606209
 34
0.0
  0
LINE
  5
306
330
1E
100
AcDbEntity
  8
ADP1DETAIL
100
AcDbLine
 10
-3.108331237376905
 20
24.05620912908349
 30
0.0
 11
-1.180498195428572
 21
25.40609235746547
 31
0.0
  0
LINE
  5
307
330
1E
100
AcDbEntity
  8
ADP3DETAIL
  6
CENTER2
100
AcDbLine
 10
-2.916393821256056
 20
23.03086929539241
 30
0.0
 11
-0.8804862621942923
 21
24.45642711534559
 31
0.0
  0
LINE
  5
308
330
1E
100
AcDbEntity
  8
ADP1DETAIL
100
AcDbLine
 10
-2.018536008309919
 20
22.4998202449344
 30
0.0
 11
-3.108331237376905
 21
24.05620912908349
 31
0.0
  0
ARC
  5
309
330
1E
100
AcDbEntity
  8
ADP1DETAIL
100
AcDbCircle
 10
0.8593085352944012
 20
22.01232078120085
 30
0.0
 40
2.049999999999999
100
AcDbArc
 50
89.88833156929045
 51
124.9999999999999
  0
DIMENSION
  5
30A
330
1E
100
AcDbEntity
  8
ADPDIM
100
AcDbDimension
  2
*D3
 10
0.8402430468588454
 20
21.99897098247861
 30
0.0
 11
0.9054832654580234
 21
21.79121268894574
 31
0.0
 70
     4
100
AcDbRadialDimension
 15
-0.0585440475006043
 25
24.86116974549506
 35
0.0
 40
-2.988594199088776
  0
LINE
  5
30B
330
1E
100
AcDbEntity
  8
ADP1DETAIL
100
AcDbLine
 10
-0.3165231592252429
 20
23.69158247199328
 30
0.0
 11
-2.018536008309919
 21
22.4998202449344
 31
0.0
  0
ARC
  5
30C
330
1E
100
AcDbEntity
  8
ADP3DETAIL
  6
CENTER2
100
AcDbCircle
 10
0.8402430468588448
 20
21.99897098247861
 30
0.0
 40
3.0
100
AcDbArc
 50
90.01374976804639
 51
125.0
  0
ARC
  5
30D
330
1E
100
AcDbEntity
  8
ADP1DETAIL
100
AcDbCircle
 10
0.5402311136245661
 20
22.94863622459849
 30
0.0
 40
3.0
100
AcDbArc
 50
90.01736753930215
 51
124.9999999999999
  0
DIMENSION
  5
30E
330
1E
100
AcDbEntity
  8
ADPDIM
100
AcDbDimension
  2
*D4
 10
7.590984603976751
 20
24.05056311379675
 30
0.0
 11
7.590984603976751
 21
25.00056272100041
 31
0.0
  1
1.900
100
AcDbAlignedDimension
 13
6.894021683083902
 23
25.95056232820407
 33
0.0
 14
6.894021683083902
 24
24.05056311379675
 34
0.0
 50
90.0
100
AcDbRotatedDimension
  0
LINE
  5
30F
330
1E
100
AcDbEntity
  8
ADP1DETAIL
100
AcDbLine
 10
6.894021683083902
 20
25.95056232820407
 30
0.0
 11
6.895749471138305
 21
24.05056311379675
 31
0.0
  0
DIMENSION
  5
310
330
1E
100
AcDbEntity
  8
ADPDIM
100
AcDbDimension
  2
*D0
 10
13.81226487891751
 20
25.93569879417814
 30
0.0
 11
13.81178200934489
 21
26.49819858692208
 31
0.0
100
AcDbAlignedDimension
 13
13.81231853109224
 23
25.87319881720659
 33
0.0
 14
13.8122648789175
 24
25.93569879417814
 34
0.0
 50
90.04918469682484
100
AcDbRotatedDimension
  0
CIRCLE
  5
311
330
1E
100
AcDbEntity
  8
ADP1DETAIL
100
AcDbCircle
 10
13.79266175746138
 20
25.00209909468678
 30
0.0
 40
0.8875
  0
CIRCLE
  5
312
330
1E
100
AcDbEntity
  8
ADP1DETAIL
100
AcDbCircle
 10
13.79266175746138
 20
25.00209909468678
 30
0.0
 40
0.95
  0
TEXT
  5
3C8
330
1E
100
AcDbEntity
  8
ADPDIM
100
AcDbText
 10
-3.919624790497481
 20
20.94154137558955
 30
0.0
 40
0.1875
  1
J U L I U S  B L U M  &  C O . ,  I N C .      ( 8 0 0 )  5 2 6 - 6 2 9 3        W W W . J U L I U S B L U M . C O M        P A R T  N o .  9 3 1 5
 41
1.25
  7
ARIAL_WIDE
 72
     1
 11
5.868968746337444
 21
21.12904137558955
 31
0.0
100
AcDbText
 73
     3
  0
ENDSEC
  0
SECTION
  2
OBJECTS
  0
DICTIONARY
  5
C
330
0
100
AcDbDictionary
  3
ACAD_GROUP
350
D
  3
ACAD_LAYOUT
350
19
  3
ACAD_MLINESTYLE
350
16
  3
ACAD_PLOTSETTINGS
350
18
  3
ACAD_PLOTSTYLENAME
350
E
  3
ACDBHEADERROUNDTRIPXREC
350
58E
  3
ACDBVARIABLEDICTIONARY
350
387
  0
DICTIONARY
  5
352
330
1E
100
AcDbDictionary
280
     1
  3
ACAD_LAYOUTSELFREF
360
5B0
  0
DICTIONARY
  5
354
330
1A
100
AcDbDictionary
280
     1
  3
ACAD_LAYOUTSELFREF
360
5AF
  0
DICTIONARY
  5
D
102
{ACAD_REACTORS
330
C
102
}
330
C
100
AcDbDictionary
  0
DICTIONARY
  5
19
102
{ACAD_REACTORS
330
C
102
}
330
C
100
AcDbDictionary
  0
DICTIONARY
  5
16
102
{ACAD_REACTORS
330
C
102
}
330
C
100
AcDbDictionary
  3
STANDARD
350
17
  0
DICTIONARY
  5
18
102
{ACAD_REACTORS
330
C
102
}
330
C
100
AcDbDictionary
  0
ACDBDICTIONARYWDFLT
  5
E
102
{ACAD_REACTORS
330
C
102
}
330
C
100
AcDbDictionary
281
     1
  3
Normal
350
F
100
AcDbDictionaryWithDefault
340
F
  0
DICTIONARY
  5
58E
102
{ACAD_REACTORS
330
C
102
}
330
C
100
AcDbDictionary
  3
CEPSNTYPE
350
598
  3
DIMSTYLEDATA
350
59C
  3
FINGERPRINTGUID
350
599
  3
HYPERLINKBASE
350
591
  3
INSUNITS
350
597
  3
LAYOUTDICT
350
593
  3
LWETCUNION
350
596
  3
PLOTSETDICT
350
594
  3
PLOTSTYLNAMDICT
350
595
  3
PSVPSCALE
350
59B
  3
PUCSBASE
350
59F
  3
PUCSORGBACK
350
5A5
  3
PUCSORGBOTTOM
350
5A1
  3
PUCSORGFRONT
350
5A4
  3
PUCSORGLEFT
350
5A2
  3
PUCSORGRIGHT
350
5A3
  3
PUCSORGTOP
350
5A0
  3
PUCSORTHOREF
350
59D
  3
PUCSORTHOVIEW
350
59E
  3
STYLESHEET
350
592
  3
TSTACKALIGN
350
58F
  3
TSTACKSIZE
350
590
  3
UCSBASE
350
5A8
  3
UCSORGBACK
350
5AE
  3
UCSORGBOTTOM
350
5AA
  3
UCSORGFRONT
350
5AD
  3
UCSORGLEFT
350
5AB
  3
UCSORGRIGHT
350
5AC
  3
UCSORGTOP
350
5A9
  3
UCSORTHOREF
350
5A6
  3
UCSORTHOVIEW
350
5A7
  3
VERSIONGUID
350
59A
  0
DICTIONARY
  5
387
102
{ACAD_REACTORS
330
C
102
}
330
C
100
AcDbDictionary
  3
DIMASSOC
350
389
  3
HIDETEXT
350
388
  0
XRECORD
  5
5B0
102
{ACAD_REACTORS
330
352
102
}
330
352
100
AcDbXrecord
340
1E
  0
XRECORD
  5
5AF
102
{ACAD_REACTORS
330
354
102
}
330
354
100
AcDbXrecord
340
1A
  0
MLINESTYLE
  5
17
102
{ACAD_REACTORS
330
16
102
}
330
16
100
AcDbMlineStyle
  2
STANDARD
 70
     0
  3

 62
   256
 51
90.0
 52
90.0
 71
     2
 49
0.5
 62
   256
  6
BYLAYER
 49
-0.5
 62
   256
  6
BYLAYER
  0
ACDBPLACEHOLDER
  5
F
102
{ACAD_REACTORS
330
E
102
}
330
E
100
AcDbPlaceHolder
280
     0
  0
XRECORD
  5
598
102
{ACAD_REACTORS
330
58E
102
}
330
58E
100
AcDbXrecord
 90
        0
  0
XRECORD
  5
59C
102
{ACAD_REACTORS
330
58E
102
}
330
58E
100
AcDbXrecord
1000
DSTYLE
1002
{
1070
   277
 70
     5
1070
   279
 70
     2
1002
}
  0
XRECORD
  5
599
102
{ACAD_REACTORS
330
58E
102
}
330
58E
100
AcDbXrecord
  1
{ED6E8F41-BD9F-43F0-B183-F846243CBE12}
  0
XRECORD
  5
591
102
{ACAD_REACTORS
330
58E
102
}
330
58E
100
AcDbXrecord
  1

  0
XRECORD
  5
597
102
{ACAD_REACTORS
330
58E
102
}
330
58E
100
AcDbXrecord
 90
        0
  0
XRECORD
  5
593
102
{ACAD_REACTORS
330
58E
102
}
330
58E
100
AcDbXrecord
340
19
  0
XRECORD
  5
596
102
{ACAD_REACTORS
330
58E
102
}
330
58E
100
AcDbXrecord
 90
    14877
  0
XRECORD
  5
594
102
{ACAD_REACTORS
330
58E
102
}
330
58E
100
AcDbXrecord
340
18
  0
XRECORD
  5
595
102
{ACAD_REACTORS
330
58E
102
}
330
58E
100
AcDbXrecord
340
E
  0
XRECORD
  5
59B
102
{ACAD_REACTORS
330
58E
102
}
330
58E
100
AcDbXrecord
 40
0.0
  0
XRECORD
  5
59F
102
{ACAD_REACTORS
330
58E
102
}
330
58E
100
AcDbXrecord
340
0
  0
XRECORD
  5
5A5
102
{ACAD_REACTORS
330
58E
102
}
330
58E
100
AcDbXrecord
 10
0.0
 20
0.0
 30
0.0
  0
XRECORD
  5
5A1
102
{ACAD_REACTORS
330
58E
102
}
330
58E
100
AcDbXrecord
 10
0.0
 20
0.0
 30
0.0
  0
XRECORD
  5
5A4
102
{ACAD_REACTORS
330
58E
102
}
330
58E
100
AcDbXrecord
 10
0.0
 20
0.0
 30
0.0
  0
XRECORD
  5
5A2
102
{ACAD_REACTORS
330
58E
102
}
330
58E
100
AcDbXrecord
 10
0.0
 20
0.0
 30
0.0
  0
XRECORD
  5
5A3
102
{ACAD_REACTORS
330
58E
102
}
330
58E
100
AcDbXrecord
 10
0.0
 20
0.0
 30
0.0
  0
XRECORD
  5
5A0
102
{ACAD_REACTORS
330
58E
102
}
330
58E
100
AcDbXrecord
 10
0.0
 20
0.0
 30
0.0
  0
XRECORD
  5
59D
102
{ACAD_REACTORS
330
58E
102
}
330
58E
100
AcDbXrecord
340
0
  0
XRECORD
  5
59E
102
{ACAD_REACTORS
330
58E
102
}
330
58E
100
AcDbXrecord
 70
     0
  0
XRECORD
  5
592
102
{ACAD_REACTORS
330
58E
102
}
330
58E
100
AcDbXrecord
  1

  0
XRECORD
  5
58F
102
{ACAD_REACTORS
330
58E
102
}
330
58E
100
AcDbXrecord
 90
        1
  0
XRECORD
  5
590
102
{ACAD_REACTORS
330
58E
102
}
330
58E
100
AcDbXrecord
 90
       70
  0
XRECORD
  5
5A8
102
{ACAD_REACTORS
330
58E
102
}
330
58E
100
AcDbXrecord
340
0
  0
XRECORD
  5
5AE
102
{ACAD_REACTORS
330
58E
102
}
330
58E
100
AcDbXrecord
 10
0.0
 20
0.0
 30
0.0
  0
XRECORD
  5
5AA
102
{ACAD_REACTORS
330
58E
102
}
330
58E
100
AcDbXrecord
 10
0.0
 20
0.0
 30
0.0
  0
XRECORD
  5
5AD
102
{ACAD_REACTORS
330
58E
102
}
330
58E
100
AcDbXrecord
 10
0.0
 20
0.0
 30
0.0
  0
XRECORD
  5
5AB
102
{ACAD_REACTORS
330
58E
102
}
330
58E
100
AcDbXrecord
 10
0.0
 20
0.0
 30
0.0
  0
XRECORD
  5
5AC
102
{ACAD_REACTORS
330
58E
102
}
330
58E
100
AcDbXrecord
 10
0.0
 20
0.0
 30
0.0
  0
XRECORD
  5
5A9
102
{ACAD_REACTORS
330
58E
102
}
330
58E
100
AcDbXrecord
 10
0.0
 20
0.0
 30
0.0
  0
XRECORD
  5
5A6
102
{ACAD_REACTORS
330
58E
102
}
330
58E
100
AcDbXrecord
340
0
  0
XRECORD
  5
5A7
102
{ACAD_REACTORS
330
58E
102
}
330
58E
100
AcDbXrecord
 70
     0
  0
XRECORD
  5
59A
102
{ACAD_REACTORS
330
58E
102
}
330
58E
100
AcDbXrecord
  1
{21AF5C50-DC40-4942-B96C-332B223E5AD4}
  0
DICTIONARYVAR
  5
389
102
{ACAD_REACTORS
330
387
102
}
330
387
100
DictionaryVariables
280
     0
  1
2
  0
DICTIONARYVAR
  5
388
102
{ACAD_REACTORS
330
387
102
}
330
387
100
DictionaryVariables
280
     0
  1
1
  0
ENDSEC
  0
EOF
