  0
SECTION
  2
HEADER
  9
$ACADVER
  1
AC1014
  9
$ACADMAINTVER
 70
     9
  9
$DWGCODEPAGE
  3
ANSI_1252
  9
$INSBASE
 10
6.444420902026008
 20
33.1891809477771
 30
0.0
  9
$EXTMIN
 10
-4.557461517763785
 20
29.96566799854319
 30
0.0
  9
$EXTMAX
 10
15.01972555590606
 20
35.82435211993357
 30
0.0
  9
$LIMMIN
 10
0.0
 20
0.0
  9
$LIMMAX
 10
36.0
 20
36.0
  9
$ORTHOMODE
 70
     1
  9
$REGENMODE
 70
     1
  9
$FILLMODE
 70
     1
  9
$QTEXTMODE
 70
     0
  9
$MIRRTEXT
 70
     1
  9
$DRAGMODE
 70
     0
  9
$LTSCALE
 40
1.0
  9
$OSMODE
 70
    37
  9
$ATTMODE
 70
     1
  9
$TEXTSIZE
 40
0.2
  9
$TRACEWID
 40
0.05
  9
$TEXTSTYLE
  7
STANDARD
  9
$CLAYER
  8
0
  9
$CELTYPE
  6
BYLAYER
  9
$CECOLOR
 62
   256
  9
$CELTSCALE
 40
1.0
  9
$DELOBJ
 70
     1
  9
$DISPSILH
 70
     0
  9
$DIMSCALE
 40
1.0
  9
$DIMASZ
 40
0.125
  9
$DIMEXO
 40
0.0625
  9
$DIMDLI
 40
0.38
  9
$DIMRND
 40
0.0
  9
$DIMDLE
 40
0.0
  9
$DIMEXE
 40
0.18
  9
$DIMTP
 40
0.0
  9
$DIMTM
 40
0.0
  9
$DIMTXT
 40
0.125
  9
$DIMCEN
 40
0.1875
  9
$DIMTSZ
 40
0.125
  9
$DIMTOL
 70
     0
  9
$DIMLIM
 70
     0
  9
$DIMTIH
 70
     0
  9
$DIMTOH
 70
     0
  9
$DIMSE1
 70
     0
  9
$DIMSE2
 70
     0
  9
$DIMTAD
 70
     0
  9
$DIMZIN
 70
     3
  9
$DIMBLK
  1

  9
$DIMASO
 70
     1
  9
$DIMSHO
 70
     1
  9
$DIMPOST
  1

  9
$DIMAPOST
  1

  9
$DIMALT
 70
     0
  9
$DIMALTD
 70
     1
  9
$DIMALTF
 40
25.4
  9
$DIMLFAC
 40
1.0
  9
$DIMTOFL
 70
     0
  9
$DIMTVP
 40
0.0
  9
$DIMTIX
 70
     0
  9
$DIMSOXD
 70
     0
  9
$DIMSAH
 70
     0
  9
$DIMBLK1
  1

  9
$DIMBLK2
  1

  9
$DIMSTYLE
  2
STANDARD
  9
$DIMCLRD
 70
     0
  9
$DIMCLRE
 70
     0
  9
$DIMCLRT
 70
     0
  9
$DIMTFAC
 40
1.0
  9
$DIMGAP
 40
0.125
  9
$DIMJUST
 70
     0
  9
$DIMSD1
 70
     0
  9
$DIMSD2
 70
     0
  9
$DIMTOLJ
 70
     1
  9
$DIMTZIN
 70
     3
  9
$DIMALTZ
 70
     3
  9
$DIMALTTZ
 70
     3
  9
$DIMFIT
 70
     5
  9
$DIMUPT
 70
     0
  9
$DIMUNIT
 70
     5
  9
$DIMDEC
 70
     4
  9
$DIMTDEC
 70
     4
  9
$DIMALTU
 70
     5
  9
$DIMALTTD
 70
     1
  9
$DIMTXSTY
  7
STANDARD
  9
$DIMAUNIT
 70
     0
  9
$LUNITS
 70
     5
  9
$LUPREC
 70
     4
  9
$SKETCHINC
 40
0.1
  9
$FILLETRAD
 40
0.062
  9
$AUNITS
 70
     0
  9
$AUPREC
 70
     0
  9
$MENU
  1
acad
  9
$ELEVATION
 40
0.0
  9
$PELEVATION
 40
0.0
  9
$THICKNESS
 40
0.0
  9
$LIMCHECK
 70
     0
  9
$BLIPMODE
 70
     0
  9
$CHAMFERA
 40
0.0
  9
$CHAMFERB
 40
0.0
  9
$CHAMFERC
 40
0.0
  9
$CHAMFERD
 40
0.0
  9
$SKPOLY
 70
     0
  9
$TDCREATE
 40
2450387.528056134
  9
$TDUPDATE
 40
2452297.104879189
  9
$TDINDWG
 40
0.0156573611
  9
$TDUSRTIMER
 40
0.0156573611
  9
$USRTIMER
 70
     1
  9
$ANGBASE
 50
0.0
  9
$ANGDIR
 70
     0
  9
$PDMODE
 70
     0
  9
$PDSIZE
 40
0.0
  9
$PLINEWID
 40
0.0
  9
$COORDS
 70
     2
  9
$SPLFRAME
 70
     0
  9
$SPLINETYPE
 70
     6
  9
$SPLINESEGS
 70
     8
  9
$ATTDIA
 70
     0
  9
$ATTREQ
 70
     1
  9
$HANDLING
 70
 22529
  9
$HANDSEED
  5
5DD
  9
$SURFTAB1
 70
     6
  9
$SURFTAB2
 70
     6
  9
$SURFTYPE
 70
     6
  9
$SURFU
 70
     6
  9
$SURFV
 70
     6
  9
$UCSNAME
  2

  9
$UCSORG
 10
0.0
 20
0.0
 30
0.0
  9
$UCSXDIR
 10
1.0
 20
0.0
 30
0.0
  9
$UCSYDIR
 10
0.0
 20
1.0
 30
0.0
  9
$PUCSNAME
  2

  9
$PUCSORG
 10
0.0
 20
0.0
 30
0.0
  9
$PUCSXDIR
 10
1.0
 20
0.0
 30
0.0
  9
$PUCSYDIR
 10
0.0
 20
1.0
 30
0.0
  9
$USERI1
 70
     0
  9
$USERI2
 70
     0
  9
$USERI3
 70
     0
  9
$USERI4
 70
     0
  9
$USERI5
 70
     0
  9
$USERR1
 40
0.0
  9
$USERR2
 40
0.0
  9
$USERR3
 40
0.0
  9
$USERR4
 40
0.0
  9
$USERR5
 40
0.0
  9
$WORLDVIEW
 70
     1
  9
$SHADEDGE
 70
     3
  9
$SHADEDIF
 70
    70
  9
$TILEMODE
 70
     1
  9
$MAXACTVP
 70
    15
  9
$PINSBASE
 10
0.0
 20
0.0
 30
0.0
  9
$PLIMCHECK
 70
     0
  9
$PEXTMIN
 10
1.000000000000000E+20
 20
1.000000000000000E+20
 30
1.000000000000000E+20
  9
$PEXTMAX
 10
-1.000000000000000E+20
 20
-1.000000000000000E+20
 30
-1.000000000000000E+20
  9
$PLIMMIN
 10
0.0
 20
0.0
  9
$PLIMMAX
 10
12.0
 20
9.0
  9
$UNITMODE
 70
     0
  9
$VISRETAIN
 70
     0
  9
$PLINEGEN
 70
     0
  9
$PSLTSCALE
 70
     1
  9
$TREEDEPTH
 70
  3020
  9
$PICKSTYLE
 70
     1
  9
$CMLSTYLE
  2
STANDARD
  9
$CMLJUST
 70
     0
  9
$CMLSCALE
 40
1.0
  9
$PROXYGRAPHICS
 70
     1
  9
$MEASUREMENT
 70
     0
  0
ENDSEC
  0
SECTION
  2
CLASSES
  0
CLASS
  1
ACDBDICTIONARYWDFLT
  2
AcDbDictionaryWithDefault
  3
AutoCAD 2000
 90
        0
280
     0
281
     0
  0
CLASS
  1
ACDBPLACEHOLDER
  2
AcDbPlaceHolder
  3
AutoCAD 2000
 90
        0
280
     0
281
     0
  0
CLASS
  1
LAYOUT
  2
AcDbLayout
  3
AutoCAD 2000
 90
        0
280
     0
281
     0
  0
CLASS
  1
DICTIONARYVAR
  2
AcDbDictionaryVar
  3
AutoCAD 2000
 90
        0
280
     0
281
     0
  0
CLASS
  1
LONG_TRANSACTION
  2
AcDbLongTransaction
  3
AutoCAD 2000
 90
        0
280
     0
281
     0
  0
CLASS
  1
LWPOLYLINE
  2
AcDbPolyline
  3
AutoCAD 2000
 90
        0
280
     0
281
     1
  0
CLASS
  1
HATCH
  2
AcDbHatch
  3
AutoCAD 2000
 90
        0
280
     0
281
     1
  0
CLASS
  1
XRECORD
  2
AcDbXrecord
  3
AutoCAD 2000
 90
        0
280
     0
281
     0
  0
CLASS
  1
LONG_TRANSACTION
  2
AcDbLongTransaction
  3
AutoCAD 2000
 90
        0
280
     0
281
     0
  0
CLASS
  1
LWPOLYLINE
  2
AcDbPolyline
  3
AutoCAD 2000
 90
        0
280
     0
281
     1
  0
CLASS
  1
HATCH
  2
AcDbHatch
  3
AutoCAD 2000
 90
        0
280
     0
281
     1
  0
CLASS
  1
XRECORD
  2
AcDbXrecord
  3
AutoCAD 2000
 90
        0
280
     0
281
     0
  0
CLASS
  1
LONG_TRANSACTION
  2
AcDbLongTransaction
  3
AutoCAD 2000
 90
        0
280
     0
281
     0
  0
CLASS
  1
LWPOLYLINE
  2
AcDbPolyline
  3
AutoCAD 2000
 90
        0
280
     0
281
     1
  0
CLASS
  1
HATCH
  2
AcDbHatch
  3
AutoCAD 2000
 90
        0
280
     0
281
     1
  0
CLASS
  1
XRECORD
  2
AcDbXrecord
  3
AutoCAD 2000
 90
        0
280
     0
281
     0
  0
CLASS
  1
LONG_TRANSACTION
  2
AcDbLongTransaction
  3
AutoCAD 2000
 90
        0
280
     0
281
     0
  0
CLASS
  1
LWPOLYLINE
  2
AcDbPolyline
  3
AutoCAD 2000
 90
        0
280
     0
281
     1
  0
CLASS
  1
HATCH
  2
AcDbHatch
  3
AutoCAD 2000
 90
        0
280
     0
281
     1
  0
CLASS
  1
XRECORD
  2
AcDbXrecord
  3
AutoCAD 2000
 90
        0
280
     0
281
     0
  0
CLASS
  1
LONG_TRANSACTION
  2
AcDbLongTransaction
  3
AutoCAD 2000
 90
        0
280
     0
281
     0
  0
CLASS
  1
LWPOLYLINE
  2
AcDbPolyline
  3
AutoCAD 2000
 90
        0
280
     0
281
     1
  0
CLASS
  1
HATCH
  2
AcDbHatch
  3
AutoCAD 2000
 90
        0
280
     0
281
     1
  0
CLASS
  1
XRECORD
  2
AcDbXrecord
  3
AutoCAD 2000
 90
        0
280
     0
281
     0
  0
CLASS
  1
LONG_TRANSACTION
  2
AcDbLongTransaction
  3
AutoCAD 2000
 90
        0
280
     0
281
     0
  0
CLASS
  1
LWPOLYLINE
  2
AcDbPolyline
  3
AutoCAD 2000
 90
        0
280
     0
281
     1
  0
CLASS
  1
HATCH
  2
AcDbHatch
  3
AutoCAD 2000
 90
        0
280
     0
281
     1
  0
CLASS
  1
XRECORD
  2
AcDbXrecord
  3
AutoCAD 2000
 90
        0
280
     0
281
     0
  0
CLASS
  1
LONG_TRANSACTION
  2
AcDbLongTransaction
  3
AutoCAD 2000
 90
        0
280
     0
281
     0
  0
CLASS
  1
LWPOLYLINE
  2
AcDbPolyline
  3
AutoCAD 2000
 90
        0
280
     0
281
     1
  0
CLASS
  1
HATCH
  2
AcDbHatch
  3
AutoCAD 2000
 90
        0
280
     0
281
     1
  0
CLASS
  1
XRECORD
  2
AcDbXrecord
  3
AutoCAD 2000
 90
        0
280
     0
281
     0
  0
CLASS
  1
LONG_TRANSACTION
  2
AcDbLongTransaction
  3
AutoCAD 2000
 90
        0
280
     0
281
     0
  0
CLASS
  1
LWPOLYLINE
  2
AcDbPolyline
  3
AutoCAD 2000
 90
        0
280
     0
281
     1
  0
CLASS
  1
HATCH
  2
AcDbHatch
  3
AutoCAD 2000
 90
        0
280
     0
281
     1
  0
CLASS
  1
XRECORD
  2
AcDbXrecord
  3
AutoCAD 2000
 90
        0
280
     0
281
     0
  0
ENDSEC
  0
SECTION
  2
TABLES
  0
TABLE
  2
VPORT
  5
8
330
0
100
AcDbSymbolTable
 70
     2
  0
VPORT
  5
5B9
330
8
100
AcDbSymbolTableRecord
100
AcDbViewportTableRecord
  2
*ACTIVE
 70
     0
 10
0.0
 20
0.0
 11
1.0
 21
1.0
 12
5.24756664946334
 22
32.89471445662751
 13
0.0
 23
0.0
 14
0.5740882589684922
 24
0.5740882589684922
 15
0.5
 25
0.5
 16
0.0
 26
0.0
 36
1.0
 17
0.0
 27
0.0
 37
0.0
 40
12.54628350509673
 41
1.570528967254408
 42
50.0
 43
0.0
 44
0.0
 50
0.0
 51
0.0
 71
     0
 72
   100
 73
     1
 74
     0
 75
     0
 76
     0
 77
     0
 78
     0
  0
ENDTAB
  0
TABLE
  2
LTYPE
  5
5
330
0
100
AcDbSymbolTable
 70
     2
  0
LTYPE
  5
13
330
5
100
AcDbSymbolTableRecord
100
AcDbLinetypeTableRecord
  2
BYBLOCK
 70
     0
  3

 72
    65
 73
     0
 40
0.0
  0
LTYPE
  5
14
330
5
100
AcDbSymbolTableRecord
100
AcDbLinetypeTableRecord
  2
BYLAYER
 70
     0
  3

 72
    65
 73
     0
 40
0.0
  0
LTYPE
  5
15
330
5
100
AcDbSymbolTableRecord
100
AcDbLinetypeTableRecord
  2
CONTINUOUS
 70
     0
  3
Solid line
 72
    65
 73
     0
 40
0.0
  0
LTYPE
  5
2B0
330
5
100
AcDbSymbolTableRecord
100
AcDbLinetypeTableRecord
  2
CENTER2
 70
     0
  3
___ _ ___ _ ___ _ ___ _ ___ _ ___ _ ___ _ ___ _
 72
    65
 73
     4
 40
1.125
 49
0.75
 74
     0
 49
-0.125
 74
     0
 49
0.125
 74
     0
 49
-0.125
 74
     0
  0
ENDTAB
  0
TABLE
  2
LAYER
  5
2
330
0
100
AcDbSymbolTable
 70
     5
  0
LAYER
  5
10
330
2
100
AcDbSymbolTableRecord
100
AcDbLayerTableRecord
  2
0
 70
     0
 62
     7
  6
CONTINUOUS
  0
LAYER
  5
2B1
330
2
100
AcDbSymbolTableRecord
100
AcDbLayerTableRecord
  2
ADP1DETAIL
 70
     0
 62
     7
  6
CONTINUOUS
  0
LAYER
  5
2B2
330
2
100
AcDbSymbolTableRecord
100
AcDbLayerTableRecord
  2
DEFPOINTS
 70
     0
 62
     7
  6
CONTINUOUS
  0
LAYER
  5
2B6
330
2
100
AcDbSymbolTableRecord
100
AcDbLayerTableRecord
  2
ADP3DETAIL
 70
     0
 62
     1
  6
CONTINUOUS
  0
LAYER
  5
2B9
330
2
100
AcDbSymbolTableRecord
100
AcDbLayerTableRecord
  2
ADPDIM
 70
     0
 62
     3
  6
CONTINUOUS
  0
ENDTAB
  0
TABLE
  2
STYLE
  5
3
330
0
100
AcDbSymbolTable
 70
     2
  0
STYLE
  5
11
330
3
100
AcDbSymbolTableRecord
100
AcDbTextStyleTableRecord
  2
STANDARD
 70
     0
 40
0.0
 41
1.0
 50
0.0
 71
     0
 42
0.2
  3
txt
  4

  0
STYLE
  5
30B
330
3
100
AcDbSymbolTableRecord
100
AcDbTextStyleTableRecord
  2
ARIAL_WIDE
 70
     0
 40
0.0
 41
1.25
 50
0.0
 71
     0
 42
0.2
  3
ARIAL.TTF
  4

1001
ACAD
1000
Arial
1071
       34
  0
ENDTAB
  0
TABLE
  2
VIEW
  5
6
330
0
100
AcDbSymbolTable
 70
     0
  0
ENDTAB
  0
TABLE
  2
UCS
  5
7
330
0
100
AcDbSymbolTable
 70
     0
  0
ENDTAB
  0
TABLE
  2
APPID
  5
9
330
0
100
AcDbSymbolTable
 70
     1
  0
APPID
  5
12
330
9
100
AcDbSymbolTableRecord
100
AcDbRegAppTableRecord
  2
ACAD
 70
     0
  0
ENDTAB
  0
TABLE
  2
DIMSTYLE
  5
A
330
0
100
AcDbSymbolTable
 70
     1
  0
DIMSTYLE
105
309
330
A
100
AcDbSymbolTableRecord
100
AcDbDimStyleTableRecord
  2
STANDARD
 70
     0
  3

  4

  5

  6

  7

 40
1.0
 41
0.18
 42
0.0625
 43
0.38
 44
0.18
 45
0.0
 46
0.0
 47
0.0
 48
0.0
140
0.18
141
0.09
142
0.0
143
25.4
144
1.0
145
0.0
146
1.0
147
0.09
 71
     0
 72
     0
 73
     1
 74
     1
 75
     0
 76
     0
 77
     0
 78
     0
170
     0
171
     2
172
     0
173
     0
174
     0
175
     0
176
     0
177
     0
178
     0
270
     2
271
     4
272
     4
273
     2
274
     2
340
11
275
     0
280
     0
281
     0
282
     0
283
     1
284
     0
285
     0
286
     0
287
     3
288
     0
  0
ENDTAB
  0
TABLE
  2
BLOCK_RECORD
  5
1
330
0
100
AcDbSymbolTable
 70
     5
  0
BLOCK_RECORD
  5
1E
102
{ACAD_XDICTIONARY
360
348
102
}
330
1
100
AcDbSymbolTableRecord
100
AcDbBlockTableRecord
  2
*MODEL_SPACE
  0
BLOCK_RECORD
  5
1A
102
{ACAD_XDICTIONARY
360
34A
102
}
330
1
100
AcDbSymbolTableRecord
100
AcDbBlockTableRecord
  2
*PAPER_SPACE
  0
BLOCK_RECORD
  5
244
330
1
100
AcDbSymbolTableRecord
100
AcDbBlockTableRecord
  2
*D0
  0
BLOCK_RECORD
  5
2AB
330
1
100
AcDbSymbolTableRecord
100
AcDbBlockTableRecord
  2
*D1
  0
BLOCK_RECORD
  5
2AC
330
1
100
AcDbSymbolTableRecord
100
AcDbBlockTableRecord
  2
*D2
  0
BLOCK_RECORD
  5
2AD
330
1
100
AcDbSymbolTableRecord
100
AcDbBlockTableRecord
  2
*D3
  0
BLOCK_RECORD
  5
2AE
330
1
100
AcDbSymbolTableRecord
100
AcDbBlockTableRecord
  2
*D4
  0
ENDTAB
  0
ENDSEC
  0
SECTION
  2
BLOCKS
  0
BLOCK
  5
2BC
330
1E
100
AcDbEntity
  8
0
100
AcDbBlockBegin
  2
*MODEL_SPACE
 70
     0
 10
0.0
 20
0.0
 30
0.0
  3
*MODEL_SPACE
  1

  0
ENDBLK
  5
2BD
330
1E
100
AcDbEntity
  8
0
100
AcDbBlockEnd
  0
BLOCK
  5
2BA
330
1A
100
AcDbEntity
 67
     1
  8
0
100
AcDbBlockBegin
  2
*PAPER_SPACE
 70
     0
 10
0.0
 20
0.0
 30
0.0
  3
*PAPER_SPACE
  1

  0
ENDBLK
  5
2BB
330
1A
100
AcDbEntity
 67
     1
  8
0
100
AcDbBlockEnd
  0
BLOCK
  5
2BF
330
244
100
AcDbEntity
  8
0
100
AcDbBlockBegin
  2
*D0
 70
     1
 10
0.0
 20
0.0
 30
0.0
  3
*D0
  1

  0
LINE
  5
2C0
330
244
100
AcDbEntity
  8
0
  6
BYBLOCK
 62
     0
100
AcDbLine
 10
13.4252177270059
 20
35.01187030336167
 30
0.0
 11
13.54271768371241
 21
35.01197116945018
 31
0.0
  0
LINE
  5
2C1
330
244
100
AcDbEntity
  8
0
  6
BYBLOCK
 62
     0
100
AcDbLine
 10
13.42516407483116
 20
35.07437028033322
 30
0.0
 11
13.54266403153767
 21
35.07447114642173
 31
0.0
  0
LINE
  5
2C2
330
244
100
AcDbEntity
  8
0
  6
BYBLOCK
 62
     0
100
AcDbLine
 10
13.36271775003434
 20
35.01181665118694
 30
0.0
 11
13.36293235873329
 21
34.76181674330074
 31
0.0
  0
LINE
  5
2C3
330
244
100
AcDbEntity
  8
0
  6
BYBLOCK
 62
     0
100
AcDbLine
 10
13.36266409785961
 20
35.07431662815849
 30
0.0
 11
13.36244948916067
 21
35.32431653604468
 31
0.0
  0
LINE
  5
2C4
330
244
100
AcDbEntity
  8
0
  6
BYBLOCK
 62
     0
100
AcDbLine
 10
13.23761049174178
 20
35.13670930078057
 30
0.0
 11
13.48782500832691
 21
34.88692400159331
 31
0.0
  0
LINE
  5
2C5
330
244
100
AcDbEntity
  8
0
  6
BYBLOCK
 62
     0
100
AcDbLine
 10
13.23755683956704
 20
35.19920927775212
 30
0.0
 11
13.48777135615218
 21
34.94942397856486
 31
0.0
  0
TEXT
  5
2C6
330
244
100
AcDbEntity
  8
0
  6
BYBLOCK
 62
     0
100
AcDbText
 10
13.29952029479124
 20
35.82426269964234
 30
0.0
 40
0.125
  1
1/16
 50
270.0491846968248
 72
     1
 11
13.362181228287
 21
35.63681642090243
 31
0.0
100
AcDbText
 73
     2
  0
POINT
  5
2C8
330
244
100
AcDbEntity
  8
DEFPOINTS
  6
BYBLOCK
 62
     0
100
AcDbPoint
 10
13.36271775003434
 20
35.01181665118694
 30
0.0
  0
POINT
  5
2C9
330
244
100
AcDbEntity
  8
DEFPOINTS
  6
BYBLOCK
 62
     0
100
AcDbPoint
 10
13.36266409785961
 20
35.07431662815849
 30
0.0
  0
POINT
  5
2CA
330
244
100
AcDbEntity
  8
DEFPOINTS
  6
BYBLOCK
 62
     0
100
AcDbPoint
 10
13.36266409785961
 20
35.07431662815849
 30
0.0
  0
ENDBLK
  5
2CB
330
244
100
AcDbEntity
  8
0
100
AcDbBlockEnd
  0
BLOCK
  5
2CC
330
2AB
100
AcDbEntity
  8
0
100
AcDbBlockBegin
  2
*D1
 70
     1
 10
0.0
 20
0.0
 30
0.0
  3
*D1
  1

  0
LINE
  5
2CD
330
2AB
100
AcDbEntity
  8
0
  6
BYBLOCK
 62
     0
100
AcDbLine
 10
6.444420902026008
 20
35.15168016218442
 30
0.0
 11
6.444420902026008
 21
35.74567362841089
 31
0.0
  0
LINE
  5
2CE
330
2AB
100
AcDbEntity
  8
0
  6
BYBLOCK
 62
     0
100
AcDbLine
 10
-0.5549204596334705
 20
34.54673213294483
 30
0.0
 11
-0.5549204596334705
 21
35.74567362841089
 31
0.0
  0
LINE
  5
2CF
330
2AB
100
AcDbEntity
  8
0
  6
BYBLOCK
 62
     0
100
AcDbLine
 10
6.444420902026008
 20
35.56567362841089
 30
0.0
 11
3.111416887862935
 21
35.56567362841089
 31
0.0
  0
LINE
  5
2D0
330
2AB
100
AcDbEntity
  8
0
  6
BYBLOCK
 62
     0
100
AcDbLine
 10
-0.5549204596334705
 20
35.56567362841089
 30
0.0
 11
2.778083554529602
 21
35.56567362841089
 31
0.0
  0
LINE
  5
2D1
330
2AB
100
AcDbEntity
  8
0
  6
BYBLOCK
 62
     0
100
AcDbLine
 10
6.319420902026008
 20
35.44067362841089
 30
0.0
 11
6.569420902026008
 21
35.69067362841089
 31
0.0
  0
LINE
  5
2D2
330
2AB
100
AcDbEntity
  8
0
  6
BYBLOCK
 62
     0
100
AcDbLine
 10
-0.6799204596334705
 20
35.44067362841089
 30
0.0
 11
-0.4299204596334705
 21
35.69067362841089
 31
0.0
  0
TEXT
  5
2D3
330
2AB
100
AcDbEntity
  8
0
  6
BYBLOCK
 62
     0
100
AcDbText
 10
2.903083554529602
 20
35.50317362841089
 30
0.0
 40
0.125
  1
7
 72
     1
 11
2.944750221196269
 21
35.56567362841089
 31
0.0
100
AcDbText
 73
     2
  0
POINT
  5
2D4
330
2AB
100
AcDbEntity
  8
DEFPOINTS
  6
BYBLOCK
 62
     0
100
AcDbPoint
 10
6.444420902026008
 20
35.08918016218443
 30
0.0
  0
POINT
  5
2D5
330
2AB
100
AcDbEntity
  8
DEFPOINTS
  6
BYBLOCK
 62
     0
100
AcDbPoint
 10
-0.5549204596334705
 20
34.48423213294484
 30
0.0
  0
POINT
  5
2D6
330
2AB
100
AcDbEntity
  8
DEFPOINTS
  6
BYBLOCK
 62
     0
100
AcDbPoint
 10
-0.5549204596334705
 20
35.56567362841089
 30
0.0
  0
ENDBLK
  5
2D7
330
2AB
100
AcDbEntity
  8
0
100
AcDbBlockEnd
  0
BLOCK
  5
2D8
330
2AC
100
AcDbEntity
  8
0
100
AcDbBlockBegin
  2
*D2
 70
     1
 10
0.0
 20
0.0
 30
0.0
  3
*D2
  1

  0
LINE
  5
2D9
330
2AC
100
AcDbEntity
  8
0
  6
BYBLOCK
 62
     0
100
AcDbLine
 10
-3.132842513518184
 20
32.60060704335259
 30
0.0
 11
-3.957358089723252
 21
33.92010778968574
 31
0.0
  0
LINE
  5
2DA
330
2AC
100
AcDbEntity
  8
0
  6
BYBLOCK
 62
     0
100
AcDbLine
 10
-0.5886982250489079
 20
34.19036483605221
 30
0.0
 11
-1.413213801253975
 21
35.50986558238536
 31
0.0
  0
LINE
  5
2DB
330
2AC
100
AcDbEntity
  8
0
  6
BYBLOCK
 62
     0
100
AcDbLine
 10
-3.861972622161275
 20
33.76745913237758
 30
0.0
 11
-2.731241827286041
 21
34.47401815135519
 31
0.0
  0
LINE
  5
2DC
330
2AC
100
AcDbEntity
  8
0
  6
BYBLOCK
 62
     0
100
AcDbLine
 10
-1.317828333691998
 20
35.35721692507719
 30
0.0
 11
-2.448559128567232
 21
34.65065790609959
 31
0.0
  0
LINE
  5
2DD
330
2AC
100
AcDbEntity
  8
0
  6
BYBLOCK
 62
     0
100
AcDbLine
 10
-3.901738726151677
 20
33.59521321232888
 30
0.0
 11
-3.822206518170872
 21
33.93970505242629
 31
0.0
  0
LINE
  5
2DE
330
2AC
100
AcDbEntity
  8
0
  6
BYBLOCK
 62
     0
100
AcDbLine
 10
-1.357594437682401
 20
35.18497100502849
 30
0.0
 11
-1.278062229701595
 21
35.5294628451259
 31
0.0
  0
TEXT
  5
2DF
330
2AC
100
AcDbEntity
  8
0
  6
BYBLOCK
 62
     0
100
AcDbText
 10
-2.592115861251913
 20
34.48725505337456
 30
0.0
 40
0.125
  1
3
 50
31.99999999999999
 72
     1
 11
-2.589900477926637
 21
34.56233802872739
 31
0.0
100
AcDbText
 73
     2
  0
POINT
  5
2E0
330
2AC
100
AcDbEntity
  8
DEFPOINTS
  6
BYBLOCK
 62
     0
100
AcDbPoint
 10
-3.099722559503609
 20
32.54760403734281
 30
0.0
  0
POINT
  5
2E1
330
2AC
100
AcDbEntity
  8
DEFPOINTS
  6
BYBLOCK
 62
     0
100
AcDbPoint
 10
-0.5555782710343326
 20
34.13736183004242
 30
0.0
  0
POINT
  5
2E2
330
2AC
100
AcDbEntity
  8
DEFPOINTS
  6
BYBLOCK
 62
     0
100
AcDbPoint
 10
-1.317828333691998
 20
35.35721692507719
 30
0.0
  0
ENDBLK
  5
2E3
330
2AC
100
AcDbEntity
  8
0
100
AcDbBlockEnd
  0
BLOCK
  5
2E4
330
2AD
100
AcDbEntity
  8
0
100
AcDbBlockBegin
  2
*D3
 70
     1
 10
0.0
 20
0.0
 30
0.0
  3
*D3
  1

  0
LINE
  5
2E5
330
2AD
100
AcDbEntity
  8
0
  6
BYBLOCK
 62
     0
100
AcDbLine
 10
-0.2890808816558341
 20
34.09393344638608
 30
0.0
 11
0.2209258126114139
 21
31.13571830102544
 31
0.0
  0
LINE
  5
2E6
330
2AD
100
AcDbEntity
  8
0
  6
BYBLOCK
 62
     0
100
AcDbLine
 10
-0.4335007433039624
 20
34.19587903756851
 30
0.0
 11
-0.1446610200077059
 21
33.99198785520364
 31
0.0
  0
TEXT
  5
2E7
330
2AD
100
AcDbEntity
  8
0
  6
BYBLOCK
 62
     0
100
AcDbText
 10
0.1805715846366225
 20
31.00191700699373
 30
0.0
 40
0.125
  1
R3
 50
279.781835234786
 72
     1
 11
0.2598605605383027
 21
30.90988330259742
 31
0.0
100
AcDbText
 73
     2
  0
POINT
  5
2E8
330
2AD
100
AcDbEntity
  8
DEFPOINTS
  6
BYBLOCK
 62
     0
100
AcDbPoint
 10
-0.2890808816558341
 20
34.09393344638608
 30
0.0
  0
POINT
  5
2E9
330
2AD
100
AcDbEntity
  8
DEFPOINTS
  6
BYBLOCK
 62
     0
100
AcDbPoint
 10
0.220610363932524
 20
31.13754801241936
 30
0.0
  0
ENDBLK
  5
2EA
330
2AD
100
AcDbEntity
  8
0
100
AcDbBlockEnd
  0
BLOCK
  5
2EB
330
2AE
100
AcDbEntity
  8
0
100
AcDbBlockBegin
  2
*D4
 70
     1
 10
0.0
 20
0.0
 30
0.0
  3
*D4
  1

  0
LINE
  5
2EC
330
2AE
100
AcDbEntity
  8
0
  6
BYBLOCK
 62
     0
100
AcDbLine
 10
6.506920902026008
 20
35.08918016218443
 30
0.0
 11
7.321383822918857
 21
35.08918016218443
 31
0.0
  0
LINE
  5
2ED
330
2AE
100
AcDbEntity
  8
0
  6
BYBLOCK
 62
     0
100
AcDbLine
 10
6.506920902026008
 20
33.1891809477771
 30
0.0
 11
7.321383822918857
 21
33.1891809477771
 31
0.0
  0
LINE
  5
2EE
330
2AE
100
AcDbEntity
  8
0
  6
BYBLOCK
 62
     0
100
AcDbLine
 10
7.141383822918857
 20
35.08918016218443
 30
0.0
 11
7.141383822918857
 21
34.4725138883141
 31
0.0
  0
LINE
  5
2EF
330
2AE
100
AcDbEntity
  8
0
  6
BYBLOCK
 62
     0
100
AcDbLine
 10
7.141383822918857
 20
33.1891809477771
 30
0.0
 11
7.141383822918857
 21
33.80584722164743
 31
0.0
  0
LINE
  5
2F0
330
2AE
100
AcDbEntity
  8
0
  6
BYBLOCK
 62
     0
100
AcDbLine
 10
7.266383822918857
 20
34.96418016218442
 30
0.0
 11
7.016383822918857
 21
35.21418016218442
 31
0.0
  0
LINE
  5
2F1
330
2AE
100
AcDbEntity
  8
0
  6
BYBLOCK
 62
     0
100
AcDbLine
 10
7.266383822918857
 20
33.0641809477771
 30
0.0
 11
7.016383822918857
 21
33.3141809477771
 31
0.0
  0
TEXT
  5
2F2
330
2AE
100
AcDbEntity
  8
0
  6
BYBLOCK
 62
     0
100
AcDbText
 10
7.203883822918857
 20
33.93084722164743
 30
0.0
 40
0.125
  1
1.900
 50
90.0
 72
     1
 11
7.141383822918857
 21
34.13918055498077
 31
0.0
100
AcDbText
 73
     2
  0
POINT
  5
2F3
330
2AE
100
AcDbEntity
  8
DEFPOINTS
  6
BYBLOCK
 62
     0
100
AcDbPoint
 10
6.444420902026008
 20
35.08918016218443
 30
0.0
  0
POINT
  5
2F4
330
2AE
100
AcDbEntity
  8
DEFPOINTS
  6
BYBLOCK
 62
     0
100
AcDbPoint
 10
6.444420902026008
 20
33.1891809477771
 30
0.0
  0
POINT
  5
2F5
330
2AE
100
AcDbEntity
  8
DEFPOINTS
  6
BYBLOCK
 62
     0
100
AcDbPoint
 10
7.141383822918857
 20
33.1891809477771
 30
0.0
  0
ENDBLK
  5
2F6
330
2AE
100
AcDbEntity
  8
0
100
AcDbBlockEnd
  0
ENDSEC
  0
SECTION
  2
ENTITIES
  0
DIMENSION
  5
2F7
330
1E
100
AcDbEntity
  8
ADPDIM
100
AcDbDimension
  2
*D1
 10
-0.5549204596334705
 20
35.56567362841089
 30
0.0
 11
2.944750221196269
 21
35.56567362841089
 31
0.0
100
AcDbAlignedDimension
 13
6.444420902026008
 23
35.08918016218443
 33
0.0
 14
-0.5549204596334705
 24
34.48423213294484
 34
0.0
100
AcDbRotatedDimension
  0
LINE
  5
2F8
330
1E
100
AcDbEntity
  8
ADP3DETAIL
  6
CENTER2
100
AcDbLine
 10
0.3042683091726679
 20
34.13756817493136
 30
0.0
 11
6.61060425238214
 21
34.13735441543819
 31
0.0
  0
LINE
  5
2F9
330
1E
100
AcDbEntity
  8
ADP1DETAIL
100
AcDbLine
 10
0.3306397713744573
 20
33.20109661093422
 30
0.0
 11
6.444420902026008
 21
33.1891809477771
 31
0.0
  0
LINE
  5
2FA
330
1E
100
AcDbEntity
  8
ADP1DETAIL
100
AcDbLine
 10
0.0311395196134843
 20
35.08723616350209
 30
0.0
 11
6.444420902026008
 21
35.08918016218443
 31
0.0
  0
DIMENSION
  5
2FB
330
1E
100
AcDbEntity
  8
ADPDIM
100
AcDbDimension
  2
*D2
 10
-1.317828333691998
 20
35.35721692507719
 30
0.0
 11
-2.589900477926637
 21
34.56233802872739
 31
0.0
 70
     1
100
AcDbAlignedDimension
 13
-3.099722559503609
 23
32.54760403734281
 33
0.0
 14
-0.5555782710343316
 24
34.13736183004242
 34
0.0
  0
LINE
  5
2FC
330
1E
100
AcDbEntity
  8
ADP1DETAIL
100
AcDbLine
 10
-2.596299258482064
 20
31.74195834599421
 30
0.0
 11
-3.603145860525154
 21
33.35324972869142
 31
0.0
  0
LINE
  5
2FD
330
1E
100
AcDbEntity
  8
ADP3DETAIL
  6
CENTER2
100
AcDbLine
 10
-3.465133628632598
 20
32.31926985939569
 30
0.0
 11
-1.284769547362472
 21
33.68171254978533
 31
0.0
  0
LINE
  5
2FE
330
1E
100
AcDbEntity
  8
ADP1DETAIL
100
AcDbLine
 10
-3.603145860525154
 20
33.35324972869142
 30
0.0
 11
-1.557708910868678
 21
34.63138058979465
 31
0.0
  0
LINE
  5
2FF
330
1E
100
AcDbEntity
  8
ADP1DETAIL
100
AcDbLine
 10
-0.7596901304363187
 20
32.88959910154691
 30
0.0
 11
-2.596299258482064
 21
31.74195834599421
 31
0.0
  0
DIMENSION
  5
300
330
1E
100
AcDbEntity
  8
ADPDIM
100
AcDbDimension
  2
*D3
 10
0.220610363932524
 20
31.13754801241936
 30
0.0
 11
0.2598605605383027
 21
30.90988330259742
 31
0.0
 70
     4
100
AcDbRadialDimension
 15
-0.2890808816558341
 25
34.09393344638608
 35
0.0
 40
-3.001856704514467
  0
ARC
  5
301
330
1E
100
AcDbEntity
  8
ADP3DETAIL
  6
CENTER2
100
AcDbCircle
 10
0.3049882453371424
 20
31.13756826131604
 30
0.0
 40
3.0
100
AcDbArc
 50
90.01374976804639
 51
122.0
  0
ARC
  5
302
330
1E
100
AcDbEntity
  8
ADP1DETAIL
100
AcDbCircle
 10
0.3266443612417511
 20
31.15110050442623
 30
0.0
 40
2.049999999999999
100
AcDbArc
 50
89.88833156929045
 51
122.0
  0
ARC
  5
303
330
1E
100
AcDbEntity
  8
ADP1DETAIL
100
AcDbCircle
 10
0.032048881830935
 20
32.08723630132537
 30
0.0
 40
3.0
100
AcDbArc
 50
90.01736753930215
 51
121.9999999999999
  0
DIMENSION
  5
304
330
1E
100
AcDbEntity
  8
ADPDIM
100
AcDbDimension
  2
*D4
 10
7.141383822918857
 20
33.1891809477771
 30
0.0
 11
7.141383822918857
 21
34.13918055498077
 31
0.0
  1
1.900
100
AcDbAlignedDimension
 13
6.444420902026008
 23
35.08918016218443
 33
0.0
 14
6.444420902026008
 24
33.1891809477771
 34
0.0
 50
90.0
100
AcDbRotatedDimension
  0
LINE
  5
305
330
1E
100
AcDbEntity
  8
ADP1DETAIL
100
AcDbLine
 10
6.444420902026008
 20
35.08918016218443
 30
0.0
 11
6.446148690080411
 21
33.1891809477771
 31
0.0
  0
CIRCLE
  5
306
330
1E
100
AcDbEntity
  8
ADP1DETAIL
100
AcDbCircle
 10
13.34306097640348
 20
34.14071692866711
 30
0.0
 40
0.8875
  0
CIRCLE
  5
307
330
1E
100
AcDbEntity
  8
ADP1DETAIL
100
AcDbCircle
 10
13.34306097640348
 20
34.14071692866711
 30
0.0
 40
0.95
  0
DIMENSION
  5
308
330
1E
100
AcDbEntity
  8
ADPDIM
100
AcDbDimension
  2
*D0
 10
13.36266409785961
 20
35.07431662815849
 30
0.0
 11
13.362181228287
 21
35.63681642090243
 31
0.0
100
AcDbAlignedDimension
 13
13.36271775003434
 23
35.01181665118694
 33
0.0
 14
13.36266409785961
 24
35.07431662815848
 34
0.0
 50
90.04918469682484
100
AcDbRotatedDimension
  0
TEXT
  5
3BE
330
1E
100
AcDbEntity
  8
ADPDIM
100
AcDbText
 10
-4.557461517763785
 20
30.02117618408207
 30
0.0
 40
0.1875
  1
J U L I U S  B L U M  &  C O . ,  I N C .      ( 8 0 0 )  5 2 6 - 6 2 9 3        W W W . J U L I U S B L U M . C O M        P A R T  N o .  9 3 1 2
 41
1.25
  7
ARIAL_WIDE
 72
     1
 11
5.231132019071139
 21
30.20867618408207
 31
0.0
100
AcDbText
 73
     3
  0
ENDSEC
  0
SECTION
  2
OBJECTS
  0
DICTIONARY
  5
C
330
0
100
AcDbDictionary
  3
ACAD_GROUP
350
D
  3
ACAD_LAYOUT
350
19
  3
ACAD_MLINESTYLE
350
16
  3
ACAD_PLOTSETTINGS
350
18
  3
ACAD_PLOTSTYLENAME
350
E
  3
ACDBHEADERROUNDTRIPXREC
350
5BA
  3
ACDBVARIABLEDICTIONARY
350
37D
  0
DICTIONARY
  5
348
330
1E
100
AcDbDictionary
280
     1
  3
ACAD_LAYOUTSELFREF
360
5DC
  0
DICTIONARY
  5
34A
330
1A
100
AcDbDictionary
280
     1
  3
ACAD_LAYOUTSELFREF
360
5DB
  0
DICTIONARY
  5
D
102
{ACAD_REACTORS
330
C
102
}
330
C
100
AcDbDictionary
  0
DICTIONARY
  5
19
102
{ACAD_REACTORS
330
C
102
}
330
C
100
AcDbDictionary
  0
DICTIONARY
  5
16
102
{ACAD_REACTORS
330
C
102
}
330
C
100
AcDbDictionary
  3
STANDARD
350
17
  0
DICTIONARY
  5
18
102
{ACAD_REACTORS
330
C
102
}
330
C
100
AcDbDictionary
  0
ACDBDICTIONARYWDFLT
  5
E
102
{ACAD_REACTORS
330
C
102
}
330
C
100
AcDbDictionary
281
     1
  3
Normal
350
F
100
AcDbDictionaryWithDefault
340
F
  0
DICTIONARY
  5
5BA
102
{ACAD_REACTORS
330
C
102
}
330
C
100
AcDbDictionary
  3
CEPSNTYPE
350
5C4
  3
DIMSTYLEDATA
350
5C8
  3
FINGERPRINTGUID
350
5C5
  3
HYPERLINKBASE
350
5BD
  3
INSUNITS
350
5C3
  3
LAYOUTDICT
350
5BF
  3
LWETCUNION
350
5C2
  3
PLOTSETDICT
350
5C0
  3
PLOTSTYLNAMDICT
350
5C1
  3
PSVPSCALE
350
5C7
  3
PUCSBASE
350
5CB
  3
PUCSORGBACK
350
5D1
  3
PUCSORGBOTTOM
350
5CD
  3
PUCSORGFRONT
350
5D0
  3
PUCSORGLEFT
350
5CE
  3
PUCSORGRIGHT
350
5CF
  3
PUCSORGTOP
350
5CC
  3
PUCSORTHOREF
350
5C9
  3
PUCSORTHOVIEW
350
5CA
  3
STYLESHEET
350
5BE
  3
TSTACKALIGN
350
5BB
  3
TSTACKSIZE
350
5BC
  3
UCSBASE
350
5D4
  3
UCSORGBACK
350
5DA
  3
UCSORGBOTTOM
350
5D6
  3
UCSORGFRONT
350
5D9
  3
UCSORGLEFT
350
5D7
  3
UCSORGRIGHT
350
5D8
  3
UCSORGTOP
350
5D5
  3
UCSORTHOREF
350
5D2
  3
UCSORTHOVIEW
350
5D3
  3
VERSIONGUID
350
5C6
  0
DICTIONARY
  5
37D
102
{ACAD_REACTORS
330
C
102
}
330
C
100
AcDbDictionary
  3
DIMASSOC
350
37F
  3
HIDETEXT
350
37E
  0
XRECORD
  5
5DC
102
{ACAD_REACTORS
330
348
102
}
330
348
100
AcDbXrecord
340
1E
  0
XRECORD
  5
5DB
102
{ACAD_REACTORS
330
34A
102
}
330
34A
100
AcDbXrecord
340
1A
  0
MLINESTYLE
  5
17
102
{ACAD_REACTORS
330
16
102
}
330
16
100
AcDbMlineStyle
  2
STANDARD
 70
     0
  3

 62
   256
 51
90.0
 52
90.0
 71
     2
 49
0.5
 62
   256
  6
BYLAYER
 49
-0.5
 62
   256
  6
BYLAYER
  0
ACDBPLACEHOLDER
  5
F
102
{ACAD_REACTORS
330
E
102
}
330
E
100
AcDbPlaceHolder
280
     0
  0
XRECORD
  5
5C4
102
{ACAD_REACTORS
330
5BA
102
}
330
5BA
100
AcDbXrecord
 90
        0
  0
XRECORD
  5
5C8
102
{ACAD_REACTORS
330
5BA
102
}
330
5BA
100
AcDbXrecord
1000
DSTYLE
1002
{
1070
   277
 70
     5
1070
   279
 70
     2
1002
}
  0
XRECORD
  5
5C5
102
{ACAD_REACTORS
330
5BA
102
}
330
5BA
100
AcDbXrecord
  1
{7CCF72E5-25C5-4371-BDE8-F0F76392EEEA}
  0
XRECORD
  5
5BD
102
{ACAD_REACTORS
330
5BA
102
}
330
5BA
100
AcDbXrecord
  1

  0
XRECORD
  5
5C3
102
{ACAD_REACTORS
330
5BA
102
}
330
5BA
100
AcDbXrecord
 90
        0
  0
XRECORD
  5
5BF
102
{ACAD_REACTORS
330
5BA
102
}
330
5BA
100
AcDbXrecord
340
19
  0
XRECORD
  5
5C2
102
{ACAD_REACTORS
330
5BA
102
}
330
5BA
100
AcDbXrecord
 90
    14877
  0
XRECORD
  5
5C0
102
{ACAD_REACTORS
330
5BA
102
}
330
5BA
100
AcDbXrecord
340
18
  0
XRECORD
  5
5C1
102
{ACAD_REACTORS
330
5BA
102
}
330
5BA
100
AcDbXrecord
340
E
  0
XRECORD
  5
5C7
102
{ACAD_REACTORS
330
5BA
102
}
330
5BA
100
AcDbXrecord
 40
0.0
  0
XRECORD
  5
5CB
102
{ACAD_REACTORS
330
5BA
102
}
330
5BA
100
AcDbXrecord
340
0
  0
XRECORD
  5
5D1
102
{ACAD_REACTORS
330
5BA
102
}
330
5BA
100
AcDbXrecord
 10
0.0
 20
0.0
 30
0.0
  0
XRECORD
  5
5CD
102
{ACAD_REACTORS
330
5BA
102
}
330
5BA
100
AcDbXrecord
 10
0.0
 20
0.0
 30
0.0
  0
XRECORD
  5
5D0
102
{ACAD_REACTORS
330
5BA
102
}
330
5BA
100
AcDbXrecord
 10
0.0
 20
0.0
 30
0.0
  0
XRECORD
  5
5CE
102
{ACAD_REACTORS
330
5BA
102
}
330
5BA
100
AcDbXrecord
 10
0.0
 20
0.0
 30
0.0
  0
XRECORD
  5
5CF
102
{ACAD_REACTORS
330
5BA
102
}
330
5BA
100
AcDbXrecord
 10
0.0
 20
0.0
 30
0.0
  0
XRECORD
  5
5CC
102
{ACAD_REACTORS
330
5BA
102
}
330
5BA
100
AcDbXrecord
 10
0.0
 20
0.0
 30
0.0
  0
XRECORD
  5
5C9
102
{ACAD_REACTORS
330
5BA
102
}
330
5BA
100
AcDbXrecord
340
0
  0
XRECORD
  5
5CA
102
{ACAD_REACTORS
330
5BA
102
}
330
5BA
100
AcDbXrecord
 70
     0
  0
XRECORD
  5
5BE
102
{ACAD_REACTORS
330
5BA
102
}
330
5BA
100
AcDbXrecord
  1

  0
XRECORD
  5
5BB
102
{ACAD_REACTORS
330
5BA
102
}
330
5BA
100
AcDbXrecord
 90
        1
  0
XRECORD
  5
5BC
102
{ACAD_REACTORS
330
5BA
102
}
330
5BA
100
AcDbXrecord
 90
       70
  0
XRECORD
  5
5D4
102
{ACAD_REACTORS
330
5BA
102
}
330
5BA
100
AcDbXrecord
340
0
  0
XRECORD
  5
5DA
102
{ACAD_REACTORS
330
5BA
102
}
330
5BA
100
AcDbXrecord
 10
0.0
 20
0.0
 30
0.0
  0
XRECORD
  5
5D6
102
{ACAD_REACTORS
330
5BA
102
}
330
5BA
100
AcDbXrecord
 10
0.0
 20
0.0
 30
0.0
  0
XRECORD
  5
5D9
102
{ACAD_REACTORS
330
5BA
102
}
330
5BA
100
AcDbXrecord
 10
0.0
 20
0.0
 30
0.0
  0
XRECORD
  5
5D7
102
{ACAD_REACTORS
330
5BA
102
}
330
5BA
100
AcDbXrecord
 10
0.0
 20
0.0
 30
0.0
  0
XRECORD
  5
5D8
102
{ACAD_REACTORS
330
5BA
102
}
330
5BA
100
AcDbXrecord
 10
0.0
 20
0.0
 30
0.0
  0
XRECORD
  5
5D5
102
{ACAD_REACTORS
330
5BA
102
}
330
5BA
100
AcDbXrecord
 10
0.0
 20
0.0
 30
0.0
  0
XRECORD
  5
5D2
102
{ACAD_REACTORS
330
5BA
102
}
330
5BA
100
AcDbXrecord
340
0
  0
XRECORD
  5
5D3
102
{ACAD_REACTORS
330
5BA
102
}
330
5BA
100
AcDbXrecord
 70
     0
  0
XRECORD
  5
5C6
102
{ACAD_REACTORS
330
5BA
102
}
330
5BA
100
AcDbXrecord
  1
{CD431C2F-B020-4699-A825-1E64DC9E201D}
  0
DICTIONARYVAR
  5
37F
102
{ACAD_REACTORS
330
37D
102
}
330
37D
100
DictionaryVariables
280
     0
  1
2
  0
DICTIONARYVAR
  5
37E
102
{ACAD_REACTORS
330
37D
102
}
330
37D
100
DictionaryVariables
280
     0
  1
1
  0
ENDSEC
  0
EOF
