  0
SECTION
  2
HEADER
  9
$ACADVER
  1
AC1014
  9
$ACADMAINTVER
 70
     9
  9
$DWGCODEPAGE
  3
ANSI_1252
  9
$INSBASE
 10
-3.366288273567999
 20
18.83909626039478
 30
0.0
  9
$EXTMIN
 10
-6.594988680690616
 20
17.62492801342519
 30
0.0
  9
$EXTMAX
 10
6.27442639434349
 20
23.32565229624693
 30
0.0
  9
$LIMMIN
 10
0.0
 20
0.0
  9
$LIMMAX
 10
36.0
 20
36.0
  9
$ORTHOMODE
 70
     1
  9
$REGENMODE
 70
     1
  9
$FILLMODE
 70
     1
  9
$QTEXTMODE
 70
     0
  9
$MIRRTEXT
 70
     1
  9
$DRAGMODE
 70
     0
  9
$LTSCALE
 40
1.0
  9
$OSMODE
 70
    37
  9
$ATTMODE
 70
     1
  9
$TEXTSIZE
 40
0.2
  9
$TRACEWID
 40
0.05
  9
$TEXTSTYLE
  7
STANDARD
  9
$CLAYER
  8
0
  9
$CELTYPE
  6
BYLAYER
  9
$CECOLOR
 62
   256
  9
$CELTSCALE
 40
1.0
  9
$DELOBJ
 70
     1
  9
$DISPSILH
 70
     0
  9
$DIMSCALE
 40
1.0
  9
$DIMASZ
 40
0.125
  9
$DIMEXO
 40
0.0625
  9
$DIMDLI
 40
0.38
  9
$DIMRND
 40
0.0
  9
$DIMDLE
 40
0.0
  9
$DIMEXE
 40
0.18
  9
$DIMTP
 40
0.0
  9
$DIMTM
 40
0.0
  9
$DIMTXT
 40
0.125
  9
$DIMCEN
 40
0.1875
  9
$DIMTSZ
 40
0.125
  9
$DIMTOL
 70
     0
  9
$DIMLIM
 70
     0
  9
$DIMTIH
 70
     0
  9
$DIMTOH
 70
     0
  9
$DIMSE1
 70
     0
  9
$DIMSE2
 70
     0
  9
$DIMTAD
 70
     0
  9
$DIMZIN
 70
     3
  9
$DIMBLK
  1

  9
$DIMASO
 70
     1
  9
$DIMSHO
 70
     1
  9
$DIMPOST
  1

  9
$DIMAPOST
  1

  9
$DIMALT
 70
     0
  9
$DIMALTD
 70
     1
  9
$DIMALTF
 40
25.4
  9
$DIMLFAC
 40
1.0
  9
$DIMTOFL
 70
     0
  9
$DIMTVP
 40
0.0
  9
$DIMTIX
 70
     0
  9
$DIMSOXD
 70
     0
  9
$DIMSAH
 70
     0
  9
$DIMBLK1
  1

  9
$DIMBLK2
  1

  9
$DIMSTYLE
  2
STANDARD
  9
$DIMCLRD
 70
     0
  9
$DIMCLRE
 70
     0
  9
$DIMCLRT
 70
     0
  9
$DIMTFAC
 40
1.0
  9
$DIMGAP
 40
0.125
  9
$DIMJUST
 70
     0
  9
$DIMSD1
 70
     0
  9
$DIMSD2
 70
     0
  9
$DIMTOLJ
 70
     1
  9
$DIMTZIN
 70
     0
  9
$DIMALTZ
 70
     0
  9
$DIMALTTZ
 70
     0
  9
$DIMFIT
 70
     3
  9
$DIMUPT
 70
     0
  9
$DIMUNIT
 70
     2
  9
$DIMDEC
 70
     4
  9
$DIMTDEC
 70
     4
  9
$DIMALTU
 70
     2
  9
$DIMALTTD
 70
     2
  9
$DIMTXSTY
  7
STANDARD
  9
$DIMAUNIT
 70
     0
  9
$LUNITS
 70
     5
  9
$LUPREC
 70
     4
  9
$SKETCHINC
 40
0.1
  9
$FILLETRAD
 40
0.062
  9
$AUNITS
 70
     0
  9
$AUPREC
 70
     0
  9
$MENU
  1
acad
  9
$ELEVATION
 40
0.0
  9
$PELEVATION
 40
0.0
  9
$THICKNESS
 40
0.0
  9
$LIMCHECK
 70
     0
  9
$BLIPMODE
 70
     0
  9
$CHAMFERA
 40
0.0
  9
$CHAMFERB
 40
0.0
  9
$CHAMFERC
 40
0.0
  9
$CHAMFERD
 40
0.0
  9
$SKPOLY
 70
     0
  9
$TDCREATE
 40
2450382.660712384
  9
$TDUPDATE
 40
2452297.077132696
  9
$TDINDWG
 40
0.0601458565
  9
$TDUSRTIMER
 40
0.0601458565
  9
$USRTIMER
 70
     1
  9
$ANGBASE
 50
0.0
  9
$ANGDIR
 70
     0
  9
$PDMODE
 70
     0
  9
$PDSIZE
 40
0.0
  9
$PLINEWID
 40
0.0
  9
$COORDS
 70
     2
  9
$SPLFRAME
 70
     0
  9
$SPLINETYPE
 70
     6
  9
$SPLINESEGS
 70
     8
  9
$ATTDIA
 70
     0
  9
$ATTREQ
 70
     1
  9
$HANDLING
 70
 22529
  9
$HANDSEED
  5
2F8
  9
$SURFTAB1
 70
     6
  9
$SURFTAB2
 70
     6
  9
$SURFTYPE
 70
     6
  9
$SURFU
 70
     6
  9
$SURFV
 70
     6
  9
$UCSNAME
  2

  9
$UCSORG
 10
0.0
 20
0.0
 30
0.0
  9
$UCSXDIR
 10
1.0
 20
0.0
 30
0.0
  9
$UCSYDIR
 10
0.0
 20
1.0
 30
0.0
  9
$PUCSNAME
  2

  9
$PUCSORG
 10
0.0
 20
0.0
 30
0.0
  9
$PUCSXDIR
 10
1.0
 20
0.0
 30
0.0
  9
$PUCSYDIR
 10
0.0
 20
1.0
 30
0.0
  9
$USERI1
 70
     0
  9
$USERI2
 70
     0
  9
$USERI3
 70
     0
  9
$USERI4
 70
     0
  9
$USERI5
 70
     0
  9
$USERR1
 40
0.0
  9
$USERR2
 40
0.0
  9
$USERR3
 40
0.0
  9
$USERR4
 40
0.0
  9
$USERR5
 40
0.0
  9
$WORLDVIEW
 70
     1
  9
$SHADEDGE
 70
     3
  9
$SHADEDIF
 70
    70
  9
$TILEMODE
 70
     1
  9
$MAXACTVP
 70
    15
  9
$PINSBASE
 10
0.0
 20
0.0
 30
0.0
  9
$PLIMCHECK
 70
     0
  9
$PEXTMIN
 10
1.000000000000000E+20
 20
1.000000000000000E+20
 30
1.000000000000000E+20
  9
$PEXTMAX
 10
-1.000000000000000E+20
 20
-1.000000000000000E+20
 30
-1.000000000000000E+20
  9
$PLIMMIN
 10
0.0
 20
0.0
  9
$PLIMMAX
 10
12.0
 20
9.0
  9
$UNITMODE
 70
     0
  9
$VISRETAIN
 70
     0
  9
$PLINEGEN
 70
     0
  9
$PSLTSCALE
 70
     1
  9
$TREEDEPTH
 70
  3020
  9
$PICKSTYLE
 70
     1
  9
$CMLSTYLE
  2
STANDARD
  9
$CMLJUST
 70
     0
  9
$CMLSCALE
 40
1.0
  9
$PROXYGRAPHICS
 70
     1
  9
$MEASUREMENT
 70
     0
  0
ENDSEC
  0
SECTION
  2
CLASSES
  0
CLASS
  1
ACDBDICTIONARYWDFLT
  2
AcDbDictionaryWithDefault
  3
AutoCAD 2000
 90
        0
280
     0
281
     0
  0
CLASS
  1
ACDBPLACEHOLDER
  2
AcDbPlaceHolder
  3
AutoCAD 2000
 90
        0
280
     0
281
     0
  0
CLASS
  1
LAYOUT
  2
AcDbLayout
  3
AutoCAD 2000
 90
        0
280
     0
281
     0
  0
CLASS
  1
DICTIONARYVAR
  2
AcDbDictionaryVar
  3
AutoCAD 2000
 90
        0
280
     0
281
     0
  0
CLASS
  1
LONG_TRANSACTION
  2
AcDbLongTransaction
  3
AutoCAD 2000
 90
        0
280
     0
281
     0
  0
CLASS
  1
LWPOLYLINE
  2
AcDbPolyline
  3
AutoCAD 2000
 90
        0
280
     0
281
     1
  0
CLASS
  1
HATCH
  2
AcDbHatch
  3
AutoCAD 2000
 90
        0
280
     0
281
     1
  0
CLASS
  1
XRECORD
  2
AcDbXrecord
  3
AutoCAD 2000
 90
        0
280
     0
281
     0
  0
CLASS
  1
LONG_TRANSACTION
  2
AcDbLongTransaction
  3
AutoCAD 2000
 90
        0
280
     0
281
     0
  0
CLASS
  1
LWPOLYLINE
  2
AcDbPolyline
  3
AutoCAD 2000
 90
        0
280
     0
281
     1
  0
CLASS
  1
HATCH
  2
AcDbHatch
  3
AutoCAD 2000
 90
        0
280
     0
281
     1
  0
CLASS
  1
XRECORD
  2
AcDbXrecord
  3
AutoCAD 2000
 90
        0
280
     0
281
     0
  0
CLASS
  1
LONG_TRANSACTION
  2
AcDbLongTransaction
  3
AutoCAD 2000
 90
        0
280
     0
281
     0
  0
CLASS
  1
LWPOLYLINE
  2
AcDbPolyline
  3
AutoCAD 2000
 90
        0
280
     0
281
     1
  0
CLASS
  1
HATCH
  2
AcDbHatch
  3
AutoCAD 2000
 90
        0
280
     0
281
     1
  0
CLASS
  1
XRECORD
  2
AcDbXrecord
  3
AutoCAD 2000
 90
        0
280
     0
281
     0
  0
CLASS
  1
LONG_TRANSACTION
  2
AcDbLongTransaction
  3
AutoCAD 2000
 90
        0
280
     0
281
     0
  0
CLASS
  1
LWPOLYLINE
  2
AcDbPolyline
  3
AutoCAD 2000
 90
        0
280
     0
281
     1
  0
CLASS
  1
HATCH
  2
AcDbHatch
  3
AutoCAD 2000
 90
        0
280
     0
281
     1
  0
CLASS
  1
XRECORD
  2
AcDbXrecord
  3
AutoCAD 2000
 90
        0
280
     0
281
     0
  0
CLASS
  1
LONG_TRANSACTION
  2
AcDbLongTransaction
  3
AutoCAD 2000
 90
        0
280
     0
281
     0
  0
CLASS
  1
LWPOLYLINE
  2
AcDbPolyline
  3
AutoCAD 2000
 90
        0
280
     0
281
     1
  0
CLASS
  1
HATCH
  2
AcDbHatch
  3
AutoCAD 2000
 90
        0
280
     0
281
     1
  0
CLASS
  1
XRECORD
  2
AcDbXrecord
  3
AutoCAD 2000
 90
        0
280
     0
281
     0
  0
ENDSEC
  0
SECTION
  2
TABLES
  0
TABLE
  2
VPORT
  5
8
330
0
100
AcDbSymbolTable
 70
     2
  0
VPORT
  5
2D5
330
8
100
AcDbSymbolTableRecord
100
AcDbViewportTableRecord
  2
*ACTIVE
 70
     0
 10
0.0
 20
0.0
 11
1.0
 21
1.0
 12
-0.1507215691976826
 22
20.4760437878734
 13
0.0
 23
0.0
 14
0.5740882589684922
 24
0.5740882589684922
 15
0.5
 25
0.5
 16
0.0
 26
0.0
 36
1.0
 17
0.0
 27
0.0
 37
0.0
 40
8.248996174711018
 41
1.570528967254408
 42
50.0
 43
0.0
 44
0.0
 50
0.0
 51
0.0
 71
     0
 72
   100
 73
     1
 74
     0
 75
     0
 76
     0
 77
     0
 78
     0
  0
ENDTAB
  0
TABLE
  2
LTYPE
  5
5
330
0
100
AcDbSymbolTable
 70
     3
  0
LTYPE
  5
12
330
5
100
AcDbSymbolTableRecord
100
AcDbLinetypeTableRecord
  2
BYBLOCK
 70
     0
  3

 72
    65
 73
     0
 40
0.0
  0
LTYPE
  5
13
330
5
100
AcDbSymbolTableRecord
100
AcDbLinetypeTableRecord
  2
BYLAYER
 70
     0
  3

 72
    65
 73
     0
 40
0.0
  0
LTYPE
  5
14
330
5
100
AcDbSymbolTableRecord
100
AcDbLinetypeTableRecord
  2
CONTINUOUS
 70
     0
  3
Solid line
 72
    65
 73
     0
 40
0.0
  0
LTYPE
  5
DA
330
5
100
AcDbSymbolTableRecord
100
AcDbLinetypeTableRecord
  2
HIDDEN2
 70
     0
  3
_ _ _ _ _ _ _ _ _ _ _ _ _ _ _ _ _ _ _ _ _ _ _ _
 72
    65
 73
     2
 40
0.1875
 49
0.125
 74
     0
 49
-0.0625
 74
     0
  0
LTYPE
  5
EC
330
5
100
AcDbSymbolTableRecord
100
AcDbLinetypeTableRecord
  2
HIDDEN
 70
     0
  3
__ __ __ __ __ __ __ __ __ __ __ __ __ __ __ __
 72
    65
 73
     2
 40
0.375
 49
0.25
 74
     0
 49
-0.125
 74
     0
  0
ENDTAB
  0
TABLE
  2
LAYER
  5
2
330
0
100
AcDbSymbolTable
 70
     4
  0
LAYER
  5
F
330
2
100
AcDbSymbolTableRecord
100
AcDbLayerTableRecord
  2
0
 70
     0
 62
     7
  6
CONTINUOUS
  0
LAYER
  5
F2
330
2
100
AcDbSymbolTableRecord
100
AcDbLayerTableRecord
  2
DEFPOINTS
 70
     0
 62
     7
  6
CONTINUOUS
  0
LAYER
  5
F3
330
2
100
AcDbSymbolTableRecord
100
AcDbLayerTableRecord
  2
ADP2DETAIL
 70
     0
 62
     5
  6
HIDDEN2
  0
LAYER
  5
F6
330
2
100
AcDbSymbolTableRecord
100
AcDbLayerTableRecord
  2
ADPDIM
 70
     0
 62
     3
  6
CONTINUOUS
  0
ENDTAB
  0
TABLE
  2
STYLE
  5
3
330
0
100
AcDbSymbolTable
 70
     2
  0
STYLE
  5
10
330
3
100
AcDbSymbolTableRecord
100
AcDbTextStyleTableRecord
  2
STANDARD
 70
     0
 40
0.0
 41
1.0
 50
0.0
 71
     0
 42
0.2
  3
txt
  4

  0
STYLE
  5
191
330
3
100
AcDbSymbolTableRecord
100
AcDbTextStyleTableRecord
  2
ARIAL_WIDE
 70
     0
 40
0.0
 41
1.25
 50
0.0
 71
     0
 42
0.2
  3
ARIAL.TTF
  4

1001
ACAD
1000
Arial
1071
       34
  0
ENDTAB
  0
TABLE
  2
VIEW
  5
6
330
0
100
AcDbSymbolTable
 70
     0
  0
ENDTAB
  0
TABLE
  2
UCS
  5
7
330
0
100
AcDbSymbolTable
 70
     0
  0
ENDTAB
  0
TABLE
  2
APPID
  5
9
330
0
100
AcDbSymbolTable
 70
     1
  0
APPID
  5
11
330
9
100
AcDbSymbolTableRecord
100
AcDbRegAppTableRecord
  2
ACAD
 70
     0
  0
ENDTAB
  0
TABLE
  2
DIMSTYLE
  5
A
330
0
100
AcDbSymbolTable
 70
     1
  0
DIMSTYLE
105
185
330
A
100
AcDbSymbolTableRecord
100
AcDbDimStyleTableRecord
  2
STANDARD
 70
     0
  3

  4

  5

  6

  7

 40
1.0
 41
0.18
 42
0.0625
 43
0.38
 44
0.18
 45
0.0
 46
0.0
 47
0.0
 48
0.0
140
0.18
141
0.09
142
0.0
143
25.4
144
1.0
145
0.0
146
1.0
147
0.09
 71
     0
 72
     0
 73
     1
 74
     1
 75
     0
 76
     0
 77
     0
 78
     0
170
     0
171
     2
172
     0
173
     0
174
     0
175
     0
176
     0
177
     0
178
     0
270
     2
271
     4
272
     4
273
     2
274
     2
340
10
275
     0
280
     0
281
     0
282
     0
283
     1
284
     0
285
     0
286
     0
287
     3
288
     0
  0
ENDTAB
  0
TABLE
  2
BLOCK_RECORD
  5
1
330
0
100
AcDbSymbolTable
 70
     6
  0
BLOCK_RECORD
  5
18
102
{ACAD_XDICTIONARY
360
1E6
102
}
330
1
100
AcDbSymbolTableRecord
100
AcDbBlockTableRecord
  2
*MODEL_SPACE
  0
BLOCK_RECORD
  5
15
102
{ACAD_XDICTIONARY
360
1E4
102
}
330
1
100
AcDbSymbolTableRecord
100
AcDbBlockTableRecord
  2
*PAPER_SPACE
  0
BLOCK_RECORD
  5
D3
330
1
100
AcDbSymbolTableRecord
100
AcDbBlockTableRecord
  2
*D0
  0
BLOCK_RECORD
  5
D4
330
1
100
AcDbSymbolTableRecord
100
AcDbBlockTableRecord
  2
*D1
  0
BLOCK_RECORD
  5
D5
330
1
100
AcDbSymbolTableRecord
100
AcDbBlockTableRecord
  2
*D2
  0
BLOCK_RECORD
  5
D6
330
1
100
AcDbSymbolTableRecord
100
AcDbBlockTableRecord
  2
*D3
  0
BLOCK_RECORD
  5
D7
330
1
100
AcDbSymbolTableRecord
100
AcDbBlockTableRecord
  2
*D4
  0
BLOCK_RECORD
  5
D8
330
1
100
AcDbSymbolTableRecord
100
AcDbBlockTableRecord
  2
*D5
  0
ENDTAB
  0
ENDSEC
  0
SECTION
  2
BLOCKS
  0
BLOCK
  5
F9
330
18
100
AcDbEntity
  8
0
100
AcDbBlockBegin
  2
*MODEL_SPACE
 70
     0
 10
0.0
 20
0.0
 30
0.0
  3
*MODEL_SPACE
  1

  0
ENDBLK
  5
FA
330
18
100
AcDbEntity
  8
0
100
AcDbBlockEnd
  0
BLOCK
  5
F7
330
15
100
AcDbEntity
 67
     1
  8
0
100
AcDbBlockBegin
  2
*PAPER_SPACE
 70
     0
 10
0.0
 20
0.0
 30
0.0
  3
*PAPER_SPACE
  1

  0
ENDBLK
  5
F8
330
15
100
AcDbEntity
 67
     1
  8
0
100
AcDbBlockEnd
  0
BLOCK
  5
FC
330
D3
100
AcDbEntity
  8
0
100
AcDbBlockBegin
  2
*D0
 70
     1
 10
0.0
 20
0.0
 30
0.0
  3
*D0
  1

  0
LINE
  5
FD
330
D3
100
AcDbEntity
  8
0
  6
BYBLOCK
 62
     0
100
AcDbLine
 10
0.1307827942438662
 20
18.77366732820665
 30
0.0
 11
0.1307827942438662
 21
18.2458133729835
 31
0.0
  0
LINE
  5
FE
330
D3
100
AcDbEntity
  8
0
  6
BYBLOCK
 62
     0
100
AcDbLine
 10
2.130782794243866
 20
18.77366732820665
 30
0.0
 11
2.130782794243866
 21
18.2458133729835
 31
0.0
  0
LINE
  5
FF
330
D3
100
AcDbEntity
  8
0
  6
BYBLOCK
 62
     0
100
AcDbLine
 10
0.1307827942438662
 20
18.4258133729835
 30
0.0
 11
0.9641161275771995
 21
18.4258133729835
 31
0.0
  0
LINE
  5
100
330
D3
100
AcDbEntity
  8
0
  6
BYBLOCK
 62
     0
100
AcDbLine
 10
2.130782794243866
 20
18.4258133729835
 30
0.0
 11
1.297449460910532
 21
18.4258133729835
 31
0.0
  0
LINE
  5
101
330
D3
100
AcDbEntity
  8
0
  6
BYBLOCK
 62
     0
100
AcDbLine
 10
0.0057827942438662
 20
18.3008133729835
 30
0.0
 11
0.2557827942438662
 21
18.5508133729835
 31
0.0
  0
LINE
  5
102
330
D3
100
AcDbEntity
  8
0
  6
BYBLOCK
 62
     0
100
AcDbLine
 10
2.005782794243866
 20
18.3008133729835
 30
0.0
 11
2.255782794243866
 21
18.5508133729835
 31
0.0
  0
TEXT
  5
103
330
D3
100
AcDbEntity
  8
0
  6
BYBLOCK
 62
     0
100
AcDbText
 10
1.089116127577199
 20
18.3633133729835
 30
0.0
 40
0.125
  1
2
 72
     1
 11
1.130782794243866
 21
18.4258133729835
 31
0.0
100
AcDbText
 73
     2
  0
POINT
  5
104
330
D3
100
AcDbEntity
  8
DEFPOINTS
  6
BYBLOCK
 62
     0
100
AcDbPoint
 10
0.1307827942438662
 20
18.83616732820665
 30
0.0
  0
POINT
  5
105
330
D3
100
AcDbEntity
  8
DEFPOINTS
  6
BYBLOCK
 62
     0
100
AcDbPoint
 10
2.130782794243866
 20
18.83616732820665
 30
0.0
  0
POINT
  5
106
330
D3
100
AcDbEntity
  8
DEFPOINTS
  6
BYBLOCK
 62
     0
100
AcDbPoint
 10
2.130782794243866
 20
18.4258133729835
 30
0.0
  0
ENDBLK
  5
107
330
D3
100
AcDbEntity
  8
0
100
AcDbBlockEnd
  0
BLOCK
  5
108
330
D4
100
AcDbEntity
  8
0
100
AcDbBlockBegin
  2
*D1
 70
     1
 10
0.0
 20
0.0
 30
0.0
  3
*D1
  1

  0
LINE
  5
109
330
D4
100
AcDbEntity
  8
0
  6
BYBLOCK
 62
     0
100
AcDbLine
 10
1.41892090233002
 20
20.36048239011549
 30
0.0
 11
2.927648779587627
 21
20.36048239011549
 31
0.0
  0
LINE
  5
10A
330
D4
100
AcDbEntity
  8
0
  6
BYBLOCK
 62
     0
100
AcDbLine
 10
2.193282794243866
 20
18.83616732820665
 30
0.0
 11
2.927648779587627
 21
18.83616732820665
 31
0.0
  0
LINE
  5
10B
330
D4
100
AcDbEntity
  8
0
  6
BYBLOCK
 62
     0
100
AcDbLine
 10
2.747648779587627
 20
20.36048239011549
 30
0.0
 11
2.747648779587627
 21
19.97332485916107
 31
0.0
  0
LINE
  5
10C
330
D4
100
AcDbEntity
  8
0
  6
BYBLOCK
 62
     0
100
AcDbLine
 10
2.747648779587627
 20
18.83616732820665
 30
0.0
 11
2.747648779587627
 21
19.22332485916107
 31
0.0
  0
LINE
  5
10D
330
D4
100
AcDbEntity
  8
0
  6
BYBLOCK
 62
     0
100
AcDbLine
 10
2.872648779587627
 20
20.23548239011549
 30
0.0
 11
2.622648779587627
 21
20.48548239011549
 31
0.0
  0
LINE
  5
10E
330
D4
100
AcDbEntity
  8
0
  6
BYBLOCK
 62
     0
100
AcDbLine
 10
2.872648779587627
 20
18.71116732820665
 30
0.0
 11
2.622648779587627
 21
18.96116732820665
 31
0.0
  0
TEXT
  5
10F
330
D4
100
AcDbEntity
  8
0
  6
BYBLOCK
 62
     0
100
AcDbText
 10
2.810148779587627
 20
19.34832485916107
 30
0.0
 40
0.125
  1
1 1/2
 50
90.0
 72
     1
 11
2.747648779587627
 21
19.59832485916107
 31
0.0
100
AcDbText
 73
     2
  0
POINT
  5
110
330
D4
100
AcDbEntity
  8
DEFPOINTS
  6
BYBLOCK
 62
     0
100
AcDbPoint
 10
1.35642090233002
 20
20.36048239011549
 30
0.0
  0
POINT
  5
111
330
D4
100
AcDbEntity
  8
DEFPOINTS
  6
BYBLOCK
 62
     0
100
AcDbPoint
 10
2.130782794243866
 20
18.83616732820665
 30
0.0
  0
POINT
  5
112
330
D4
100
AcDbEntity
  8
DEFPOINTS
  6
BYBLOCK
 62
     0
100
AcDbPoint
 10
2.747648779587627
 20
18.83616732820665
 30
0.0
  0
ENDBLK
  5
113
330
D4
100
AcDbEntity
  8
0
100
AcDbBlockEnd
  0
BLOCK
  5
114
330
D5
100
AcDbEntity
  8
0
100
AcDbBlockBegin
  2
*D2
 70
     1
 10
0.0
 20
0.0
 30
0.0
  3
*D2
  1

  0
LINE
  5
115
330
D5
100
AcDbEntity
  8
0
  6
BYBLOCK
 62
     0
100
AcDbLine
 10
0.972203172489362
 20
20.18548864336968
 30
0.0
 11
-0.0913728251756378
 21
19.17490335643777
 31
0.0
  0
LINE
  5
116
330
D5
100
AcDbEntity
  8
0
  6
BYBLOCK
 62
     0
100
AcDbLine
 10
0.9676883513936271
 20
20.00876961103169
 30
0.0
 11
0.9767179935850965
 21
20.36220767570767
 31
0.0
  0
LINE
  5
117
330
D5
100
AcDbEntity
  8
0
  6
BYBLOCK
 62
     0
100
AcDbLine
 10
0.943282794243866
 20
20.33616732820665
 30
0.0
 11
1.318282794243865
 21
20.33616732820665
 31
0.0
  0
LINE
  5
118
330
D5
100
AcDbEntity
  8
0
  6
BYBLOCK
 62
     0
100
AcDbLine
 10
1.130782794243865
 20
20.14866732820665
 30
0.0
 11
1.130782794243865
 21
20.52366732820665
 31
0.0
  0
TEXT
  5
119
330
D5
100
AcDbEntity
  8
0
  6
BYBLOCK
 62
     0
100
AcDbText
 10
-0.5316120481883266
 20
18.67038366310001
 30
0.0
 40
0.125
  1
%%c7/16
 50
43.53652471747988
 72
     1
 11
-0.3783264264456933
 21
18.90224668863755
 31
0.0
100
AcDbText
 73
     2
  0
POINT
  5
11A
330
D5
100
AcDbEntity
  8
DEFPOINTS
  6
BYBLOCK
 62
     0
100
AcDbPoint
 10
0.972203172489362
 20
20.18548864336968
 30
0.0
  0
POINT
  5
11B
330
D5
100
AcDbEntity
  8
DEFPOINTS
  6
BYBLOCK
 62
     0
100
AcDbPoint
 10
1.28936241599837
 20
20.48684601304362
 30
0.0
  0
ENDBLK
  5
11C
330
D5
100
AcDbEntity
  8
0
100
AcDbBlockEnd
  0
BLOCK
  5
11D
330
D6
100
AcDbEntity
  8
0
100
AcDbBlockBegin
  2
*D3
 70
     1
 10
0.0
 20
0.0
 30
0.0
  3
*D3
  1

  0
LINE
  5
11E
330
D6
100
AcDbEntity
  8
0
  6
BYBLOCK
 62
     0
100
AcDbLine
 10
-3.369217205756133
 20
21.64366732820665
 30
0.0
 11
-3.369217205756133
 21
23.32565229624693
 31
0.0
  0
LINE
  5
11F
330
D6
100
AcDbEntity
  8
0
  6
BYBLOCK
 62
     0
100
AcDbLine
 10
-0.8692172057561338
 20
23.26315229624693
 30
0.0
 11
-0.8692172057561338
 21
22.96565229624693
 31
0.0
  0
LINE
  5
120
330
D6
100
AcDbEntity
  8
0
  6
BYBLOCK
 62
     0
100
AcDbLine
 10
-3.369217205756133
 20
23.14565229624693
 30
0.0
 11
-2.515050539089467
 21
23.14565229624693
 31
0.0
  0
LINE
  5
121
330
D6
100
AcDbEntity
  8
0
  6
BYBLOCK
 62
     0
100
AcDbLine
 10
-0.8692172057561338
 20
23.14565229624693
 30
0.0
 11
-1.7233838724228
 21
23.14565229624693
 31
0.0
  0
LINE
  5
122
330
D6
100
AcDbEntity
  8
0
  6
BYBLOCK
 62
     0
100
AcDbLine
 10
-3.494217205756133
 20
23.02065229624693
 30
0.0
 11
-3.244217205756133
 21
23.27065229624693
 31
0.0
  0
LINE
  5
123
330
D6
100
AcDbEntity
  8
0
  6
BYBLOCK
 62
     0
100
AcDbLine
 10
-0.9942172057561338
 20
23.02065229624693
 30
0.0
 11
-0.7442172057561339
 21
23.27065229624693
 31
0.0
  0
TEXT
  5
124
330
D6
100
AcDbEntity
  8
0
  6
BYBLOCK
 62
     0
100
AcDbText
 10
-2.390050539089467
 20
23.08315229624693
 30
0.0
 40
0.125
  1
2 1/2
 72
     1
 11
-2.119217205756133
 21
23.14565229624693
 31
0.0
100
AcDbText
 73
     2
  0
POINT
  5
125
330
D6
100
AcDbEntity
  8
DEFPOINTS
  6
BYBLOCK
 62
     0
100
AcDbPoint
 10
-3.369217205756133
 20
21.58116732820665
 30
0.0
  0
POINT
  5
126
330
D6
100
AcDbEntity
  8
DEFPOINTS
  6
BYBLOCK
 62
     0
100
AcDbPoint
 10
-0.8692172057561338
 20
23.32565229624693
 30
0.0
  0
POINT
  5
127
330
D6
100
AcDbEntity
  8
DEFPOINTS
  6
BYBLOCK
 62
     0
100
AcDbPoint
 10
-0.8692172057561338
 20
23.14565229624693
 30
0.0
  0
ENDBLK
  5
128
330
D6
100
AcDbEntity
  8
0
100
AcDbBlockEnd
  0
BLOCK
  5
129
330
D7
100
AcDbEntity
  8
0
100
AcDbBlockBegin
  2
*D4
 70
     1
 10
0.0
 20
0.0
 30
0.0
  3
*D4
  1

  0
LINE
  5
12A
330
D7
100
AcDbEntity
  8
0
  6
BYBLOCK
 62
     0
100
AcDbLine
 10
0.6307827942438662
 20
23.12882929770734
 30
0.0
 11
0.6307827942438662
 21
23.30678770259898
 31
0.0
  0
LINE
  5
12B
330
D7
100
AcDbEntity
  8
0
  6
BYBLOCK
 62
     0
100
AcDbLine
 10
1.630782794243866
 20
23.12882929770734
 30
0.0
 11
1.630782794243866
 21
23.30678770259898
 31
0.0
  0
LINE
  5
12C
330
D7
100
AcDbEntity
  8
0
  6
BYBLOCK
 62
     0
100
AcDbLine
 10
0.6307827942438662
 20
23.12678770259898
 30
0.0
 11
0.9849494609105327
 21
23.12678770259898
 31
0.0
  0
LINE
  5
12D
330
D7
100
AcDbEntity
  8
0
  6
BYBLOCK
 62
     0
100
AcDbLine
 10
1.630782794243866
 20
23.12678770259898
 30
0.0
 11
1.276616127577199
 21
23.12678770259898
 31
0.0
  0
LINE
  5
12E
330
D7
100
AcDbEntity
  8
0
  6
BYBLOCK
 62
     0
100
AcDbLine
 10
0.5057827942438662
 20
23.00178770259898
 30
0.0
 11
0.7557827942438662
 21
23.25178770259898
 31
0.0
  0
LINE
  5
12F
330
D7
100
AcDbEntity
  8
0
  6
BYBLOCK
 62
     0
100
AcDbLine
 10
1.505782794243866
 20
23.00178770259898
 30
0.0
 11
1.755782794243866
 21
23.25178770259898
 31
0.0
  0
TEXT
  5
130
330
D7
100
AcDbEntity
  8
0
  6
BYBLOCK
 62
     0
100
AcDbText
 10
1.109949460910532
 20
23.06428770259898
 30
0.0
 40
0.125
  1
1
 72
     1
 11
1.130782794243866
 21
23.12678770259898
 31
0.0
100
AcDbText
 73
     2
  0
POINT
  5
131
330
D7
100
AcDbEntity
  8
DEFPOINTS
  6
BYBLOCK
 62
     0
100
AcDbPoint
 10
0.6307827942438662
 20
23.06632929770734
 30
0.0
  0
POINT
  5
132
330
D7
100
AcDbEntity
  8
DEFPOINTS
  6
BYBLOCK
 62
     0
100
AcDbPoint
 10
1.630782794243866
 20
23.06632929770734
 30
0.0
  0
POINT
  5
133
330
D7
100
AcDbEntity
  8
DEFPOINTS
  6
BYBLOCK
 62
     0
100
AcDbPoint
 10
1.630782794243866
 20
23.12678770259898
 30
0.0
  0
ENDBLK
  5
134
330
D7
100
AcDbEntity
  8
0
100
AcDbBlockEnd
  0
BLOCK
  5
135
330
D8
100
AcDbEntity
  8
0
100
AcDbBlockBegin
  2
*D5
 70
     1
 10
0.0
 20
0.0
 30
0.0
  3
*D5
  1

  0
LINE
  5
136
330
D8
100
AcDbEntity
  8
0
  6
BYBLOCK
 62
     0
100
AcDbLine
 10
2.195609683501507
 20
22.88527577925047
 30
0.0
 11
2.924624387383996
 21
22.88527577925047
 31
0.0
  0
LINE
  5
137
330
D8
100
AcDbEntity
  8
0
  6
BYBLOCK
 62
     0
100
AcDbLine
 10
2.195609683501507
 20
20.36048239011549
 30
0.0
 11
2.924624387383996
 21
20.36048239011549
 31
0.0
  0
LINE
  5
138
330
D8
100
AcDbEntity
  8
0
  6
BYBLOCK
 62
     0
100
AcDbLine
 10
2.744624387383995
 20
22.88527577925047
 30
0.0
 11
2.744624387383995
 21
22.01871241801631
 31
0.0
  0
LINE
  5
139
330
D8
100
AcDbEntity
  8
0
  6
BYBLOCK
 62
     0
100
AcDbLine
 10
2.744624387383995
 20
20.36048239011549
 30
0.0
 11
2.744624387383995
 21
21.22704575134965
 31
0.0
  0
LINE
  5
13A
330
D8
100
AcDbEntity
  8
0
  6
BYBLOCK
 62
     0
100
AcDbLine
 10
2.869624387383995
 20
22.76027577925046
 30
0.0
 11
2.619624387383995
 21
23.01027577925047
 31
0.0
  0
LINE
  5
13B
330
D8
100
AcDbEntity
  8
0
  6
BYBLOCK
 62
     0
100
AcDbLine
 10
2.869624387383995
 20
20.23548239011549
 30
0.0
 11
2.619624387383995
 21
20.48548239011549
 31
0.0
  0
TEXT
  5
13C
330
D8
100
AcDbEntity
  8
0
  6
BYBLOCK
 62
     0
100
AcDbText
 10
2.807124387383995
 20
21.35204575134965
 30
0.0
 40
0.125
  1
2 1/2
 50
90.0
 72
     1
 11
2.744624387383995
 21
21.62287908468298
 31
0.0
100
AcDbText
 73
     2
  0
POINT
  5
13D
330
D8
100
AcDbEntity
  8
DEFPOINTS
  6
BYBLOCK
 62
     0
100
AcDbPoint
 10
2.133109683501507
 20
22.88527577925047
 30
0.0
  0
POINT
  5
13E
330
D8
100
AcDbEntity
  8
DEFPOINTS
  6
BYBLOCK
 62
     0
100
AcDbPoint
 10
2.133109683501507
 20
20.36048239011549
 30
0.0
  0
POINT
  5
13F
330
D8
100
AcDbEntity
  8
DEFPOINTS
  6
BYBLOCK
 62
     0
100
AcDbPoint
 10
2.744624387383995
 20
20.36048239011549
 30
0.0
  0
ENDBLK
  5
140
330
D8
100
AcDbEntity
  8
0
100
AcDbBlockEnd
  0
ENDSEC
  0
SECTION
  2
ENTITIES
  0
ARC
  5
141
330
18
100
AcDbEntity
  8
0
100
AcDbCircle
 10
-2.659217205756133
 20
20.89109756189673
 30
0.0
 40
0.25
100
AcDbArc
 50
99.50522887567442
 51
180.0
  0
DIMENSION
  5
142
330
18
100
AcDbEntity
  8
ADPDIM
100
AcDbDimension
  2
*D3
 10
-0.8692172057561338
 20
23.14565229624693
 30
0.0
 11
-2.119217205756133
 21
23.14565229624693
 31
0.0
100
AcDbAlignedDimension
 13
-3.369217205756133
 23
21.58116732820665
 33
0.0
 14
-0.8692172057561338
 24
23.32565229624693
 34
0.0
100
AcDbRotatedDimension
  0
ARC
  5
143
330
18
100
AcDbEntity
  8
0
100
AcDbCircle
 10
-2.919217205756133
 20
23.21116732820665
 30
0.0
 40
1.62
100
AcDbArc
 50
270.0
 51
344.524923123223
  0
LINE
  5
144
330
18
100
AcDbEntity
  8
0
100
AcDbLine
 10
-3.369217205756133
 20
18.84616732820665
 30
0.0
 11
-3.369217205756133
 21
21.58116732820665
 31
0.0
  0
LINE
  5
145
330
18
100
AcDbEntity
  8
0
100
AcDbLine
 10
-2.909217205756133
 20
20.89109756189673
 30
0.0
 11
-2.909217205756133
 21
19.02416732820665
 31
0.0
  0
ARC
  5
146
330
18
100
AcDbEntity
  8
0
100
AcDbCircle
 10
-3.097217205756134
 20
19.02416732820665
 30
0.0
 40
0.188
100
AcDbArc
 50
270.0
 51
0.0
  0
ARC
  5
147
330
18
100
AcDbEntity
  8
0
100
AcDbCircle
 10
-3.359217205756134
 20
18.84616732820665
 30
0.0
 40
0.01
100
AcDbArc
 50
180.0
 51
270.0
  0
LINE
  5
148
330
18
100
AcDbEntity
  8
0
100
AcDbLine
 10
-3.097217205756134
 20
18.83616732820665
 30
0.0
 11
-3.359217205756134
 21
18.83616732820665
 31
0.0
  0
LINE
  5
149
330
18
100
AcDbEntity
  8
ADP2DETAIL
  6
HIDDEN
100
AcDbLine
 10
-3.369217205756133
 20
20.55491732820665
 30
0.0
 11
-2.909217205756133
 21
20.55491732820665
 31
0.0
  0
LINE
  5
14A
330
18
100
AcDbEntity
  8
ADP2DETAIL
  6
HIDDEN
100
AcDbLine
 10
-3.369217205756133
 20
20.11741732820665
 30
0.0
 11
-2.909217205756133
 21
20.11741732820665
 31
0.0
  0
ARC
  5
14B
330
18
100
AcDbEntity
  8
0
100
AcDbCircle
 10
-3.359217205756134
 20
21.58116732820665
 30
0.0
 40
0.01
100
AcDbArc
 50
90.0
 51
180.0
  0
LINE
  5
14C
330
18
100
AcDbEntity
  8
0
100
AcDbLine
 10
-3.359217205756134
 20
21.59116732820665
 30
0.0
 11
-2.909217205756133
 21
21.59116732820665
 31
0.0
  0
LINE
  5
14D
330
18
100
AcDbEntity
  8
ADP2DETAIL
  6
HIDDEN
100
AcDbLine
 10
0.1331096835015071
 20
21.58886263442778
 30
0.0
 11
2.133109683501507
 21
21.58886263442778
 31
0.0
  0
LWPOLYLINE
  5
14E
330
18
100
AcDbEntity
  8
ADP2DETAIL
  6
HIDDEN
100
AcDbPolyline
 90
        3
 70
     0
 43
0.0
 10
1.727550510429453
 20
22.86950626886794
 10
1.727550510429453
 20
22.68813105419302
 10
1.789550510429452
 20
22.62613105419303
  0
DIMENSION
  5
153
330
18
100
AcDbEntity
  8
ADPDIM
100
AcDbDimension
  2
*D1
 10
2.747648779587627
 20
18.83616732820665
 30
0.0
 11
2.747648779587627
 21
19.59832485916107
 31
0.0
100
AcDbAlignedDimension
 13
1.35642090233002
 23
20.36048239011549
 33
0.0
 14
2.130782794243866
 24
18.83616732820665
 34
0.0
 50
90.0
100
AcDbRotatedDimension
  0
LINE
  5
154
330
18
100
AcDbEntity
  8
0
100
AcDbLine
 10
2.130782794243866
 20
18.83616732820665
 30
0.0
 11
0.1307827942438662
 21
18.83616732820665
 31
0.0
  0
DIMENSION
  5
155
330
18
100
AcDbEntity
  8
ADPDIM
100
AcDbDimension
  2
*D0
 10
2.130782794243866
 20
18.4258133729835
 30
0.0
 11
1.130782794243866
 21
18.4258133729835
 31
0.0
100
AcDbAlignedDimension
 13
0.1307827942438662
 23
18.83616732820665
 33
0.0
 14
2.130782794243866
 24
18.83616732820665
 34
0.0
100
AcDbRotatedDimension
  0
LINE
  5
156
330
18
100
AcDbEntity
  8
ADP2DETAIL
100
AcDbLine
 10
0.1331096835015071
 20
22.88527577925047
 30
0.0
 11
2.133109683501507
 21
22.88527577925047
 31
0.0
  0
LINE
  5
157
330
18
100
AcDbEntity
  8
0
100
AcDbLine
 10
0.1331096835015071
 20
21.18652752709255
 30
0.0
 11
2.133109683501507
 21
21.18652752709255
 31
0.0
  0
LINE
  5
158
330
18
100
AcDbEntity
  8
0
100
AcDbLine
 10
0.1331096835015071
 20
22.61705236800423
 30
0.0
 11
2.133109683501507
 21
22.61705236800423
 31
0.0
  0
LINE
  5
159
330
18
100
AcDbEntity
  8
0
100
AcDbLine
 10
0.1307827942438662
 20
22.96116732820665
 30
0.0
 11
2.130782794243866
 21
22.96116732820665
 31
0.0
  0
LINE
  5
15A
330
18
100
AcDbEntity
  8
0
100
AcDbLine
 10
0.1307827942438662
 20
18.83616732820665
 30
0.0
 11
0.1307827942438662
 21
22.96116732820665
 31
0.0
  0
DIMENSION
  5
15B
330
18
100
AcDbEntity
  8
ADPDIM
100
AcDbDimension
  2
*D2
 10
1.28936241599837
 20
20.48684601304362
 30
0.0
 11
-0.3783264264456933
 21
18.90224668863755
 31
0.0
 70
     3
100
AcDbDiametricDimension
 15
0.972203172489362
 25
20.18548864336968
 35
0.0
 40
1.467132074822284
  0
CIRCLE
  5
15C
330
18
100
AcDbEntity
  8
0
100
AcDbCircle
 10
1.130782794243866
 20
20.33616732820665
 30
0.0
 40
0.21875
  0
ARC
  5
15D
330
18
100
AcDbEntity
  8
0
100
AcDbCircle
 10
-3.019217205756134
 20
23.04116732820665
 30
0.0
 40
1.929999999999999
100
AcDbArc
 50
279.5052288756745
 51
343.1999499987379
  0
ARC
  5
15E
330
18
100
AcDbEntity
  8
0
100
AcDbCircle
 10
-0.9916150442160045
 20
22.42899621281668
 30
0.0
 40
0.188
100
AcDbArc
 50
84.54698932044713
 51
163.1999499987379
  0
ARC
  5
15F
330
18
100
AcDbEntity
  8
0
100
AcDbCircle
 10
-0.8692172057561338
 20
23.71116732820665
 30
0.0
 40
0.8299999999999998
100
AcDbArc
 50
252.7411493960781
 51
287.1910238335118
  0
ARC
  5
160
330
18
100
AcDbEntity
  8
0
100
AcDbCircle
 10
-1.118436045933312
 20
22.90898906266915
 30
0.0
 40
0.01
100
AcDbArc
 50
72.74114939608023
 51
120.0035655620473
  0
ARC
  5
161
330
18
100
AcDbEntity
  8
0
100
AcDbCircle
 10
-1.348310234376562
 20
22.77625206373429
 30
0.0
 40
0.01
100
AcDbArc
 50
120.0035655620464
 51
164.5249231232252
  0
LINE
  5
162
330
18
100
AcDbEntity
  8
0
100
AcDbLine
 10
-1.123436584858144
 20
22.91764900553624
 30
0.0
 11
-1.353310773301394
 21
22.78491200660138
 31
0.0
  0
LWPOLYLINE
  5
163
330
18
100
AcDbEntity
  8
ADP2DETAIL
  6
HIDDEN
100
AcDbPolyline
 90
        3
 70
     0
 43
0.0
 10
-0.9505977919901473
 20
22.8846208776658
 10
-0.9505977919901473
 20
22.70324566299089
 10
-1.012597791990146
 20
22.64124566299089
  0
LWPOLYLINE
  5
168
330
18
100
AcDbEntity
  8
ADP2DETAIL
  6
HIDDEN
100
AcDbPolyline
 90
        3
 70
     0
 43
0.0
 10
-0.7630977919901492
 20
22.8846208776658
 10
-0.7630977919901492
 20
22.70324566299089
 10
-0.7010977919901498
 20
22.64124566299089
  0
ARC
  5
16D
330
18
100
AcDbEntity
  8
0
100
AcDbCircle
 10
-0.6209481589862032
 20
22.90869459943891
 30
0.0
 40
0.01
100
AcDbArc
 50
45.0
 51
107.1910238335129
  0
ARC
  5
16E
330
18
100
AcDbEntity
  8
0
100
AcDbCircle
 10
-0.5792172057561338
 20
22.66045328528155
 30
0.0
 40
0.01
100
AcDbArc
 50
285.4296532164823
 51
0.0
  0
ARC
  5
16F
330
18
100
AcDbEntity
  8
0
100
AcDbCircle
 10
-0.5792172057561338
 20
22.86696364620883
 30
0.0
 40
0.01
100
AcDbArc
 50
0.0
 51
44.99999999999974
  0
LINE
  5
170
330
18
100
AcDbEntity
  8
0
100
AcDbLine
 10
-0.569217205756134
 20
22.86696364620883
 30
0.0
 11
-0.569217205756134
 21
22.66045328528155
 31
0.0
  0
ARC
  5
171
330
18
100
AcDbEntity
  8
0
100
AcDbCircle
 10
-0.8692172057561338
 20
23.71116732820665
 30
0.0
 40
1.1
100
AcDbArc
 50
264.5469893204473
 51
285.4296532164858
  0
LINE
  5
172
330
18
100
AcDbEntity
  8
0
100
AcDbLine
 10
-0.6138770911743379
 20
22.91576566725077
 30
0.0
 11
-0.5721461379442681
 21
22.8740347140207
 31
0.0
  0
DIMENSION
  5
173
330
18
100
AcDbEntity
  8
ADPDIM
100
AcDbDimension
  2
*D4
 10
1.630782794243866
 20
23.12678770259898
 30
0.0
 11
1.130782794243866
 21
23.12678770259898
 31
0.0
100
AcDbAlignedDimension
 13
0.6307827942438662
 23
23.06632929770734
 33
0.0
 14
1.630782794243866
 24
23.06632929770734
 34
0.0
100
AcDbRotatedDimension
  0
LWPOLYLINE
  5
174
330
18
100
AcDbEntity
  8
ADP2DETAIL
  6
HIDDEN
100
AcDbPolyline
 90
        3
 70
     0
 43
0.0
 10
0.5400505104294551
 20
22.86950626886794
 10
0.5400505104294551
 20
22.68813105419302
 10
0.4780505104294557
 20
22.62613105419303
  0
LWPOLYLINE
  5
179
330
18
100
AcDbEntity
  8
ADP2DETAIL
  6
HIDDEN
100
AcDbPolyline
 90
        3
 70
     0
 43
0.0
 10
0.7275505104294533
 20
22.86950626886794
 10
0.7275505104294533
 20
22.68813105419302
 10
0.7895505104294527
 20
22.62613105419303
  0
LWPOLYLINE
  5
17E
330
18
100
AcDbEntity
  8
ADP2DETAIL
  6
HIDDEN
100
AcDbPolyline
 90
        3
 70
     0
 43
0.0
 10
1.540050510429455
 20
22.86950626886794
 10
1.540050510429455
 20
22.68813105419302
 10
1.478050510429455
 20
22.62613105419303
  0
DIMENSION
  5
183
330
18
100
AcDbEntity
  8
ADPDIM
100
AcDbDimension
  2
*D5
 10
2.744624387383995
 20
20.36048239011549
 30
0.0
 11
2.744624387383995
 21
21.62287908468298
 31
0.0
100
AcDbAlignedDimension
 13
2.133109683501507
 23
22.88527577925047
 33
0.0
 14
2.133109683501507
 24
20.36048239011549
 34
0.0
 50
90.0
100
AcDbRotatedDimension
  0
LINE
  5
184
330
18
100
AcDbEntity
  8
0
100
AcDbLine
 10
2.130782794243866
 20
22.96116732820665
 30
0.0
 11
2.130782794243866
 21
18.83616732820665
 31
0.0
  0
TEXT
  5
192
330
18
100
AcDbEntity
  8
ADPDIM
100
AcDbText
 10
-6.594988680690616
 20
17.66193347045111
 30
0.0
 40
0.125
  1
J U L I U S  B L U M  &  C O . ,  I N C .      ( 8 0 0 )  5 2 6 - 6 2 9 3        W W W . J U L I U S B L U M . C O M        P A R T  N o .  8 9 2
 41
1.25
  7
ARIAL_WIDE
 72
     1
 11
-0.1602811431735631
 21
17.78693347045111
 31
0.0
100
AcDbText
 73
     3
  0
ENDSEC
  0
SECTION
  2
OBJECTS
  0
DICTIONARY
  5
C
330
0
100
AcDbDictionary
  3
ACAD_GROUP
350
D
  3
ACAD_LAYOUT
350
18B
  3
ACAD_MLINESTYLE
350
E
  3
ACAD_PLOTSETTINGS
350
18C
  3
ACAD_PLOTSTYLENAME
350
189
  3
ACDBHEADERROUNDTRIPXREC
350
2D6
  3
ACDBVARIABLEDICTIONARY
350
1EC
  0
DICTIONARY
  5
1E6
330
18
100
AcDbDictionary
280
     1
  3
ACAD_LAYOUTSELFREF
360
2F7
  0
DICTIONARY
  5
1E4
330
15
100
AcDbDictionary
280
     1
  3
ACAD_LAYOUTSELFREF
360
2F6
  0
DICTIONARY
  5
D
102
{ACAD_REACTORS
330
C
102
}
330
C
100
AcDbDictionary
  0
DICTIONARY
  5
18B
102
{ACAD_REACTORS
330
C
102
}
330
C
100
AcDbDictionary
  0
DICTIONARY
  5
E
102
{ACAD_REACTORS
330
C
102
}
330
C
100
AcDbDictionary
  3
STANDARD
350
1B
  0
DICTIONARY
  5
18C
102
{ACAD_REACTORS
330
C
102
}
330
C
100
AcDbDictionary
  0
ACDBDICTIONARYWDFLT
  5
189
102
{ACAD_REACTORS
330
C
102
}
330
C
100
AcDbDictionary
281
     1
  3
Normal
350
18A
100
AcDbDictionaryWithDefault
340
18A
  0
DICTIONARY
  5
2D6
102
{ACAD_REACTORS
330
C
102
}
330
C
100
AcDbDictionary
  3
CEPSNTYPE
350
2E0
  3
FINGERPRINTGUID
350
2E1
  3
HYPERLINKBASE
350
2D9
  3
INSUNITS
350
2DF
  3
LAYOUTDICT
350
2DB
  3
LWETCUNION
350
2DE
  3
PLOTSETDICT
350
2DC
  3
PLOTSTYLNAMDICT
350
2DD
  3
PSVPSCALE
350
2E3
  3
PUCSBASE
350
2E6
  3
PUCSORGBACK
350
2EC
  3
PUCSORGBOTTOM
350
2E8
  3
PUCSORGFRONT
350
2EB
  3
PUCSORGLEFT
350
2E9
  3
PUCSORGRIGHT
350
2EA
  3
PUCSORGTOP
350
2E7
  3
PUCSORTHOREF
350
2E4
  3
PUCSORTHOVIEW
350
2E5
  3
STYLESHEET
350
2DA
  3
TSTACKALIGN
350
2D7
  3
TSTACKSIZE
350
2D8
  3
UCSBASE
350
2EF
  3
UCSORGBACK
350
2F5
  3
UCSORGBOTTOM
350
2F1
  3
UCSORGFRONT
350
2F4
  3
UCSORGLEFT
350
2F2
  3
UCSORGRIGHT
350
2F3
  3
UCSORGTOP
350
2F0
  3
UCSORTHOREF
350
2ED
  3
UCSORTHOVIEW
350
2EE
  3
VERSIONGUID
350
2E2
  0
DICTIONARY
  5
1EC
102
{ACAD_REACTORS
330
C
102
}
330
C
100
AcDbDictionary
  3
DIMASSOC
350
1ED
  0
XRECORD
  5
2F7
102
{ACAD_REACTORS
330
1E6
102
}
330
1E6
100
AcDbXrecord
340
18
  0
XRECORD
  5
2F6
102
{ACAD_REACTORS
330
1E4
102
}
330
1E4
100
AcDbXrecord
340
15
  0
MLINESTYLE
  5
1B
102
{ACAD_REACTORS
330
E
102
}
330
E
100
AcDbMlineStyle
  2
STANDARD
 70
     0
  3

 62
     0
 51
90.0
 52
90.0
 71
     2
 49
0.5
 62
   256
  6
BYLAYER
 49
-0.5
 62
   256
  6
BYLAYER
  0
ACDBPLACEHOLDER
  5
18A
102
{ACAD_REACTORS
330
189
102
}
330
189
100
AcDbPlaceHolder
280
     0
  0
XRECORD
  5
2E0
102
{ACAD_REACTORS
330
2D6
102
}
330
2D6
100
AcDbXrecord
 90
        0
  0
XRECORD
  5
2E1
102
{ACAD_REACTORS
330
2D6
102
}
330
2D6
100
AcDbXrecord
  1
{00687B74-642C-4DC2-9EF2-09CA2F3349D9}
  0
XRECORD
  5
2D9
102
{ACAD_REACTORS
330
2D6
102
}
330
2D6
100
AcDbXrecord
  1

  0
XRECORD
  5
2DF
102
{ACAD_REACTORS
330
2D6
102
}
330
2D6
100
AcDbXrecord
 90
        0
  0
XRECORD
  5
2DB
102
{ACAD_REACTORS
330
2D6
102
}
330
2D6
100
AcDbXrecord
340
18B
  0
XRECORD
  5
2DE
102
{ACAD_REACTORS
330
2D6
102
}
330
2D6
100
AcDbXrecord
 90
    14877
  0
XRECORD
  5
2DC
102
{ACAD_REACTORS
330
2D6
102
}
330
2D6
100
AcDbXrecord
340
18C
  0
XRECORD
  5
2DD
102
{ACAD_REACTORS
330
2D6
102
}
330
2D6
100
AcDbXrecord
340
189
  0
XRECORD
  5
2E3
102
{ACAD_REACTORS
330
2D6
102
}
330
2D6
100
AcDbXrecord
 40
0.0
  0
XRECORD
  5
2E6
102
{ACAD_REACTORS
330
2D6
102
}
330
2D6
100
AcDbXrecord
340
0
  0
XRECORD
  5
2EC
102
{ACAD_REACTORS
330
2D6
102
}
330
2D6
100
AcDbXrecord
 10
0.0
 20
0.0
 30
0.0
  0
XRECORD
  5
2E8
102
{ACAD_REACTORS
330
2D6
102
}
330
2D6
100
AcDbXrecord
 10
0.0
 20
0.0
 30
0.0
  0
XRECORD
  5
2EB
102
{ACAD_REACTORS
330
2D6
102
}
330
2D6
100
AcDbXrecord
 10
0.0
 20
0.0
 30
0.0
  0
XRECORD
  5
2E9
102
{ACAD_REACTORS
330
2D6
102
}
330
2D6
100
AcDbXrecord
 10
0.0
 20
0.0
 30
0.0
  0
XRECORD
  5
2EA
102
{ACAD_REACTORS
330
2D6
102
}
330
2D6
100
AcDbXrecord
 10
0.0
 20
0.0
 30
0.0
  0
XRECORD
  5
2E7
102
{ACAD_REACTORS
330
2D6
102
}
330
2D6
100
AcDbXrecord
 10
0.0
 20
0.0
 30
0.0
  0
XRECORD
  5
2E4
102
{ACAD_REACTORS
330
2D6
102
}
330
2D6
100
AcDbXrecord
340
0
  0
XRECORD
  5
2E5
102
{ACAD_REACTORS
330
2D6
102
}
330
2D6
100
AcDbXrecord
 70
     0
  0
XRECORD
  5
2DA
102
{ACAD_REACTORS
330
2D6
102
}
330
2D6
100
AcDbXrecord
  1

  0
XRECORD
  5
2D7
102
{ACAD_REACTORS
330
2D6
102
}
330
2D6
100
AcDbXrecord
 90
        1
  0
XRECORD
  5
2D8
102
{ACAD_REACTORS
330
2D6
102
}
330
2D6
100
AcDbXrecord
 90
       70
  0
XRECORD
  5
2EF
102
{ACAD_REACTORS
330
2D6
102
}
330
2D6
100
AcDbXrecord
340
0
  0
XRECORD
  5
2F5
102
{ACAD_REACTORS
330
2D6
102
}
330
2D6
100
AcDbXrecord
 10
0.0
 20
0.0
 30
0.0
  0
XRECORD
  5
2F1
102
{ACAD_REACTORS
330
2D6
102
}
330
2D6
100
AcDbXrecord
 10
0.0
 20
0.0
 30
0.0
  0
XRECORD
  5
2F4
102
{ACAD_REACTORS
330
2D6
102
}
330
2D6
100
AcDbXrecord
 10
0.0
 20
0.0
 30
0.0
  0
XRECORD
  5
2F2
102
{ACAD_REACTORS
330
2D6
102
}
330
2D6
100
AcDbXrecord
 10
0.0
 20
0.0
 30
0.0
  0
XRECORD
  5
2F3
102
{ACAD_REACTORS
330
2D6
102
}
330
2D6
100
AcDbXrecord
 10
0.0
 20
0.0
 30
0.0
  0
XRECORD
  5
2F0
102
{ACAD_REACTORS
330
2D6
102
}
330
2D6
100
AcDbXrecord
 10
0.0
 20
0.0
 30
0.0
  0
XRECORD
  5
2ED
102
{ACAD_REACTORS
330
2D6
102
}
330
2D6
100
AcDbXrecord
340
0
  0
XRECORD
  5
2EE
102
{ACAD_REACTORS
330
2D6
102
}
330
2D6
100
AcDbXrecord
 70
     0
  0
XRECORD
  5
2E2
102
{ACAD_REACTORS
330
2D6
102
}
330
2D6
100
AcDbXrecord
  1
{85C9C354-BD65-48C6-B535-8A6473C279C3}
  0
DICTIONARYVAR
  5
1ED
102
{ACAD_REACTORS
330
1EC
102
}
330
1EC
100
DictionaryVariables
280
     0
  1
1
  0
ENDSEC
  0
EOF
