  0
SECTION
  2
HEADER
  9
$ACADVER
  1
AC1014
  9
$ACADMAINTVER
 70
     9
  9
$DWGCODEPAGE
  3
ANSI_1252
  9
$INSBASE
 10
-19.47360279520144
 20
31.45314158815033
 30
0.0
  9
$EXTMIN
 10
-28.37968552575452
 20
27.9758010031501
 30
0.0
  9
$EXTMAX
 10
-8.802498452084673
 20
38.22106842710727
 30
0.0
  9
$LIMMIN
 10
0.0
 20
0.0
  9
$LIMMAX
 10
36.0
 20
36.0
  9
$ORTHOMODE
 70
     1
  9
$REGENMODE
 70
     1
  9
$FILLMODE
 70
     1
  9
$QTEXTMODE
 70
     0
  9
$MIRRTEXT
 70
     1
  9
$DRAGMODE
 70
     0
  9
$LTSCALE
 40
1.0
  9
$OSMODE
 70
    37
  9
$ATTMODE
 70
     1
  9
$TEXTSIZE
 40
0.2
  9
$TRACEWID
 40
0.05
  9
$TEXTSTYLE
  7
STANDARD
  9
$CLAYER
  8
0
  9
$CELTYPE
  6
BYLAYER
  9
$CECOLOR
 62
   256
  9
$CELTSCALE
 40
1.0
  9
$DELOBJ
 70
     1
  9
$DISPSILH
 70
     0
  9
$DIMSCALE
 40
1.0
  9
$DIMASZ
 40
0.125
  9
$DIMEXO
 40
0.0625
  9
$DIMDLI
 40
0.38
  9
$DIMRND
 40
0.0
  9
$DIMDLE
 40
0.0
  9
$DIMEXE
 40
0.18
  9
$DIMTP
 40
0.0
  9
$DIMTM
 40
0.0
  9
$DIMTXT
 40
0.125
  9
$DIMCEN
 40
0.1875
  9
$DIMTSZ
 40
0.125
  9
$DIMTOL
 70
     0
  9
$DIMLIM
 70
     0
  9
$DIMTIH
 70
     0
  9
$DIMTOH
 70
     0
  9
$DIMSE1
 70
     0
  9
$DIMSE2
 70
     0
  9
$DIMTAD
 70
     0
  9
$DIMZIN
 70
     3
  9
$DIMBLK
  1

  9
$DIMASO
 70
     1
  9
$DIMSHO
 70
     1
  9
$DIMPOST
  1

  9
$DIMAPOST
  1

  9
$DIMALT
 70
     0
  9
$DIMALTD
 70
     1
  9
$DIMALTF
 40
25.4
  9
$DIMLFAC
 40
1.0
  9
$DIMTOFL
 70
     0
  9
$DIMTVP
 40
0.0
  9
$DIMTIX
 70
     0
  9
$DIMSOXD
 70
     0
  9
$DIMSAH
 70
     0
  9
$DIMBLK1
  1

  9
$DIMBLK2
  1

  9
$DIMSTYLE
  2
STANDARD
  9
$DIMCLRD
 70
     0
  9
$DIMCLRE
 70
     0
  9
$DIMCLRT
 70
     0
  9
$DIMTFAC
 40
1.0
  9
$DIMGAP
 40
0.125
  9
$DIMJUST
 70
     0
  9
$DIMSD1
 70
     0
  9
$DIMSD2
 70
     0
  9
$DIMTOLJ
 70
     1
  9
$DIMTZIN
 70
     3
  9
$DIMALTZ
 70
     3
  9
$DIMALTTZ
 70
     3
  9
$DIMFIT
 70
     5
  9
$DIMUPT
 70
     0
  9
$DIMUNIT
 70
     5
  9
$DIMDEC
 70
     4
  9
$DIMTDEC
 70
     4
  9
$DIMALTU
 70
     5
  9
$DIMALTTD
 70
     1
  9
$DIMTXSTY
  7
STANDARD
  9
$DIMAUNIT
 70
     0
  9
$LUNITS
 70
     5
  9
$LUPREC
 70
     4
  9
$SKETCHINC
 40
0.1
  9
$FILLETRAD
 40
0.062
  9
$AUNITS
 70
     0
  9
$AUPREC
 70
     0
  9
$MENU
  1
acad
  9
$ELEVATION
 40
0.0
  9
$PELEVATION
 40
0.0
  9
$THICKNESS
 40
0.0
  9
$LIMCHECK
 70
     0
  9
$BLIPMODE
 70
     0
  9
$CHAMFERA
 40
0.0
  9
$CHAMFERB
 40
0.0
  9
$CHAMFERC
 40
0.0
  9
$CHAMFERD
 40
0.0
  9
$SKPOLY
 70
     0
  9
$TDCREATE
 40
2450387.519626921
  9
$TDUPDATE
 40
2452297.104433402
  9
$TDINDWG
 40
0.0128842940
  9
$TDUSRTIMER
 40
0.0128842940
  9
$USRTIMER
 70
     1
  9
$ANGBASE
 50
0.0
  9
$ANGDIR
 70
     0
  9
$PDMODE
 70
     0
  9
$PDSIZE
 40
0.0
  9
$PLINEWID
 40
0.0
  9
$COORDS
 70
     2
  9
$SPLFRAME
 70
     0
  9
$SPLINETYPE
 70
     6
  9
$SPLINESEGS
 70
     8
  9
$ATTDIA
 70
     0
  9
$ATTREQ
 70
     1
  9
$HANDLING
 70
 22529
  9
$HANDSEED
  5
45E
  9
$SURFTAB1
 70
     6
  9
$SURFTAB2
 70
     6
  9
$SURFTYPE
 70
     6
  9
$SURFU
 70
     6
  9
$SURFV
 70
     6
  9
$UCSNAME
  2

  9
$UCSORG
 10
0.0
 20
0.0
 30
0.0
  9
$UCSXDIR
 10
1.0
 20
0.0
 30
0.0
  9
$UCSYDIR
 10
0.0
 20
1.0
 30
0.0
  9
$PUCSNAME
  2

  9
$PUCSORG
 10
0.0
 20
0.0
 30
0.0
  9
$PUCSXDIR
 10
1.0
 20
0.0
 30
0.0
  9
$PUCSYDIR
 10
0.0
 20
1.0
 30
0.0
  9
$USERI1
 70
     0
  9
$USERI2
 70
     0
  9
$USERI3
 70
     0
  9
$USERI4
 70
     0
  9
$USERI5
 70
     0
  9
$USERR1
 40
0.0
  9
$USERR2
 40
0.0
  9
$USERR3
 40
0.0
  9
$USERR4
 40
0.0
  9
$USERR5
 40
0.0
  9
$WORLDVIEW
 70
     1
  9
$SHADEDGE
 70
     3
  9
$SHADEDIF
 70
    70
  9
$TILEMODE
 70
     1
  9
$MAXACTVP
 70
    15
  9
$PINSBASE
 10
0.0
 20
0.0
 30
0.0
  9
$PLIMCHECK
 70
     0
  9
$PEXTMIN
 10
1.000000000000000E+20
 20
1.000000000000000E+20
 30
1.000000000000000E+20
  9
$PEXTMAX
 10
-1.000000000000000E+20
 20
-1.000000000000000E+20
 30
-1.000000000000000E+20
  9
$PLIMMIN
 10
0.0
 20
0.0
  9
$PLIMMAX
 10
12.0
 20
9.0
  9
$UNITMODE
 70
     0
  9
$VISRETAIN
 70
     0
  9
$PLINEGEN
 70
     0
  9
$PSLTSCALE
 70
     1
  9
$TREEDEPTH
 70
  3020
  9
$PICKSTYLE
 70
     1
  9
$CMLSTYLE
  2
STANDARD
  9
$CMLJUST
 70
     0
  9
$CMLSCALE
 40
1.0
  9
$PROXYGRAPHICS
 70
     1
  9
$MEASUREMENT
 70
     0
  0
ENDSEC
  0
SECTION
  2
CLASSES
  0
CLASS
  1
ACDBDICTIONARYWDFLT
  2
AcDbDictionaryWithDefault
  3
AutoCAD 2000
 90
        0
280
     0
281
     0
  0
CLASS
  1
ACDBPLACEHOLDER
  2
AcDbPlaceHolder
  3
AutoCAD 2000
 90
        0
280
     0
281
     0
  0
CLASS
  1
LAYOUT
  2
AcDbLayout
  3
AutoCAD 2000
 90
        0
280
     0
281
     0
  0
CLASS
  1
DICTIONARYVAR
  2
AcDbDictionaryVar
  3
AutoCAD 2000
 90
        0
280
     0
281
     0
  0
CLASS
  1
LONG_TRANSACTION
  2
AcDbLongTransaction
  3
AutoCAD 2000
 90
        0
280
     0
281
     0
  0
CLASS
  1
LWPOLYLINE
  2
AcDbPolyline
  3
AutoCAD 2000
 90
        0
280
     0
281
     1
  0
CLASS
  1
HATCH
  2
AcDbHatch
  3
AutoCAD 2000
 90
        0
280
     0
281
     1
  0
CLASS
  1
XRECORD
  2
AcDbXrecord
  3
AutoCAD 2000
 90
        0
280
     0
281
     0
  0
CLASS
  1
LONG_TRANSACTION
  2
AcDbLongTransaction
  3
AutoCAD 2000
 90
        0
280
     0
281
     0
  0
CLASS
  1
LWPOLYLINE
  2
AcDbPolyline
  3
AutoCAD 2000
 90
        0
280
     0
281
     1
  0
CLASS
  1
HATCH
  2
AcDbHatch
  3
AutoCAD 2000
 90
        0
280
     0
281
     1
  0
CLASS
  1
XRECORD
  2
AcDbXrecord
  3
AutoCAD 2000
 90
        0
280
     0
281
     0
  0
CLASS
  1
LONG_TRANSACTION
  2
AcDbLongTransaction
  3
AutoCAD 2000
 90
        0
280
     0
281
     0
  0
CLASS
  1
LWPOLYLINE
  2
AcDbPolyline
  3
AutoCAD 2000
 90
        0
280
     0
281
     1
  0
CLASS
  1
HATCH
  2
AcDbHatch
  3
AutoCAD 2000
 90
        0
280
     0
281
     1
  0
CLASS
  1
XRECORD
  2
AcDbXrecord
  3
AutoCAD 2000
 90
        0
280
     0
281
     0
  0
CLASS
  1
LONG_TRANSACTION
  2
AcDbLongTransaction
  3
AutoCAD 2000
 90
        0
280
     0
281
     0
  0
CLASS
  1
LWPOLYLINE
  2
AcDbPolyline
  3
AutoCAD 2000
 90
        0
280
     0
281
     1
  0
CLASS
  1
HATCH
  2
AcDbHatch
  3
AutoCAD 2000
 90
        0
280
     0
281
     1
  0
CLASS
  1
XRECORD
  2
AcDbXrecord
  3
AutoCAD 2000
 90
        0
280
     0
281
     0
  0
CLASS
  1
LONG_TRANSACTION
  2
AcDbLongTransaction
  3
AutoCAD 2000
 90
        0
280
     0
281
     0
  0
CLASS
  1
LWPOLYLINE
  2
AcDbPolyline
  3
AutoCAD 2000
 90
        0
280
     0
281
     1
  0
CLASS
  1
HATCH
  2
AcDbHatch
  3
AutoCAD 2000
 90
        0
280
     0
281
     1
  0
CLASS
  1
XRECORD
  2
AcDbXrecord
  3
AutoCAD 2000
 90
        0
280
     0
281
     0
  0
ENDSEC
  0
SECTION
  2
TABLES
  0
TABLE
  2
VPORT
  5
8
330
0
100
AcDbSymbolTable
 70
     2
  0
VPORT
  5
43A
330
8
100
AcDbSymbolTableRecord
100
AcDbViewportTableRecord
  2
*ACTIVE
 70
     0
 10
0.0
 20
0.0
 11
1.0
 21
1.0
 12
-18.57641651615058
 22
33.09834737645503
 13
0.0
 23
0.0
 14
0.5740882589684922
 24
0.5740882589684922
 15
0.5
 25
0.5
 16
0.0
 26
0.0
 36
1.0
 17
0.0
 27
0.0
 37
0.0
 40
12.54986918695651
 41
1.570528967254407
 42
50.0
 43
0.0
 44
0.0
 50
0.0
 51
0.0
 71
     0
 72
   100
 73
     1
 74
     0
 75
     0
 76
     0
 77
     0
 78
     0
  0
ENDTAB
  0
TABLE
  2
LTYPE
  5
5
330
0
100
AcDbSymbolTable
 70
     2
  0
LTYPE
  5
13
330
5
100
AcDbSymbolTableRecord
100
AcDbLinetypeTableRecord
  2
BYBLOCK
 70
     0
  3

 72
    65
 73
     0
 40
0.0
  0
LTYPE
  5
14
330
5
100
AcDbSymbolTableRecord
100
AcDbLinetypeTableRecord
  2
BYLAYER
 70
     0
  3

 72
    65
 73
     0
 40
0.0
  0
LTYPE
  5
15
330
5
100
AcDbSymbolTableRecord
100
AcDbLinetypeTableRecord
  2
CONTINUOUS
 70
     0
  3
Solid line
 72
    65
 73
     0
 40
0.0
  0
LTYPE
  5
24C
330
5
100
AcDbSymbolTableRecord
100
AcDbLinetypeTableRecord
  2
CENTER2
 70
     0
  3
___ _ ___ _ ___ _ ___ _ ___ _ ___ _ ___ _ ___ _
 72
    65
 73
     4
 40
1.125
 49
0.75
 74
     0
 49
-0.125
 74
     0
 49
0.125
 74
     0
 49
-0.125
 74
     0
  0
ENDTAB
  0
TABLE
  2
LAYER
  5
2
330
0
100
AcDbSymbolTable
 70
     5
  0
LAYER
  5
10
330
2
100
AcDbSymbolTableRecord
100
AcDbLayerTableRecord
  2
0
 70
     0
 62
     7
  6
CONTINUOUS
  0
LAYER
  5
24D
330
2
100
AcDbSymbolTableRecord
100
AcDbLayerTableRecord
  2
ADP1DETAIL
 70
     0
 62
     7
  6
CONTINUOUS
  0
LAYER
  5
24E
330
2
100
AcDbSymbolTableRecord
100
AcDbLayerTableRecord
  2
DEFPOINTS
 70
     0
 62
     7
  6
CONTINUOUS
  0
LAYER
  5
252
330
2
100
AcDbSymbolTableRecord
100
AcDbLayerTableRecord
  2
ADP3DETAIL
 70
     0
 62
     1
  6
CONTINUOUS
  0
LAYER
  5
255
330
2
100
AcDbSymbolTableRecord
100
AcDbLayerTableRecord
  2
ADPDIM
 70
     0
 62
     3
  6
CONTINUOUS
  0
ENDTAB
  0
TABLE
  2
STYLE
  5
3
330
0
100
AcDbSymbolTable
 70
     2
  0
STYLE
  5
11
330
3
100
AcDbSymbolTableRecord
100
AcDbTextStyleTableRecord
  2
STANDARD
 70
     0
 40
0.0
 41
1.0
 50
0.0
 71
     0
 42
0.2
  3
txt
  4

  0
STYLE
  5
2A7
330
3
100
AcDbSymbolTableRecord
100
AcDbTextStyleTableRecord
  2
ARIAL_WIDE
 70
     0
 40
0.0
 41
1.25
 50
0.0
 71
     0
 42
0.2
  3
ARIAL.TTF
  4

1001
ACAD
1000
Arial
1071
       34
  0
ENDTAB
  0
TABLE
  2
VIEW
  5
6
330
0
100
AcDbSymbolTable
 70
     0
  0
ENDTAB
  0
TABLE
  2
UCS
  5
7
330
0
100
AcDbSymbolTable
 70
     0
  0
ENDTAB
  0
TABLE
  2
APPID
  5
9
330
0
100
AcDbSymbolTable
 70
     1
  0
APPID
  5
12
330
9
100
AcDbSymbolTableRecord
100
AcDbRegAppTableRecord
  2
ACAD
 70
     0
  0
ENDTAB
  0
TABLE
  2
DIMSTYLE
  5
A
330
0
100
AcDbSymbolTable
 70
     1
  0
DIMSTYLE
105
2A5
330
A
100
AcDbSymbolTableRecord
100
AcDbDimStyleTableRecord
  2
STANDARD
 70
     0
  3

  4

  5

  6

  7

 40
1.0
 41
0.18
 42
0.0625
 43
0.38
 44
0.18
 45
0.0
 46
0.0
 47
0.0
 48
0.0
140
0.18
141
0.09
142
0.0
143
25.4
144
1.0
145
0.0
146
1.0
147
0.09
 71
     0
 72
     0
 73
     1
 74
     1
 75
     0
 76
     0
 77
     0
 78
     0
170
     0
171
     2
172
     0
173
     0
174
     0
175
     0
176
     0
177
     0
178
     0
270
     2
271
     4
272
     4
273
     2
274
     2
340
11
275
     0
280
     0
281
     0
282
     0
283
     1
284
     0
285
     0
286
     0
287
     3
288
     0
  0
ENDTAB
  0
TABLE
  2
BLOCK_RECORD
  5
1
330
0
100
AcDbSymbolTable
 70
     5
  0
BLOCK_RECORD
  5
1E
102
{ACAD_XDICTIONARY
360
2E4
102
}
330
1
100
AcDbSymbolTableRecord
100
AcDbBlockTableRecord
  2
*MODEL_SPACE
  0
BLOCK_RECORD
  5
1A
102
{ACAD_XDICTIONARY
360
2E6
102
}
330
1
100
AcDbSymbolTableRecord
100
AcDbBlockTableRecord
  2
*PAPER_SPACE
  0
BLOCK_RECORD
  5
245
330
1
100
AcDbSymbolTableRecord
100
AcDbBlockTableRecord
  2
*D0
  0
BLOCK_RECORD
  5
246
330
1
100
AcDbSymbolTableRecord
100
AcDbBlockTableRecord
  2
*D1
  0
BLOCK_RECORD
  5
247
330
1
100
AcDbSymbolTableRecord
100
AcDbBlockTableRecord
  2
*D2
  0
BLOCK_RECORD
  5
249
330
1
100
AcDbSymbolTableRecord
100
AcDbBlockTableRecord
  2
*D3
  0
BLOCK_RECORD
  5
24A
330
1
100
AcDbSymbolTableRecord
100
AcDbBlockTableRecord
  2
*D4
  0
ENDTAB
  0
ENDSEC
  0
SECTION
  2
BLOCKS
  0
BLOCK
  5
258
330
1E
100
AcDbEntity
  8
0
100
AcDbBlockBegin
  2
*MODEL_SPACE
 70
     0
 10
0.0
 20
0.0
 30
0.0
  3
*MODEL_SPACE
  1

  0
ENDBLK
  5
259
330
1E
100
AcDbEntity
  8
0
100
AcDbBlockEnd
  0
BLOCK
  5
256
330
1A
100
AcDbEntity
 67
     1
  8
0
100
AcDbBlockBegin
  2
*PAPER_SPACE
 70
     0
 10
0.0
 20
0.0
 30
0.0
  3
*PAPER_SPACE
  1

  0
ENDBLK
  5
257
330
1A
100
AcDbEntity
 67
     1
  8
0
100
AcDbBlockEnd
  0
BLOCK
  5
25B
330
245
100
AcDbEntity
  8
0
100
AcDbBlockBegin
  2
*D0
 70
     1
 10
0.0
 20
0.0
 30
0.0
  3
*D0
  1

  0
LINE
  5
25C
330
245
100
AcDbEntity
  8
0
  6
BYBLOCK
 62
     0
100
AcDbLine
 10
-15.4244675161683
 20
37.46745991962178
 30
0.0
 11
-15.4244675161683
 21
37.8745363040549
 31
0.0
  0
LINE
  5
25D
330
245
100
AcDbEntity
  8
0
  6
BYBLOCK
 62
     0
100
AcDbLine
 10
-20.42360279520144
 20
33.51564158815033
 30
0.0
 11
-20.42360279520144
 21
37.8745363040549
 31
0.0
  0
LINE
  5
25E
330
245
100
AcDbEntity
  8
0
  6
BYBLOCK
 62
     0
100
AcDbLine
 10
-15.4244675161683
 20
37.6945363040549
 30
0.0
 11
-17.75736848901821
 21
37.6945363040549
 31
0.0
  0
LINE
  5
25F
330
245
100
AcDbEntity
  8
0
  6
BYBLOCK
 62
     0
100
AcDbLine
 10
-20.42360279520144
 20
37.6945363040549
 30
0.0
 11
-18.09070182235154
 21
37.6945363040549
 31
0.0
  0
LINE
  5
260
330
245
100
AcDbEntity
  8
0
  6
BYBLOCK
 62
     0
100
AcDbLine
 10
-15.5494675161683
 20
37.5695363040549
 30
0.0
 11
-15.2994675161683
 21
37.81953630405491
 31
0.0
  0
LINE
  5
261
330
245
100
AcDbEntity
  8
0
  6
BYBLOCK
 62
     0
100
AcDbLine
 10
-20.54860279520144
 20
37.5695363040549
 30
0.0
 11
-20.29860279520144
 21
37.81953630405491
 31
0.0
  0
TEXT
  5
262
330
245
100
AcDbEntity
  8
0
  6
BYBLOCK
 62
     0
100
AcDbText
 10
-17.96570182235154
 20
37.6320363040549
 30
0.0
 40
0.125
  1
5
 72
     1
 11
-17.92403515568487
 21
37.6945363040549
 31
0.0
100
AcDbText
 73
     2
  0
POINT
  5
264
330
245
100
AcDbEntity
  8
DEFPOINTS
  6
BYBLOCK
 62
     0
100
AcDbPoint
 10
-15.4244675161683
 20
37.40495991962179
 30
0.0
  0
POINT
  5
265
330
245
100
AcDbEntity
  8
DEFPOINTS
  6
BYBLOCK
 62
     0
100
AcDbPoint
 10
-20.42360279520144
 20
33.45314158815033
 30
0.0
  0
POINT
  5
266
330
245
100
AcDbEntity
  8
DEFPOINTS
  6
BYBLOCK
 62
     0
100
AcDbPoint
 10
-20.42360279520144
 20
37.6945363040549
 30
0.0
  0
ENDBLK
  5
267
330
245
100
AcDbEntity
  8
0
100
AcDbBlockEnd
  0
BLOCK
  5
268
330
246
100
AcDbEntity
  8
0
100
AcDbBlockBegin
  2
*D1
 70
     1
 10
0.0
 20
0.0
 30
0.0
  3
*D1
  1

  0
LINE
  5
269
330
246
100
AcDbEntity
  8
0
  6
BYBLOCK
 62
     0
100
AcDbLine
 10
-17.48616622424597
 20
36.45314158747979
 30
0.0
 11
-22.08902798744923
 21
36.45314158747979
 31
0.0
  0
LINE
  5
26A
330
246
100
AcDbEntity
  8
0
  6
BYBLOCK
 62
     0
100
AcDbLine
 10
-21.43610279520144
 20
31.45314158815033
 30
0.0
 11
-22.08902798744923
 21
31.45314158815033
 31
0.0
  0
LINE
  5
26B
330
246
100
AcDbEntity
  8
0
  6
BYBLOCK
 62
     0
100
AcDbLine
 10
-21.90902798744923
 20
36.45314158747979
 30
0.0
 11
-21.90902798744923
 21
34.11980825448172
 31
0.0
  0
LINE
  5
26C
330
246
100
AcDbEntity
  8
0
  6
BYBLOCK
 62
     0
100
AcDbLine
 10
-21.90902798744923
 20
31.45314158815033
 30
0.0
 11
-21.90902798744923
 21
33.78647492114839
 31
0.0
  0
LINE
  5
26D
330
246
100
AcDbEntity
  8
0
  6
BYBLOCK
 62
     0
100
AcDbLine
 10
-21.78402798744923
 20
36.32814158747979
 30
0.0
 11
-22.03402798744923
 21
36.57814158747979
 31
0.0
  0
LINE
  5
26E
330
246
100
AcDbEntity
  8
0
  6
BYBLOCK
 62
     0
100
AcDbLine
 10
-21.78402798744923
 20
31.32814158815033
 30
0.0
 11
-22.03402798744923
 21
31.57814158815033
 31
0.0
  0
TEXT
  5
26F
330
246
100
AcDbEntity
  8
0
  6
BYBLOCK
 62
     0
100
AcDbText
 10
-21.84652798744923
 20
33.91147492114839
 30
0.0
 40
0.125
  1
5
 50
90.0
 72
     1
 11
-21.90902798744923
 21
33.95314158781506
 31
0.0
100
AcDbText
 73
     2
  0
POINT
  5
270
330
246
100
AcDbEntity
  8
DEFPOINTS
  6
BYBLOCK
 62
     0
100
AcDbPoint
 10
-17.42366622424597
 20
36.45314158747979
 30
0.0
  0
POINT
  5
271
330
246
100
AcDbEntity
  8
DEFPOINTS
  6
BYBLOCK
 62
     0
100
AcDbPoint
 10
-21.37360279520144
 20
31.45314158815033
 30
0.0
  0
POINT
  5
272
330
246
100
AcDbEntity
  8
DEFPOINTS
  6
BYBLOCK
 62
     0
100
AcDbPoint
 10
-21.90902798744923
 20
31.45314158815033
 30
0.0
  0
ENDBLK
  5
273
330
246
100
AcDbEntity
  8
0
100
AcDbBlockEnd
  0
BLOCK
  5
274
330
247
100
AcDbEntity
  8
0
100
AcDbBlockBegin
  2
*D2
 70
     1
 10
0.0
 20
0.0
 30
0.0
  3
*D2
  1

  0
LINE
  5
275
330
247
100
AcDbEntity
  8
0
  6
BYBLOCK
 62
     0
100
AcDbLine
 10
-19.60491442483072
 20
35.51272396679996
 30
0.0
 11
-17.42776573087337
 21
33.45707220899189
 31
0.0
  0
LINE
  5
276
330
247
100
AcDbEntity
  8
0
  6
BYBLOCK
 62
     0
100
AcDbLine
 10
-19.78161834184234
 20
35.50765191467581
 30
0.0
 11
-19.42821050781909
 21
35.51779601892411
 31
0.0
  0
TEXT
  5
277
330
247
100
AcDbEntity
  8
0
  6
BYBLOCK
 62
     0
100
AcDbText
 10
-17.37978571252735
 20
33.32581228426421
 30
0.0
 40
0.125
  1
R3
 50
316.644148098166
 72
     1
 11
-17.26113775916558
 21
33.29974299951171
 31
0.0
100
AcDbText
 73
     2
  0
POINT
  5
278
330
247
100
AcDbEntity
  8
DEFPOINTS
  6
BYBLOCK
 62
     0
100
AcDbPoint
 10
-19.60491442483072
 20
35.51272396679996
 30
0.0
  0
POINT
  5
279
330
247
100
AcDbEntity
  8
DEFPOINTS
  6
BYBLOCK
 62
     0
100
AcDbPoint
 10
-17.42360279520145
 20
33.45314158815033
 30
0.0
  0
ENDBLK
  5
27A
330
247
100
AcDbEntity
  8
0
100
AcDbBlockEnd
  0
BLOCK
  5
27B
330
249
100
AcDbEntity
  8
0
100
AcDbBlockBegin
  2
*D3
 70
     1
 10
0.0
 20
0.0
 30
0.0
  3
*D3
  1

  0
LINE
  5
27C
330
249
100
AcDbEntity
  8
0
  6
BYBLOCK
 62
     0
100
AcDbLine
 10
-19.62740565832575
 20
29.55756642917556
 30
0.0
 11
-19.62740565832575
 21
29.42609846144335
 31
0.0
  0
LINE
  5
27D
330
249
100
AcDbEntity
  8
0
  6
BYBLOCK
 62
     0
100
AcDbLine
 10
-19.48240565832575
 20
29.55756642917556
 30
0.0
 11
-19.48240565832575
 21
29.42609846144335
 31
0.0
  0
LINE
  5
27E
330
249
100
AcDbEntity
  8
0
  6
BYBLOCK
 62
     0
100
AcDbLine
 10
-19.62740565832575
 20
29.60609846144336
 30
0.0
 11
-19.87740565832575
 21
29.60609846144336
 31
0.0
  0
LINE
  5
27F
330
249
100
AcDbEntity
  8
0
  6
BYBLOCK
 62
     0
100
AcDbLine
 10
-19.48240565832575
 20
29.60609846144336
 30
0.0
 11
-19.23240565832575
 21
29.60609846144336
 31
0.0
  0
LINE
  5
280
330
249
100
AcDbEntity
  8
0
  6
BYBLOCK
 62
     0
100
AcDbLine
 10
-19.75240565832575
 20
29.48109846144335
 30
0.0
 11
-19.50240565832575
 21
29.73109846144335
 31
0.0
  0
LINE
  5
281
330
249
100
AcDbEntity
  8
0
  6
BYBLOCK
 62
     0
100
AcDbLine
 10
-19.60740565832575
 20
29.48109846144335
 30
0.0
 11
-19.35740565832575
 21
29.73109846144335
 31
0.0
  0
TEXT
  5
282
330
249
100
AcDbEntity
  8
0
  6
BYBLOCK
 62
     0
100
AcDbText
 10
-19.10740565832575
 20
29.54359846144336
 30
0.0
 40
0.125
  1
0.145
 72
     1
 11
-18.88865565832575
 21
29.60609846144336
 31
0.0
100
AcDbText
 73
     2
  0
POINT
  5
283
330
249
100
AcDbEntity
  8
DEFPOINTS
  6
BYBLOCK
 62
     0
100
AcDbPoint
 10
-19.62740565832575
 20
29.62006642917556
 30
0.0
  0
POINT
  5
284
330
249
100
AcDbEntity
  8
DEFPOINTS
  6
BYBLOCK
 62
     0
100
AcDbPoint
 10
-19.48240565832575
 20
29.62006642917556
 30
0.0
  0
POINT
  5
285
330
249
100
AcDbEntity
  8
DEFPOINTS
  6
BYBLOCK
 62
     0
100
AcDbPoint
 10
-19.48240565832575
 20
29.60609846144336
 30
0.0
  0
ENDBLK
  5
286
330
249
100
AcDbEntity
  8
0
100
AcDbBlockEnd
  0
BLOCK
  5
287
330
24A
100
AcDbEntity
  8
0
100
AcDbBlockBegin
  2
*D4
 70
     1
 10
0.0
 20
0.0
 30
0.0
  3
*D4
  1

  0
LINE
  5
288
330
24A
100
AcDbEntity
  8
0
  6
BYBLOCK
 62
     0
100
AcDbLine
 10
-21.37360279520144
 20
31.39064158815033
 30
0.0
 11
-21.37360279520144
 21
30.62890498176414
 31
0.0
  0
LINE
  5
289
330
24A
100
AcDbEntity
  8
0
  6
BYBLOCK
 62
     0
100
AcDbLine
 10
-19.47360279520144
 20
31.39064158815033
 30
0.0
 11
-19.47360279520144
 21
30.62890498176414
 31
0.0
  0
LINE
  5
28A
330
24A
100
AcDbEntity
  8
0
  6
BYBLOCK
 62
     0
100
AcDbLine
 10
-21.37360279520144
 20
30.80890498176414
 30
0.0
 11
-20.75693612853477
 21
30.80890498176414
 31
0.0
  0
LINE
  5
28B
330
24A
100
AcDbEntity
  8
0
  6
BYBLOCK
 62
     0
100
AcDbLine
 10
-19.47360279520144
 20
30.80890498176414
 30
0.0
 11
-20.09026946186811
 21
30.80890498176414
 31
0.0
  0
LINE
  5
28C
330
24A
100
AcDbEntity
  8
0
  6
BYBLOCK
 62
     0
100
AcDbLine
 10
-21.49860279520144
 20
30.68390498176414
 30
0.0
 11
-21.24860279520144
 21
30.93390498176414
 31
0.0
  0
LINE
  5
28D
330
24A
100
AcDbEntity
  8
0
  6
BYBLOCK
 62
     0
100
AcDbLine
 10
-19.59860279520144
 20
30.68390498176414
 30
0.0
 11
-19.34860279520144
 21
30.93390498176414
 31
0.0
  0
TEXT
  5
28E
330
24A
100
AcDbEntity
  8
0
  6
BYBLOCK
 62
     0
100
AcDbText
 10
-20.63193612853477
 20
30.74640498176414
 30
0.0
 40
0.125
  1
1.900
 72
     1
 11
-20.42360279520144
 21
30.80890498176414
 31
0.0
100
AcDbText
 73
     2
  0
POINT
  5
28F
330
24A
100
AcDbEntity
  8
DEFPOINTS
  6
BYBLOCK
 62
     0
100
AcDbPoint
 10
-21.37360279520144
 20
31.45314158815033
 30
0.0
  0
POINT
  5
290
330
24A
100
AcDbEntity
  8
DEFPOINTS
  6
BYBLOCK
 62
     0
100
AcDbPoint
 10
-19.47360279520144
 20
31.45314158815033
 30
0.0
  0
POINT
  5
291
330
24A
100
AcDbEntity
  8
DEFPOINTS
  6
BYBLOCK
 62
     0
100
AcDbPoint
 10
-19.47360279520144
 20
30.80890498176414
 30
0.0
  0
ENDBLK
  5
292
330
24A
100
AcDbEntity
  8
0
100
AcDbBlockEnd
  0
ENDSEC
  0
SECTION
  2
ENTITIES
  0
LINE
  5
293
330
1E
100
AcDbEntity
  8
ADP1DETAIL
100
AcDbLine
 10
-15.4244675161683
 20
37.40495991962179
 30
0.0
 11
-15.4227397281139
 21
35.50496070521446
 31
0.0
  0
DIMENSION
  5
294
330
1E
100
AcDbEntity
  8
ADPDIM
100
AcDbDimension
  2
*D1
 10
-21.90902798744923
 20
31.45314158815033
 30
0.0
 11
-21.90902798744923
 21
33.95314158781506
 31
0.0
100
AcDbAlignedDimension
 13
-17.42366622424597
 23
36.45314158747979
 33
0.0
 14
-21.37360279520144
 24
31.45314158815033
 34
0.0
 50
90.0
100
AcDbRotatedDimension
  0
ARC
  5
295
330
1E
100
AcDbEntity
  8
ADP3DETAIL
  6
CENTER2
100
AcDbCircle
 10
-17.42360279520144
 20
33.45314158815033
 30
0.0
 40
3.0
100
AcDbArc
 50
90.00121140551682
 51
180.0
  0
ARC
  5
296
330
1E
100
AcDbEntity
  8
ADP1DETAIL
100
AcDbCircle
 10
-17.42360279520144
 20
33.45314158815033
 30
0.0
 40
3.95
100
AcDbArc
 50
90.00594614939746
 51
180.0
  0
DIMENSION
  5
297
330
1E
100
AcDbEntity
  8
ADPDIM
100
AcDbDimension
  2
*D0
 10
-20.42360279520144
 20
37.6945363040549
 30
0.0
 11
-17.92403515568487
 21
37.6945363040549
 31
0.0
100
AcDbAlignedDimension
 13
-15.4244675161683
 23
37.40495991962179
 33
0.0
 14
-20.42360279520144
 24
33.45314158815033
 34
0.0
100
AcDbRotatedDimension
  0
DIMENSION
  5
298
330
1E
100
AcDbEntity
  8
ADPDIM
100
AcDbDimension
  2
*D2
 10
-17.42360279520145
 20
33.45314158815033
 30
0.0
 11
-17.26113775916558
 21
33.29974299951171
 31
0.0
 70
     4
100
AcDbRadialDimension
 15
-19.60491442483072
 25
35.51272396679996
 35
0.0
 40
-2.994274634194338
  0
LINE
  5
299
330
1E
100
AcDbEntity
  8
ADP1DETAIL
100
AcDbLine
 10
-15.4227397281139
 20
35.50496070521446
 30
0.0
 11
-17.42273890117424
 21
35.50314198094667
 31
0.0
  0
LINE
  5
29A
330
1E
100
AcDbEntity
  8
ADP1DETAIL
100
AcDbLine
 10
-19.47360279520144
 20
33.45314158815033
 30
0.0
 11
-19.47360279520144
 21
31.45314158815033
 31
0.0
  0
LINE
  5
29B
330
1E
100
AcDbEntity
  8
ADP3DETAIL
  6
CENTER2
100
AcDbLine
 10
-20.42360279520144
 20
31.02225674708397
 30
0.0
 11
-20.42360279520144
 21
33.45314158815033
 31
0.0
  0
LINE
  5
29C
330
1E
100
AcDbEntity
  8
ADP1DETAIL
100
AcDbLine
 10
-21.37360279520144
 20
31.45314158815033
 30
0.0
 11
-21.37360279520144
 21
33.45314158815033
 31
0.0
  0
DIMENSION
  5
29D
330
1E
100
AcDbEntity
  8
ADPDIM
100
AcDbDimension
  2
*D4
 10
-19.47360279520144
 20
30.80890498176414
 30
0.0
 11
-20.42360279520144
 21
30.80890498176414
 31
0.0
  1
1.900
100
AcDbAlignedDimension
 13
-21.37360279520144
 23
31.45314158815033
 33
0.0
 14
-19.47360279520144
 24
31.45314158815033
 34
0.0
100
AcDbRotatedDimension
  0
LINE
  5
29E
330
1E
100
AcDbEntity
  8
ADP1DETAIL
100
AcDbLine
 10
-19.47360279520144
 20
31.45314158815033
 30
0.0
 11
-21.37360279520144
 21
31.45314158815033
 31
0.0
  0
CIRCLE
  5
29F
330
1E
100
AcDbEntity
  8
ADP1DETAIL
100
AcDbCircle
 10
-20.42360279520144
 20
29.62006642917556
 30
0.0
 40
0.805
  0
CIRCLE
  5
2A0
330
1E
100
AcDbEntity
  8
ADP1DETAIL
100
AcDbCircle
 10
-20.42360279520144
 20
29.62006642917556
 30
0.0
 40
0.95
  0
DIMENSION
  5
2A1
330
1E
100
AcDbEntity
  8
ADPDIM
100
AcDbDimension
  2
*D3
 10
-19.48240565832575
 20
29.60609846144336
 30
0.0
 11
-18.88865565832575
 21
29.60609846144336
 31
0.0
  1
0.145
100
AcDbAlignedDimension
 13
-19.62740565832575
 23
29.62006642917556
 33
0.0
 14
-19.48240565832575
 24
29.62006642917556
 34
0.0
100
AcDbRotatedDimension
  0
ARC
  5
2A2
330
1E
100
AcDbEntity
  8
ADP1DETAIL
100
AcDbCircle
 10
-17.42360279520144
 20
33.45314158815033
 30
0.0
 40
2.05
100
AcDbArc
 50
89.99208836202253
 51
180.0
  0
LINE
  5
2A3
330
1E
100
AcDbEntity
  8
ADP3DETAIL
  6
CENTER2
100
AcDbLine
 10
-17.42446668922864
 20
36.45314158747979
 30
0.0
 11
-14.84577719493428
 21
36.45496031174758
 31
0.0
  0
LINE
  5
2A4
330
1E
100
AcDbEntity
  8
ADP1DETAIL
100
AcDbLine
 10
-17.42446668922864
 20
37.40314119535399
 30
0.0
 11
-15.4244675161683
 21
37.40495991962179
 31
0.0
  0
TEXT
  5
2A8
330
1E
100
AcDbEntity
  8
ADPDIM
100
AcDbText
 10
-28.37968552575452
 20
28.03130918868898
 30
0.0
 40
0.1875
  1
J U L I U S  B L U M  &  C O . ,  I N C .      ( 8 0 0 )  5 2 6 - 6 2 9 3        W W W . J U L I U S B L U M . C O M        P A R T  N o .  8 8 1 0
 41
1.25
  7
ARIAL_WIDE
 72
     1
 11
-18.5910919889196
 21
28.21880918868897
 31
0.0
100
AcDbText
 73
     3
  0
ENDSEC
  0
SECTION
  2
OBJECTS
  0
DICTIONARY
  5
C
330
0
100
AcDbDictionary
  3
ACAD_GROUP
350
D
  3
ACAD_LAYOUT
350
19
  3
ACAD_MLINESTYLE
350
16
  3
ACAD_PLOTSETTINGS
350
18
  3
ACAD_PLOTSTYLENAME
350
E
  3
ACDBHEADERROUNDTRIPXREC
350
43B
  3
ACDBVARIABLEDICTIONARY
350
319
  0
DICTIONARY
  5
2E4
330
1E
100
AcDbDictionary
280
     1
  3
ACAD_LAYOUTSELFREF
360
45D
  0
DICTIONARY
  5
2E6
330
1A
100
AcDbDictionary
280
     1
  3
ACAD_LAYOUTSELFREF
360
45C
  0
DICTIONARY
  5
D
102
{ACAD_REACTORS
330
C
102
}
330
C
100
AcDbDictionary
  0
DICTIONARY
  5
19
102
{ACAD_REACTORS
330
C
102
}
330
C
100
AcDbDictionary
  0
DICTIONARY
  5
16
102
{ACAD_REACTORS
330
C
102
}
330
C
100
AcDbDictionary
  3
STANDARD
350
17
  0
DICTIONARY
  5
18
102
{ACAD_REACTORS
330
C
102
}
330
C
100
AcDbDictionary
  0
ACDBDICTIONARYWDFLT
  5
E
102
{ACAD_REACTORS
330
C
102
}
330
C
100
AcDbDictionary
281
     1
  3
Normal
350
F
100
AcDbDictionaryWithDefault
340
F
  0
DICTIONARY
  5
43B
102
{ACAD_REACTORS
330
C
102
}
330
C
100
AcDbDictionary
  3
CEPSNTYPE
350
445
  3
DIMSTYLEDATA
350
449
  3
FINGERPRINTGUID
350
446
  3
HYPERLINKBASE
350
43E
  3
INSUNITS
350
444
  3
LAYOUTDICT
350
440
  3
LWETCUNION
350
443
  3
PLOTSETDICT
350
441
  3
PLOTSTYLNAMDICT
350
442
  3
PSVPSCALE
350
448
  3
PUCSBASE
350
44C
  3
PUCSORGBACK
350
452
  3
PUCSORGBOTTOM
350
44E
  3
PUCSORGFRONT
350
451
  3
PUCSORGLEFT
350
44F
  3
PUCSORGRIGHT
350
450
  3
PUCSORGTOP
350
44D
  3
PUCSORTHOREF
350
44A
  3
PUCSORTHOVIEW
350
44B
  3
STYLESHEET
350
43F
  3
TSTACKALIGN
350
43C
  3
TSTACKSIZE
350
43D
  3
UCSBASE
350
455
  3
UCSORGBACK
350
45B
  3
UCSORGBOTTOM
350
457
  3
UCSORGFRONT
350
45A
  3
UCSORGLEFT
350
458
  3
UCSORGRIGHT
350
459
  3
UCSORGTOP
350
456
  3
UCSORTHOREF
350
453
  3
UCSORTHOVIEW
350
454
  3
VERSIONGUID
350
447
  0
DICTIONARY
  5
319
102
{ACAD_REACTORS
330
C
102
}
330
C
100
AcDbDictionary
  3
DIMASSOC
350
31B
  3
HIDETEXT
350
31A
  0
XRECORD
  5
45D
102
{ACAD_REACTORS
330
2E4
102
}
330
2E4
100
AcDbXrecord
340
1E
  0
XRECORD
  5
45C
102
{ACAD_REACTORS
330
2E6
102
}
330
2E6
100
AcDbXrecord
340
1A
  0
MLINESTYLE
  5
17
102
{ACAD_REACTORS
330
16
102
}
330
16
100
AcDbMlineStyle
  2
STANDARD
 70
     0
  3

 62
   256
 51
90.0
 52
90.0
 71
     2
 49
0.5
 62
   256
  6
BYLAYER
 49
-0.5
 62
   256
  6
BYLAYER
  0
ACDBPLACEHOLDER
  5
F
102
{ACAD_REACTORS
330
E
102
}
330
E
100
AcDbPlaceHolder
280
     0
  0
XRECORD
  5
445
102
{ACAD_REACTORS
330
43B
102
}
330
43B
100
AcDbXrecord
 90
        0
  0
XRECORD
  5
449
102
{ACAD_REACTORS
330
43B
102
}
330
43B
100
AcDbXrecord
1000
DSTYLE
1002
{
1070
   277
 70
     5
1070
   279
 70
     2
1002
}
  0
XRECORD
  5
446
102
{ACAD_REACTORS
330
43B
102
}
330
43B
100
AcDbXrecord
  1
{051F98C6-7279-4F23-BFB0-55D4183D6B4B}
  0
XRECORD
  5
43E
102
{ACAD_REACTORS
330
43B
102
}
330
43B
100
AcDbXrecord
  1

  0
XRECORD
  5
444
102
{ACAD_REACTORS
330
43B
102
}
330
43B
100
AcDbXrecord
 90
        0
  0
XRECORD
  5
440
102
{ACAD_REACTORS
330
43B
102
}
330
43B
100
AcDbXrecord
340
19
  0
XRECORD
  5
443
102
{ACAD_REACTORS
330
43B
102
}
330
43B
100
AcDbXrecord
 90
    14877
  0
XRECORD
  5
441
102
{ACAD_REACTORS
330
43B
102
}
330
43B
100
AcDbXrecord
340
18
  0
XRECORD
  5
442
102
{ACAD_REACTORS
330
43B
102
}
330
43B
100
AcDbXrecord
340
E
  0
XRECORD
  5
448
102
{ACAD_REACTORS
330
43B
102
}
330
43B
100
AcDbXrecord
 40
0.0
  0
XRECORD
  5
44C
102
{ACAD_REACTORS
330
43B
102
}
330
43B
100
AcDbXrecord
340
0
  0
XRECORD
  5
452
102
{ACAD_REACTORS
330
43B
102
}
330
43B
100
AcDbXrecord
 10
0.0
 20
0.0
 30
0.0
  0
XRECORD
  5
44E
102
{ACAD_REACTORS
330
43B
102
}
330
43B
100
AcDbXrecord
 10
0.0
 20
0.0
 30
0.0
  0
XRECORD
  5
451
102
{ACAD_REACTORS
330
43B
102
}
330
43B
100
AcDbXrecord
 10
0.0
 20
0.0
 30
0.0
  0
XRECORD
  5
44F
102
{ACAD_REACTORS
330
43B
102
}
330
43B
100
AcDbXrecord
 10
0.0
 20
0.0
 30
0.0
  0
XRECORD
  5
450
102
{ACAD_REACTORS
330
43B
102
}
330
43B
100
AcDbXrecord
 10
0.0
 20
0.0
 30
0.0
  0
XRECORD
  5
44D
102
{ACAD_REACTORS
330
43B
102
}
330
43B
100
AcDbXrecord
 10
0.0
 20
0.0
 30
0.0
  0
XRECORD
  5
44A
102
{ACAD_REACTORS
330
43B
102
}
330
43B
100
AcDbXrecord
340
0
  0
XRECORD
  5
44B
102
{ACAD_REACTORS
330
43B
102
}
330
43B
100
AcDbXrecord
 70
     0
  0
XRECORD
  5
43F
102
{ACAD_REACTORS
330
43B
102
}
330
43B
100
AcDbXrecord
  1

  0
XRECORD
  5
43C
102
{ACAD_REACTORS
330
43B
102
}
330
43B
100
AcDbXrecord
 90
        1
  0
XRECORD
  5
43D
102
{ACAD_REACTORS
330
43B
102
}
330
43B
100
AcDbXrecord
 90
       70
  0
XRECORD
  5
455
102
{ACAD_REACTORS
330
43B
102
}
330
43B
100
AcDbXrecord
340
0
  0
XRECORD
  5
45B
102
{ACAD_REACTORS
330
43B
102
}
330
43B
100
AcDbXrecord
 10
0.0
 20
0.0
 30
0.0
  0
XRECORD
  5
457
102
{ACAD_REACTORS
330
43B
102
}
330
43B
100
AcDbXrecord
 10
0.0
 20
0.0
 30
0.0
  0
XRECORD
  5
45A
102
{ACAD_REACTORS
330
43B
102
}
330
43B
100
AcDbXrecord
 10
0.0
 20
0.0
 30
0.0
  0
XRECORD
  5
458
102
{ACAD_REACTORS
330
43B
102
}
330
43B
100
AcDbXrecord
 10
0.0
 20
0.0
 30
0.0
  0
XRECORD
  5
459
102
{ACAD_REACTORS
330
43B
102
}
330
43B
100
AcDbXrecord
 10
0.0
 20
0.0
 30
0.0
  0
XRECORD
  5
456
102
{ACAD_REACTORS
330
43B
102
}
330
43B
100
AcDbXrecord
 10
0.0
 20
0.0
 30
0.0
  0
XRECORD
  5
453
102
{ACAD_REACTORS
330
43B
102
}
330
43B
100
AcDbXrecord
340
0
  0
XRECORD
  5
454
102
{ACAD_REACTORS
330
43B
102
}
330
43B
100
AcDbXrecord
 70
     0
  0
XRECORD
  5
447
102
{ACAD_REACTORS
330
43B
102
}
330
43B
100
AcDbXrecord
  1
{D001972E-637A-4500-A582-53502B62AABE}
  0
DICTIONARYVAR
  5
31B
102
{ACAD_REACTORS
330
319
102
}
330
319
100
DictionaryVariables
280
     0
  1
2
  0
DICTIONARYVAR
  5
31A
102
{ACAD_REACTORS
330
319
102
}
330
319
100
DictionaryVariables
280
     0
  1
1
  0
ENDSEC
  0
EOF
