  0
SECTION
  2
HEADER
  9
$ACADVER
  1
AC1014
  9
$ACADMAINTVER
 70
     9
  9
$DWGCODEPAGE
  3
ANSI_1252
  9
$INSBASE
 10
-0.0625
 20
0.0
 30
0.0
  9
$EXTMIN
 10
-43.16795276261937
 20
-4.658247043964521
 30
0.0
  9
$EXTMAX
 10
46.91795276261937
 20
52.0
 30
0.0
  9
$LIMMIN
 10
0.0
 20
0.0
  9
$LIMMAX
 10
36.0
 20
36.0
  9
$ORTHOMODE
 70
     1
  9
$REGENMODE
 70
     1
  9
$FILLMODE
 70
     1
  9
$QTEXTMODE
 70
     0
  9
$MIRRTEXT
 70
     1
  9
$DRAGMODE
 70
     0
  9
$LTSCALE
 40
1.0
  9
$OSMODE
 70
    37
  9
$ATTMODE
 70
     1
  9
$TEXTSIZE
 40
0.2
  9
$TRACEWID
 40
0.05
  9
$TEXTSTYLE
  7
STANDARD
  9
$CLAYER
  8
ADP1DETAIL
  9
$CELTYPE
  6
BYLAYER
  9
$CECOLOR
 62
   256
  9
$CELTSCALE
 40
1.0
  9
$DELOBJ
 70
     1
  9
$DISPSILH
 70
     0
  9
$DIMSCALE
 40
1.0
  9
$DIMASZ
 40
0.18
  9
$DIMEXO
 40
0.0625
  9
$DIMDLI
 40
0.38
  9
$DIMRND
 40
0.0
  9
$DIMDLE
 40
0.0
  9
$DIMEXE
 40
0.18
  9
$DIMTP
 40
0.0
  9
$DIMTM
 40
0.0
  9
$DIMTXT
 40
0.18
  9
$DIMCEN
 40
0.09
  9
$DIMTSZ
 40
0.0
  9
$DIMTOL
 70
     0
  9
$DIMLIM
 70
     0
  9
$DIMTIH
 70
     1
  9
$DIMTOH
 70
     1
  9
$DIMSE1
 70
     0
  9
$DIMSE2
 70
     0
  9
$DIMTAD
 70
     0
  9
$DIMZIN
 70
     0
  9
$DIMBLK
  1

  9
$DIMASO
 70
     1
  9
$DIMSHO
 70
     1
  9
$DIMPOST
  1

  9
$DIMAPOST
  1

  9
$DIMALT
 70
     0
  9
$DIMALTD
 70
     2
  9
$DIMALTF
 40
25.4
  9
$DIMLFAC
 40
1.0
  9
$DIMTOFL
 70
     0
  9
$DIMTVP
 40
0.0
  9
$DIMTIX
 70
     0
  9
$DIMSOXD
 70
     0
  9
$DIMSAH
 70
     0
  9
$DIMBLK1
  1

  9
$DIMBLK2
  1

  9
$DIMSTYLE
  2
STANDARD
  9
$DIMCLRD
 70
     0
  9
$DIMCLRE
 70
     0
  9
$DIMCLRT
 70
     0
  9
$DIMTFAC
 40
1.0
  9
$DIMGAP
 40
0.09
  9
$DIMJUST
 70
     0
  9
$DIMSD1
 70
     0
  9
$DIMSD2
 70
     0
  9
$DIMTOLJ
 70
     1
  9
$DIMTZIN
 70
     0
  9
$DIMALTZ
 70
     0
  9
$DIMALTTZ
 70
     0
  9
$DIMFIT
 70
     3
  9
$DIMUPT
 70
     0
  9
$DIMUNIT
 70
     2
  9
$DIMDEC
 70
     4
  9
$DIMTDEC
 70
     4
  9
$DIMALTU
 70
     2
  9
$DIMALTTD
 70
     2
  9
$DIMTXSTY
  7
STANDARD
  9
$DIMAUNIT
 70
     0
  9
$LUNITS
 70
     5
  9
$LUPREC
 70
     4
  9
$SKETCHINC
 40
0.1
  9
$FILLETRAD
 40
0.124
  9
$AUNITS
 70
     0
  9
$AUPREC
 70
     0
  9
$MENU
  1
acad
  9
$ELEVATION
 40
0.0
  9
$PELEVATION
 40
0.0
  9
$THICKNESS
 40
0.0
  9
$LIMCHECK
 70
     0
  9
$BLIPMODE
 70
     0
  9
$CHAMFERA
 40
0.0
  9
$CHAMFERB
 40
0.0
  9
$CHAMFERC
 40
0.0
  9
$CHAMFERD
 40
0.0
  9
$SKPOLY
 70
     0
  9
$TDCREATE
 40
2450196.448116898
  9
$TDUPDATE
 40
2452297.077029803
  9
$TDINDWG
 40
0.0643117593
  9
$TDUSRTIMER
 40
0.0643117593
  9
$USRTIMER
 70
     1
  9
$ANGBASE
 50
0.0
  9
$ANGDIR
 70
     0
  9
$PDMODE
 70
     0
  9
$PDSIZE
 40
0.0
  9
$PLINEWID
 40
0.0
  9
$COORDS
 70
     2
  9
$SPLFRAME
 70
     0
  9
$SPLINETYPE
 70
     6
  9
$SPLINESEGS
 70
     8
  9
$ATTDIA
 70
     0
  9
$ATTREQ
 70
     1
  9
$HANDLING
 70
 22529
  9
$HANDSEED
  5
255
  9
$SURFTAB1
 70
     6
  9
$SURFTAB2
 70
     6
  9
$SURFTYPE
 70
     6
  9
$SURFU
 70
     6
  9
$SURFV
 70
     6
  9
$UCSNAME
  2

  9
$UCSORG
 10
0.0
 20
0.0
 30
0.0
  9
$UCSXDIR
 10
1.0
 20
0.0
 30
0.0
  9
$UCSYDIR
 10
0.0
 20
1.0
 30
0.0
  9
$PUCSNAME
  2

  9
$PUCSORG
 10
0.0
 20
0.0
 30
0.0
  9
$PUCSXDIR
 10
1.0
 20
0.0
 30
0.0
  9
$PUCSYDIR
 10
0.0
 20
1.0
 30
0.0
  9
$USERI1
 70
     0
  9
$USERI2
 70
     0
  9
$USERI3
 70
     0
  9
$USERI4
 70
     0
  9
$USERI5
 70
     0
  9
$USERR1
 40
0.0
  9
$USERR2
 40
0.0
  9
$USERR3
 40
0.0
  9
$USERR4
 40
0.0
  9
$USERR5
 40
0.0
  9
$WORLDVIEW
 70
     1
  9
$SHADEDGE
 70
     3
  9
$SHADEDIF
 70
    70
  9
$TILEMODE
 70
     1
  9
$MAXACTVP
 70
    15
  9
$PINSBASE
 10
0.7500138282775892
 20
5.866867092545926E+99
 30
0.0
  9
$PLIMCHECK
 70
     0
  9
$PEXTMIN
 10
1.000000000000000E+20
 20
1.000000000000000E+20
 30
1.000000000000000E+20
  9
$PEXTMAX
 10
-1.000000000000000E+20
 20
-1.000000000000000E+20
 30
-1.000000000000000E+20
  9
$PLIMMIN
 10
0.0
 20
0.0
  9
$PLIMMAX
 10
12.0
 20
9.0
  9
$UNITMODE
 70
     0
  9
$VISRETAIN
 70
     0
  9
$PLINEGEN
 70
     0
  9
$PSLTSCALE
 70
     1
  9
$TREEDEPTH
 70
  3020
  9
$PICKSTYLE
 70
     1
  9
$CMLSTYLE
  2
STANDARD
  9
$CMLJUST
 70
     0
  9
$CMLSCALE
 40
1.0
  9
$PROXYGRAPHICS
 70
     1
  9
$MEASUREMENT
 70
     0
  0
ENDSEC
  0
SECTION
  2
CLASSES
  0
CLASS
  1
ACDBDICTIONARYWDFLT
  2
AcDbDictionaryWithDefault
  3
AutoCAD 2000
 90
        0
280
     0
281
     0
  0
CLASS
  1
ACDBPLACEHOLDER
  2
AcDbPlaceHolder
  3
AutoCAD 2000
 90
        0
280
     0
281
     0
  0
CLASS
  1
LAYOUT
  2
AcDbLayout
  3
AutoCAD 2000
 90
        0
280
     0
281
     0
  0
CLASS
  1
DICTIONARYVAR
  2
AcDbDictionaryVar
  3
AutoCAD 2000
 90
        0
280
     0
281
     0
  0
CLASS
  1
LONG_TRANSACTION
  2
AcDbLongTransaction
  3
AutoCAD 2000
 90
        0
280
     0
281
     0
  0
CLASS
  1
LWPOLYLINE
  2
AcDbPolyline
  3
AutoCAD 2000
 90
        0
280
     0
281
     1
  0
CLASS
  1
HATCH
  2
AcDbHatch
  3
AutoCAD 2000
 90
        0
280
     0
281
     1
  0
CLASS
  1
XRECORD
  2
AcDbXrecord
  3
AutoCAD 2000
 90
        0
280
     0
281
     0
  0
CLASS
  1
LONG_TRANSACTION
  2
AcDbLongTransaction
  3
AutoCAD 2000
 90
        0
280
     0
281
     0
  0
CLASS
  1
LWPOLYLINE
  2
AcDbPolyline
  3
AutoCAD 2000
 90
        0
280
     0
281
     1
  0
CLASS
  1
HATCH
  2
AcDbHatch
  3
AutoCAD 2000
 90
        0
280
     0
281
     1
  0
CLASS
  1
XRECORD
  2
AcDbXrecord
  3
AutoCAD 2000
 90
        0
280
     0
281
     0
  0
CLASS
  1
LONG_TRANSACTION
  2
AcDbLongTransaction
  3
AutoCAD 2000
 90
        0
280
     0
281
     0
  0
CLASS
  1
LWPOLYLINE
  2
AcDbPolyline
  3
AutoCAD 2000
 90
        0
280
     0
281
     1
  0
CLASS
  1
HATCH
  2
AcDbHatch
  3
AutoCAD 2000
 90
        0
280
     0
281
     1
  0
CLASS
  1
XRECORD
  2
AcDbXrecord
  3
AutoCAD 2000
 90
        0
280
     0
281
     0
  0
CLASS
  1
LONG_TRANSACTION
  2
AcDbLongTransaction
  3
AutoCAD 2000
 90
        0
280
     0
281
     0
  0
CLASS
  1
LWPOLYLINE
  2
AcDbPolyline
  3
AutoCAD 2000
 90
        0
280
     0
281
     1
  0
CLASS
  1
HATCH
  2
AcDbHatch
  3
AutoCAD 2000
 90
        0
280
     0
281
     1
  0
CLASS
  1
XRECORD
  2
AcDbXrecord
  3
AutoCAD 2000
 90
        0
280
     0
281
     0
  0
CLASS
  1
LONG_TRANSACTION
  2
AcDbLongTransaction
  3
AutoCAD 2000
 90
        0
280
     0
281
     0
  0
CLASS
  1
LWPOLYLINE
  2
AcDbPolyline
  3
AutoCAD 2000
 90
        0
280
     0
281
     1
  0
CLASS
  1
HATCH
  2
AcDbHatch
  3
AutoCAD 2000
 90
        0
280
     0
281
     1
  0
CLASS
  1
XRECORD
  2
AcDbXrecord
  3
AutoCAD 2000
 90
        0
280
     0
281
     0
  0
CLASS
  1
LONG_TRANSACTION
  2
AcDbLongTransaction
  3
AutoCAD 2000
 90
        0
280
     0
281
     0
  0
CLASS
  1
LWPOLYLINE
  2
AcDbPolyline
  3
AutoCAD 2000
 90
        0
280
     0
281
     1
  0
CLASS
  1
HATCH
  2
AcDbHatch
  3
AutoCAD 2000
 90
        0
280
     0
281
     1
  0
CLASS
  1
XRECORD
  2
AcDbXrecord
  3
AutoCAD 2000
 90
        0
280
     0
281
     0
  0
ENDSEC
  0
SECTION
  2
TABLES
  0
TABLE
  2
VPORT
  5
8
330
0
100
AcDbSymbolTable
 70
     2
  0
VPORT
  5
232
330
8
100
AcDbSymbolTableRecord
100
AcDbViewportTableRecord
  2
*ACTIVE
 70
     0
 10
0.0
 20
0.0
 11
1.0
 21
1.0
 12
1.947711079820329
 22
23.67128588905477
 13
0.0
 23
0.0
 14
0.5740882589684922
 24
0.5740882589684922
 15
0.5
 25
0.5
 16
0.0
 26
0.0
 36
1.0
 17
0.0
 27
0.0
 37
0.0
 40
57.73243083776363
 41
1.570528967254408
 42
50.0
 43
0.0
 44
0.0
 50
0.0
 51
0.0
 71
     0
 72
   100
 73
     1
 74
     1
 75
     0
 76
     0
 77
     0
 78
     0
  0
ENDTAB
  0
TABLE
  2
LTYPE
  5
5
330
0
100
AcDbSymbolTable
 70
     1
  0
LTYPE
  5
12
330
5
100
AcDbSymbolTableRecord
100
AcDbLinetypeTableRecord
  2
BYBLOCK
 70
     0
  3

 72
    65
 73
     0
 40
0.0
  0
LTYPE
  5
13
330
5
100
AcDbSymbolTableRecord
100
AcDbLinetypeTableRecord
  2
BYLAYER
 70
     0
  3

 72
    65
 73
     0
 40
0.0
  0
LTYPE
  5
14
330
5
100
AcDbSymbolTableRecord
100
AcDbLinetypeTableRecord
  2
CONTINUOUS
 70
     0
  3
Solid line
 72
    65
 73
     0
 40
0.0
  0
ENDTAB
  0
TABLE
  2
LAYER
  5
2
330
0
100
AcDbSymbolTable
 70
     4
  0
LAYER
  5
F
330
2
100
AcDbSymbolTableRecord
100
AcDbLayerTableRecord
  2
0
 70
     0
 62
     7
  6
CONTINUOUS
  0
LAYER
  5
23
330
2
100
AcDbSymbolTableRecord
100
AcDbLayerTableRecord
  2
DEFPOINTS
 70
     0
 62
     7
  6
CONTINUOUS
  0
LAYER
  5
24
330
2
100
AcDbSymbolTableRecord
100
AcDbLayerTableRecord
  2
ADP1DETAIL
 70
     0
 62
     7
  6
CONTINUOUS
  0
LAYER
  5
27
330
2
100
AcDbSymbolTableRecord
100
AcDbLayerTableRecord
  2
ADPDIM
 70
     0
 62
     3
  6
CONTINUOUS
  0
ENDTAB
  0
TABLE
  2
STYLE
  5
3
330
0
100
AcDbSymbolTable
 70
     2
  0
STYLE
  5
10
330
3
100
AcDbSymbolTableRecord
100
AcDbTextStyleTableRecord
  2
STANDARD
 70
     0
 40
0.0
 41
1.0
 50
0.0
 71
     0
 42
0.2
  3
txt
  4

  0
STYLE
  5
BF
330
3
100
AcDbSymbolTableRecord
100
AcDbTextStyleTableRecord
  2
ARIAL_WIDE
 70
     0
 40
0.0
 41
1.25
 50
0.0
 71
     0
 42
0.2
  3
ARIAL.TTF
  4

1001
ACAD
1000
Arial
1071
       34
  0
ENDTAB
  0
TABLE
  2
VIEW
  5
6
330
0
100
AcDbSymbolTable
 70
     0
  0
ENDTAB
  0
TABLE
  2
UCS
  5
7
330
0
100
AcDbSymbolTable
 70
     0
  0
ENDTAB
  0
TABLE
  2
APPID
  5
9
330
0
100
AcDbSymbolTable
 70
     1
  0
APPID
  5
11
330
9
100
AcDbSymbolTableRecord
100
AcDbRegAppTableRecord
  2
ACAD
 70
     0
  0
ENDTAB
  0
TABLE
  2
DIMSTYLE
  5
A
330
0
100
AcDbSymbolTable
 70
     1
  0
DIMSTYLE
105
B3
330
A
100
AcDbSymbolTableRecord
100
AcDbDimStyleTableRecord
  2
STANDARD
 70
     0
  3

  4

  5

  6

  7

 40
1.0
 41
0.18
 42
0.0625
 43
0.38
 44
0.18
 45
0.0
 46
0.0
 47
0.0
 48
0.0
140
0.18
141
0.09
142
0.0
143
25.4
144
1.0
145
0.0
146
1.0
147
0.09
 71
     0
 72
     0
 73
     1
 74
     1
 75
     0
 76
     0
 77
     0
 78
     0
170
     0
171
     2
172
     0
173
     0
174
     0
175
     0
176
     0
177
     0
178
     0
270
     2
271
     4
272
     4
273
     2
274
     2
340
10
275
     0
280
     0
281
     0
282
     0
283
     1
284
     0
285
     0
286
     0
287
     3
288
     0
  0
ENDTAB
  0
TABLE
  2
BLOCK_RECORD
  5
1
330
0
100
AcDbSymbolTable
 70
     4
  0
BLOCK_RECORD
  5
18
102
{ACAD_XDICTIONARY
360
114
102
}
330
1
100
AcDbSymbolTableRecord
100
AcDbBlockTableRecord
  2
*MODEL_SPACE
  0
BLOCK_RECORD
  5
15
102
{ACAD_XDICTIONARY
360
112
102
}
330
1
100
AcDbSymbolTableRecord
100
AcDbBlockTableRecord
  2
*PAPER_SPACE
  0
BLOCK_RECORD
  5
1C
330
1
100
AcDbSymbolTableRecord
100
AcDbBlockTableRecord
  2
*D0
  0
BLOCK_RECORD
  5
1D
330
1
100
AcDbSymbolTableRecord
100
AcDbBlockTableRecord
  2
*D1
  0
BLOCK_RECORD
  5
1E
330
1
100
AcDbSymbolTableRecord
100
AcDbBlockTableRecord
  2
*D2
  0
BLOCK_RECORD
  5
1F
330
1
100
AcDbSymbolTableRecord
100
AcDbBlockTableRecord
  2
*D3
  0
ENDTAB
  0
ENDSEC
  0
SECTION
  2
BLOCKS
  0
BLOCK
  5
2B
330
18
100
AcDbEntity
  8
0
100
AcDbBlockBegin
  2
*MODEL_SPACE
 70
     0
 10
0.0
 20
0.0
 30
0.0
  3
*MODEL_SPACE
  1

  0
ENDBLK
  5
2C
330
18
100
AcDbEntity
  8
0
100
AcDbBlockEnd
  0
BLOCK
  5
29
330
15
100
AcDbEntity
 67
     1
  8
0
100
AcDbBlockBegin
  2
*PAPER_SPACE
 70
     0
 10
0.0
 20
0.0
 30
0.0
  3
*PAPER_SPACE
  1

  0
ENDBLK
  5
2A
330
15
100
AcDbEntity
 67
     1
  8
0
100
AcDbBlockEnd
  0
BLOCK
  5
2D
330
1C
100
AcDbEntity
  8
0
100
AcDbBlockBegin
  2
*D0
 70
     1
 10
0.0
 20
0.0
 30
0.0
  3
*D0
  1

  0
LINE
  5
2E
330
1C
100
AcDbEntity
  8
0
  6
BYBLOCK
 62
     0
100
AcDbLine
 10
-0.0625
 20
52.0
 30
0.0
 11
-1.416593602789129
 21
52.0
 31
0.0
  0
LINE
  5
2F
330
1C
100
AcDbEntity
  8
0
  6
BYBLOCK
 62
     0
100
AcDbLine
 10
-0.0625
 20
0.0
 30
0.0
 11
-1.416593602789132
 21
0.0000000000000001
 31
0.0
  0
LINE
  5
30
330
1C
100
AcDbEntity
  8
0
  6
BYBLOCK
 62
     0
100
AcDbLine
 10
-1.236593602789129
 20
51.82
 30
0.0
 11
-1.23659360278913
 21
26.18
 31
0.0
  0
LINE
  5
31
330
1C
100
AcDbEntity
  8
0
  6
BYBLOCK
 62
     0
100
AcDbLine
 10
-1.236593602789132
 20
0.1800000000000001
 30
0.0
 11
-1.23659360278913
 21
25.82
 31
0.0
  0
SOLID
  5
32
330
1C
100
AcDbEntity
  8
0
  6
BYBLOCK
 62
     0
100
AcDbTrace
 10
-1.266593602789129
 20
51.82
 30
0.0
 11
-1.206593602789129
 21
51.82
 31
0.0
 12
-1.236593602789129
 22
52.0
 32
0.0
 13
-1.236593602789129
 23
52.0
 33
0.0
  0
SOLID
  5
33
330
1C
100
AcDbEntity
  8
0
  6
BYBLOCK
 62
     0
100
AcDbTrace
 10
-1.266593602789132
 20
0.1800000000000001
 30
0.0
 11
-1.206593602789132
 21
0.1800000000000001
 31
0.0
 12
-1.236593602789132
 22
0.0000000000000001
 32
0.0
 13
-1.236593602789132
 23
0.0000000000000001
 33
0.0
  0
TEXT
  5
34
330
1C
100
AcDbEntity
  8
0
  6
BYBLOCK
 62
     0
100
AcDbText
 10
-1.38659360278913
 20
25.91
 30
0.0
 40
0.18
  1
52
 72
     1
 11
-1.23659360278913
 21
26.0
 31
0.0
100
AcDbText
 73
     2
  0
POINT
  5
35
330
1C
100
AcDbEntity
  8
DEFPOINTS
  6
BYBLOCK
 62
     0
100
AcDbPoint
 10
0.0
 20
52.0
 30
0.0
  0
POINT
  5
36
330
1C
100
AcDbEntity
  8
DEFPOINTS
  6
BYBLOCK
 62
     0
100
AcDbPoint
 10
0.0
 20
0.0
 30
0.0
  0
POINT
  5
37
330
1C
100
AcDbEntity
  8
DEFPOINTS
  6
BYBLOCK
 62
     0
100
AcDbPoint
 10
-1.236593602789132
 20
0.0000000000000001
 30
0.0
  0
ENDBLK
  5
38
330
1C
100
AcDbEntity
  8
0
100
AcDbBlockEnd
  0
BLOCK
  5
39
330
1D
100
AcDbEntity
  8
0
100
AcDbBlockBegin
  2
*D1
 70
     1
 10
0.0
 20
0.0
 30
0.0
  3
*D1
  1

  0
LINE
  5
3A
330
1D
100
AcDbEntity
  8
0
  6
BYBLOCK
 62
     0
100
AcDbLine
 10
2.5625
 20
-0.7068159242071684
 30
0.0
 11
4.517278130790485
 21
-0.7068159242071685
 31
0.0
  0
LINE
  5
3B
330
1D
100
AcDbEntity
  8
0
  6
BYBLOCK
 62
     0
100
AcDbLine
 10
2.562499999999999
 20
-2.581815924207168
 30
0.0
 11
4.517278130790485
 21
-2.581815924207168
 31
0.0
  0
LINE
  5
3C
330
1D
100
AcDbEntity
  8
0
  6
BYBLOCK
 62
     0
100
AcDbLine
 10
4.337278130790485
 20
-0.8868159242071683
 30
0.0
 11
4.337278130790485
 21
-1.464315924207168
 31
0.0
  0
LINE
  5
3D
330
1D
100
AcDbEntity
  8
0
  6
BYBLOCK
 62
     0
100
AcDbLine
 10
4.337278130790485
 20
-2.401815924207168
 30
0.0
 11
4.337278130790485
 21
-1.824315924207168
 31
0.0
  0
SOLID
  5
3E
330
1D
100
AcDbEntity
  8
0
  6
BYBLOCK
 62
     0
100
AcDbTrace
 10
4.307278130790485
 20
-0.8868159242071683
 30
0.0
 11
4.367278130790485
 21
-0.8868159242071683
 31
0.0
 12
4.337278130790485
 22
-0.7068159242071685
 32
0.0
 13
4.337278130790485
 23
-0.7068159242071685
 33
0.0
  0
SOLID
  5
3F
330
1D
100
AcDbEntity
  8
0
  6
BYBLOCK
 62
     0
100
AcDbTrace
 10
4.307278130790485
 20
-2.401815924207168
 30
0.0
 11
4.367278130790485
 21
-2.401815924207168
 31
0.0
 12
4.337278130790485
 22
-2.581815924207168
 32
0.0
 13
4.337278130790485
 23
-2.581815924207168
 33
0.0
  0
TEXT
  5
40
330
1D
100
AcDbEntity
  8
0
  6
BYBLOCK
 62
     0
100
AcDbText
 10
3.947278130790485
 20
-1.734315924207168
 30
0.0
 40
0.18
  1
1 7/8
 72
     1
 11
4.337278130790485
 21
-1.644315924207168
 31
0.0
100
AcDbText
 73
     2
  0
POINT
  5
41
330
1D
100
AcDbEntity
  8
DEFPOINTS
  6
BYBLOCK
 62
     0
100
AcDbPoint
 10
2.5
 20
-0.7068159242071684
 30
0.0
  0
POINT
  5
42
330
1D
100
AcDbEntity
  8
DEFPOINTS
  6
BYBLOCK
 62
     0
100
AcDbPoint
 10
2.499999999999999
 20
-2.581815924207168
 30
0.0
  0
POINT
  5
43
330
1D
100
AcDbEntity
  8
DEFPOINTS
  6
BYBLOCK
 62
     0
100
AcDbPoint
 10
4.337278130790485
 20
-2.581815924207168
 30
0.0
  0
ENDBLK
  5
44
330
1D
100
AcDbEntity
  8
0
100
AcDbBlockEnd
  0
BLOCK
  5
45
330
1E
100
AcDbEntity
  8
0
100
AcDbBlockBegin
  2
*D2
 70
     1
 10
0.0
 20
0.0
 30
0.0
  3
*D2
  1

  0
LINE
  5
46
330
1E
100
AcDbEntity
  8
0
  6
BYBLOCK
 62
     0
100
AcDbLine
 10
0.0
 20
-1.083066424607568
 30
0.0
 11
0.0
 21
-0.2701010080111816
 31
0.0
  0
LINE
  5
47
330
1E
100
AcDbEntity
  8
0
  6
BYBLOCK
 62
     0
100
AcDbLine
 10
3.75
 20
-1.083066424607568
 30
0.0
 11
3.75
 21
-0.2701010080111816
 31
0.0
  0
LINE
  5
48
330
1E
100
AcDbEntity
  8
0
  6
BYBLOCK
 62
     0
100
AcDbLine
 10
0.18
 20
-0.4501010080111816
 30
0.0
 11
1.364999999999999
 21
-0.4501010080111816
 31
0.0
  0
LINE
  5
49
330
1E
100
AcDbEntity
  8
0
  6
BYBLOCK
 62
     0
100
AcDbLine
 10
3.569999999999999
 20
-0.4501010080111816
 30
0.0
 11
2.384999999999999
 21
-0.4501010080111816
 31
0.0
  0
SOLID
  5
4A
330
1E
100
AcDbEntity
  8
0
  6
BYBLOCK
 62
     0
100
AcDbTrace
 10
0.18
 20
-0.4201010080111816
 30
0.0
 11
0.18
 21
-0.4801010080111816
 31
0.0
 12
0.0
 22
-0.4501010080111816
 32
0.0
 13
0.0
 23
-0.4501010080111816
 33
0.0
  0
SOLID
  5
4B
330
1E
100
AcDbEntity
  8
0
  6
BYBLOCK
 62
     0
100
AcDbTrace
 10
3.569999999999999
 20
-0.4201010080111816
 30
0.0
 11
3.569999999999999
 21
-0.4801010080111816
 31
0.0
 12
3.75
 22
-0.4501010080111816
 32
0.0
 13
3.75
 23
-0.4501010080111816
 33
0.0
  0
TEXT
  5
4C
330
1E
100
AcDbEntity
  8
0
  6
BYBLOCK
 62
     0
100
AcDbText
 10
1.455
 20
-0.5401010080111816
 30
0.0
 40
0.18
  1
3 3/4
 72
     1
 11
1.875
 21
-0.4501010080111816
 31
0.0
100
AcDbText
 73
     2
  0
POINT
  5
4D
330
1E
100
AcDbEntity
  8
DEFPOINTS
  6
BYBLOCK
 62
     0
100
AcDbPoint
 10
0.0
 20
-1.145566424607568
 30
0.0
  0
POINT
  5
4E
330
1E
100
AcDbEntity
  8
DEFPOINTS
  6
BYBLOCK
 62
     0
100
AcDbPoint
 10
3.75
 20
-1.145566424607568
 30
0.0
  0
POINT
  5
4F
330
1E
100
AcDbEntity
  8
DEFPOINTS
  6
BYBLOCK
 62
     0
100
AcDbPoint
 10
3.75
 20
-0.4501010080111816
 30
0.0
  0
ENDBLK
  5
50
330
1E
100
AcDbEntity
  8
0
100
AcDbBlockEnd
  0
BLOCK
  5
51
330
1F
100
AcDbEntity
  8
0
100
AcDbBlockBegin
  2
*D3
 70
     1
 10
0.0
 20
0.0
 30
0.0
  3
*D3
  1

  0
LINE
  5
52
330
1F
100
AcDbEntity
  8
0
  6
BYBLOCK
 62
     0
100
AcDbLine
 10
3.8125
 20
7.5
 30
0.0
 11
4.86312667893348
 21
7.5
 31
0.0
  0
LINE
  5
53
330
1F
100
AcDbEntity
  8
0
  6
BYBLOCK
 62
     0
100
AcDbLine
 10
3.8125
 20
0.0
 30
0.0
 11
4.863126678933479
 21
-0.0000000000000001
 31
0.0
  0
LINE
  5
54
330
1F
100
AcDbEntity
  8
0
  6
BYBLOCK
 62
     0
100
AcDbLine
 10
4.68312667893348
 20
7.32
 30
0.0
 11
4.683126678933479
 21
3.929999999999999
 31
0.0
  0
LINE
  5
55
330
1F
100
AcDbEntity
  8
0
  6
BYBLOCK
 62
     0
100
AcDbLine
 10
4.683126678933479
 20
0.1799999999999999
 30
0.0
 11
4.683126678933479
 21
3.569999999999999
 31
0.0
  0
SOLID
  5
56
330
1F
100
AcDbEntity
  8
0
  6
BYBLOCK
 62
     0
100
AcDbTrace
 10
4.65312667893348
 20
7.32
 30
0.0
 11
4.71312667893348
 21
7.32
 31
0.0
 12
4.68312667893348
 22
7.5
 32
0.0
 13
4.68312667893348
 23
7.5
 33
0.0
  0
SOLID
  5
57
330
1F
100
AcDbEntity
  8
0
  6
BYBLOCK
 62
     0
100
AcDbTrace
 10
4.653126678933479
 20
0.1799999999999999
 30
0.0
 11
4.71312667893348
 21
0.1799999999999999
 31
0.0
 12
4.683126678933479
 22
-0.0000000000000001
 32
0.0
 13
4.683126678933479
 23
-0.0000000000000001
 33
0.0
  0
TEXT
  5
58
330
1F
100
AcDbEntity
  8
0
  6
BYBLOCK
 62
     0
100
AcDbText
 10
4.29312667893348
 20
3.659999999999999
 30
0.0
 40
0.18
  1
7 1/2
 72
     1
 11
4.683126678933479
 21
3.749999999999999
 31
0.0
100
AcDbText
 73
     2
  0
POINT
  5
59
330
1F
100
AcDbEntity
  8
DEFPOINTS
  6
BYBLOCK
 62
     0
100
AcDbPoint
 10
3.75
 20
7.5
 30
0.0
  0
POINT
  5
5A
330
1F
100
AcDbEntity
  8
DEFPOINTS
  6
BYBLOCK
 62
     0
100
AcDbPoint
 10
3.75
 20
0.0
 30
0.0
  0
POINT
  5
5B
330
1F
100
AcDbEntity
  8
DEFPOINTS
  6
BYBLOCK
 62
     0
100
AcDbPoint
 10
4.683126678933479
 20
-0.0000000000000001
 30
0.0
  0
ENDBLK
  5
5C
330
1F
100
AcDbEntity
  8
0
100
AcDbBlockEnd
  0
ENDSEC
  0
SECTION
  2
ENTITIES
  0
LINE
  5
5D
330
18
100
AcDbEntity
  8
ADP1DETAIL
100
AcDbLine
 10
3.75
 20
7.5
 30
0.0
 11
3.75
 21
52.0
 31
0.0
  0
DIMENSION
  5
5E
330
18
100
AcDbEntity
  8
ADPDIM
100
AcDbDimension
  2
*D0
 10
-1.236593602789132
 20
0.0000000000000001
 30
0.0
 11
-1.23659360278913
 21
26.0
 31
0.0
100
AcDbAlignedDimension
 13
0.0
 23
52.0
 33
0.0
 14
0.0
 24
0.0
 34
0.0
 50
90.0
100
AcDbRotatedDimension
  0
LWPOLYLINE
  5
5F
330
18
100
AcDbEntity
  8
ADP1DETAIL
100
AcDbPolyline
 90
        4
 70
     1
 43
0.0
 10
1.75
 20
0.0
 10
1.75
 20
52.0
 10
2.0
 20
52.0
 10
2.0
 20
0.0
  0
LINE
  5
65
330
18
100
AcDbEntity
  8
ADP1DETAIL
100
AcDbLine
 10
0.0
 20
52.0
 30
0.0
 11
0.0
 21
0.0
 31
0.0
  0
DIMENSION
  5
66
330
18
100
AcDbEntity
  8
ADPDIM
100
AcDbDimension
  2
*D2
 10
3.75
 20
-0.4501010080111816
 30
0.0
 11
1.875
 21
-0.4501010080111816
 31
0.0
100
AcDbAlignedDimension
 13
0.0
 23
-1.145566424607568
 33
0.0
 14
3.75
 24
-1.145566424607568
 34
0.0
100
AcDbRotatedDimension
  0
ARC
  5
67
330
18
100
AcDbEntity
  8
ADP1DETAIL
100
AcDbCircle
 10
1.25
 20
-2.706815924207168
 30
0.0
 40
2.0
100
AcDbArc
 50
90.0
 51
128.6821874534894
  0
LINE
  5
68
330
18
100
AcDbEntity
  8
ADP1DETAIL
100
AcDbLine
 10
1.75
 20
-1.519315924207168
 30
0.0
 11
1.75
 21
-0.7693159242071684
 31
0.0
  0
LINE
  5
69
330
18
100
AcDbEntity
  8
ADP1DETAIL
100
AcDbLine
 10
2.0
 20
-1.519315924207168
 30
0.0
 11
2.0
 21
-0.7693159242071684
 31
0.0
  0
ARC
  5
6A
330
18
100
AcDbEntity
  8
ADP1DETAIL
100
AcDbCircle
 10
2.5
 20
-2.706815924207168
 30
0.0
 40
2.0
100
AcDbArc
 50
51.31781254651056
 51
90.0
  0
DIMENSION
  5
6B
330
18
100
AcDbEntity
  8
ADPDIM
100
AcDbDimension
  2
*D1
 10
4.337278130790485
 20
-2.581815924207168
 30
0.0
 11
4.337278130790485
 21
-1.644315924207168
 31
0.0
100
AcDbAlignedDimension
 13
2.5
 23
-0.7068159242071684
 33
0.0
 14
2.499999999999999
 24
-2.581815924207168
 34
0.0
 50
90.0
100
AcDbRotatedDimension
  0
LINE
  5
6C
330
18
100
AcDbEntity
  8
ADP1DETAIL
100
AcDbLine
 10
3.0
 20
-1.769315924207168
 30
0.0
 11
2.0
 21
-1.769315924207168
 31
0.0
  0
LINE
  5
6D
330
18
100
AcDbEntity
  8
ADP1DETAIL
100
AcDbLine
 10
3.0
 20
-1.519315924207168
 30
0.0
 11
2.0
 21
-1.519315924207168
 31
0.0
  0
ARC
  5
6E
330
18
100
AcDbEntity
  8
ADP1DETAIL
100
AcDbCircle
 10
2.5
 20
-0.5818159242071684
 30
0.0
 40
2.0
100
AcDbArc
 50
270.0
 51
308.6821874534894
  0
ARC
  5
6F
330
18
100
AcDbEntity
  8
ADP1DETAIL
100
AcDbCircle
 10
1.25
 20
-0.5818159242071684
 30
0.0
 40
2.0
100
AcDbArc
 50
231.3178125465105
 51
270.0
  0
LINE
  5
70
330
18
100
AcDbEntity
  8
ADP1DETAIL
100
AcDbLine
 10
0.7499999999999999
 20
-1.519315924207168
 30
0.0
 11
1.75
 21
-1.519315924207168
 31
0.0
  0
LINE
  5
71
330
18
100
AcDbEntity
  8
ADP1DETAIL
100
AcDbLine
 10
0.7499999999999999
 20
-1.769315924207168
 30
0.0
 11
1.75
 21
-1.769315924207168
 31
0.0
  0
LINE
  5
72
330
18
100
AcDbEntity
  8
ADP1DETAIL
100
AcDbLine
 10
0.3749999999999998
 20
-1.332315924207168
 30
0.0
 11
0.7499999999999999
 21
-1.332315924207168
 31
0.0
  0
LINE
  5
73
330
18
100
AcDbEntity
  8
ADP1DETAIL
100
AcDbLine
 10
0.3749999999999998
 20
-1.956315924207168
 30
0.0
 11
0.7499999999999999
 21
-1.956315924207168
 31
0.0
  0
LINE
  5
74
330
18
100
AcDbEntity
  8
ADP1DETAIL
100
AcDbLine
 10
0.0
 20
-1.831815924207168
 30
0.0
 11
0.0
 21
-2.143065423806767
 31
0.0
  0
LINE
  5
75
330
18
100
AcDbEntity
  8
ADP1DETAIL
100
AcDbLine
 10
0.063
 20
-1.519315924207168
 30
0.0
 11
0.3749999999999998
 21
-1.519315924207168
 31
0.0
  0
LINE
  5
76
330
18
100
AcDbEntity
  8
ADP1DETAIL
100
AcDbLine
 10
0.063
 20
-1.769315924207168
 30
0.0
 11
0.3749999999999998
 21
-1.769315924207168
 31
0.0
  0
ARC
  5
77
330
18
100
AcDbEntity
  8
ADP1DETAIL
100
AcDbCircle
 10
0.0625
 20
-1.456815924207168
 30
0.0
 40
0.0625
100
AcDbArc
 50
180.0
 51
270.0
  0
LINE
  5
78
330
18
100
AcDbEntity
  8
ADP1DETAIL
100
AcDbLine
 10
0.0
 20
-1.456815924207168
 30
0.0
 11
0.0
 21
-1.145566424607568
 31
0.0
  0
LINE
  5
79
330
18
100
AcDbEntity
  8
ADP1DETAIL
100
AcDbLine
 10
0.063
 20
-1.644315924207168
 30
0.0
 11
0.063
 21
-1.769315924207168
 31
0.0
  0
ARC
  5
7A
330
18
100
AcDbEntity
  8
ADP1DETAIL
100
AcDbCircle
 10
0.0625
 20
-1.831815924207168
 30
0.0
 40
0.0625
100
AcDbArc
 50
90.00000000000003
 51
180.0
  0
LINE
  5
7B
330
18
100
AcDbEntity
  8
ADP1DETAIL
100
AcDbLine
 10
0.063
 20
-1.644315924207168
 30
0.0
 11
0.063
 21
-1.519315924207168
 31
0.0
  0
LINE
  5
7C
330
18
100
AcDbEntity
  8
ADP1DETAIL
100
AcDbLine
 10
0.3749999999999998
 20
-1.769315924207168
 30
0.0
 11
0.3749999999999998
 21
-1.956315924207168
 31
0.0
  0
LINE
  5
7D
330
18
100
AcDbEntity
  8
ADP1DETAIL
100
AcDbLine
 10
0.3749999999999998
 20
-1.519315924207168
 30
0.0
 11
0.3749999999999998
 21
-1.332315924207168
 31
0.0
  0
LINE
  5
7E
330
18
100
AcDbEntity
  8
ADP1DETAIL
100
AcDbLine
 10
0.7499999999999999
 20
-1.956315924207168
 30
0.0
 11
0.7499999999999999
 21
-1.769315924207168
 31
0.0
  0
LINE
  5
7F
330
18
100
AcDbEntity
  8
ADP1DETAIL
100
AcDbLine
 10
0.7499999999999999
 20
-1.332315924207168
 30
0.0
 11
0.7499999999999999
 21
-1.519315924207168
 31
0.0
  0
LINE
  5
80
330
18
100
AcDbEntity
  8
ADP1DETAIL
100
AcDbLine
 10
2.0
 20
-2.519315924207168
 30
0.0
 11
1.875
 21
-2.519315924207168
 31
0.0
  0
LINE
  5
81
330
18
100
AcDbEntity
  8
ADP1DETAIL
100
AcDbLine
 10
1.75
 20
-1.769315924207168
 30
0.0
 11
1.75
 21
-2.519315924207168
 31
0.0
  0
LINE
  5
82
330
18
100
AcDbEntity
  8
ADP1DETAIL
100
AcDbLine
 10
1.6875
 20
-2.581815924207168
 30
0.0
 11
1.25
 21
-2.581815924207168
 31
0.0
  0
LINE
  5
83
330
18
100
AcDbEntity
  8
ADP1DETAIL
100
AcDbLine
 10
1.75
 20
-2.519315924207168
 30
0.0
 11
1.875
 21
-2.519315924207168
 31
0.0
  0
ARC
  5
84
330
18
100
AcDbEntity
  8
ADP1DETAIL
100
AcDbCircle
 10
1.6875
 20
-2.519315924207168
 30
0.0
 40
0.0625
100
AcDbArc
 50
270.0
 51
0.0
  0
LINE
  5
85
330
18
100
AcDbEntity
  8
ADP1DETAIL
100
AcDbLine
 10
2.0
 20
-1.769315924207168
 30
0.0
 11
2.0
 21
-2.519315924207168
 31
0.0
  0
LINE
  5
86
330
18
100
AcDbEntity
  8
ADP1DETAIL
100
AcDbLine
 10
2.0625
 20
-2.581815924207168
 30
0.0
 11
2.5
 21
-2.581815924207168
 31
0.0
  0
ARC
  5
87
330
18
100
AcDbEntity
  8
ADP1DETAIL
100
AcDbCircle
 10
2.0625
 20
-2.519315924207168
 30
0.0
 40
0.0625
100
AcDbArc
 50
180.0
 51
270.0
  0
LINE
  5
88
330
18
100
AcDbEntity
  8
ADP1DETAIL
100
AcDbLine
 10
3.687
 20
-1.769315924207168
 30
0.0
 11
3.375
 21
-1.769315924207168
 31
0.0
  0
LINE
  5
89
330
18
100
AcDbEntity
  8
ADP1DETAIL
100
AcDbLine
 10
3.687
 20
-1.519315924207168
 30
0.0
 11
3.375
 21
-1.519315924207168
 31
0.0
  0
LINE
  5
8A
330
18
100
AcDbEntity
  8
ADP1DETAIL
100
AcDbLine
 10
3.375
 20
-1.956315924207168
 30
0.0
 11
3.0
 21
-1.956315924207168
 31
0.0
  0
LINE
  5
8B
330
18
100
AcDbEntity
  8
ADP1DETAIL
100
AcDbLine
 10
3.375
 20
-1.332315924207168
 30
0.0
 11
3.0
 21
-1.332315924207168
 31
0.0
  0
LINE
  5
8C
330
18
100
AcDbEntity
  8
ADP1DETAIL
100
AcDbLine
 10
3.0
 20
-1.956315924207168
 30
0.0
 11
3.0
 21
-1.769315924207168
 31
0.0
  0
LINE
  5
8D
330
18
100
AcDbEntity
  8
ADP1DETAIL
100
AcDbLine
 10
3.0
 20
-1.332315924207168
 30
0.0
 11
3.0
 21
-1.519315924207168
 31
0.0
  0
LINE
  5
8E
330
18
100
AcDbEntity
  8
ADP1DETAIL
100
AcDbLine
 10
3.375
 20
-1.769315924207168
 30
0.0
 11
3.375
 21
-1.956315924207168
 31
0.0
  0
LINE
  5
8F
330
18
100
AcDbEntity
  8
ADP1DETAIL
100
AcDbLine
 10
3.375
 20
-1.519315924207168
 30
0.0
 11
3.375
 21
-1.332315924207168
 31
0.0
  0
LINE
  5
90
330
18
100
AcDbEntity
  8
ADP1DETAIL
100
AcDbLine
 10
3.75
 20
-1.831815924207168
 30
0.0
 11
3.75
 21
-2.143065423806767
 31
0.0
  0
LINE
  5
91
330
18
100
AcDbEntity
  8
ADP1DETAIL
100
AcDbLine
 10
3.75
 20
-1.456815924207168
 30
0.0
 11
3.75
 21
-1.145566424607568
 31
0.0
  0
ARC
  5
92
330
18
100
AcDbEntity
  8
ADP1DETAIL
100
AcDbCircle
 10
3.6875
 20
-1.456815924207168
 30
0.0
 40
0.0625
100
AcDbArc
 50
270.0
 51
0.0
  0
LINE
  5
93
330
18
100
AcDbEntity
  8
ADP1DETAIL
100
AcDbLine
 10
3.687
 20
-1.644315924207168
 30
0.0
 11
3.687
 21
-1.769315924207168
 31
0.0
  0
ARC
  5
94
330
18
100
AcDbEntity
  8
ADP1DETAIL
100
AcDbCircle
 10
3.6875
 20
-1.831815924207168
 30
0.0
 40
0.0625
100
AcDbArc
 50
0.0
 51
90.00000000000003
  0
LINE
  5
95
330
18
100
AcDbEntity
  8
ADP1DETAIL
100
AcDbLine
 10
3.687
 20
-1.644315924207168
 30
0.0
 11
3.687
 21
-1.519315924207168
 31
0.0
  0
LINE
  5
96
330
18
100
AcDbEntity
  8
ADP1DETAIL
100
AcDbLine
 10
0.0
 20
0.0
 30
0.0
 11
3.686999999999999
 21
0.0
 31
0.0
  0
ARC
  5
97
330
18
100
AcDbEntity
  8
ADP1DETAIL
100
AcDbCircle
 10
2.626
 20
2.123999999999999
 30
0.0
 40
0.1239999999999997
100
AcDbArc
 50
270.0
 51
0.0000000000000513
  0
ARC
  5
98
330
18
100
AcDbEntity
  8
ADP1DETAIL
100
AcDbCircle
 10
2.626
 20
2.876
 30
0.0
 40
0.1239999999999997
100
AcDbArc
 50
359.9999999999998
 51
90.0
  0
ARC
  5
99
330
18
100
AcDbEntity
  8
ADP1DETAIL
100
AcDbCircle
 10
2.626
 20
6.376
 30
0.0
 40
0.1239999999999997
100
AcDbArc
 50
359.9999999999998
 51
90.0
  0
ARC
  5
9A
330
18
100
AcDbEntity
  8
ADP1DETAIL
100
AcDbCircle
 10
2.626
 20
5.623999999999999
 30
0.0
 40
0.1239999999999997
100
AcDbArc
 50
270.0
 51
0.0000000000000513
  0
LINE
  5
9B
330
18
100
AcDbEntity
  8
ADP1DETAIL
100
AcDbLine
 10
2.0
 20
7.5
 30
0.0
 11
3.75
 21
7.5
 31
0.0
  0
LINE
  5
9C
330
18
100
AcDbEntity
  8
ADP1DETAIL
100
AcDbLine
 10
2.0
 20
-0.7693159242071684
 30
0.0
 11
1.875
 21
-0.7693159242071684
 31
0.0
  0
LINE
  5
9D
330
18
100
AcDbEntity
  8
ADP1DETAIL
100
AcDbLine
 10
1.6875
 20
-0.7068159242071684
 30
0.0
 11
1.25
 21
-0.7068159242071684
 31
0.0
  0
LINE
  5
9E
330
18
100
AcDbEntity
  8
ADP1DETAIL
100
AcDbLine
 10
1.75
 20
-0.7693159242071684
 30
0.0
 11
1.875
 21
-0.7693159242071684
 31
0.0
  0
ARC
  5
9F
330
18
100
AcDbEntity
  8
ADP1DETAIL
100
AcDbCircle
 10
1.6875
 20
-0.7693159242071684
 30
0.0
 40
0.0625
100
AcDbArc
 50
0.000000000000007
 51
90.0
  0
LINE
  5
A0
330
18
100
AcDbEntity
  8
ADP1DETAIL
100
AcDbLine
 10
2.0625
 20
-0.7068159242071684
 30
0.0
 11
2.5
 21
-0.7068159242071684
 31
0.0
  0
ARC
  5
A1
330
18
100
AcDbEntity
  8
ADP1DETAIL
100
AcDbCircle
 10
2.0625
 20
-0.7693159242071684
 30
0.0
 40
0.0625
100
AcDbArc
 50
90.0
 51
180.0
  0
LINE
  5
A2
330
18
100
AcDbEntity
  8
ADP1DETAIL
100
AcDbLine
 10
2.5
 20
2.124
 30
0.0
 11
2.5
 21
2.875999999999999
 31
0.0
  0
ARC
  5
A3
330
18
100
AcDbEntity
  8
ADP1DETAIL
100
AcDbCircle
 10
2.624
 20
2.123999999999999
 30
0.0
 40
0.1239999999999999
100
AcDbArc
 50
179.9999999999999
 51
270.0
  0
LINE
  5
A4
330
18
100
AcDbEntity
  8
ADP1DETAIL
100
AcDbLine
 10
2.626
 20
2.0
 30
0.0
 11
2.624
 21
2.0
 31
0.0
  0
ARC
  5
A5
330
18
100
AcDbEntity
  8
ADP1DETAIL
100
AcDbCircle
 10
2.623999999999999
 20
2.876
 30
0.0
 40
0.1239999999999997
100
AcDbArc
 50
90.0
 51
180.0000000000001
  0
LINE
  5
A6
330
18
100
AcDbEntity
  8
ADP1DETAIL
100
AcDbLine
 10
2.623999999999999
 20
3.0
 30
0.0
 11
2.626
 21
3.0
 31
0.0
  0
ARC
  5
A7
330
18
100
AcDbEntity
  8
ADP1DETAIL
100
AcDbCircle
 10
2.623999999999999
 20
6.376
 30
0.0
 40
0.1239999999999997
100
AcDbArc
 50
90.0
 51
180.0000000000001
  0
ARC
  5
A8
330
18
100
AcDbEntity
  8
ADP1DETAIL
100
AcDbCircle
 10
2.624
 20
5.623999999999999
 30
0.0
 40
0.1239999999999999
100
AcDbArc
 50
179.9999999999999
 51
270.0
  0
LINE
  5
A9
330
18
100
AcDbEntity
  8
ADP1DETAIL
100
AcDbLine
 10
2.5
 20
5.624
 30
0.0
 11
2.5
 21
6.375999999999999
 31
0.0
  0
LINE
  5
AA
330
18
100
AcDbEntity
  8
ADP1DETAIL
100
AcDbLine
 10
2.626
 20
5.5
 30
0.0
 11
2.624
 21
5.5
 31
0.0
  0
LINE
  5
AB
330
18
100
AcDbEntity
  8
ADP1DETAIL
100
AcDbLine
 10
2.623999999999999
 20
6.5
 30
0.0
 11
2.626
 21
6.5
 31
0.0
  0
LINE
  5
AC
330
18
100
AcDbEntity
  8
ADP1DETAIL
100
AcDbLine
 10
3.687
 20
0.0
 30
0.0
 11
3.686999999999999
 21
7.5
 31
0.0
  0
DIMENSION
  5
AD
330
18
100
AcDbEntity
  8
ADPDIM
100
AcDbDimension
  2
*D3
 10
4.683126678933479
 20
-0.0000000000000001
 30
0.0
 11
4.683126678933479
 21
3.749999999999999
 31
0.0
100
AcDbAlignedDimension
 13
3.75
 23
7.5
 33
0.0
 14
3.75
 24
0.0
 34
0.0
 50
90.0
100
AcDbRotatedDimension
  0
LINE
  5
AE
330
18
100
AcDbEntity
  8
ADP1DETAIL
100
AcDbLine
 10
3.0
 20
0.0
 30
0.0
 11
3.0
 21
7.5
 31
0.0
  0
LINE
  5
AF
330
18
100
AcDbEntity
  8
ADP1DETAIL
100
AcDbLine
 10
3.374999999999999
 20
0.0
 30
0.0
 11
3.375
 21
7.5
 31
0.0
  0
LINE
  5
B0
330
18
100
AcDbEntity
  8
ADP1DETAIL
100
AcDbLine
 10
2.75
 20
2.875999999999999
 30
0.0
 11
2.75
 21
2.124
 31
0.0
  0
LINE
  5
B1
330
18
100
AcDbEntity
  8
ADP1DETAIL
100
AcDbLine
 10
2.75
 20
6.375999999999999
 30
0.0
 11
2.75
 21
5.624
 31
0.0
  0
LINE
  5
B2
330
18
100
AcDbEntity
  8
ADP1DETAIL
100
AcDbLine
 10
3.75
 20
52.0
 30
0.0
 11
0.0
 21
52.0
 31
0.0
  0
TEXT
  5
C0
330
18
100
AcDbEntity
  8
ADPDIM
100
AcDbText
 10
-43.16795276261937
 20
-4.399208844783075
 30
0.0
 40
0.875
  1
J U L I U S  B L U M  &  C O . ,  I N C .      ( 8 0 0 )  5 2 6 - 6 2 9 3        W W W . J U L I U S B L U M . C O M        P A R T  N o .  8 8 1
 41
1.25
  7
ARIAL_WIDE
 72
     1
 11
1.875
 21
-3.524208844783074
 31
0.0
100
AcDbText
 73
     3
  0
ENDSEC
  0
SECTION
  2
OBJECTS
  0
DICTIONARY
  5
C
330
0
100
AcDbDictionary
  3
ACAD_GROUP
350
D
  3
ACAD_LAYOUT
350
B9
  3
ACAD_MLINESTYLE
350
E
  3
ACAD_PLOTSETTINGS
350
BA
  3
ACAD_PLOTSTYLENAME
350
B7
  3
ACDBHEADERROUNDTRIPXREC
350
233
  3
ACDBVARIABLEDICTIONARY
350
11A
  0
DICTIONARY
  5
114
330
18
100
AcDbDictionary
280
     1
  3
ACAD_LAYOUTSELFREF
360
254
  0
DICTIONARY
  5
112
330
15
100
AcDbDictionary
280
     1
  3
ACAD_LAYOUTSELFREF
360
253
  0
DICTIONARY
  5
D
102
{ACAD_REACTORS
330
C
102
}
330
C
100
AcDbDictionary
  0
DICTIONARY
  5
B9
102
{ACAD_REACTORS
330
C
102
}
330
C
100
AcDbDictionary
  0
DICTIONARY
  5
E
102
{ACAD_REACTORS
330
C
102
}
330
C
100
AcDbDictionary
  3
STANDARD
350
1B
  0
DICTIONARY
  5
BA
102
{ACAD_REACTORS
330
C
102
}
330
C
100
AcDbDictionary
  0
ACDBDICTIONARYWDFLT
  5
B7
102
{ACAD_REACTORS
330
C
102
}
330
C
100
AcDbDictionary
281
     1
  3
Normal
350
B8
100
AcDbDictionaryWithDefault
340
B8
  0
DICTIONARY
  5
233
102
{ACAD_REACTORS
330
C
102
}
330
C
100
AcDbDictionary
  3
CEPSNTYPE
350
23D
  3
FINGERPRINTGUID
350
23E
  3
HYPERLINKBASE
350
236
  3
INSUNITS
350
23C
  3
LAYOUTDICT
350
238
  3
LWETCUNION
350
23B
  3
PLOTSETDICT
350
239
  3
PLOTSTYLNAMDICT
350
23A
  3
PSVPSCALE
350
240
  3
PUCSBASE
350
243
  3
PUCSORGBACK
350
249
  3
PUCSORGBOTTOM
350
245
  3
PUCSORGFRONT
350
248
  3
PUCSORGLEFT
350
246
  3
PUCSORGRIGHT
350
247
  3
PUCSORGTOP
350
244
  3
PUCSORTHOREF
350
241
  3
PUCSORTHOVIEW
350
242
  3
STYLESHEET
350
237
  3
TSTACKALIGN
350
234
  3
TSTACKSIZE
350
235
  3
UCSBASE
350
24C
  3
UCSORGBACK
350
252
  3
UCSORGBOTTOM
350
24E
  3
UCSORGFRONT
350
251
  3
UCSORGLEFT
350
24F
  3
UCSORGRIGHT
350
250
  3
UCSORGTOP
350
24D
  3
UCSORTHOREF
350
24A
  3
UCSORTHOVIEW
350
24B
  3
VERSIONGUID
350
23F
  0
DICTIONARY
  5
11A
102
{ACAD_REACTORS
330
C
102
}
330
C
100
AcDbDictionary
  3
DIMASSOC
350
11B
  0
XRECORD
  5
254
102
{ACAD_REACTORS
330
114
102
}
330
114
100
AcDbXrecord
340
18
  0
XRECORD
  5
253
102
{ACAD_REACTORS
330
112
102
}
330
112
100
AcDbXrecord
340
15
  0
MLINESTYLE
  5
1B
102
{ACAD_REACTORS
330
E
102
}
330
E
100
AcDbMlineStyle
  2
STANDARD
 70
     0
  3

 62
     0
 51
90.0
 52
90.0
 71
     2
 49
0.5
 62
   256
  6
BYLAYER
 49
-0.5
 62
   256
  6
BYLAYER
  0
ACDBPLACEHOLDER
  5
B8
102
{ACAD_REACTORS
330
B7
102
}
330
B7
100
AcDbPlaceHolder
280
     0
  0
XRECORD
  5
23D
102
{ACAD_REACTORS
330
233
102
}
330
233
100
AcDbXrecord
 90
        0
  0
XRECORD
  5
23E
102
{ACAD_REACTORS
330
233
102
}
330
233
100
AcDbXrecord
  1
{77DCE23D-C694-4451-9075-D65E4A437D9E}
  0
XRECORD
  5
236
102
{ACAD_REACTORS
330
233
102
}
330
233
100
AcDbXrecord
  1

  0
XRECORD
  5
23C
102
{ACAD_REACTORS
330
233
102
}
330
233
100
AcDbXrecord
 90
        0
  0
XRECORD
  5
238
102
{ACAD_REACTORS
330
233
102
}
330
233
100
AcDbXrecord
340
B9
  0
XRECORD
  5
23B
102
{ACAD_REACTORS
330
233
102
}
330
233
100
AcDbXrecord
 90
    14877
  0
XRECORD
  5
239
102
{ACAD_REACTORS
330
233
102
}
330
233
100
AcDbXrecord
340
BA
  0
XRECORD
  5
23A
102
{ACAD_REACTORS
330
233
102
}
330
233
100
AcDbXrecord
340
B7
  0
XRECORD
  5
240
102
{ACAD_REACTORS
330
233
102
}
330
233
100
AcDbXrecord
 40
0.0
  0
XRECORD
  5
243
102
{ACAD_REACTORS
330
233
102
}
330
233
100
AcDbXrecord
340
0
  0
XRECORD
  5
249
102
{ACAD_REACTORS
330
233
102
}
330
233
100
AcDbXrecord
 10
0.0
 20
0.0
 30
0.0
  0
XRECORD
  5
245
102
{ACAD_REACTORS
330
233
102
}
330
233
100
AcDbXrecord
 10
0.0
 20
0.0
 30
0.0
  0
XRECORD
  5
248
102
{ACAD_REACTORS
330
233
102
}
330
233
100
AcDbXrecord
 10
0.0
 20
0.0
 30
0.0
  0
XRECORD
  5
246
102
{ACAD_REACTORS
330
233
102
}
330
233
100
AcDbXrecord
 10
0.0
 20
0.0
 30
0.0
  0
XRECORD
  5
247
102
{ACAD_REACTORS
330
233
102
}
330
233
100
AcDbXrecord
 10
0.0
 20
0.0
 30
0.0
  0
XRECORD
  5
244
102
{ACAD_REACTORS
330
233
102
}
330
233
100
AcDbXrecord
 10
0.0
 20
0.0
 30
0.0
  0
XRECORD
  5
241
102
{ACAD_REACTORS
330
233
102
}
330
233
100
AcDbXrecord
340
0
  0
XRECORD
  5
242
102
{ACAD_REACTORS
330
233
102
}
330
233
100
AcDbXrecord
 70
     0
  0
XRECORD
  5
237
102
{ACAD_REACTORS
330
233
102
}
330
233
100
AcDbXrecord
  1

  0
XRECORD
  5
234
102
{ACAD_REACTORS
330
233
102
}
330
233
100
AcDbXrecord
 90
        1
  0
XRECORD
  5
235
102
{ACAD_REACTORS
330
233
102
}
330
233
100
AcDbXrecord
 90
       70
  0
XRECORD
  5
24C
102
{ACAD_REACTORS
330
233
102
}
330
233
100
AcDbXrecord
340
0
  0
XRECORD
  5
252
102
{ACAD_REACTORS
330
233
102
}
330
233
100
AcDbXrecord
 10
0.0
 20
0.0
 30
0.0
  0
XRECORD
  5
24E
102
{ACAD_REACTORS
330
233
102
}
330
233
100
AcDbXrecord
 10
0.0
 20
0.0
 30
0.0
  0
XRECORD
  5
251
102
{ACAD_REACTORS
330
233
102
}
330
233
100
AcDbXrecord
 10
0.0
 20
0.0
 30
0.0
  0
XRECORD
  5
24F
102
{ACAD_REACTORS
330
233
102
}
330
233
100
AcDbXrecord
 10
0.0
 20
0.0
 30
0.0
  0
XRECORD
  5
250
102
{ACAD_REACTORS
330
233
102
}
330
233
100
AcDbXrecord
 10
0.0
 20
0.0
 30
0.0
  0
XRECORD
  5
24D
102
{ACAD_REACTORS
330
233
102
}
330
233
100
AcDbXrecord
 10
0.0
 20
0.0
 30
0.0
  0
XRECORD
  5
24A
102
{ACAD_REACTORS
330
233
102
}
330
233
100
AcDbXrecord
340
0
  0
XRECORD
  5
24B
102
{ACAD_REACTORS
330
233
102
}
330
233
100
AcDbXrecord
 70
     0
  0
XRECORD
  5
23F
102
{ACAD_REACTORS
330
233
102
}
330
233
100
AcDbXrecord
  1
{55B1A0B8-BEC6-4352-8001-869E18649503}
  0
DICTIONARYVAR
  5
11B
102
{ACAD_REACTORS
330
11A
102
}
330
11A
100
DictionaryVariables
280
     0
  1
1
  0
ENDSEC
  0
EOF
