  0
SECTION
  2
HEADER
  9
$ACADVER
  1
AC1015
  9
$ACADMAINTVER
 70
    20
  9
$DWGCODEPAGE
  3
ANSI_1252
  9
$INSBASE
 10
0.0733414505228431
 20
-4.650649165797519
 30
0.0
  9
$EXTMIN
 10
-6.767087911308292
 20
-6.219101750479833
 30
0.0
  9
$EXTMAX
 10
12.53703470124286
 20
4.878569491733419
 30
0.0
  9
$LIMMIN
 10
0.0
 20
0.0
  9
$LIMMAX
 10
36.0
 20
36.0
  9
$ORTHOMODE
 70
     1
  9
$REGENMODE
 70
     1
  9
$FILLMODE
 70
     1
  9
$QTEXTMODE
 70
     0
  9
$MIRRTEXT
 70
     1
  9
$LTSCALE
 40
1.0
  9
$ATTMODE
 70
     1
  9
$TEXTSIZE
 40
0.2
  9
$TRACEWID
 40
0.05
  9
$TEXTSTYLE
  7
STANDARD
  9
$CLAYER
  8
ADP1DETAIL
  9
$CELTYPE
  6
BYLAYER
  9
$CECOLOR
 62
   256
  9
$CELTSCALE
 40
1.0
  9
$DISPSILH
 70
     0
  9
$DIMSCALE
 40
1.0
  9
$DIMASZ
 40
0.125
  9
$DIMEXO
 40
0.0625
  9
$DIMDLI
 40
0.38
  9
$DIMRND
 40
0.0
  9
$DIMDLE
 40
0.0
  9
$DIMEXE
 40
0.18
  9
$DIMTP
 40
0.0
  9
$DIMTM
 40
0.0
  9
$DIMTXT
 40
0.125
  9
$DIMCEN
 40
0.1875
  9
$DIMTSZ
 40
0.125
  9
$DIMTOL
 70
     0
  9
$DIMLIM
 70
     0
  9
$DIMTIH
 70
     0
  9
$DIMTOH
 70
     0
  9
$DIMSE1
 70
     0
  9
$DIMSE2
 70
     0
  9
$DIMTAD
 70
     0
  9
$DIMZIN
 70
     3
  9
$DIMBLK
  1

  9
$DIMASO
 70
     1
  9
$DIMSHO
 70
     1
  9
$DIMPOST
  1

  9
$DIMAPOST
  1

  9
$DIMALT
 70
     0
  9
$DIMALTD
 70
     1
  9
$DIMALTF
 40
25.4
  9
$DIMLFAC
 40
1.0
  9
$DIMTOFL
 70
     0
  9
$DIMTVP
 40
0.0
  9
$DIMTIX
 70
     0
  9
$DIMSOXD
 70
     0
  9
$DIMSAH
 70
     0
  9
$DIMBLK1
  1

  9
$DIMBLK2
  1

  9
$DIMSTYLE
  2
STANDARD
  9
$DIMCLRD
 70
     0
  9
$DIMCLRE
 70
     0
  9
$DIMCLRT
 70
     0
  9
$DIMTFAC
 40
1.0
  9
$DIMGAP
 40
0.125
  9
$DIMJUST
 70
     0
  9
$DIMSD1
 70
     0
  9
$DIMSD2
 70
     0
  9
$DIMTOLJ
 70
     1
  9
$DIMTZIN
 70
     0
  9
$DIMALTZ
 70
     0
  9
$DIMALTTZ
 70
     0
  9
$DIMUPT
 70
     0
  9
$DIMDEC
 70
     4
  9
$DIMTDEC
 70
     4
  9
$DIMALTU
 70
     2
  9
$DIMALTTD
 70
     2
  9
$DIMTXSTY
  7
STANDARD
  9
$DIMAUNIT
 70
     0
  9
$DIMADEC
 70
     0
  9
$DIMALTRND
 40
0.0
  9
$DIMAZIN
 70
     0
  9
$DIMDSEP
 70
    46
  9
$DIMATFIT
 70
     3
  9
$DIMFRAC
 70
     0
  9
$DIMLDRBLK
  1

  9
$DIMLUNIT
 70
     2
  9
$DIMLWD
 70
    -2
  9
$DIMLWE
 70
    -2
  9
$DIMTMOVE
 70
     0
  9
$LUNITS
 70
     5
  9
$LUPREC
 70
     5
  9
$SKETCHINC
 40
0.1
  9
$FILLETRAD
 40
0.0
  9
$AUNITS
 70
     0
  9
$AUPREC
 70
     0
  9
$MENU
  1
acad
  9
$ELEVATION
 40
0.0
  9
$PELEVATION
 40
0.0
  9
$THICKNESS
 40
0.0
  9
$LIMCHECK
 70
     0
  9
$CHAMFERA
 40
0.0
  9
$CHAMFERB
 40
0.0
  9
$CHAMFERC
 40
0.0
  9
$CHAMFERD
 40
0.0
  9
$SKPOLY
 70
     0
  9
$TDCREATE
 40
2450373.627589884
  9
$TDUCREATE
 40
2450373.794256551
  9
$TDUPDATE
 40
2453958.936526482
  9
$TDUUPDATE
 40
2453959.103193148
  9
$TDINDWG
 40
0.0661311458
  9
$TDUSRTIMER
 40
0.0661311458
  9
$USRTIMER
 70
     1
  9
$ANGBASE
 50
0.0
  9
$ANGDIR
 70
     0
  9
$PDMODE
 70
     0
  9
$PDSIZE
 40
0.0
  9
$PLINEWID
 40
0.0
  9
$SPLFRAME
 70
     0
  9
$SPLINETYPE
 70
     6
  9
$SPLINESEGS
 70
     8
  9
$HANDSEED
  5
2D6
  9
$SURFTAB1
 70
     6
  9
$SURFTAB2
 70
     6
  9
$SURFTYPE
 70
     6
  9
$SURFU
 70
     6
  9
$SURFV
 70
     6
  9
$UCSBASE
  2

  9
$UCSNAME
  2

  9
$UCSORG
 10
0.0
 20
0.0
 30
0.0
  9
$UCSXDIR
 10
1.0
 20
0.0
 30
0.0
  9
$UCSYDIR
 10
0.0
 20
1.0
 30
0.0
  9
$UCSORTHOREF
  2

  9
$UCSORTHOVIEW
 70
     0
  9
$UCSORGTOP
 10
0.0
 20
0.0
 30
0.0
  9
$UCSORGBOTTOM
 10
0.0
 20
0.0
 30
0.0
  9
$UCSORGLEFT
 10
0.0
 20
0.0
 30
0.0
  9
$UCSORGRIGHT
 10
0.0
 20
0.0
 30
0.0
  9
$UCSORGFRONT
 10
0.0
 20
0.0
 30
0.0
  9
$UCSORGBACK
 10
0.0
 20
0.0
 30
0.0
  9
$PUCSBASE
  2

  9
$PUCSNAME
  2

  9
$PUCSORG
 10
0.0
 20
0.0
 30
0.0
  9
$PUCSXDIR
 10
1.0
 20
0.0
 30
0.0
  9
$PUCSYDIR
 10
0.0
 20
1.0
 30
0.0
  9
$PUCSORTHOREF
  2

  9
$PUCSORTHOVIEW
 70
     0
  9
$PUCSORGTOP
 10
0.0
 20
0.0
 30
0.0
  9
$PUCSORGBOTTOM
 10
0.0
 20
0.0
 30
0.0
  9
$PUCSORGLEFT
 10
0.0
 20
0.0
 30
0.0
  9
$PUCSORGRIGHT
 10
0.0
 20
0.0
 30
0.0
  9
$PUCSORGFRONT
 10
0.0
 20
0.0
 30
0.0
  9
$PUCSORGBACK
 10
0.0
 20
0.0
 30
0.0
  9
$USERI1
 70
     0
  9
$USERI2
 70
     0
  9
$USERI3
 70
     0
  9
$USERI4
 70
     0
  9
$USERI5
 70
     0
  9
$USERR1
 40
0.0
  9
$USERR2
 40
0.0
  9
$USERR3
 40
0.0
  9
$USERR4
 40
0.0
  9
$USERR5
 40
0.0
  9
$WORLDVIEW
 70
     1
  9
$SHADEDGE
 70
     3
  9
$SHADEDIF
 70
    70
  9
$TILEMODE
 70
     1
  9
$MAXACTVP
 70
    15
  9
$PINSBASE
 10
1.667196317885515E+99
 20
2.439420651286265E+99
 30
0.0
  9
$PLIMCHECK
 70
     0
  9
$PEXTMIN
 10
1.000000000000000E+20
 20
1.000000000000000E+20
 30
1.000000000000000E+20
  9
$PEXTMAX
 10
-1.000000000000000E+20
 20
-1.000000000000000E+20
 30
-1.000000000000000E+20
  9
$PLIMMIN
 10
0.0
 20
0.0
  9
$PLIMMAX
 10
12.0
 20
9.0
  9
$UNITMODE
 70
     0
  9
$VISRETAIN
 70
     0
  9
$PLINEGEN
 70
     0
  9
$PSLTSCALE
 70
     1
  9
$TREEDEPTH
 70
  3020
  9
$CMLSTYLE
  2
STANDARD
  9
$CMLJUST
 70
     0
  9
$CMLSCALE
 40
1.0
  9
$PROXYGRAPHICS
 70
     1
  9
$MEASUREMENT
 70
     0
  9
$CELWEIGHT
370
    -1
  9
$ENDCAPS
280
     0
  9
$JOINSTYLE
280
     0
  9
$LWDISPLAY
290
     0
  9
$INSUNITS
 70
     0
  9
$HYPERLINKBASE
  1

  9
$STYLESHEET
  1

  9
$XEDIT
290
     1
  9
$CEPSNTYPE
380
     0
  9
$PSTYLEMODE
290
     1
  9
$FINGERPRINTGUID
  2
{482EB0B4-4EF9-409C-B418-07EB71835D3C}
  9
$VERSIONGUID
  2
{20FE4F0A-2EE1-4CD2-AC22-2D762501A1BE}
  9
$EXTNAMES
290
     1
  9
$PSVPSCALE
 40
0.0
  9
$OLESTARTUP
290
     0
  0
ENDSEC
  0
SECTION
  2
CLASSES
  0
CLASS
  1
ACDBDICTIONARYWDFLT
  2
AcDbDictionaryWithDefault
  3
ObjectDBX Classes
 90
        0
280
     0
281
     0
  0
CLASS
  1
ACDBPLACEHOLDER
  2
AcDbPlaceHolder
  3
ObjectDBX Classes
 90
        0
280
     0
281
     0
  0
CLASS
  1
LAYOUT
  2
AcDbLayout
  3
ObjectDBX Classes
 90
        0
280
     0
281
     0
  0
CLASS
  1
DICTIONARYVAR
  2
AcDbDictionaryVar
  3
ObjectDBX Classes
 90
        0
280
     0
281
     0
  0
CLASS
  1
MATERIAL
  2
AcDbMaterial
  3
ObjectDBX Classes
 90
     1024
280
     0
281
     0
  0
CLASS
  1
VISUALSTYLE
  2
AcDbVisualStyle
  3
ObjectDBX Classes
 90
     4095
280
     0
281
     0
  0
CLASS
  1
TABLESTYLE
  2
AcDbTableStyle
  3
ObjectDBX Classes
 90
     4095
280
     0
281
     0
  0
ENDSEC
  0
SECTION
  2
TABLES
  0
TABLE
  2
VPORT
  5
8
330
0
100
AcDbSymbolTable
 70
     1
  0
VPORT
  5
234
330
8
100
AcDbSymbolTableRecord
100
AcDbViewportTableRecord
  2
*Active
 70
     0
 10
0.0
 20
0.0
 11
1.0
 21
1.0
 12
1.519016985830237
 22
0.0983414575815642
 13
0.0
 23
0.0
 14
0.5740882589684922
 24
0.5740882589684922
 15
0.5
 25
0.5
 16
0.0
 26
0.0
 36
1.0
 17
0.0
 27
0.0
 37
0.0
 40
13.88634238269495
 41
1.774011299435028
 42
50.0
 43
0.0
 44
0.0
 50
0.0
 51
0.0
 71
     0
 72
   100
 73
     1
 74
     0
 75
     0
 76
     0
 77
     0
 78
     0
281
     0
 65
     1
110
0.0
120
0.0
130
0.0
111
1.0
121
0.0
131
0.0
112
0.0
122
1.0
132
0.0
 79
     0
146
0.0
  0
ENDTAB
  0
TABLE
  2
LTYPE
  5
5
330
0
100
AcDbSymbolTable
 70
     2
  0
LTYPE
  5
12
330
5
100
AcDbSymbolTableRecord
100
AcDbLinetypeTableRecord
  2
BYBLOCK
 70
     0
  3

 72
    65
 73
     0
 40
0.0
  0
LTYPE
  5
13
330
5
100
AcDbSymbolTableRecord
100
AcDbLinetypeTableRecord
  2
BYLAYER
 70
     0
  3

 72
    65
 73
     0
 40
0.0
  0
LTYPE
  5
14
330
5
100
AcDbSymbolTableRecord
100
AcDbLinetypeTableRecord
  2
CONTINUOUS
 70
     0
  3
Solid line
 72
    65
 73
     0
 40
0.0
  0
LTYPE
  5
5E
330
5
100
AcDbSymbolTableRecord
100
AcDbLinetypeTableRecord
  2
HIDDEN2
 70
     0
  3
_ _ _ _ _ _ _ _ _ _ _ _ _ _ _ _ _ _ _ _ _ _ _ _
 72
    65
 73
     2
 40
0.1875
 49
0.125
 74
     0
 49
-0.0625
 74
     0
  0
ENDTAB
  0
TABLE
  2
LAYER
  5
2
330
0
100
AcDbSymbolTable
 70
     5
  0
LAYER
  5
F
330
2
100
AcDbSymbolTableRecord
100
AcDbLayerTableRecord
  2
0
 70
     0
 62
     7
  6
CONTINUOUS
370
    -3
390
118
  0
LAYER
  5
5F
330
2
100
AcDbSymbolTableRecord
100
AcDbLayerTableRecord
  2
ADP2DETAIL
 70
     0
 62
     5
  6
CONTINUOUS
370
    -3
390
118
  0
LAYER
  5
60
330
2
100
AcDbSymbolTableRecord
100
AcDbLayerTableRecord
  2
ADPDIM
 70
     0
 62
     3
  6
CONTINUOUS
370
    -3
390
118
  0
LAYER
  5
62
330
2
100
AcDbSymbolTableRecord
100
AcDbLayerTableRecord
  2
ADP1DETAIL
 70
     0
 62
     7
  6
CONTINUOUS
370
    -3
390
118
  0
LAYER
  5
64
330
2
100
AcDbSymbolTableRecord
100
AcDbLayerTableRecord
  2
DEFPOINTS
 70
     0
 62
     7
  6
CONTINUOUS
290
     0
370
    -3
390
118
  0
ENDTAB
  0
TABLE
  2
STYLE
  5
3
330
0
100
AcDbSymbolTable
 70
     2
  0
STYLE
  5
10
330
3
100
AcDbSymbolTableRecord
100
AcDbTextStyleTableRecord
  2
STANDARD
 70
     0
 40
0.0
 41
1.0
 50
0.0
 71
     0
 42
0.2
  3
txt
  4

  0
STYLE
  5
11F
330
3
100
AcDbSymbolTableRecord
100
AcDbTextStyleTableRecord
  2
ARIAL_WIDE
 70
     0
 40
0.0
 41
1.25
 50
0.0
 71
     0
 42
0.2
  3
ARIAL.TTF
  4

1001
ACAD
1000
Arial
1071
       34
  0
ENDTAB
  0
TABLE
  2
VIEW
  5
6
330
0
100
AcDbSymbolTable
 70
     0
  0
ENDTAB
  0
TABLE
  2
UCS
  5
7
330
0
100
AcDbSymbolTable
 70
     0
  0
ENDTAB
  0
TABLE
  2
APPID
  5
9
330
0
100
AcDbSymbolTable
 70
     2
  0
APPID
  5
11
330
9
100
AcDbSymbolTableRecord
100
AcDbRegAppTableRecord
  2
ACAD
 70
     0
  0
APPID
  5
2A8
330
9
100
AcDbSymbolTableRecord
100
AcDbRegAppTableRecord
  2
DCO15
 70
     0
  0
ENDTAB
  0
TABLE
  2
DIMSTYLE
  5
A
330
0
100
AcDbSymbolTable
 70
     1
100
AcDbDimStyleTable
 71
     1
340
113
  0
DIMSTYLE
105
113
102
{ACAD_REACTORS
330
DF
102
}
330
A
100
AcDbSymbolTableRecord
100
AcDbDimStyleTableRecord
  2
STANDARD
 70
     0
340
10
  0
ENDTAB
  0
TABLE
  2
BLOCK_RECORD
  5
1
330
0
100
AcDbSymbolTable
 70
     5
  0
BLOCK_RECORD
  5
18
102
{ACAD_XDICTIONARY
360
174
102
}
330
1
100
AcDbSymbolTableRecord
100
AcDbBlockTableRecord
  2
*MODEL_SPACE
340
11B
  0
BLOCK_RECORD
  5
15
102
{ACAD_XDICTIONARY
360
172
102
}
330
1
100
AcDbSymbolTableRecord
100
AcDbBlockTableRecord
  2
*PAPER_SPACE
340
11C
  0
BLOCK_RECORD
  5
4E
330
1
100
AcDbSymbolTableRecord
100
AcDbBlockTableRecord
  2
*D0
340
0
  0
BLOCK_RECORD
  5
57
330
1
100
AcDbSymbolTableRecord
100
AcDbBlockTableRecord
  2
*D1
340
0
  0
BLOCK_RECORD
  5
5A
330
1
100
AcDbSymbolTableRecord
100
AcDbBlockTableRecord
  2
*D2
340
0
  0
BLOCK_RECORD
  5
5C
330
1
100
AcDbSymbolTableRecord
100
AcDbBlockTableRecord
  2
*D3
340
0
  0
BLOCK_RECORD
  5
27B
330
1
100
AcDbSymbolTableRecord
100
AcDbBlockTableRecord
  2
*D4
340
0
  0
ENDTAB
  0
ENDSEC
  0
SECTION
  2
BLOCKS
  0
BLOCK
  5
67
330
18
100
AcDbEntity
  8
0
100
AcDbBlockBegin
  2
*MODEL_SPACE
 70
     0
 10
0.0
 20
0.0
 30
0.0
  3
*MODEL_SPACE
  1

  0
ENDBLK
  5
68
330
18
100
AcDbEntity
  8
0
100
AcDbBlockEnd
  0
BLOCK
  5
65
330
15
100
AcDbEntity
 67
     1
  8
0
100
AcDbBlockBegin
  2
*PAPER_SPACE
 70
     0
 10
0.0
 20
0.0
 30
0.0
  3
*PAPER_SPACE
  1

  0
ENDBLK
  5
66
330
15
100
AcDbEntity
 67
     1
  8
0
100
AcDbBlockEnd
  0
BLOCK
  5
6A
330
4E
100
AcDbEntity
  8
0
100
AcDbBlockBegin
  2
*D0
 70
     1
 10
0.0
 20
0.0
 30
0.0
  3
*D0
  1
*U
  0
LINE
  5
6B
330
4E
100
AcDbEntity
  8
0
  6
ByBlock
 62
     0
100
AcDbLine
 10
4.059669575522842
 20
4.311516950848087
 30
0.0
 11
6.319093180379432
 21
4.311516950848087
 31
0.0
  0
LINE
  5
6C
330
4E
100
AcDbEntity
  8
0
  6
ByBlock
 62
     0
100
AcDbLine
 10
4.059669575522843
 20
-0.8134830491519124
 30
0.0
 11
6.319093180379432
 21
-0.8134830491519126
 31
0.0
  0
LINE
  5
6D
330
4E
100
AcDbEntity
  8
0
  6
ByBlock
 62
     0
100
AcDbLine
 10
6.139093180379432
 20
4.311516950848087
 30
0.0
 11
6.139093180379432
 21
2.14485028418142
 31
0.0
  0
LINE
  5
6E
330
4E
100
AcDbEntity
  8
0
  6
ByBlock
 62
     0
100
AcDbLine
 10
6.139093180379432
 20
-0.8134830491519126
 30
0.0
 11
6.139093180379432
 21
1.353183617514753
 31
0.0
  0
LINE
  5
6F
330
4E
100
AcDbEntity
  8
0
  6
ByBlock
 62
     0
100
AcDbLine
 10
6.264093180379432
 20
4.186516950848087
 30
0.0
 11
6.014093180379432
 21
4.436516950848087
 31
0.0
  0
LINE
  5
70
330
4E
100
AcDbEntity
  8
0
  6
ByBlock
 62
     0
100
AcDbLine
 10
6.264093180379432
 20
-0.9384830491519126
 30
0.0
 11
6.014093180379432
 21
-0.6884830491519126
 31
0.0
  0
TEXT
  5
71
330
4E
100
AcDbEntity
  8
0
  6
ByBlock
 62
     0
100
AcDbText
 10
6.201593180379432
 20
1.478183617514753
 30
0.0
 40
0.125
  1
5 1/8
 50
90.0
 72
     1
 11
6.139093180379432
 21
1.749016950848087
 31
0.0
100
AcDbText
 73
     2
  0
POINT
  5
72
330
4E
100
AcDbEntity
  8
DEFPOINTS
  6
ByBlock
 62
     0
100
AcDbPoint
 10
3.997169575522842
 20
4.311516950848087
 30
0.0
  0
POINT
  5
73
330
4E
100
AcDbEntity
  8
DEFPOINTS
  6
ByBlock
 62
     0
100
AcDbPoint
 10
3.997169575522842
 20
-0.8134830491519124
 30
0.0
  0
POINT
  5
74
330
4E
100
AcDbEntity
  8
DEFPOINTS
  6
ByBlock
 62
     0
100
AcDbPoint
 10
6.139093180379432
 20
-0.8134830491519126
 30
0.0
  0
ENDBLK
  5
75
330
4E
100
AcDbEntity
  8
0
100
AcDbBlockEnd
  0
BLOCK
  5
76
330
57
100
AcDbEntity
  8
0
100
AcDbBlockBegin
  2
*D1
 70
     1
 10
0.0
 20
0.0
 30
0.0
  3
*D1
  1

  0
LINE
  5
77
330
57
100
AcDbEntity
  8
0
  6
ByBlock
 62
     0
100
AcDbLine
 10
5.696605339411732
 20
3.833687945962475
 30
0.0
 11
5.696605339411732
 21
4.878569491733419
 31
0.0
  0
LINE
  5
78
330
57
100
AcDbEntity
  8
0
  6
ByBlock
 62
     0
100
AcDbLine
 10
0.0733414505228428
 20
3.646005665091001
 30
0.0
 11
0.0733414505228428
 21
4.878569491733419
 31
0.0
  0
LINE
  5
79
330
57
100
AcDbEntity
  8
0
  6
ByBlock
 62
     0
100
AcDbLine
 10
5.696605339411732
 20
4.698569491733419
 30
0.0
 11
3.301640061633954
 21
4.698569491733419
 31
0.0
  0
LINE
  5
7A
330
57
100
AcDbEntity
  8
0
  6
ByBlock
 62
     0
100
AcDbLine
 10
0.0733414505228428
 20
4.698569491733419
 30
0.0
 11
2.468306728300621
 21
4.698569491733419
 31
0.0
  0
LINE
  5
7B
330
57
100
AcDbEntity
  8
0
  6
ByBlock
 62
     0
100
AcDbLine
 10
5.571605339411732
 20
4.573569491733419
 30
0.0
 11
5.821605339411732
 21
4.823569491733419
 31
0.0
  0
LINE
  5
7C
330
57
100
AcDbEntity
  8
0
  6
ByBlock
 62
     0
100
AcDbLine
 10
-0.0516585494771572
 20
4.573569491733419
 30
0.0
 11
0.1983414505228428
 21
4.823569491733419
 31
0.0
  0
TEXT
  5
7D
330
57
100
AcDbEntity
  8
0
  6
ByBlock
 62
     0
100
AcDbText
 10
2.593306728300621
 20
4.636069491733419
 30
0.0
 40
0.125
  1
5 5/8
 72
     1
 11
2.884973394967287
 21
4.698569491733419
 31
0.0
100
AcDbText
 73
     2
  0
POINT
  5
7E
330
57
100
AcDbEntity
  8
DEFPOINTS
  6
ByBlock
 62
     0
100
AcDbPoint
 10
5.696605339411732
 20
3.771187945962475
 30
0.0
  0
POINT
  5
7F
330
57
100
AcDbEntity
  8
DEFPOINTS
  6
ByBlock
 62
     0
100
AcDbPoint
 10
0.0733414505228428
 20
3.583505665091001
 30
0.0
  0
POINT
  5
80
330
57
100
AcDbEntity
  8
DEFPOINTS
  6
ByBlock
 62
     0
100
AcDbPoint
 10
0.0733414505228428
 20
4.698569491733419
 30
0.0
  0
ENDBLK
  5
81
330
57
100
AcDbEntity
  8
0
100
AcDbBlockEnd
  0
BLOCK
  5
82
330
5A
100
AcDbEntity
  8
0
100
AcDbBlockBegin
  2
*D2
 70
     1
 10
0.0
 20
0.0
 30
0.0
  3
*D2
  1
*U
  0
LINE
  5
83
330
5A
100
AcDbEntity
  8
0
  6
ByBlock
 62
     0
100
AcDbLine
 10
5.225251172745062
 20
-2.150432151908629
 30
0.0
 11
6.980415185845729
 21
-2.150432151908629
 31
0.0
  0
LINE
  5
84
330
5A
100
AcDbEntity
  8
0
  6
ByBlock
 62
     0
100
AcDbLine
 10
5.750207769967285
 20
-4.650649165797519
 30
0.0
 11
6.980415185845729
 21
-4.650649165797519
 31
0.0
  0
LINE
  5
85
330
5A
100
AcDbEntity
  8
0
  6
ByBlock
 62
     0
100
AcDbLine
 10
6.80041518584573
 20
-2.150432151908629
 30
0.0
 11
6.80041518584573
 21
-3.004707325519741
 31
0.0
  0
LINE
  5
86
330
5A
100
AcDbEntity
  8
0
  6
ByBlock
 62
     0
100
AcDbLine
 10
6.80041518584573
 20
-4.650649165797519
 30
0.0
 11
6.80041518584573
 21
-3.796373992186408
 31
0.0
  0
LINE
  5
87
330
5A
100
AcDbEntity
  8
0
  6
ByBlock
 62
     0
100
AcDbLine
 10
6.92541518584573
 20
-2.275432151908629
 30
0.0
 11
6.67541518584573
 21
-2.025432151908629
 31
0.0
  0
LINE
  5
88
330
5A
100
AcDbEntity
  8
0
  6
ByBlock
 62
     0
100
AcDbLine
 10
6.92541518584573
 20
-4.775649165797519
 30
0.0
 11
6.67541518584573
 21
-4.525649165797519
 31
0.0
  0
TEXT
  5
89
330
5A
100
AcDbEntity
  8
0
  6
ByBlock
 62
     0
100
AcDbText
 10
6.86291518584573
 20
-3.671373992186408
 30
0.0
 40
0.125
  1
2 1/2
 50
90.0
 72
     1
 11
6.80041518584573
 21
-3.400540658853074
 31
0.0
100
AcDbText
 73
     2
  0
POINT
  5
8A
330
5A
100
AcDbEntity
  8
DEFPOINTS
  6
ByBlock
 62
     0
100
AcDbPoint
 10
5.162751172745062
 20
-2.150432151908629
 30
0.0
  0
POINT
  5
8B
330
5A
100
AcDbEntity
  8
DEFPOINTS
  6
ByBlock
 62
     0
100
AcDbPoint
 10
5.687707769967285
 20
-4.650649165797519
 30
0.0
  0
POINT
  5
8C
330
5A
100
AcDbEntity
  8
DEFPOINTS
  6
ByBlock
 62
     0
100
AcDbPoint
 10
6.80041518584573
 20
-4.650649165797519
 30
0.0
  0
ENDBLK
  5
8D
330
5A
100
AcDbEntity
  8
0
100
AcDbBlockEnd
  0
BLOCK
  5
8E
330
5C
100
AcDbEntity
  8
0
100
AcDbBlockBegin
  2
*D3
 70
     1
 10
0.0
 20
0.0
 30
0.0
  3
*D3
  1
*U
  0
LINE
  5
8F
330
5C
100
AcDbEntity
  8
0
  6
ByBlock
 62
     0
100
AcDbLine
 10
5.625641797745062
 20
-4.116794999130853
 30
0.0
 11
6.24967455732905
 21
-4.116794999130853
 31
0.0
  0
LINE
  5
90
330
5C
100
AcDbEntity
  8
0
  6
ByBlock
 62
     0
100
AcDbLine
 10
5.750207769967285
 20
-4.650649165797519
 30
0.0
 11
6.24967455732905
 21
-4.650649165797519
 31
0.0
  0
LINE
  5
91
330
5C
100
AcDbEntity
  8
0
  6
ByBlock
 62
     0
100
AcDbLine
 10
6.06967455732905
 20
-4.116794999130853
 30
0.0
 11
6.06967455732905
 21
-3.866794999130853
 31
0.0
  0
LINE
  5
92
330
5C
100
AcDbEntity
  8
0
  6
ByBlock
 62
     0
100
AcDbLine
 10
6.06967455732905
 20
-4.650649165797519
 30
0.0
 11
6.06967455732905
 21
-4.900649165797519
 31
0.0
  0
LINE
  5
93
330
5C
100
AcDbEntity
  8
0
  6
ByBlock
 62
     0
100
AcDbLine
 10
6.19467455732905
 20
-4.241794999130853
 30
0.0
 11
5.94467455732905
 21
-3.991794999130853
 31
0.0
  0
LINE
  5
94
330
5C
100
AcDbEntity
  8
0
  6
ByBlock
 62
     0
100
AcDbLine
 10
6.19467455732905
 20
-4.775649165797519
 30
0.0
 11
5.94467455732905
 21
-4.525649165797519
 31
0.0
  0
TEXT
  5
95
330
5C
100
AcDbEntity
  8
0
  6
ByBlock
 62
     0
100
AcDbText
 10
6.13217455732905
 20
-5.567315832464185
 30
0.0
 40
0.125
  1
17/32
 50
90.0
 72
     1
 11
6.06967455732905
 21
-5.296482499130852
 31
0.0
100
AcDbText
 73
     2
  0
POINT
  5
96
330
5C
100
AcDbEntity
  8
DEFPOINTS
  6
ByBlock
 62
     0
100
AcDbPoint
 10
5.563141797745062
 20
-4.116794999130853
 30
0.0
  0
POINT
  5
97
330
5C
100
AcDbEntity
  8
DEFPOINTS
  6
ByBlock
 62
     0
100
AcDbPoint
 10
5.687707769967285
 20
-4.650649165797519
 30
0.0
  0
POINT
  5
98
330
5C
100
AcDbEntity
  8
DEFPOINTS
  6
ByBlock
 62
     0
100
AcDbPoint
 10
6.06967455732905
 20
-4.650649165797519
 30
0.0
  0
ENDBLK
  5
99
330
5C
100
AcDbEntity
  8
0
100
AcDbBlockEnd
  0
BLOCK
  5
286
330
27B
100
AcDbEntity
  8
0
100
AcDbBlockBegin
  2
*D4
 70
     1
 10
0.0
 20
0.0
 30
0.0
  3
*D4
  1

  0
LINE
  5
29C
330
27B
100
AcDbEntity
  8
ADPDIM
 62
     0
370
    -2
100
AcDbLine
 10
5.625641797745062
 20
-4.116794999130853
 30
0.0
 11
6.24967455732905
 21
-4.116794999130854
 31
0.0
  0
LINE
  5
29D
330
27B
100
AcDbEntity
  8
ADPDIM
 62
     0
370
    -2
100
AcDbLine
 10
5.750207769967285
 20
-4.650649165797519
 30
0.0
 11
6.24967455732905
 21
-4.65064916579752
 31
0.0
  0
LINE
  5
29E
330
27B
100
AcDbEntity
  8
ADPDIM
 62
     0
370
    -2
100
AcDbLine
 10
6.06967455732905
 20
-4.116794999130854
 30
0.0
 11
6.06967455732905
 21
-4.65064916579752
 31
0.0
  0
LINE
  5
29F
330
27B
100
AcDbEntity
  8
ADPDIM
 62
     0
370
    -2
100
AcDbLine
 10
6.06967455732905
 20
-4.65064916579752
 30
0.0
 11
6.06967455732905
 21
-4.90064916579752
 31
0.0
  0
LINE
  5
2A0
330
27B
100
AcDbEntity
  8
ADPDIM
 62
     0
370
    -2
100
AcDbLine
 10
6.19467455732905
 20
-4.77564916579752
 30
0.0
 11
5.94467455732905
 21
-4.525649165797519
 31
0.0
  0
LINE
  5
2A1
330
27B
100
AcDbEntity
  8
ADPDIM
 62
     0
370
    -2
100
AcDbLine
 10
6.19467455732905
 20
-4.241794999130854
 30
0.0
 11
5.94467455732905
 21
-3.991794999130853
 31
0.0
  0
MTEXT
  5
2A2
330
27B
100
AcDbEntity
  8
ADPDIM
 62
     0
100
AcDbMText
 10
6.069674557329051
 20
-5.233982499130851
 30
0.0
 40
0.125
 41
0.0
 71
     5
 72
     1
  1
\A1;9/16
 11
0.0000000000000001
 21
1.0
 31
0.0
 73
     1
 44
1.0
1001
ACAD
1000
MTEXTBEGIN
1070
    73
1070
     1
1070
    44
1040
1.0
1070
    74
1070
     0
1000
MTEXTEND
  0
POINT
  5
2A3
330
27B
100
AcDbEntity
  8
DEFPOINTS
 62
     0
100
AcDbPoint
 10
5.563141797745062
 20
-4.116794999130853
 30
0.0
  0
POINT
  5
2A4
330
27B
100
AcDbEntity
  8
DEFPOINTS
 62
     0
100
AcDbPoint
 10
5.687707769967285
 20
-4.650649165797519
 30
0.0
  0
POINT
  5
2A5
330
27B
100
AcDbEntity
  8
DEFPOINTS
 62
     0
100
AcDbPoint
 10
6.06967455732905
 20
-4.65064916579752
 30
0.0
  0
ENDBLK
  5
287
330
27B
100
AcDbEntity
  8
0
100
AcDbBlockEnd
  0
ENDSEC
  0
SECTION
  2
ENTITIES
  0
DIMENSION
  5
9A
330
18
100
AcDbEntity
  8
ADPDIM
100
AcDbDimension
  2
*D2
 10
6.80041518584573
 20
-4.650649165797519
 30
0.0
 11
6.80041518584573
 21
-3.400540658853074
 31
0.0
 71
     5
 42
-1.0
100
AcDbAlignedDimension
 13
5.162751172745062
 23
-2.150432151908629
 33
0.0
 14
5.687707769967285
 24
-4.650649165797519
 34
0.0
 50
90.0
100
AcDbRotatedDimension
  0
DIMENSION
  5
9B
330
18
100
AcDbEntity
  8
ADPDIM
100
AcDbDimension
  2
*D1
 10
0.0733414505228428
 20
4.698569491733419
 30
0.0
 11
2.884973394967287
 21
4.698569491733419
 31
0.0
 71
     5
 42
-1.0
100
AcDbAlignedDimension
 13
5.696605339411732
 23
3.771187945962475
 33
0.0
 14
0.0733414505228428
 24
3.583505665091001
 34
0.0
100
AcDbRotatedDimension
  0
LINE
  5
9C
330
18
100
AcDbEntity
  8
ADP1DETAIL
100
AcDbLine
 10
2.884973394967287
 20
-2.150432151908629
 30
0.0
 11
0.5982980477450664
 21
-2.150432151908629
 31
0.0
  0
LINE
  5
9D
330
18
100
AcDbEntity
  8
ADP1DETAIL
100
AcDbLine
 10
0.0733414505228431
 20
-4.650649165797519
 30
0.0
 11
2.884973394967287
 21
-4.650649165797519
 31
0.0
  0
LINE
  5
9E
330
18
100
AcDbEntity
  8
ADP1DETAIL
100
AcDbLine
 10
0.2957806866339556
 20
-4.116794999130853
 30
0.0
 11
5.42078068663395
 21
-4.116794999130853
 31
0.0
  0
LINE
  5
9F
330
18
100
AcDbEntity
  8
ADP2DETAIL
  6
HIDDEN2
100
AcDbLine
 10
5.394087978300618
 20
-4.490492915797519
 30
0.0
 11
0.3758588116339538
 21
-4.490492915797519
 31
0.0
  0
ARC
  5
A0
330
18
100
AcDbEntity
  8
ADP1DETAIL
100
AcDbCircle
 10
2.255524610245065
 20
2.80379125640364
 30
0.0
 40
3.613644762586441
100
AcDbArc
 50
232.8521996026489
 51
270.0
  0
ARC
  5
A1
330
18
100
AcDbEntity
  8
ADP1DETAIL
100
AcDbCircle
 10
2.255524610245065
 20
2.80379125640364
 30
0.0
 40
2.705283228064486
100
AcDbArc
 50
225.1963167432839
 51
270.0
  0
ARC
  5
A2
330
18
100
AcDbEntity
  8
ADP1DETAIL
100
AcDbCircle
 10
2.255524610245065
 20
0.703140214736977
 30
0.0
 40
2.705283228064486
100
AcDbArc
 50
90.0
 51
134.8036832567161
  0
ARC
  5
A3
330
18
100
AcDbEntity
  8
ADP1DETAIL
100
AcDbCircle
 10
2.255524610245065
 20
2.80379125640364
 30
0.0
 40
3.432093470120741
100
AcDbArc
 50
234.4526713143487
 51
270.0
  0
ARC
  5
A4
330
18
100
AcDbEntity
  8
ADP1DETAIL
100
AcDbCircle
 10
2.255524610245065
 20
2.80379125640364
 30
0.0
 40
3.514182292725648
100
AcDbArc
 50
234.1604032112706
 51
270.0
  0
CIRCLE
  5
A5
330
18
100
AcDbEntity
  8
ADP1DETAIL
100
AcDbCircle
 10
0.8830202699672877
 20
0.0584787564036411
 30
0.0
 40
0.2435761611789839
  0
ARC
  5
A6
330
18
100
AcDbEntity
  8
ADP1DETAIL
100
AcDbCircle
 10
2.255524610245065
 20
2.80379125640364
 30
0.0
 40
2.424999999999999
100
AcDbArc
 50
226.3127391437368
 51
270.0
  0
ARC
  5
A7
330
18
100
AcDbEntity
  8
ADP1DETAIL
100
AcDbCircle
 10
2.255524610245065
 20
2.80379125640364
 30
0.0
 40
2.0
100
AcDbArc
 50
231.3178125465106
 51
270.0
  0
ARC
  5
A8
330
18
100
AcDbEntity
  8
ADP1DETAIL
100
AcDbCircle
 10
2.255524610245065
 20
0.703140214736977
 30
0.0
 40
2.0
100
AcDbArc
 50
90.0
 51
128.6821874534894
  0
ARC
  5
A9
330
18
100
AcDbEntity
  8
ADP1DETAIL
100
AcDbCircle
 10
2.255524610245065
 20
0.703140214736977
 30
0.0
 40
2.424999999999999
100
AcDbArc
 50
90.0
 51
133.6872608562631
  0
ARC
  5
AA
330
18
100
AcDbEntity
  8
ADP1DETAIL
100
AcDbCircle
 10
2.255524610245065
 20
0.7031402147369757
 30
0.0
 40
3.613644762586441
100
AcDbArc
 50
90.00000000000003
 51
127.1478003973511
  0
ARC
  5
AB
330
18
100
AcDbEntity
  8
ADP1DETAIL
100
AcDbCircle
 10
2.255524610245065
 20
0.703140214736977
 30
0.0
 40
3.432093470120741
100
AcDbArc
 50
90.0
 51
125.5473286856513
  0
ARC
  5
AC
330
18
100
AcDbEntity
  8
ADP1DETAIL
100
AcDbCircle
 10
2.255524610245065
 20
0.703140214736977
 30
0.0
 40
3.514182292725648
100
AcDbArc
 50
90.0
 51
125.8395967887294
  0
CIRCLE
  5
AD
330
18
100
AcDbEntity
  8
ADP1DETAIL
100
AcDbCircle
 10
0.8830202699672877
 20
3.43955514529253
 30
0.0
 40
0.2435761611789839
  0
LINE
  5
AE
330
18
100
AcDbEntity
  8
ADP2DETAIL
  6
HIDDEN2
100
AcDbLine
 10
1.007586242189509
 20
-2.150432151908629
 30
0.0
 11
1.007586242189509
 21
-4.490492915797519
 31
0.0
  0
LINE
  5
AF
330
18
100
AcDbEntity
  8
ADP1DETAIL
100
AcDbLine
 10
0.5982980477450664
 20
-2.150432151908629
 30
0.0
 11
0.4203466588561771
 21
-3.99222902690863
 31
0.0
  0
LINE
  5
B0
330
18
100
AcDbEntity
  8
ADP1DETAIL
100
AcDbLine
 10
0.3847563810783985
 20
-4.081204721353074
 30
0.0
 11
0.3491661033006217
 21
-4.107897429686408
 31
0.0
  0
LINE
  5
B1
330
18
100
AcDbEntity
  8
ADP2DETAIL
  6
HIDDEN2
100
AcDbLine
 10
0.3758588116339538
 20
-4.490492915797519
 30
0.0
 11
0.3313709644117324
 21
-4.508288054686408
 31
0.0
  0
LINE
  5
B2
330
18
100
AcDbEntity
  8
ADP1DETAIL
100
AcDbLine
 10
0.3491661033006217
 20
-4.107897429686408
 30
0.0
 11
0.2957806866339556
 21
-4.116794999130853
 31
0.0
  0
LINE
  5
B3
330
18
100
AcDbEntity
  8
ADP2DETAIL
  6
HIDDEN2
100
AcDbLine
 10
0.3313709644117324
 20
-4.508288054686408
 30
0.0
 11
0.3135758255228431
 21
-4.55277590190863
 31
0.0
  0
LINE
  5
B4
330
18
100
AcDbEntity
  8
ADP2DETAIL
  6
HIDDEN2
100
AcDbLine
 10
0.3135758255228431
 20
-4.55277590190863
 30
0.0
 11
0.286883117189511
 21
-4.650649165797519
 31
0.0
  0
LINE
  5
B5
330
18
100
AcDbEntity
  8
ADP1DETAIL
100
AcDbLine
 10
0.206804992189511
 20
-4.116794999130853
 30
0.0
 11
0.0733414505228431
 21
-4.650649165797519
 31
0.0
  0
LINE
  5
B6
330
18
100
AcDbEntity
  8
ADP1DETAIL
100
AcDbLine
 10
0.2957806866339556
 20
-4.116794999130853
 30
0.0
 11
0.206804992189511
 21
-4.116794999130853
 31
0.0
  0
LINE
  5
B7
330
18
100
AcDbEntity
  8
ADP2DETAIL
  6
HIDDEN2
100
AcDbLine
 10
0.6427858949672878
 20
-4.116794999130853
 30
0.0
 11
0.6427858949672878
 21
-4.490492915797519
 31
0.0
  0
LINE
  5
B8
330
18
100
AcDbEntity
  8
ADP1DETAIL
100
AcDbLine
 10
0.4114490894117325
 20
-4.045614443575296
 30
0.0
 11
0.3847563810783985
 21
-4.081204721353074
 31
0.0
  0
LINE
  5
B9
330
18
100
AcDbEntity
  8
ADP1DETAIL
100
AcDbLine
 10
0.4203466588561771
 20
-3.99222902690863
 30
0.0
 11
0.4114490894117325
 21
-4.045614443575296
 31
0.0
  0
LINE
  5
BA
330
18
100
AcDbEntity
  8
ADP1DETAIL
100
AcDbLine
 10
0.0733414505228428
 20
3.583505665091001
 30
0.0
 11
0.0733414505228439
 21
-0.0765741939503863
 31
0.0
  0
LINE
  5
BB
330
18
100
AcDbEntity
  8
ADP1DETAIL
100
AcDbLine
 10
0.2601904088561761
 20
3.495613493465565
 30
0.0
 11
0.2601904088561771
 21
0.0113179776750521
 31
0.0
  0
LINE
  5
BC
330
18
100
AcDbEntity
  8
ADP1DETAIL
100
AcDbLine
 10
0.1979074227450649
 20
3.551944998538612
 30
0.0
 11
0.197907422745066
 21
-0.0450135273979941
 31
0.0
  0
LINE
  5
BD
330
18
100
AcDbEntity
  8
ADP1DETAIL
100
AcDbLine
 10
0.3491661033006208
 20
2.622607481206388
 30
0.0
 11
0.3491661033006213
 21
0.8843239899342282
 31
0.0
  0
LINE
  5
BE
330
18
100
AcDbEntity
  8
ADP1DETAIL
100
AcDbLine
 10
0.5805246102450657
 20
2.456708006411994
 30
0.0
 11
0.5805246102450661
 21
1.050223464728623
 31
0.0
  0
ARC
  5
BF
330
18
100
AcDbEntity
  8
ADP1DETAIL
100
AcDbCircle
 10
1.068024610245065
 20
1.953140214736976
 30
0.0
 40
0.0625
100
AcDbArc
 50
180.0
 51
270.0
  0
LINE
  5
C0
330
18
100
AcDbEntity
  8
ADP1DETAIL
100
AcDbLine
 10
1.068524610245065
 20
1.74129125640364
 30
0.0
 11
1.068524610245065
 21
1.61629125640364
 31
0.0
  0
LINE
  5
C1
330
18
100
AcDbEntity
  8
ADP1DETAIL
100
AcDbLine
 10
1.068524610245065
 20
1.74129125640364
 30
0.0
 11
1.068524610245065
 21
1.890640214736976
 31
0.0
  0
LINE
  5
C2
330
18
100
AcDbEntity
  8
ADP1DETAIL
100
AcDbLine
 10
1.005524610245065
 20
1.55379125640364
 30
0.0
 11
1.005524610245065
 21
1.242541756804041
 31
0.0
  0
ARC
  5
C3
330
18
100
AcDbEntity
  8
ADP1DETAIL
100
AcDbCircle
 10
1.068024610245065
 20
1.55379125640364
 30
0.0
 40
0.0625
100
AcDbArc
 50
90.00000000000003
 51
180.0
  0
LINE
  5
C4
330
18
100
AcDbEntity
  8
ADP1DETAIL
100
AcDbLine
 10
1.005524610245065
 20
1.953140214736976
 30
0.0
 11
1.005524610245065
 21
2.264389714336576
 31
0.0
  0
ARC
  5
C5
330
18
100
AcDbEntity
  8
ADP1DETAIL
100
AcDbCircle
 10
3.505524610245065
 20
2.80379125640364
 30
0.0
 40
3.613644762586441
100
AcDbArc
 50
270.0
 51
307.1478003973511
  0
ARC
  5
C6
330
18
100
AcDbEntity
  8
ADP1DETAIL
100
AcDbCircle
 10
3.505524610245065
 20
2.80379125640364
 30
0.0
 40
3.514182292725648
100
AcDbArc
 50
270.0
 51
305.8395967887294
  0
ARC
  5
C7
330
18
100
AcDbEntity
  8
ADP1DETAIL
100
AcDbCircle
 10
3.505524610245065
 20
2.80379125640364
 30
0.0
 40
3.432093470120741
100
AcDbArc
 50
270.0
 51
305.5473286856513
  0
DIMENSION
  5
C8
330
18
100
AcDbEntity
  8
ADPDIM
100
AcDbDimension
  2
*D0
 10
6.139093180379432
 20
-0.8134830491519126
 30
0.0
 11
6.139093180379432
 21
1.749016950848087
 31
0.0
 71
     5
 42
-1.0
100
AcDbAlignedDimension
 13
3.997169575522842
 23
4.311516950848087
 33
0.0
 14
3.997169575522842
 24
-0.8134830491519124
 34
0.0
 50
90.0
100
AcDbRotatedDimension
  0
LINE
  5
C9
330
18
100
AcDbEntity
  8
ADP1DETAIL
100
AcDbLine
 10
5.162751172745062
 20
-2.150432151908629
 30
0.0
 11
2.884973394967287
 21
-2.150432151908629
 31
0.0
  0
LINE
  5
CA
330
18
100
AcDbEntity
  8
ADP1DETAIL
100
AcDbLine
 10
2.876075825522843
 20
-4.650649165797519
 30
0.0
 11
5.687707769967285
 21
-4.650649165797519
 31
0.0
  0
CIRCLE
  5
CB
330
18
100
AcDbEntity
  8
ADP1DETAIL
100
AcDbCircle
 10
2.880524610245063
 20
-3.115818436630852
 30
0.0
 40
0.0943729753536726
  0
LINE
  5
CC
330
18
100
AcDbEntity
  8
ADP2DETAIL
  6
HIDDEN2
100
AcDbLine
 10
2.742612283856175
 20
-2.150432151908629
 30
0.0
 11
2.742612283856175
 21
-4.490492915797519
 31
0.0
  0
LINE
  5
CD
330
18
100
AcDbEntity
  8
ADP2DETAIL
  6
HIDDEN2
100
AcDbLine
 10
3.027334506078396
 20
-2.150432151908629
 30
0.0
 11
3.027334506078396
 21
-4.490492915797519
 31
0.0
  0
LINE
  5
CE
330
18
100
AcDbEntity
  8
ADP2DETAIL
  6
HIDDEN2
100
AcDbLine
 10
1.141049783856177
 20
-2.150432151908629
 30
0.0
 11
1.141049783856177
 21
-4.490492915797519
 31
0.0
  0
LINE
  5
CF
330
18
100
AcDbEntity
  8
ADP1DETAIL
100
AcDbLine
 10
2.876075825522843
 20
-4.650649165797519
 30
0.0
 11
2.876075825522843
 21
-4.650649165797519
 31
0.0
  0
LINE
  5
D0
330
18
100
AcDbEntity
  8
ADP1DETAIL
100
AcDbLine
 10
2.884973394967287
 20
-4.650649165797519
 30
0.0
 11
2.876075825522843
 21
-4.650649165797519
 31
0.0
  0
LINE
  5
D1
330
18
100
AcDbEntity
  8
ADP1DETAIL
100
AcDbLine
 10
2.255524610245065
 20
-0.8098535061828005
 30
0.0
 11
3.505524610245065
 21
-0.8098535061828005
 31
0.0
  0
LINE
  5
D2
330
18
100
AcDbEntity
  8
ADP1DETAIL
100
AcDbLine
 10
2.255524610245065
 20
-0.6283022137171002
 30
0.0
 11
3.505524610245065
 21
-0.6283022137171002
 31
0.0
  0
LINE
  5
D3
330
18
100
AcDbEntity
  8
ADP1DETAIL
100
AcDbLine
 10
2.255524610245065
 20
-0.7103910363220072
 30
0.0
 11
3.505524610245065
 21
-0.7103910363220072
 31
0.0
  0
LINE
  5
D4
330
18
100
AcDbEntity
  8
ADP1DETAIL
100
AcDbLine
 10
2.849383117189509
 20
-3.03129152690863
 30
0.0
 11
2.822690408856175
 21
-3.057984235241964
 31
0.0
  0
LINE
  5
D5
330
18
100
AcDbEntity
  8
ADP1DETAIL
100
AcDbLine
 10
2.81379283941173
 20
-3.04908666579752
 30
0.0
 11
2.947256381078396
 21
-3.182550207464185
 31
0.0
  0
LINE
  5
D6
330
18
100
AcDbEntity
  8
ADP1DETAIL
100
AcDbLine
 10
2.822690408856175
 20
-3.057984235241964
 30
0.0
 11
2.795997700522843
 21
-3.084676943575296
 31
0.0
  0
LINE
  5
D7
330
18
100
AcDbEntity
  8
ADP1DETAIL
100
AcDbLine
 10
2.884973394967287
 20
-3.022393957464185
 30
0.0
 11
2.849383117189509
 21
-3.03129152690863
 31
0.0
  0
LINE
  5
D8
330
18
100
AcDbEntity
  8
ADP1DETAIL
100
AcDbLine
 10
2.920563672745064
 20
-3.03129152690863
 30
0.0
 11
2.884973394967287
 21
-3.022393957464185
 31
0.0
  0
LINE
  5
D9
330
18
100
AcDbEntity
  8
ADP1DETAIL
100
AcDbLine
 10
2.956153950522843
 20
-3.057984235241964
 30
0.0
 11
2.920563672745064
 21
-3.03129152690863
 31
0.0
  0
LINE
  5
DA
330
18
100
AcDbEntity
  8
ADP1DETAIL
100
AcDbLine
 10
2.97394908941173
 20
-3.084676943575296
 30
0.0
 11
2.956153950522843
 21
-3.057984235241964
 31
0.0
  0
LINE
  5
DB
330
18
100
AcDbEntity
  8
ADP1DETAIL
100
AcDbLine
 10
5.349600131078396
 20
-3.99222902690863
 30
0.0
 11
5.162751172745062
 21
-2.150432151908629
 31
0.0
  0
LINE
  5
DC
330
18
100
AcDbEntity
  8
ADP2DETAIL
  6
HIDDEN2
100
AcDbLine
 10
4.762360547745064
 20
-2.150432151908629
 30
0.0
 11
4.762360547745064
 21
-4.490492915797519
 31
0.0
  0
LINE
  5
DD
330
18
100
AcDbEntity
  8
ADP2DETAIL
  6
HIDDEN2
100
AcDbLine
 10
4.619999436633952
 20
-2.150432151908629
 30
0.0
 11
4.619999436633952
 21
-4.490492915797519
 31
0.0
  0
LINE
  5
DE
330
18
100
AcDbEntity
  8
ADP2DETAIL
  6
HIDDEN2
100
AcDbLine
 10
5.118263325522839
 20
-4.116794999130853
 30
0.0
 11
5.118263325522839
 21
-4.490492915797519
 31
0.0
  0
DIMENSION
  5
DF
330
18
100
AcDbEntity
  8
ADPDIM
100
AcDbDimension
  2
*D4
 10
6.06967455732905
 20
-4.65064916579752
 30
0.0
 11
6.069674557329051
 21
-5.233982499130851
 31
0.0
 70
   160
 71
     5
 42
0.5338541666666661
  3
STANDARD
100
AcDbAlignedDimension
 13
5.563141797745062
 23
-4.116794999130853
 33
0.0
 14
5.687707769967285
 24
-4.650649165797519
 34
0.0
 50
90.0
100
AcDbRotatedDimension
1001
ACAD
1000
DSTYLE
1002
{
1070
   276
1070
     2
1070
   277
1070
     5
1070
    41
1040
0.125
1070
    73
1070
     0
1070
    74
1070
     0
1070
    78
1070
     3
1070
   140
1040
0.125
1070
   141
1040
0.1875
1070
   142
1040
0.125
1070
   147
1040
0.125
1070
   171
1070
     1
1002
}
  0
LINE
  5
E0
330
18
100
AcDbEntity
  8
ADP1DETAIL
100
AcDbLine
 10
5.687707769967285
 20
-4.650649165797519
 30
0.0
 11
5.563141797745062
 21
-4.116794999130853
 31
0.0
  0
LINE
  5
E1
330
18
100
AcDbEntity
  8
ADP1DETAIL
100
AcDbLine
 10
5.358497700522839
 20
-4.045614443575296
 30
0.0
 11
5.349600131078396
 21
-3.99222902690863
 31
0.0
  0
LINE
  5
E2
330
18
100
AcDbEntity
  8
ADP1DETAIL
100
AcDbLine
 10
5.385190408856173
 20
-4.081204721353074
 30
0.0
 11
5.358497700522839
 21
-4.045614443575296
 31
0.0
  0
LINE
  5
E3
330
18
100
AcDbEntity
  8
ADP1DETAIL
100
AcDbLine
 10
5.429678256078396
 20
-4.107897429686408
 30
0.0
 11
5.385190408856173
 21
-4.081204721353074
 31
0.0
  0
LINE
  5
E4
330
18
100
AcDbEntity
  8
ADP1DETAIL
100
AcDbLine
 10
5.474166103300618
 20
-4.116794999130853
 30
0.0
 11
5.429678256078396
 21
-4.107897429686408
 31
0.0
  0
LINE
  5
E5
330
18
100
AcDbEntity
  8
ADP2DETAIL
  6
HIDDEN2
100
AcDbLine
 10
5.483063672745062
 20
-4.650649165797519
 30
0.0
 11
5.456370964411728
 21
-4.55277590190863
 31
0.0
  0
LINE
  5
E6
330
18
100
AcDbEntity
  8
ADP2DETAIL
  6
HIDDEN2
100
AcDbLine
 10
5.456370964411728
 20
-4.55277590190863
 30
0.0
 11
5.438575825522841
 21
-4.508288054686408
 31
0.0
  0
LINE
  5
E7
330
18
100
AcDbEntity
  8
ADP2DETAIL
  6
HIDDEN2
100
AcDbLine
 10
5.438575825522841
 20
-4.508288054686408
 30
0.0
 11
5.394087978300618
 21
-4.490492915797519
 31
0.0
  0
LINE
  5
E8
330
18
100
AcDbEntity
  8
ADP1DETAIL
100
AcDbLine
 10
5.563141797745062
 20
-4.116794999130853
 30
0.0
 11
5.474166103300618
 21
-4.116794999130853
 31
0.0
  0
ARC
  5
E9
330
18
100
AcDbEntity
  8
ADP1DETAIL
100
AcDbCircle
 10
3.505524610245065
 20
0.703140214736977
 30
0.0
 40
2.705283228064486
100
AcDbArc
 50
44.93011061810811
 51
90.0
  0
ARC
  5
EA
330
18
100
AcDbEntity
  8
ADP1DETAIL
100
AcDbCircle
 10
3.505524610245065
 20
0.703140214736977
 30
0.0
 40
2.0
100
AcDbArc
 50
51.31781254651056
 51
90.0
  0
ARC
  5
EB
330
18
100
AcDbEntity
  8
ADP1DETAIL
100
AcDbCircle
 10
3.505524610245065
 20
0.703140214736977
 30
0.0
 40
2.424999999999999
100
AcDbArc
 50
46.31273914373684
 51
90.0
  0
ARC
  5
EC
330
18
100
AcDbEntity
  8
ADP1DETAIL
100
AcDbCircle
 10
3.505524610245065
 20
2.80379125640364
 30
0.0
 40
2.705283228064486
100
AcDbArc
 50
270.0
 51
315.0698893818919
  0
ARC
  5
ED
330
18
100
AcDbEntity
  8
ADP1DETAIL
100
AcDbCircle
 10
3.505524610245065
 20
2.80379125640364
 30
0.0
 40
2.424999999999999
100
AcDbArc
 50
270.0
 51
313.6872608562632
  0
ARC
  5
EE
330
18
100
AcDbEntity
  8
ADP1DETAIL
100
AcDbCircle
 10
3.505524610245065
 20
2.80379125640364
 30
0.0
 40
2.0
100
AcDbArc
 50
270.0
 51
308.6821874534895
  0
ARC
  5
EF
330
18
100
AcDbEntity
  8
ADP1DETAIL
100
AcDbCircle
 10
3.505524610245065
 20
0.7031402147369757
 30
0.0
 40
3.613644762586441
100
AcDbArc
 50
52.85219960264885
 51
90.00000000000003
  0
ARC
  5
F0
330
18
100
AcDbEntity
  8
ADP1DETAIL
100
AcDbCircle
 10
3.505524610245065
 20
0.703140214736977
 30
0.0
 40
3.514182292725648
100
AcDbArc
 50
54.16040321127058
 51
90.0
  0
ARC
  5
F1
330
18
100
AcDbEntity
  8
ADP1DETAIL
100
AcDbCircle
 10
3.505524610245065
 20
0.703140214736977
 30
0.0
 40
3.432093470120741
100
AcDbArc
 50
54.45267131434868
 51
90.0
  0
ARC
  5
F2
330
18
100
AcDbEntity
  8
ADP1DETAIL
100
AcDbCircle
 10
3.068024610245065
 20
2.640640214736976
 30
0.0
 40
0.0625
100
AcDbArc
 50
90.0
 51
180.0
  0
ARC
  5
F3
330
18
100
AcDbEntity
  8
ADP1DETAIL
100
AcDbCircle
 10
2.693024610245065
 20
2.640640214736976
 30
0.0
 40
0.0625
100
AcDbArc
 50
0.000000000000007
 51
90.0
  0
LINE
  5
F4
330
18
100
AcDbEntity
  8
ADP1DETAIL
100
AcDbLine
 10
2.693024610245065
 20
0.8037912564036409
 30
0.0
 11
2.184284399505378
 21
0.8006060009452395
 31
0.0
  0
LINE
  5
F5
330
18
100
AcDbEntity
  8
ADP1DETAIL
100
AcDbLine
 10
2.693024610245065
 20
0.8037912564036409
 30
0.0
 11
2.255524610245065
 21
0.8037912564036409
 31
0.0
  0
LINE
  5
F6
330
18
100
AcDbEntity
  8
ADP1DETAIL
100
AcDbLine
 10
2.255524610245065
 20
0.098508028339154
 30
0.0
 11
3.505524610245065
 21
0.098508028339154
 31
0.0
  0
LINE
  5
F7
330
18
100
AcDbEntity
  8
ADP1DETAIL
100
AcDbLine
 10
3.505524610245065
 20
0.3787912564036411
 30
0.0
 11
2.255524610245065
 21
0.3787912564036411
 31
0.0
  0
LINE
  5
F8
330
18
100
AcDbEntity
  8
ADP1DETAIL
100
AcDbLine
 10
3.068024610245065
 20
0.8037912564036409
 30
0.0
 11
3.505524610245065
 21
0.8037912564036409
 31
0.0
  0
LINE
  5
F9
330
18
100
AcDbEntity
  8
ADP1DETAIL
100
AcDbLine
 10
2.755524610245065
 20
0.8662912564036409
 30
0.0
 11
2.880524610245065
 21
0.8662912564036409
 31
0.0
  0
ARC
  5
FA
330
18
100
AcDbEntity
  8
ADP1DETAIL
100
AcDbCircle
 10
2.693024610245065
 20
0.8662912564036409
 30
0.0
 40
0.0625
100
AcDbArc
 50
270.0
 51
0.0
  0
ARC
  5
FB
330
18
100
AcDbEntity
  8
ADP1DETAIL
100
AcDbCircle
 10
3.068024610245065
 20
0.8662912564036409
 30
0.0
 40
0.0625
100
AcDbArc
 50
180.0
 51
270.0
  0
LINE
  5
FC
330
18
100
AcDbEntity
  8
ADP1DETAIL
100
AcDbLine
 10
3.005524610245065
 20
0.8662912564036409
 30
0.0
 11
2.880524610245065
 21
0.8662912564036409
 31
0.0
  0
LINE
  5
FD
330
18
100
AcDbEntity
  8
ADP1DETAIL
100
AcDbLine
 10
2.755524610245065
 20
2.640640214736976
 30
0.0
 11
2.880524610245065
 21
2.640640214736976
 31
0.0
  0
LINE
  5
FE
330
18
100
AcDbEntity
  8
ADP1DETAIL
100
AcDbLine
 10
3.005524610245065
 20
2.640640214736976
 30
0.0
 11
2.880524610245065
 21
2.640640214736976
 31
0.0
  0
LINE
  5
FF
330
18
100
AcDbEntity
  8
ADP1DETAIL
100
AcDbLine
 10
2.255524610245065
 20
4.316784977323417
 30
0.0
 11
3.505524610245065
 21
4.316784977323417
 31
0.0
  0
LINE
  5
100
330
18
100
AcDbEntity
  8
ADP1DETAIL
100
AcDbLine
 10
2.255524610245065
 20
4.217322507462625
 30
0.0
 11
3.505524610245065
 21
4.217322507462625
 31
0.0
  0
LINE
  5
101
330
18
100
AcDbEntity
  8
ADP1DETAIL
100
AcDbLine
 10
2.255524610245065
 20
4.135233684857718
 30
0.0
 11
3.505524610245065
 21
4.135233684857718
 31
0.0
  0
LINE
  5
102
330
18
100
AcDbEntity
  8
ADP1DETAIL
100
AcDbLine
 10
2.255524610245065
 20
3.408423442801463
 30
0.0
 11
3.505524610245065
 21
3.408423442801463
 31
0.0
  0
LINE
  5
103
330
18
100
AcDbEntity
  8
ADP1DETAIL
100
AcDbLine
 10
3.505524610245065
 20
3.128140214736976
 30
0.0
 11
2.255524610245065
 21
3.128140214736976
 31
0.0
  0
LINE
  5
104
330
18
100
AcDbEntity
  8
ADP1DETAIL
100
AcDbLine
 10
2.711334447237703
 20
2.703140214736976
 30
0.0
 11
2.255524610245065
 21
2.703140214736976
 31
0.0
  0
LINE
  5
105
330
18
100
AcDbEntity
  8
ADP1DETAIL
100
AcDbLine
 10
3.505524610245065
 20
2.703140214736976
 30
0.0
 11
3.049714773252427
 21
2.703140214736976
 31
0.0
  0
LINE
  5
106
330
18
100
AcDbEntity
  8
ADP1DETAIL
100
AcDbLine
 10
5.687707769967287
 20
3.583505665091002
 30
0.0
 11
5.687707769967286
 21
-0.0765741939503868
 31
0.0
  0
LINE
  5
107
330
18
100
AcDbEntity
  8
ADP1DETAIL
100
AcDbLine
 10
5.563141797745066
 20
3.551944998538612
 30
0.0
 11
5.563141797745064
 21
-0.0450135273979955
 31
0.0
  0
LINE
  5
108
330
18
100
AcDbEntity
  8
ADP1DETAIL
100
AcDbLine
 10
5.500858811633954
 20
3.495613493465565
 30
0.0
 11
5.500858811633953
 21
0.0113179776750516
 31
0.0
  0
LINE
  5
109
330
18
100
AcDbEntity
  8
ADP1DETAIL
100
AcDbLine
 10
5.180524610245065
 20
1.050223464728622
 30
0.0
 11
5.180524610245065
 21
2.456708006411994
 31
0.0
  0
CIRCLE
  5
10A
330
18
100
AcDbEntity
  8
ADP1DETAIL
100
AcDbCircle
 10
4.891375304689509
 20
0.0584787564036411
 30
0.0
 40
0.2435761611789839
  0
ARC
  5
10B
330
18
100
AcDbEntity
  8
ADP1DETAIL
100
AcDbCircle
 10
4.693024610245065
 20
1.953140214736976
 30
0.0
 40
0.0625
100
AcDbArc
 50
270.0
 51
0.0
  0
ARC
  5
10C
330
18
100
AcDbEntity
  8
ADP1DETAIL
100
AcDbCircle
 10
4.693024610245066
 20
1.55379125640364
 30
0.0
 40
0.0625
100
AcDbArc
 50
0.0
 51
90.00000000000003
  0
LINE
  5
10D
330
18
100
AcDbEntity
  8
ADP1DETAIL
100
AcDbLine
 10
4.692524610245065
 20
1.74129125640364
 30
0.0
 11
4.692524610245065
 21
1.61629125640364
 31
0.0
  0
LINE
  5
10E
330
18
100
AcDbEntity
  8
ADP1DETAIL
100
AcDbLine
 10
4.692524610245065
 20
1.74129125640364
 30
0.0
 11
4.692524610245065
 21
1.890640214736976
 31
0.0
  0
LINE
  5
10F
330
18
100
AcDbEntity
  8
ADP1DETAIL
100
AcDbLine
 10
4.755524610245066
 20
1.55379125640364
 30
0.0
 11
4.755524610245066
 21
1.242541756804041
 31
0.0
  0
LINE
  5
110
330
18
100
AcDbEntity
  8
ADP1DETAIL
100
AcDbLine
 10
4.755524610245065
 20
1.953140214736976
 30
0.0
 11
4.755524610245065
 21
2.264389714336576
 31
0.0
  0
LINE
  5
111
330
18
100
AcDbEntity
  8
ADP1DETAIL
100
AcDbLine
 10
5.420780686633953
 20
2.613729523275694
 30
0.0
 11
5.420780686633953
 21
0.8932019478649237
 31
0.0
  0
CIRCLE
  5
112
330
18
100
AcDbEntity
  8
ADP1DETAIL
100
AcDbCircle
 10
4.886926519967287
 20
3.43955514529253
 30
0.0
 40
0.2435761611789839
  0
TEXT
  5
120
330
18
100
AcDbEntity
  8
ADPDIM
100
AcDbText
 10
-6.767087911308292
 20
-6.163593564940951
 30
0.0
 40
0.1875
  1
J U L I U S  B L U M  &  C O . ,  I N C .      ( 8 0 0 )  5 2 6 - 6 2 9 3        W W W . J U L I U S B L U M . C O M        P A R T  N o .  8 7 6
 41
1.25
  7
ARIAL_WIDE
 72
     1
 11
2.884973394967287
 21
-5.976093564940951
 31
0.0
100
AcDbText
 73
     3
  0
ENDSEC
  0
SECTION
  2
OBJECTS
  0
DICTIONARY
  5
C
330
0
100
AcDbDictionary
281
     1
  3
ACAD_COLOR
350
275
  3
ACAD_GROUP
350
D
  3
ACAD_LAYOUT
350
119
  3
ACAD_MATERIAL
350
260
  3
ACAD_MLINESTYLE
350
E
  3
ACAD_PLOTSETTINGS
350
11A
  3
ACAD_PLOTSTYLENAME
350
117
  3
ACAD_TABLESTYLE
350
276
  3
ACAD_VISUALSTYLE
350
264
  3
AcDbVariableDictionary
350
17A
  3
ASE_INDEX_DICTIONARY
350
2A7
  3
DWGPROPS
350
2C9
  0
DICTIONARY
  5
174
330
18
100
AcDbDictionary
280
     1
281
     1
  3
ACAD_LAYOUTSELFREF
360
25A
  0
DICTIONARY
  5
172
330
15
100
AcDbDictionary
280
     1
281
     1
  3
ACAD_LAYOUTSELFREF
360
259
  0
DICTIONARY
  5
275
102
{ACAD_REACTORS
330
C
102
}
330
C
100
AcDbDictionary
281
     1
  0
DICTIONARY
  5
D
102
{ACAD_REACTORS
330
C
102
}
330
C
100
AcDbDictionary
281
     1
  0
DICTIONARY
  5
119
102
{ACAD_REACTORS
330
C
102
}
330
C
100
AcDbDictionary
281
     1
  3
Layout1
350
11C
  3
Model
350
11B
  0
DICTIONARY
  5
260
102
{ACAD_REACTORS
330
C
102
}
330
C
100
AcDbDictionary
281
     1
  3
ByBlock
350
262
  3
ByLayer
350
261
  3
Global
350
263
  0
DICTIONARY
  5
E
102
{ACAD_REACTORS
330
C
102
}
330
C
100
AcDbDictionary
281
     1
  3
STANDARD
350
1B
  0
DICTIONARY
  5
11A
102
{ACAD_REACTORS
330
C
102
}
330
C
100
AcDbDictionary
281
     1
  0
ACDBDICTIONARYWDFLT
  5
117
102
{ACAD_REACTORS
330
C
102
}
330
C
100
AcDbDictionary
281
     1
  3
Normal
350
118
100
AcDbDictionaryWithDefault
340
118
  0
DICTIONARY
  5
276
102
{ACAD_REACTORS
330
C
102
}
330
C
100
AcDbDictionary
281
     1
  3
Standard
350
277
  0
DICTIONARY
  5
264
102
{ACAD_REACTORS
330
C
102
}
330
C
100
AcDbDictionary
281
     1
  3
2dWireframe
350
26A
  3
3D Hidden
350
26C
  3
3dWireframe
350
26B
  3
Basic
350
269
  3
Brighten
350
270
  3
ColorChange
350
274
  3
Conceptual
350
26D
  3
Dim
350
26F
  3
Facepattern
350
273
  3
Flat
350
265
  3
FlatWithEdges
350
266
  3
Gouraud
350
267
  3
GouraudWithEdges
350
268
  3
Linepattern
350
272
  3
Realistic
350
26E
  3
Thicken
350
271
  0
DICTIONARY
  5
17A
102
{ACAD_REACTORS
330
C
102
}
330
C
100
AcDbDictionary
281
     1
  3
CTABLESTYLE
350
2C6
  3
DIMASSOC
350
17B
  3
INDEXCTL
350
2C8
  3
SORTENTS
350
2C7
  0
DICTIONARY
  5
2A7
102
{ACAD_REACTORS
330
C
102
}
330
C
100
AcDbDictionary
281
     1
  3
ASEBlockHierarchyIndexRecord
350
2A9
1001
DCO15
1040
1568654611.888
  0
XRECORD
  5
2C9
102
{ACAD_REACTORS
330
C
102
}
330
C
100
AcDbXrecord
280
     1
  1
DWGPROPS COOKIE
  2

  3

  4

  6

  7

  8
Yu Hu
  9

300
=
301
=
302
=
303
=
304
=
305
=
306
=
307
=
308
=
309
=
 40
0.0661310300925926
 41
2450373.627589884
 42
2453958.936526482
  1

 90
        0
  0
XRECORD
  5
25A
102
{ACAD_REACTORS
330
174
102
}
330
174
100
AcDbXrecord
280
     1
340
18
  0
XRECORD
  5
259
102
{ACAD_REACTORS
330
172
102
}
330
172
100
AcDbXrecord
280
     1
340
15
  0
LAYOUT
  5
11C
102
{ACAD_XDICTIONARY
360
2CC
102
}
102
{ACAD_REACTORS
330
119
102
}
330
119
100
AcDbPlotSettings
  1

  2
Fax
  4

  6

 40
0.0
 41
0.0
 42
0.0
 43
0.0
 44
0.0
 45
0.0
 46
0.0
 47
0.0
 48
0.0
 49
0.0
140
0.0
141
0.0
142
1.0
143
1.0
 70
   688
 72
     0
 73
     0
 74
     5
  7
Default R14 pen assignments.ctb
 75
    16
147
1.0
148
0.0
149
0.0
100
AcDbLayout
  1
Layout1
 70
     1
 71
     1
 10
0.0
 20
0.0
 11
12.0
 21
9.0
 12
1.667196317885515E+99
 22
2.439420651286265E+99
 32
0.0
 14
1.000000000000000E+20
 24
1.000000000000000E+20
 34
1.000000000000000E+20
 15
-1.000000000000000E+20
 25
-1.000000000000000E+20
 35
-1.000000000000000E+20
146
0.0
 13
0.0
 23
0.0
 33
0.0
 16
1.0
 26
0.0
 36
0.0
 17
0.0
 27
1.0
 37
0.0
 76
     0
330
15
  0
LAYOUT
  5
11B
102
{ACAD_XDICTIONARY
360
2CA
102
}
102
{ACAD_REACTORS
330
119
102
}
330
119
100
AcDbPlotSettings
  1

  2
Fax
  4

  6

 40
0.0
 41
0.0
 42
0.0
 43
0.0
 44
0.0
 45
0.0
 46
0.0
 47
0.0
 48
0.0
 49
0.0
140
0.0
141
0.0
142
1.0
143
1.0
 70
  1712
 72
     0
 73
     0
 74
     0
  7
Default R14 pen assignments.ctb
 75
     0
147
1.0
148
0.0
149
0.0
100
AcDbLayout
  1
Model
 70
     1
 71
     0
 10
0.0
 20
0.0
 11
12.0
 21
9.0
 12
0.0
 22
0.0
 32
0.0
 14
0.0
 24
0.0
 34
0.0
 15
0.0
 25
0.0
 35
0.0
146
0.0
 13
0.0
 23
0.0
 33
0.0
 16
1.0
 26
0.0
 36
0.0
 17
0.0
 27
1.0
 37
0.0
 76
     0
330
18
331
234
  0
MATERIAL
  5
262
102
{ACAD_XDICTIONARY
360
2D0
102
}
102
{ACAD_REACTORS
330
260
102
}
330
260
100
AcDbMaterial
  1
ByBlock
  0
MATERIAL
  5
261
102
{ACAD_XDICTIONARY
360
2CE
102
}
102
{ACAD_REACTORS
330
260
102
}
330
260
100
AcDbMaterial
  1
ByLayer
  0
MATERIAL
  5
263
102
{ACAD_XDICTIONARY
360
2D2
102
}
102
{ACAD_REACTORS
330
260
102
}
330
260
100
AcDbMaterial
  1
Global
  0
MLINESTYLE
  5
1B
102
{ACAD_REACTORS
330
E
102
}
330
E
100
AcDbMlineStyle
  2
STANDARD
 70
     0
  3

 62
     0
 51
90.0
 52
90.0
 71
     2
 49
0.5
 62
   256
  6
BYLAYER
 49
-0.5
 62
   256
  6
BYLAYER
  0
ACDBPLACEHOLDER
  5
118
102
{ACAD_REACTORS
330
117
102
}
330
117
  0
TABLESTYLE
  5
277
102
{ACAD_XDICTIONARY
360
2D4
102
}
102
{ACAD_REACTORS
330
276
102
}
330
276
100
AcDbTableStyle
  3
Standard
 70
     0
 71
     0
 40
0.06
 41
0.06
280
     0
281
     0
  7
STANDARD
140
0.18
170
     2
 62
     0
 63
     7
283
     0
274
    -2
284
     1
 64
     0
275
    -2
285
     1
 65
     0
276
    -2
286
     1
 66
     0
277
    -2
287
     1
 67
     0
278
    -2
288
     1
 68
     0
279
    -2
289
     1
 69
     0
  7
STANDARD
140
0.25
170
     5
 62
     0
 63
     7
283
     0
274
    -2
284
     1
 64
     0
275
    -2
285
     1
 65
     0
276
    -2
286
     1
 66
     0
277
    -2
287
     1
 67
     0
278
    -2
288
     1
 68
     0
279
    -2
289
     1
 69
     0
  7
STANDARD
140
0.18
170
     5
 62
     0
 63
     7
283
     0
274
    -2
284
     1
 64
     0
275
    -2
285
     1
 65
     0
276
    -2
286
     1
 66
     0
277
    -2
287
     1
 67
     0
278
    -2
288
     1
 68
     0
279
    -2
289
     1
 69
     0
  0
VISUALSTYLE
  5
26A
102
{ACAD_REACTORS
330
264
102
}
330
264
100
AcDbVisualStyle
  2
2dWireframe
 70
     4
 71
     0
 72
     2
 73
     0
 90
        0
 40
-0.6
 41
-30.0
 62
     5
 63
     7
 74
     1
 91
        4
 64
     7
 65
   257
 75
     1
175
     1
 42
1.0
 92
        0
 66
   257
 43
1.0
 76
     1
 77
     6
 78
     2
 67
     7
 79
     5
170
     0
171
     0
290
     0
174
     0
 93
        1
 44
0.0
173
     0
291
     0
 45
0.0
1001
ACAD
1000
AcDbSavedByObjectVersion
1070
     0
  0
VISUALSTYLE
  5
26C
102
{ACAD_REACTORS
330
264
102
}
330
264
100
AcDbVisualStyle
  2
3D Hidden
 70
     6
 71
     1
 72
     2
 73
     2
 90
        0
 40
-0.6
 41
-30.0
 62
     5
 63
     7
 74
     2
 91
        2
 64
     7
 65
   257
 75
     2
175
     1
 42
40.0
 92
        0
 66
   257
 43
1.0
 76
     1
 77
     6
 78
     2
 67
     7
 79
     3
170
     0
171
     0
290
     0
174
     0
 93
        1
 44
0.0
173
     0
291
     0
 45
0.0
1001
ACAD
1000
AcDbSavedByObjectVersion
1070
     0
  0
VISUALSTYLE
  5
26B
102
{ACAD_REACTORS
330
264
102
}
330
264
100
AcDbVisualStyle
  2
3dWireframe
 70
     5
 71
     0
 72
     2
 73
     0
 90
        0
 40
-0.6
 41
-30.0
 62
     5
 63
     7
 74
     1
 91
        4
 64
     7
 65
   257
 75
     1
175
     1
 42
1.0
 92
        0
 66
   257
 43
1.0
 76
     1
 77
     6
 78
     2
 67
     7
 79
     5
170
     0
171
     0
290
     0
174
     0
 93
        1
 44
0.0
173
     0
291
     0
 45
0.0
1001
ACAD
1000
AcDbSavedByObjectVersion
1070
     0
  0
VISUALSTYLE
  5
269
102
{ACAD_REACTORS
330
264
102
}
330
264
100
AcDbVisualStyle
  2
Basic
 70
     7
 71
     1
 72
     0
 73
     1
 90
        0
 40
-0.6
 41
-30.0
 62
     5
 63
     7
 74
     0
 91
        4
 64
     7
 65
   257
 75
     1
175
     1
 42
1.0
 92
        8
 66
     7
 43
1.0
 76
     1
 77
     6
 78
     2
 67
     7
 79
     5
170
     0
171
     0
290
     0
174
     0
 93
        1
 44
0.0
173
     0
291
     1
 45
0.0
1001
ACAD
1000
AcDbSavedByObjectVersion
1070
     0
  0
VISUALSTYLE
  5
270
102
{ACAD_REACTORS
330
264
102
}
330
264
100
AcDbVisualStyle
  2
Brighten
 70
    12
 71
     2
 72
     2
 73
     0
 90
        0
 40
-0.6
 41
-30.0
 62
     5
 63
     7
 74
     1
 91
        4
 64
     7
 65
   257
 75
     1
175
     1
 42
1.0
 92
        8
 66
     7
 43
1.0
 76
     1
 77
     6
 78
     2
 67
     7
 79
     5
170
     0
171
     0
290
     0
174
     0
 93
        1
 44
50.0
173
     0
291
     1
 45
0.0
1001
ACAD
1000
AcDbSavedByObjectVersion
1070
     0
  0
VISUALSTYLE
  5
274
102
{ACAD_REACTORS
330
264
102
}
330
264
100
AcDbVisualStyle
  2
ColorChange
 70
    16
 71
     2
 72
     2
 73
     3
 90
        0
 40
-0.6
 41
-30.0
 62
     5
 63
     8
 74
     1
 91
        4
 64
     7
 65
   257
 75
     1
175
     1
 42
1.0
 92
        8
 66
     8
 43
1.0
 76
     1
 77
     6
 78
     2
 67
     7
 79
     5
170
     0
171
     0
290
     0
174
     0
 93
        1
 44
0.0
173
     0
291
     1
 45
0.0
1001
ACAD
1000
AcDbSavedByObjectVersion
1070
     0
  0
VISUALSTYLE
  5
26D
102
{ACAD_REACTORS
330
264
102
}
330
264
100
AcDbVisualStyle
  2
Conceptual
 70
     9
 71
     3
 72
     2
 73
     0
 90
        0
 40
-0.6
 41
-30.0
 62
     5
 63
     7
 74
     2
 91
        2
 64
     7
 65
   257
 75
     1
175
     1
 42
40.0
 92
        8
 66
     7
 43
1.0
 76
     1
 77
     6
 78
     2
 67
     7
 79
     3
170
     0
171
     0
290
     0
174
     0
 93
        1
 44
0.0
173
     0
291
     0
 45
0.0
1001
ACAD
1000
AcDbSavedByObjectVersion
1070
     0
  0
VISUALSTYLE
  5
26F
102
{ACAD_REACTORS
330
264
102
}
330
264
100
AcDbVisualStyle
  2
Dim
 70
    11
 71
     2
 72
     2
 73
     0
 90
        0
 40
-0.6
 41
-30.0
 62
     5
 63
     7
 74
     1
 91
        4
 64
     7
 65
   257
 75
     1
175
     1
 42
1.0
 92
        8
 66
     7
 43
1.0
 76
     1
 77
     6
 78
     2
 67
     7
 79
     5
170
     0
171
     0
290
     0
174
     0
 93
        1
 44
-50.0
173
     0
291
     1
 45
0.0
1001
ACAD
1000
AcDbSavedByObjectVersion
1070
     0
  0
VISUALSTYLE
  5
273
102
{ACAD_REACTORS
330
264
102
}
330
264
100
AcDbVisualStyle
  2
Facepattern
 70
    15
 71
     2
 72
     2
 73
     0
 90
        0
 40
-0.6
 41
-30.0
 62
     5
 63
     7
 74
     1
 91
        4
 64
     7
 65
   257
 75
     1
175
     1
 42
1.0
 92
        8
 66
     7
 43
1.0
 76
     1
 77
     6
 78
     2
 67
     7
 79
     5
170
     0
171
     0
290
     0
174
     0
 93
        1
 44
0.0
173
     0
291
     1
 45
0.0
1001
ACAD
1000
AcDbSavedByObjectVersion
1070
     0
  0
VISUALSTYLE
  5
265
102
{ACAD_REACTORS
330
264
102
}
330
264
100
AcDbVisualStyle
  2
Flat
 70
     0
 71
     2
 72
     1
 73
     1
 90
        2
 40
-0.6
 41
30.0
 62
     5
 63
     7
 74
     0
 91
        4
 64
     7
 65
   257
 75
     1
175
     1
 42
1.0
 92
        8
 66
     7
 43
1.0
 76
     1
 77
     6
 78
     2
 67
     7
 79
     5
170
     0
171
     0
290
     0
174
     0
 93
       13
 44
0.0
173
     0
291
     1
 45
0.0
1001
ACAD
1000
AcDbSavedByObjectVersion
1070
     0
  0
VISUALSTYLE
  5
266
102
{ACAD_REACTORS
330
264
102
}
330
264
100
AcDbVisualStyle
  2
FlatWithEdges
 70
     1
 71
     2
 72
     1
 73
     1
 90
        2
 40
-0.6
 41
30.0
 62
     5
 63
     7
 74
     1
 91
        4
 64
     7
 65
   257
 75
     1
175
     1
 42
1.0
 92
        0
 66
   257
 43
1.0
 76
     1
 77
     6
 78
     2
 67
     7
 79
     5
170
     0
171
     0
290
     0
174
     0
 93
       13
 44
0.0
173
     0
291
     1
 45
0.0
1001
ACAD
1000
AcDbSavedByObjectVersion
1070
     0
  0
VISUALSTYLE
  5
267
102
{ACAD_REACTORS
330
264
102
}
330
264
100
AcDbVisualStyle
  2
Gouraud
 70
     2
 71
     2
 72
     2
 73
     1
 90
        2
 40
-0.6
 41
30.0
 62
     5
 63
     7
 74
     0
 91
        4
 64
     7
 65
   257
 75
     1
175
     1
 42
1.0
 92
        0
 66
     7
 43
1.0
 76
     1
 77
     6
 78
     2
 67
     7
 79
     5
170
     0
171
     0
290
     0
174
     0
 93
       13
 44
0.0
173
     0
291
     1
 45
0.0
1001
ACAD
1000
AcDbSavedByObjectVersion
1070
     0
  0
VISUALSTYLE
  5
268
102
{ACAD_REACTORS
330
264
102
}
330
264
100
AcDbVisualStyle
  2
GouraudWithEdges
 70
     3
 71
     2
 72
     2
 73
     1
 90
        2
 40
-0.6
 41
30.0
 62
     5
 63
     7
 74
     1
 91
        4
 64
     7
 65
   257
 75
     1
175
     1
 42
1.0
 92
        0
 66
   257
 43
1.0
 76
     1
 77
     6
 78
     2
 67
     7
 79
     5
170
     0
171
     0
290
     0
174
     0
 93
       13
 44
0.0
173
     0
291
     1
 45
0.0
1001
ACAD
1000
AcDbSavedByObjectVersion
1070
     0
  0
VISUALSTYLE
  5
272
102
{ACAD_REACTORS
330
264
102
}
330
264
100
AcDbVisualStyle
  2
Linepattern
 70
    14
 71
     2
 72
     2
 73
     0
 90
        0
 40
-0.6
 41
-30.0
 62
     5
 63
     7
 74
     1
 91
        4
 64
     7
 65
   257
 75
     7
175
     7
 42
1.0
 92
        8
 66
     7
 43
1.0
 76
     1
 77
     6
 78
     2
 67
     7
 79
     5
170
     0
171
     0
290
     0
174
     0
 93
        1
 44
0.0
173
     0
291
     1
 45
0.0
1001
ACAD
1000
AcDbSavedByObjectVersion
1070
     0
  0
VISUALSTYLE
  5
26E
102
{ACAD_REACTORS
330
264
102
}
330
264
100
AcDbVisualStyle
  2
Realistic
 70
     8
 71
     2
 72
     2
 73
     0
 90
        0
 40
-0.6
 41
-30.0
 62
     5
 63
     7
 74
     1
 91
        0
 64
     7
 65
   257
 75
     1
175
     1
 42
1.0
 92
        8
 66
     8
 43
1.0
 76
     1
 77
     6
 78
     2
 67
     7
 79
     5
170
     0
171
     0
290
     0
174
     0
 93
       13
 44
0.0
173
     0
291
     0
 45
0.0
1001
ACAD
1000
AcDbSavedByObjectVersion
1070
     0
  0
VISUALSTYLE
  5
271
102
{ACAD_REACTORS
330
264
102
}
330
264
100
AcDbVisualStyle
  2
Thicken
 70
    13
 71
     2
 72
     2
 73
     0
 90
        0
 40
-0.6
 41
-30.0
 62
     5
 63
     7
 74
     1
 91
        4
 64
     7
 65
   257
 75
     1
175
     1
 42
1.0
 92
       12
 66
     7
 43
1.0
 76
     1
 77
     6
 78
     2
 67
     7
 79
     5
170
     0
171
     0
290
     0
174
     0
 93
        1
 44
0.0
173
     0
291
     1
 45
0.0
1001
ACAD
1000
AcDbSavedByObjectVersion
1070
     0
  0
DICTIONARYVAR
  5
2C6
102
{ACAD_REACTORS
330
17A
102
}
330
17A
100
DictionaryVariables
280
     0
  1
STANDARD
  0
DICTIONARYVAR
  5
17B
102
{ACAD_REACTORS
330
17A
102
}
330
17A
100
DictionaryVariables
280
     0
  1
1
  0
DICTIONARYVAR
  5
2C8
102
{ACAD_REACTORS
330
17A
102
}
330
17A
100
DictionaryVariables
280
     0
  1
0
  0
DICTIONARYVAR
  5
2C7
102
{ACAD_REACTORS
330
17A
102
}
330
17A
100
DictionaryVariables
280
     0
  1
127
  0
XRECORD
  5
2A9
102
{ACAD_REACTORS
330
2A7
102
}
330
2A7
100
AcDbXrecord
280
     1
  0
DICTIONARY
  5
2CC
330
11C
100
AcDbDictionary
280
     1
281
     1
  3
ACAD_XREC_ROUNDTRIP
360
2CD
  0
DICTIONARY
  5
2CA
330
11B
100
AcDbDictionary
280
     1
281
     1
  3
ACAD_XREC_ROUNDTRIP
360
2CB
  0
DICTIONARY
  5
2D0
330
262
100
AcDbDictionary
280
     1
281
     1
  3
ACAD_XREC_ROUNDTRIP
360
2D1
  0
DICTIONARY
  5
2CE
330
261
100
AcDbDictionary
280
     1
281
     1
  3
ACAD_XREC_ROUNDTRIP
360
2CF
  0
DICTIONARY
  5
2D2
330
263
100
AcDbDictionary
280
     1
281
     1
  3
ACAD_XREC_ROUNDTRIP
360
2D3
  0
DICTIONARY
  5
2D4
330
277
100
AcDbDictionary
280
     1
281
     1
  3
ACAD_XREC_ROUNDTRIP
360
2D5
  0
XRECORD
  5
2CD
102
{ACAD_REACTORS
330
2CC
102
}
330
2CC
100
AcDbXrecord
280
     1
102
SHADEPLOT
 70
     0
102
SHADEPLOTRESLEVEL
 70
     2
102
SHADEPLOTCUSTOMDPI
 70
   300
  0
XRECORD
  5
2CB
102
{ACAD_REACTORS
330
2CA
102
}
330
2CA
100
AcDbXrecord
280
     1
102
SHADEPLOT
 70
     0
102
SHADEPLOTRESLEVEL
 70
     2
102
SHADEPLOTCUSTOMDPI
 70
   300
  0
XRECORD
  5
2D1
102
{ACAD_REACTORS
330
2D0
102
}
330
2D0
100
AcDbXrecord
280
     1
102
MATERIAL
148
0.0
149
0.0
149
0.0
 93
        0
 94
       63
282
     0
 72
     1
 77
     1
171
     1
175
     1
179
     1
273
     0
  0
XRECORD
  5
2CF
102
{ACAD_REACTORS
330
2CE
102
}
330
2CE
100
AcDbXrecord
280
     1
102
MATERIAL
148
0.0
149
0.0
149
0.0
 93
        0
 94
       63
282
     0
 72
     1
 77
     1
171
     1
175
     1
179
     1
273
     0
  0
XRECORD
  5
2D3
102
{ACAD_REACTORS
330
2D2
102
}
330
2D2
100
AcDbXrecord
280
     1
102
MATERIAL
148
0.0
149
0.0
149
0.0
 93
        0
 94
       63
282
     0
 72
     1
 77
     1
171
     1
175
     1
179
     1
273
     0
  0
XRECORD
  5
2D5
102
{ACAD_REACTORS
330
2D4
102
}
330
2D4
100
AcDbXrecord
280
     1
102
ACAD_ROUNDTRIP_PRE2007_TABLESTYLE
 90
      512
 91
        0
  1

 92
      512
 93
        0
  2

 94
      512
 95
        0
  3

  0
ENDSEC
  0
EOF
