  0
SECTION
  2
HEADER
  9
$ACADVER
  1
AC1014
  9
$ACADMAINTVER
 70
     9
  9
$DWGCODEPAGE
  3
ANSI_1252
  9
$INSBASE
 10
7.439142266548261
 20
-3.883912957698674
 30
0.0
  9
$EXTMIN
 10
5.21374460111718
 20
-5.041581917006051
 30
0.0
  9
$EXTMAX
 10
18.08315967615128
 20
-0.2272725894893075
 30
0.0
  9
$LIMMIN
 10
0.0
 20
0.0
  9
$LIMMAX
 10
36.0
 20
36.0
  9
$ORTHOMODE
 70
     1
  9
$REGENMODE
 70
     1
  9
$FILLMODE
 70
     1
  9
$QTEXTMODE
 70
     0
  9
$MIRRTEXT
 70
     1
  9
$DRAGMODE
 70
     0
  9
$LTSCALE
 40
1.0
  9
$OSMODE
 70
    37
  9
$ATTMODE
 70
     1
  9
$TEXTSIZE
 40
0.2
  9
$TRACEWID
 40
0.05
  9
$TEXTSTYLE
  7
STANDARD
  9
$CLAYER
  8
ADP1DETAIL
  9
$CELTYPE
  6
BYLAYER
  9
$CECOLOR
 62
   256
  9
$CELTSCALE
 40
1.0
  9
$DELOBJ
 70
     1
  9
$DISPSILH
 70
     0
  9
$DIMSCALE
 40
1.0
  9
$DIMASZ
 40
0.125
  9
$DIMEXO
 40
0.0625
  9
$DIMDLI
 40
0.38
  9
$DIMRND
 40
0.0
  9
$DIMDLE
 40
0.0
  9
$DIMEXE
 40
0.18
  9
$DIMTP
 40
0.0
  9
$DIMTM
 40
0.0
  9
$DIMTXT
 40
0.125
  9
$DIMCEN
 40
0.1875
  9
$DIMTSZ
 40
0.125
  9
$DIMTOL
 70
     0
  9
$DIMLIM
 70
     0
  9
$DIMTIH
 70
     0
  9
$DIMTOH
 70
     0
  9
$DIMSE1
 70
     0
  9
$DIMSE2
 70
     0
  9
$DIMTAD
 70
     0
  9
$DIMZIN
 70
     3
  9
$DIMBLK
  1

  9
$DIMASO
 70
     1
  9
$DIMSHO
 70
     1
  9
$DIMPOST
  1

  9
$DIMAPOST
  1

  9
$DIMALT
 70
     0
  9
$DIMALTD
 70
     1
  9
$DIMALTF
 40
25.4
  9
$DIMLFAC
 40
1.0
  9
$DIMTOFL
 70
     0
  9
$DIMTVP
 40
0.0
  9
$DIMTIX
 70
     0
  9
$DIMSOXD
 70
     0
  9
$DIMSAH
 70
     0
  9
$DIMBLK1
  1

  9
$DIMBLK2
  1

  9
$DIMSTYLE
  2
STANDARD
  9
$DIMCLRD
 70
     0
  9
$DIMCLRE
 70
     0
  9
$DIMCLRT
 70
     0
  9
$DIMTFAC
 40
1.0
  9
$DIMGAP
 40
0.125
  9
$DIMJUST
 70
     0
  9
$DIMSD1
 70
     0
  9
$DIMSD2
 70
     0
  9
$DIMTOLJ
 70
     1
  9
$DIMTZIN
 70
     0
  9
$DIMALTZ
 70
     0
  9
$DIMALTTZ
 70
     0
  9
$DIMFIT
 70
     3
  9
$DIMUPT
 70
     0
  9
$DIMUNIT
 70
     2
  9
$DIMDEC
 70
     4
  9
$DIMTDEC
 70
     4
  9
$DIMALTU
 70
     2
  9
$DIMALTTD
 70
     2
  9
$DIMTXSTY
  7
STANDARD
  9
$DIMAUNIT
 70
     0
  9
$LUNITS
 70
     5
  9
$LUPREC
 70
     4
  9
$SKETCHINC
 40
0.1
  9
$FILLETRAD
 40
0.062
  9
$AUNITS
 70
     0
  9
$AUPREC
 70
     0
  9
$MENU
  1
acad
  9
$ELEVATION
 40
0.0
  9
$PELEVATION
 40
0.0
  9
$THICKNESS
 40
0.0
  9
$LIMCHECK
 70
     0
  9
$BLIPMODE
 70
     0
  9
$CHAMFERA
 40
0.0
  9
$CHAMFERB
 40
0.0
  9
$CHAMFERC
 40
0.0
  9
$CHAMFERD
 40
0.0
  9
$SKPOLY
 70
     0
  9
$TDCREATE
 40
2450382.694216238
  9
$TDUPDATE
 40
2452297.076644051
  9
$TDINDWG
 40
0.0659812269
  9
$TDUSRTIMER
 40
0.0659812269
  9
$USRTIMER
 70
     1
  9
$ANGBASE
 50
0.0
  9
$ANGDIR
 70
     0
  9
$PDMODE
 70
     0
  9
$PDSIZE
 40
0.0
  9
$PLINEWID
 40
0.0
  9
$COORDS
 70
     2
  9
$SPLFRAME
 70
     0
  9
$SPLINETYPE
 70
     6
  9
$SPLINESEGS
 70
     8
  9
$ATTDIA
 70
     0
  9
$ATTREQ
 70
     1
  9
$HANDLING
 70
 22529
  9
$HANDSEED
  5
332
  9
$SURFTAB1
 70
     6
  9
$SURFTAB2
 70
     6
  9
$SURFTYPE
 70
     6
  9
$SURFU
 70
     6
  9
$SURFV
 70
     6
  9
$UCSNAME
  2

  9
$UCSORG
 10
0.0
 20
0.0
 30
0.0
  9
$UCSXDIR
 10
1.0
 20
0.0
 30
0.0
  9
$UCSYDIR
 10
0.0
 20
1.0
 30
0.0
  9
$PUCSNAME
  2

  9
$PUCSORG
 10
0.0
 20
0.0
 30
0.0
  9
$PUCSXDIR
 10
1.0
 20
0.0
 30
0.0
  9
$PUCSYDIR
 10
0.0
 20
1.0
 30
0.0
  9
$USERI1
 70
     0
  9
$USERI2
 70
     0
  9
$USERI3
 70
     0
  9
$USERI4
 70
     0
  9
$USERI5
 70
     0
  9
$USERR1
 40
0.0
  9
$USERR2
 40
0.0
  9
$USERR3
 40
0.0
  9
$USERR4
 40
0.0
  9
$USERR5
 40
0.0
  9
$WORLDVIEW
 70
     1
  9
$SHADEDGE
 70
     3
  9
$SHADEDIF
 70
    70
  9
$TILEMODE
 70
     1
  9
$MAXACTVP
 70
    15
  9
$PINSBASE
 10
0.0
 20
0.0
 30
0.0
  9
$PLIMCHECK
 70
     0
  9
$PEXTMIN
 10
1.000000000000000E+20
 20
1.000000000000000E+20
 30
1.000000000000000E+20
  9
$PEXTMAX
 10
-1.000000000000000E+20
 20
-1.000000000000000E+20
 30
-1.000000000000000E+20
  9
$PLIMMIN
 10
0.0
 20
0.0
  9
$PLIMMAX
 10
12.0
 20
9.0
  9
$UNITMODE
 70
     0
  9
$VISRETAIN
 70
     0
  9
$PLINEGEN
 70
     0
  9
$PSLTSCALE
 70
     1
  9
$TREEDEPTH
 70
  3020
  9
$PICKSTYLE
 70
     1
  9
$CMLSTYLE
  2
STANDARD
  9
$CMLJUST
 70
     0
  9
$CMLSCALE
 40
1.0
  9
$PROXYGRAPHICS
 70
     1
  9
$MEASUREMENT
 70
     0
  0
ENDSEC
  0
SECTION
  2
CLASSES
  0
CLASS
  1
ACDBDICTIONARYWDFLT
  2
AcDbDictionaryWithDefault
  3
AutoCAD 2000
 90
        0
280
     0
281
     0
  0
CLASS
  1
ACDBPLACEHOLDER
  2
AcDbPlaceHolder
  3
AutoCAD 2000
 90
        0
280
     0
281
     0
  0
CLASS
  1
LAYOUT
  2
AcDbLayout
  3
AutoCAD 2000
 90
        0
280
     0
281
     0
  0
CLASS
  1
DICTIONARYVAR
  2
AcDbDictionaryVar
  3
AutoCAD 2000
 90
        0
280
     0
281
     0
  0
CLASS
  1
LONG_TRANSACTION
  2
AcDbLongTransaction
  3
AutoCAD 2000
 90
        0
280
     0
281
     0
  0
CLASS
  1
LWPOLYLINE
  2
AcDbPolyline
  3
AutoCAD 2000
 90
        0
280
     0
281
     1
  0
CLASS
  1
HATCH
  2
AcDbHatch
  3
AutoCAD 2000
 90
        0
280
     0
281
     1
  0
CLASS
  1
XRECORD
  2
AcDbXrecord
  3
AutoCAD 2000
 90
        0
280
     0
281
     0
  0
CLASS
  1
LONG_TRANSACTION
  2
AcDbLongTransaction
  3
AutoCAD 2000
 90
        0
280
     0
281
     0
  0
CLASS
  1
LWPOLYLINE
  2
AcDbPolyline
  3
AutoCAD 2000
 90
        0
280
     0
281
     1
  0
CLASS
  1
HATCH
  2
AcDbHatch
  3
AutoCAD 2000
 90
        0
280
     0
281
     1
  0
CLASS
  1
XRECORD
  2
AcDbXrecord
  3
AutoCAD 2000
 90
        0
280
     0
281
     0
  0
CLASS
  1
LONG_TRANSACTION
  2
AcDbLongTransaction
  3
AutoCAD 2000
 90
        0
280
     0
281
     0
  0
CLASS
  1
LWPOLYLINE
  2
AcDbPolyline
  3
AutoCAD 2000
 90
        0
280
     0
281
     1
  0
CLASS
  1
HATCH
  2
AcDbHatch
  3
AutoCAD 2000
 90
        0
280
     0
281
     1
  0
CLASS
  1
XRECORD
  2
AcDbXrecord
  3
AutoCAD 2000
 90
        0
280
     0
281
     0
  0
CLASS
  1
LONG_TRANSACTION
  2
AcDbLongTransaction
  3
AutoCAD 2000
 90
        0
280
     0
281
     0
  0
CLASS
  1
LWPOLYLINE
  2
AcDbPolyline
  3
AutoCAD 2000
 90
        0
280
     0
281
     1
  0
CLASS
  1
HATCH
  2
AcDbHatch
  3
AutoCAD 2000
 90
        0
280
     0
281
     1
  0
CLASS
  1
XRECORD
  2
AcDbXrecord
  3
AutoCAD 2000
 90
        0
280
     0
281
     0
  0
CLASS
  1
LONG_TRANSACTION
  2
AcDbLongTransaction
  3
AutoCAD 2000
 90
        0
280
     0
281
     0
  0
CLASS
  1
LWPOLYLINE
  2
AcDbPolyline
  3
AutoCAD 2000
 90
        0
280
     0
281
     1
  0
CLASS
  1
HATCH
  2
AcDbHatch
  3
AutoCAD 2000
 90
        0
280
     0
281
     1
  0
CLASS
  1
XRECORD
  2
AcDbXrecord
  3
AutoCAD 2000
 90
        0
280
     0
281
     0
  0
ENDSEC
  0
SECTION
  2
TABLES
  0
TABLE
  2
VPORT
  5
8
330
0
100
AcDbSymbolTable
 70
     2
  0
VPORT
  5
30F
330
8
100
AcDbSymbolTableRecord
100
AcDbViewportTableRecord
  2
*ACTIVE
 70
     0
 10
0.0
 20
0.0
 11
1.0
 21
1.0
 12
11.6589188412707
 22
-2.633175834155263
 13
0.0
 23
0.0
 14
0.5740882589684922
 24
0.5740882589684922
 15
0.5
 25
0.5
 16
0.0
 26
0.0
 36
1.0
 17
0.0
 27
0.0
 37
0.0
 40
8.249431416431285
 41
1.570528967254408
 42
50.0
 43
0.0
 44
0.0
 50
0.0
 51
0.0
 71
     0
 72
   100
 73
     1
 74
     0
 75
     0
 76
     0
 77
     0
 78
     0
  0
ENDTAB
  0
TABLE
  2
LTYPE
  5
5
330
0
100
AcDbSymbolTable
 70
     1
  0
LTYPE
  5
12
330
5
100
AcDbSymbolTableRecord
100
AcDbLinetypeTableRecord
  2
BYBLOCK
 70
     0
  3

 72
    65
 73
     0
 40
0.0
  0
LTYPE
  5
13
330
5
100
AcDbSymbolTableRecord
100
AcDbLinetypeTableRecord
  2
BYLAYER
 70
     0
  3

 72
    65
 73
     0
 40
0.0
  0
LTYPE
  5
14
330
5
100
AcDbSymbolTableRecord
100
AcDbLinetypeTableRecord
  2
CONTINUOUS
 70
     0
  3
Solid line
 72
    65
 73
     0
 40
0.0
  0
ENDTAB
  0
TABLE
  2
LAYER
  5
2
330
0
100
AcDbSymbolTable
 70
     5
  0
LAYER
  5
F
330
2
100
AcDbSymbolTableRecord
100
AcDbLayerTableRecord
  2
0
 70
     0
 62
     7
  6
CONTINUOUS
  0
LAYER
  5
119
330
2
100
AcDbSymbolTableRecord
100
AcDbLayerTableRecord
  2
ADP1DETAIL
 70
     0
 62
     7
  6
CONTINUOUS
  0
LAYER
  5
11B
330
2
100
AcDbSymbolTableRecord
100
AcDbLayerTableRecord
  2
DEFPOINTS
 70
     0
 62
     7
  6
CONTINUOUS
  0
LAYER
  5
11C
330
2
100
AcDbSymbolTableRecord
100
AcDbLayerTableRecord
  2
ADPDIM
 70
     0
 62
     3
  6
CONTINUOUS
  0
LAYER
  5
11E
330
2
100
AcDbSymbolTableRecord
100
AcDbLayerTableRecord
  2
ADP2DETAIL
 70
     0
 62
     5
  6
CONTINUOUS
  0
ENDTAB
  0
TABLE
  2
STYLE
  5
3
330
0
100
AcDbSymbolTable
 70
     2
  0
STYLE
  5
10
330
3
100
AcDbSymbolTableRecord
100
AcDbTextStyleTableRecord
  2
STANDARD
 70
     0
 40
0.0
 41
1.0
 50
0.0
 71
     0
 42
0.2
  3
txt
  4

  0
STYLE
  5
1CB
330
3
100
AcDbSymbolTableRecord
100
AcDbTextStyleTableRecord
  2
ARIAL_WIDE
 70
     0
 40
0.0
 41
1.25
 50
0.0
 71
     0
 42
0.2
  3
ARIAL.TTF
  4

1001
ACAD
1000
Arial
1071
       34
  0
ENDTAB
  0
TABLE
  2
VIEW
  5
6
330
0
100
AcDbSymbolTable
 70
     0
  0
ENDTAB
  0
TABLE
  2
UCS
  5
7
330
0
100
AcDbSymbolTable
 70
     0
  0
ENDTAB
  0
TABLE
  2
APPID
  5
9
330
0
100
AcDbSymbolTable
 70
     1
  0
APPID
  5
11
330
9
100
AcDbSymbolTableRecord
100
AcDbRegAppTableRecord
  2
ACAD
 70
     0
  0
ENDTAB
  0
TABLE
  2
DIMSTYLE
  5
A
330
0
100
AcDbSymbolTable
 70
     1
  0
DIMSTYLE
105
1BF
330
A
100
AcDbSymbolTableRecord
100
AcDbDimStyleTableRecord
  2
STANDARD
 70
     0
  3

  4

  5

  6

  7

 40
1.0
 41
0.18
 42
0.0625
 43
0.38
 44
0.18
 45
0.0
 46
0.0
 47
0.0
 48
0.0
140
0.18
141
0.09
142
0.0
143
25.4
144
1.0
145
0.0
146
1.0
147
0.09
 71
     0
 72
     0
 73
     1
 74
     1
 75
     0
 76
     0
 77
     0
 78
     0
170
     0
171
     2
172
     0
173
     0
174
     0
175
     0
176
     0
177
     0
178
     0
270
     2
271
     4
272
     4
273
     2
274
     2
340
10
275
     0
280
     0
281
     0
282
     0
283
     1
284
     0
285
     0
286
     0
287
     3
288
     0
  0
ENDTAB
  0
TABLE
  2
BLOCK_RECORD
  5
1
330
0
100
AcDbSymbolTable
 70
     6
  0
BLOCK_RECORD
  5
18
102
{ACAD_XDICTIONARY
360
220
102
}
330
1
100
AcDbSymbolTableRecord
100
AcDbBlockTableRecord
  2
*MODEL_SPACE
  0
BLOCK_RECORD
  5
15
102
{ACAD_XDICTIONARY
360
21E
102
}
330
1
100
AcDbSymbolTableRecord
100
AcDbBlockTableRecord
  2
*PAPER_SPACE
  0
BLOCK_RECORD
  5
E2
330
1
100
AcDbSymbolTableRecord
100
AcDbBlockTableRecord
  2
*D0
  0
BLOCK_RECORD
  5
E3
330
1
100
AcDbSymbolTableRecord
100
AcDbBlockTableRecord
  2
*D1
  0
BLOCK_RECORD
  5
E4
330
1
100
AcDbSymbolTableRecord
100
AcDbBlockTableRecord
  2
*D2
  0
BLOCK_RECORD
  5
E6
330
1
100
AcDbSymbolTableRecord
100
AcDbBlockTableRecord
  2
*D3
  0
BLOCK_RECORD
  5
E7
330
1
100
AcDbSymbolTableRecord
100
AcDbBlockTableRecord
  2
*D4
  0
BLOCK_RECORD
  5
115
330
1
100
AcDbSymbolTableRecord
100
AcDbBlockTableRecord
  2
*D5
  0
ENDTAB
  0
ENDSEC
  0
SECTION
  2
BLOCKS
  0
BLOCK
  5
121
330
18
100
AcDbEntity
  8
0
100
AcDbBlockBegin
  2
*MODEL_SPACE
 70
     0
 10
0.0
 20
0.0
 30
0.0
  3
*MODEL_SPACE
  1

  0
ENDBLK
  5
122
330
18
100
AcDbEntity
  8
0
100
AcDbBlockEnd
  0
BLOCK
  5
11F
330
15
100
AcDbEntity
 67
     1
  8
0
100
AcDbBlockBegin
  2
*PAPER_SPACE
 70
     0
 10
0.0
 20
0.0
 30
0.0
  3
*PAPER_SPACE
  1

  0
ENDBLK
  5
120
330
15
100
AcDbEntity
 67
     1
  8
0
100
AcDbBlockEnd
  0
BLOCK
  5
124
330
E2
100
AcDbEntity
  8
0
100
AcDbBlockBegin
  2
*D0
 70
     1
 10
0.0
 20
0.0
 30
0.0
  3
*D0
  1

  0
LINE
  5
125
330
E2
100
AcDbEntity
  8
0
  6
BYBLOCK
 62
     0
100
AcDbLine
 10
10.42937628199185
 20
-1.094469862284876
 30
0.0
 11
10.42937628199185
 21
-0.5362769990498439
 31
0.0
  0
LINE
  5
126
330
E2
100
AcDbEntity
  8
0
  6
BYBLOCK
 62
     0
100
AcDbLine
 10
7.429142266548259
 20
-0.8470284858267632
 30
0.0
 11
7.429142266548259
 21
-0.5362769990498439
 31
0.0
  0
LINE
  5
127
330
E2
100
AcDbEntity
  8
0
  6
BYBLOCK
 62
     0
100
AcDbLine
 10
10.42937628199185
 20
-0.7162769990498439
 30
0.0
 11
9.095925940936723
 21
-0.7162769990498439
 31
0.0
  0
LINE
  5
128
330
E2
100
AcDbEntity
  8
0
  6
BYBLOCK
 62
     0
100
AcDbLine
 10
7.429142266548259
 20
-0.7162769990498439
 30
0.0
 11
8.762592607603391
 21
-0.7162769990498439
 31
0.0
  0
LINE
  5
129
330
E2
100
AcDbEntity
  8
0
  6
BYBLOCK
 62
     0
100
AcDbLine
 10
10.30437628199185
 20
-0.8412769990498439
 30
0.0
 11
10.55437628199185
 21
-0.5912769990498439
 31
0.0
  0
LINE
  5
12A
330
E2
100
AcDbEntity
  8
0
  6
BYBLOCK
 62
     0
100
AcDbLine
 10
7.304142266548259
 20
-0.8412769990498439
 30
0.0
 11
7.554142266548259
 21
-0.5912769990498439
 31
0.0
  0
TEXT
  5
12B
330
E2
100
AcDbEntity
  8
0
  6
BYBLOCK
 62
     0
100
AcDbText
 10
8.887592607603391
 20
-0.7787769990498439
 30
0.0
 40
0.125
  1
3
 72
     1
 11
8.929259274270057
 21
-0.7162769990498439
 31
0.0
100
AcDbText
 73
     2
  0
POINT
  5
12C
330
E2
100
AcDbEntity
  8
DEFPOINTS
  6
BYBLOCK
 62
     0
100
AcDbPoint
 10
10.42937628199185
 20
-1.156969862284876
 30
0.0
  0
POINT
  5
12D
330
E2
100
AcDbEntity
  8
DEFPOINTS
  6
BYBLOCK
 62
     0
100
AcDbPoint
 10
7.429142266548259
 20
-0.9095284858267632
 30
0.0
  0
POINT
  5
12E
330
E2
100
AcDbEntity
  8
DEFPOINTS
  6
BYBLOCK
 62
     0
100
AcDbPoint
 10
7.429142266548259
 20
-0.7162769990498439
 30
0.0
  0
ENDBLK
  5
12F
330
E2
100
AcDbEntity
  8
0
100
AcDbBlockEnd
  0
BLOCK
  5
130
330
E3
100
AcDbEntity
  8
0
100
AcDbBlockBegin
  2
*D1
 70
     1
 10
0.0
 20
0.0
 30
0.0
  3
*D1
  1

  0
LINE
  5
131
330
E3
100
AcDbEntity
  8
0
  6
BYBLOCK
 62
     0
100
AcDbLine
 10
10.86279638864228
 20
-1.326838667382558
 30
0.0
 11
11.79425651839415
 21
-1.326838667382558
 31
0.0
  0
LINE
  5
132
330
E3
100
AcDbEntity
  8
0
  6
BYBLOCK
 62
     0
100
AcDbLine
 10
10.98779638864228
 20
-2.388838667382559
 30
0.0
 11
11.79425651839415
 21
-2.388838667382559
 31
0.0
  0
LINE
  5
133
330
E3
100
AcDbEntity
  8
0
  6
BYBLOCK
 62
     0
100
AcDbLine
 10
11.61425651839415
 20
-1.326838667382558
 30
0.0
 11
11.61425651839415
 21
-1.076838667382558
 31
0.0
  0
LINE
  5
134
330
E3
100
AcDbEntity
  8
0
  6
BYBLOCK
 62
     0
100
AcDbLine
 10
11.61425651839415
 20
-2.388838667382559
 30
0.0
 11
11.61425651839415
 21
-2.638838667382559
 31
0.0
  0
LINE
  5
135
330
E3
100
AcDbEntity
  8
0
  6
BYBLOCK
 62
     0
100
AcDbLine
 10
11.73925651839415
 20
-1.451838667382558
 30
0.0
 11
11.48925651839415
 21
-1.201838667382558
 31
0.0
  0
LINE
  5
136
330
E3
100
AcDbEntity
  8
0
  6
BYBLOCK
 62
     0
100
AcDbLine
 10
11.73925651839415
 20
-2.513838667382559
 30
0.0
 11
11.48925651839415
 21
-2.263838667382559
 31
0.0
  0
TEXT
  5
137
330
E3
100
AcDbEntity
  8
0
  6
BYBLOCK
 62
     0
100
AcDbText
 10
11.67675651839415
 20
-3.347172000715892
 30
0.0
 40
0.125
  1
1 1/16
 50
90.0
 72
     1
 11
11.61425651839415
 21
-3.055505334049225
 31
0.0
100
AcDbText
 73
     2
  0
POINT
  5
138
330
E3
100
AcDbEntity
  8
DEFPOINTS
  6
BYBLOCK
 62
     0
100
AcDbPoint
 10
10.80029638864228
 20
-1.326838667382558
 30
0.0
  0
POINT
  5
139
330
E3
100
AcDbEntity
  8
DEFPOINTS
  6
BYBLOCK
 62
     0
100
AcDbPoint
 10
10.92529638864228
 20
-2.388838667382559
 30
0.0
  0
POINT
  5
13A
330
E3
100
AcDbEntity
  8
DEFPOINTS
  6
BYBLOCK
 62
     0
100
AcDbPoint
 10
11.61425651839415
 20
-2.388838667382559
 30
0.0
  0
ENDBLK
  5
13B
330
E3
100
AcDbEntity
  8
0
100
AcDbBlockEnd
  0
BLOCK
  5
13C
330
E4
100
AcDbEntity
  8
0
100
AcDbBlockBegin
  2
*D2
 70
     1
 10
0.0
 20
0.0
 30
0.0
  3
*D2
  1

  0
LINE
  5
13D
330
E4
100
AcDbEntity
  8
0
  6
BYBLOCK
 62
     0
100
AcDbLine
 10
13.32517647055545
 20
-3.418888001656581
 30
0.0
 11
13.13871566325229
 21
-3.585418381287005
 31
0.0
  0
LINE
  5
13E
330
E4
100
AcDbEntity
  8
0
  6
BYBLOCK
 62
     0
100
AcDbLine
 10
13.31521125671908
 20
-3.595383595123374
 30
0.0
 11
13.33514168439182
 21
-3.242392408189788
 31
0.0
  0
LINE
  5
13F
330
E4
100
AcDbEntity
  8
0
  6
BYBLOCK
 62
     0
100
AcDbLine
 10
14.25644131437443
 20
-2.419705723874036
 30
0.0
 11
14.63144131437442
 21
-2.419705723874036
 31
0.0
  0
LINE
  5
140
330
E4
100
AcDbEntity
  8
0
  6
BYBLOCK
 62
     0
100
AcDbLine
 10
14.44394131437443
 20
-2.607205723874036
 30
0.0
 11
14.44394131437443
 21
-2.232205723874036
 31
0.0
  0
TEXT
  5
141
330
E4
100
AcDbEntity
  8
0
  6
BYBLOCK
 62
     0
100
AcDbText
 10
12.93173384842234
 20
-3.854074089286694
 30
0.0
 40
0.125
  1
%%c3
 50
41.76842285872548
 72
     1
 11
12.96779325655772
 21
-3.73807122928156
 31
0.0
100
AcDbText
 73
     2
  0
POINT
  5
142
330
E4
100
AcDbEntity
  8
DEFPOINTS
  6
BYBLOCK
 62
     0
100
AcDbPoint
 10
13.32517647055545
 20
-3.418888001656581
 30
0.0
  0
POINT
  5
143
330
E4
100
AcDbEntity
  8
DEFPOINTS
  6
BYBLOCK
 62
     0
100
AcDbPoint
 10
15.5627061581934
 20
-1.420523446091492
 30
0.0
  0
ENDBLK
  5
144
330
E4
100
AcDbEntity
  8
0
100
AcDbBlockEnd
  0
BLOCK
  5
145
330
E6
100
AcDbEntity
  8
0
100
AcDbBlockBegin
  2
*D3
 70
     1
 10
0.0
 20
0.0
 30
0.0
  3
*D3
  1

  0
LINE
  5
146
330
E6
100
AcDbEntity
  8
0
  6
BYBLOCK
 62
     0
100
AcDbLine
 10
13.19344131437443
 20
-1.291538346775003
 30
0.0
 11
13.19344131437443
 21
-0.2272725894893075
 31
0.0
  0
LINE
  5
147
330
E6
100
AcDbEntity
  8
0
  6
BYBLOCK
 62
     0
100
AcDbLine
 10
15.69344131437443
 20
-1.291538346775003
 30
0.0
 11
15.69344131437443
 21
-0.2272725894893075
 31
0.0
  0
LINE
  5
148
330
E6
100
AcDbEntity
  8
0
  6
BYBLOCK
 62
     0
100
AcDbLine
 10
13.19344131437443
 20
-0.4072725894893075
 30
0.0
 11
14.0476079810411
 21
-0.4072725894893075
 31
0.0
  0
LINE
  5
149
330
E6
100
AcDbEntity
  8
0
  6
BYBLOCK
 62
     0
100
AcDbLine
 10
15.69344131437443
 20
-0.4072725894893075
 30
0.0
 11
14.83927464770777
 21
-0.4072725894893075
 31
0.0
  0
LINE
  5
14A
330
E6
100
AcDbEntity
  8
0
  6
BYBLOCK
 62
     0
100
AcDbLine
 10
13.06844131437443
 20
-0.5322725894893075
 30
0.0
 11
13.31844131437443
 21
-0.2822725894893074
 31
0.0
  0
LINE
  5
14B
330
E6
100
AcDbEntity
  8
0
  6
BYBLOCK
 62
     0
100
AcDbLine
 10
15.56844131437443
 20
-0.5322725894893075
 30
0.0
 11
15.81844131437443
 21
-0.2822725894893074
 31
0.0
  0
TEXT
  5
14C
330
E6
100
AcDbEntity
  8
0
  6
BYBLOCK
 62
     0
100
AcDbText
 10
14.1726079810411
 20
-0.4697725894893075
 30
0.0
 40
0.125
  1
2 1/2
 72
     1
 11
14.44344131437443
 21
-0.4072725894893075
 31
0.0
100
AcDbText
 73
     2
  0
POINT
  5
14D
330
E6
100
AcDbEntity
  8
DEFPOINTS
  6
BYBLOCK
 62
     0
100
AcDbPoint
 10
13.19344131437443
 20
-1.354038346775003
 30
0.0
  0
POINT
  5
14E
330
E6
100
AcDbEntity
  8
DEFPOINTS
  6
BYBLOCK
 62
     0
100
AcDbPoint
 10
15.69344131437443
 20
-1.354038346775003
 30
0.0
  0
POINT
  5
14F
330
E6
100
AcDbEntity
  8
DEFPOINTS
  6
BYBLOCK
 62
     0
100
AcDbPoint
 10
15.69344131437443
 20
-0.4072725894893075
 30
0.0
  0
ENDBLK
  5
150
330
E6
100
AcDbEntity
  8
0
100
AcDbBlockEnd
  0
BLOCK
  5
151
330
E7
100
AcDbEntity
  8
0
100
AcDbBlockBegin
  2
*D4
 70
     1
 10
0.0
 20
0.0
 30
0.0
  3
*D4
  1

  0
LINE
  5
152
330
E7
100
AcDbEntity
  8
0
  6
BYBLOCK
 62
     0
100
AcDbLine
 10
13.62979604722017
 20
-1.280174404978109
 30
0.0
 11
13.62979604722017
 21
-0.5827252812171058
 31
0.0
  0
LINE
  5
153
330
E7
100
AcDbEntity
  8
0
  6
BYBLOCK
 62
     0
100
AcDbLine
 10
15.25479604722017
 20
-1.280174404978109
 30
0.0
 11
15.25479604722017
 21
-0.5827252812171058
 31
0.0
  0
LINE
  5
154
330
E7
100
AcDbEntity
  8
0
  6
BYBLOCK
 62
     0
100
AcDbLine
 10
13.62979604722017
 20
-0.7627252812171057
 30
0.0
 11
14.04646271388684
 21
-0.7627252812171057
 31
0.0
  0
LINE
  5
155
330
E7
100
AcDbEntity
  8
0
  6
BYBLOCK
 62
     0
100
AcDbLine
 10
15.25479604722017
 20
-0.7627252812171057
 30
0.0
 11
14.8381293805535
 21
-0.7627252812171057
 31
0.0
  0
LINE
  5
156
330
E7
100
AcDbEntity
  8
0
  6
BYBLOCK
 62
     0
100
AcDbLine
 10
13.50479604722017
 20
-0.8877252812171057
 30
0.0
 11
13.75479604722017
 21
-0.6377252812171057
 31
0.0
  0
LINE
  5
157
330
E7
100
AcDbEntity
  8
0
  6
BYBLOCK
 62
     0
100
AcDbLine
 10
15.12979604722017
 20
-0.8877252812171057
 30
0.0
 11
15.37979604722017
 21
-0.6377252812171057
 31
0.0
  0
TEXT
  5
158
330
E7
100
AcDbEntity
  8
0
  6
BYBLOCK
 62
     0
100
AcDbText
 10
14.17146271388683
 20
-0.8252252812171057
 30
0.0
 40
0.125
  1
1 5/8
 72
     1
 11
14.44229604722017
 21
-0.7627252812171057
 31
0.0
100
AcDbText
 73
     2
  0
POINT
  5
159
330
E7
100
AcDbEntity
  8
DEFPOINTS
  6
BYBLOCK
 62
     0
100
AcDbPoint
 10
13.62979604722017
 20
-1.342674404978109
 30
0.0
  0
POINT
  5
15A
330
E7
100
AcDbEntity
  8
DEFPOINTS
  6
BYBLOCK
 62
     0
100
AcDbPoint
 10
15.25479604722017
 20
-1.342674404978109
 30
0.0
  0
POINT
  5
15B
330
E7
100
AcDbEntity
  8
DEFPOINTS
  6
BYBLOCK
 62
     0
100
AcDbPoint
 10
15.25479604722017
 20
-0.7627252812171057
 30
0.0
  0
ENDBLK
  5
15C
330
E7
100
AcDbEntity
  8
0
100
AcDbBlockEnd
  0
BLOCK
  5
15D
330
115
100
AcDbEntity
  8
0
100
AcDbBlockBegin
  2
*D5
 70
     1
 10
0.0
 20
0.0
 30
0.0
  3
*D5
  1

  0
LINE
  5
15E
330
115
100
AcDbEntity
  8
0
  6
BYBLOCK
 62
     0
100
AcDbLine
 10
10.05029638864228
 20
-2.826838667382558
 30
0.0
 11
10.05029638864228
 21
-3.653931875515946
 31
0.0
  0
LINE
  5
15F
330
115
100
AcDbEntity
  8
0
  6
BYBLOCK
 62
     0
100
AcDbLine
 10
10.80029638864228
 20
-2.826838667382558
 30
0.0
 11
10.80029638864228
 21
-3.653931875515946
 31
0.0
  0
LINE
  5
160
330
115
100
AcDbEntity
  8
0
  6
BYBLOCK
 62
     0
100
AcDbLine
 10
10.05029638864228
 20
-3.473931875515947
 30
0.0
 11
9.800296388642285
 21
-3.473931875515947
 31
0.0
  0
LINE
  5
161
330
115
100
AcDbEntity
  8
0
  6
BYBLOCK
 62
     0
100
AcDbLine
 10
10.80029638864228
 20
-3.473931875515947
 30
0.0
 11
11.05029638864228
 21
-3.473931875515947
 31
0.0
  0
LINE
  5
162
330
115
100
AcDbEntity
  8
0
  6
BYBLOCK
 62
     0
100
AcDbLine
 10
9.925296388642285
 20
-3.598931875515947
 30
0.0
 11
10.17529638864228
 21
-3.348931875515947
 31
0.0
  0
LINE
  5
163
330
115
100
AcDbEntity
  8
0
  6
BYBLOCK
 62
     0
100
AcDbLine
 10
10.67529638864228
 20
-3.598931875515947
 30
0.0
 11
10.92529638864228
 21
-3.348931875515947
 31
0.0
  0
TEXT
  5
164
330
115
100
AcDbEntity
  8
0
  6
BYBLOCK
 62
     0
100
AcDbText
 10
11.17529638864228
 20
-3.536431875515947
 30
0.0
 40
0.125
  1
3/4
 72
     1
 11
11.34196305530895
 21
-3.473931875515947
 31
0.0
100
AcDbText
 73
     2
  0
POINT
  5
165
330
115
100
AcDbEntity
  8
DEFPOINTS
  6
BYBLOCK
 62
     0
100
AcDbPoint
 10
10.05029638864228
 20
-2.764338667382558
 30
0.0
  0
POINT
  5
166
330
115
100
AcDbEntity
  8
DEFPOINTS
  6
BYBLOCK
 62
     0
100
AcDbPoint
 10
10.80029638864228
 20
-2.764338667382558
 30
0.0
  0
POINT
  5
167
330
115
100
AcDbEntity
  8
DEFPOINTS
  6
BYBLOCK
 62
     0
100
AcDbPoint
 10
10.80029638864228
 20
-3.473931875515947
 30
0.0
  0
ENDBLK
  5
168
330
115
100
AcDbEntity
  8
0
100
AcDbBlockEnd
  0
ENDSEC
  0
SECTION
  2
ENTITIES
  0
ARC
  5
169
330
18
100
AcDbEntity
  8
ADP2DETAIL
100
AcDbCircle
 10
11.62175684682004
 20
-2.388838667382559
 30
0.0
 40
0.75
100
AcDbArc
 50
180.0
 51
201.7802251253252
  0
LINE
  5
16A
330
18
100
AcDbEntity
  8
ADP1DETAIL
100
AcDbLine
 10
7.429142266548259
 20
-3.883912957698674
 30
0.0
 11
7.429142266548259
 21
-0.9095284858267632
 31
0.0
  0
LINE
  5
16B
330
18
100
AcDbEntity
  8
ADP1DETAIL
100
AcDbLine
 10
8.175296388642285
 20
-1.896646431446603
 30
0.0
 11
8.175296388642285
 21
-2.881030903318515
 31
0.0
  0
LINE
  5
16C
330
18
100
AcDbEntity
  8
ADP1DETAIL
100
AcDbLine
 10
7.679142266548259
 20
-1.007628858959795
 30
0.0
 11
7.679142266548259
 21
-3.097875682739024
 31
0.0
  0
LINE
  5
16D
330
18
100
AcDbEntity
  8
ADP1DETAIL
100
AcDbLine
 10
8.300196794688917
 20
-2.792336210170132
 30
0.0
 11
8.300296388642285
 21
-2.388838667382559
 31
0.0
  0
LINE
  5
16E
330
18
100
AcDbEntity
  8
ADP1DETAIL
100
AcDbLine
 10
8.175296388642285
 20
-2.388838667382559
 30
0.0
 11
8.175296388642285
 21
-2.826338667382559
 31
0.0
  0
LINE
  5
16F
330
18
100
AcDbEntity
  8
ADP1DETAIL
100
AcDbLine
 10
10.80029638864228
 20
-1.326838667382558
 30
0.0
 11
10.80029638864228
 21
-2.764338667382558
 31
0.0
  0
LINE
  5
170
330
18
100
AcDbEntity
  8
ADP1DETAIL
100
AcDbLine
 10
10.05029638864228
 20
-2.764338667382558
 30
0.0
 11
10.05029638864228
 21
-1.326838667382558
 31
0.0
  0
LINE
  5
171
330
18
100
AcDbEntity
  8
ADP1DETAIL
100
AcDbLine
 10
9.296258621504025
 20
-2.638005850821089
 30
0.0
 11
9.296258621504025
 21
-2.139671483944025
 31
0.0
  0
LINE
  5
172
330
18
100
AcDbEntity
  8
ADP1DETAIL
100
AcDbLine
 10
10.05029638864228
 20
-2.076338667382559
 30
0.0
 11
10.05029638864228
 21
-2.701338667382559
 31
0.0
  0
LINE
  5
173
330
18
100
AcDbEntity
  8
ADP1DETAIL
100
AcDbLine
 10
10.92529638864228
 20
-2.66712418657971
 30
0.0
 11
10.92529638864228
 21
-2.388838667382559
 31
0.0
  0
LINE
  5
174
330
18
100
AcDbEntity
  8
ADP1DETAIL
100
AcDbLine
 10
10.80029638864228
 20
-2.576338667382559
 30
0.0
 11
10.80029638864228
 21
-2.701338667382559
 31
0.0
  0
DIMENSION
  5
175
330
18
100
AcDbEntity
  8
ADPDIM
100
AcDbDimension
  2
*D1
 10
11.61425651839415
 20
-2.388838667382559
 30
0.0
 11
11.61425651839415
 21
-3.055505334049225
 31
0.0
100
AcDbAlignedDimension
 13
10.80029638864228
 23
-1.326838667382558
 33
0.0
 14
10.92529638864228
 24
-2.388838667382559
 34
0.0
 50
90.0
100
AcDbRotatedDimension
  0
DIMENSION
  5
176
330
18
100
AcDbEntity
  8
ADPDIM
100
AcDbDimension
  2
*D5
 10
10.80029638864228
 20
-3.473931875515947
 30
0.0
 11
11.34196305530895
 21
-3.473931875515947
 31
0.0
100
AcDbAlignedDimension
 13
10.05029638864228
 23
-2.764338667382558
 33
0.0
 14
10.80029638864228
 24
-2.764338667382558
 34
0.0
100
AcDbRotatedDimension
  0
LINE
  5
177
330
18
100
AcDbEntity
  8
ADP1DETAIL
100
AcDbLine
 10
10.0475973476113
 20
-2.701338667382559
 30
0.0
 11
9.296258621504025
 21
-2.638838667382559
 31
0.0
  0
LINE
  5
178
330
18
100
AcDbEntity
  8
ADP1DETAIL
100
AcDbLine
 10
9.296258621504025
 20
-2.638838667382559
 30
0.0
 11
8.300296388642285
 21
-2.763838667382559
 31
0.0
  0
LINE
  5
179
330
18
100
AcDbEntity
  8
ADP1DETAIL
100
AcDbLine
 10
7.679142266548259
 20
-3.070128858959792
 30
0.0
 11
7.679142266548259
 21
-3.785812584565645
 31
0.0
  0
ARC
  5
17A
330
18
100
AcDbEntity
  8
ADP1DETAIL
100
AcDbCircle
 10
7.617142266548258
 20
-3.785812584565645
 30
0.0
 40
0.062
100
AcDbArc
 50
284.0362434679264
 51
0.0
  0
ARC
  5
17B
330
18
100
AcDbEntity
  8
ADP1DETAIL
100
AcDbCircle
 10
7.439142266548261
 20
-3.883912957698674
 30
0.0
 40
0.01
100
AcDbArc
 50
180.0
 51
284.0362434679263
  0
LINE
  5
17C
330
18
100
AcDbEntity
  8
ADP1DETAIL
100
AcDbLine
 10
7.632179475300512
 20
-3.845961419574654
 30
0.0
 11
7.441567622798624
 21
-3.893614382700126
 31
0.0
  0
LINE
  5
17D
330
18
100
AcDbEntity
  8
ADP1DETAIL
100
AcDbLine
 10
8.16772174489265
 20
-2.890732328319968
 30
0.0
 11
7.722259179890032
 21
-3.002097969570618
 31
0.0
  0
ARC
  5
17E
330
18
100
AcDbEntity
  8
ADP1DETAIL
100
AcDbCircle
 10
7.74114226654826
 20
-3.070128858959792
 30
0.0
 40
0.062
100
AcDbArc
 50
104.0362434679264
 51
180.0
  0
ARC
  5
17F
330
18
100
AcDbEntity
  8
ADP1DETAIL
100
AcDbCircle
 10
8.165296388642287
 20
-2.881030903318515
 30
0.0
 40
0.01
100
AcDbArc
 50
284.0362434679261
 51
0.0
  0
LINE
  5
180
330
18
100
AcDbEntity
  8
ADP1DETAIL
100
AcDbLine
 10
8.175296388642285
 20
-2.826338667382559
 30
0.0
 11
8.300196794688917
 21
-2.792336210170132
 31
0.0
  0
LINE
  5
181
330
18
100
AcDbEntity
  8
ADP1DETAIL
100
AcDbLine
 10
10.80029638864228
 20
-2.764338667382558
 30
0.0
 11
10.05029638864228
 21
-2.764338667382558
 31
0.0
  0
LINE
  5
182
330
18
100
AcDbEntity
  8
ADP1DETAIL
100
AcDbLine
 10
10.92103711692842
 20
-2.668986286744741
 30
0.0
 11
10.92103711692842
 21
-2.668986286744741
 31
0.0
  0
LINE
  5
183
330
18
100
AcDbEntity
  8
ADP1DETAIL
100
AcDbLine
 10
10.80029638864228
 20
-2.701338667382559
 30
0.0
 11
10.92103711692842
 21
-2.668986286744741
 31
0.0
  0
DIMENSION
  5
184
330
18
100
AcDbEntity
  8
ADPDIM
100
AcDbDimension
  2
*D0
 10
7.429142266548259
 20
-0.7162769990498439
 30
0.0
 11
8.929259274270057
 21
-0.7162769990498439
 31
0.0
100
AcDbAlignedDimension
 13
10.42937628199185
 23
-1.156969862284876
 33
0.0
 14
7.429142266548259
 24
-0.9095284858267632
 34
0.0
100
AcDbRotatedDimension
  0
LINE
  5
185
330
18
100
AcDbEntity
  8
ADP1DETAIL
100
AcDbLine
 10
9.296258621504025
 20
-2.138838667382559
 30
0.0
 11
10.0475973476113
 21
-2.076338667382559
 31
0.0
  0
LINE
  5
186
330
18
100
AcDbEntity
  8
ADP1DETAIL
100
AcDbLine
 10
8.300296388642285
 20
-2.013838667382559
 30
0.0
 11
9.296258621504025
 21
-2.138838667382559
 31
0.0
  0
LINE
  5
187
330
18
100
AcDbEntity
  8
ADP1DETAIL
100
AcDbLine
 10
7.722259179890032
 20
-1.775579365194496
 30
0.0
 11
8.16772174489265
 21
-1.88694500644515
 31
0.0
  0
ARC
  5
188
330
18
100
AcDbEntity
  8
ADP1DETAIL
100
AcDbCircle
 10
7.74114226654826
 20
-1.723312584565645
 30
0.0
 40
0.062
100
AcDbArc
 50
180.0
 51
255.9637565320735
  0
LINE
  5
189
330
18
100
AcDbEntity
  8
ADP1DETAIL
100
AcDbLine
 10
8.175296388642285
 20
-1.951338667382559
 30
0.0
 11
8.300196794688917
 21
-1.985341124594982
 31
0.0
  0
LINE
  5
18A
330
18
100
AcDbEntity
  8
ADP1DETAIL
100
AcDbLine
 10
8.175296388642285
 20
-2.388838667382559
 30
0.0
 11
8.175296388642285
 21
-1.951338667382559
 31
0.0
  0
LINE
  5
18B
330
18
100
AcDbEntity
  8
ADP1DETAIL
100
AcDbLine
 10
8.300196794688917
 20
-1.985341124594982
 30
0.0
 11
8.300296388642285
 21
-2.388838667382559
 31
0.0
  0
ARC
  5
18C
330
18
100
AcDbEntity
  8
ADP1DETAIL
100
AcDbCircle
 10
8.165296388642287
 20
-1.896646431446603
 30
0.0
 40
0.01
100
AcDbArc
 50
0.0
 51
75.96375653207362
  0
ARC
  5
18D
330
18
100
AcDbEntity
  8
ADP1DETAIL
100
AcDbCircle
 10
7.617142266548258
 20
-1.007628858959795
 30
0.0
 40
0.062
100
AcDbArc
 50
0.0
 51
75.96375653207352
  0
ARC
  5
18E
330
18
100
AcDbEntity
  8
ADP1DETAIL
100
AcDbCircle
 10
7.439142266548261
 20
-0.9095284858267632
 30
0.0
 40
0.01
100
AcDbArc
 50
75.96375653207326
 51
180.0
  0
LINE
  5
18F
330
18
100
AcDbEntity
  8
ADP1DETAIL
100
AcDbLine
 10
7.441567622798624
 20
-0.8998270608253108
 30
0.0
 11
7.632179475300512
 21
-0.9474800239507828
 31
0.0
  0
LINE
  5
190
330
18
100
AcDbEntity
  8
ADP2DETAIL
100
AcDbLine
 10
10.51929638864228
 20
-1.453842068445732
 30
0.0
 11
10.58129638864228
 21
-1.515842068445729
 31
0.0
  0
LINE
  5
191
330
18
100
AcDbEntity
  8
ADP2DETAIL
100
AcDbLine
 10
10.33129638864228
 20
-1.453842068445732
 30
0.0
 11
10.26929638864228
 21
-1.515842068445729
 31
0.0
  0
LINE
  5
192
330
18
100
AcDbEntity
  8
ADP1DETAIL
100
AcDbLine
 10
10.80029638864228
 20
-1.514838667382556
 30
0.0
 11
10.05029638864228
 21
-1.514838667382556
 31
0.0
  0
LINE
  5
193
330
18
100
AcDbEntity
  8
ADP1DETAIL
100
AcDbLine
 10
10.05029638864228
 20
-2.576338667382559
 30
0.0
 11
10.05029638864228
 21
-2.201338667382559
 31
0.0
  0
ARC
  5
194
330
18
100
AcDbEntity
  8
ADP2DETAIL
100
AcDbCircle
 10
11.62175684682004
 20
-2.388838667382559
 30
0.0
 40
0.75
100
AcDbArc
 50
158.2197748746747
 51
180.0
  0
LINE
  5
195
330
18
100
AcDbEntity
  8
ADP1DETAIL
100
AcDbLine
 10
10.92103711692842
 20
-2.108691048020373
 30
0.0
 11
10.92103711692842
 21
-2.108691048020373
 31
0.0
  0
LINE
  5
196
330
18
100
AcDbEntity
  8
ADP1DETAIL
100
AcDbLine
 10
10.80029638864228
 20
-2.201338667382559
 30
0.0
 11
10.80029638864228
 21
-2.076338667382559
 31
0.0
  0
LINE
  5
197
330
18
100
AcDbEntity
  8
ADP1DETAIL
100
AcDbLine
 10
10.80029638864228
 20
-2.076338667382559
 30
0.0
 11
10.92103711692842
 21
-2.108691048020373
 31
0.0
  0
LINE
  5
198
330
18
100
AcDbEntity
  8
ADP1DETAIL
100
AcDbLine
 10
10.80029638864228
 20
-2.201338667382559
 30
0.0
 11
10.80029638864228
 21
-2.576338667382559
 31
0.0
  0
LINE
  5
199
330
18
100
AcDbEntity
  8
ADP1DETAIL
100
AcDbLine
 10
10.92529638864228
 20
-2.110553148185404
 30
0.0
 11
10.92529638864228
 21
-2.388838667382559
 31
0.0
  0
LINE
  5
19A
330
18
100
AcDbEntity
  8
ADP1DETAIL
100
AcDbLine
 10
10.05029638864228
 20
-1.326838667382558
 30
0.0
 11
10.80029638864228
 21
-1.326838667382558
 31
0.0
  0
LINE
  5
19B
330
18
100
AcDbEntity
  8
ADP2DETAIL
100
AcDbLine
 10
10.51929638864228
 20
-1.328842068445732
 30
0.0
 11
10.51929638864228
 21
-1.453842068445732
 31
0.0
  0
LINE
  5
19C
330
18
100
AcDbEntity
  8
ADP2DETAIL
100
AcDbLine
 10
10.33129638864228
 20
-1.328842068445732
 30
0.0
 11
10.33129638864228
 21
-1.453842068445732
 31
0.0
  0
ARC
  5
19D
330
18
100
AcDbEntity
  8
ADP1DETAIL
100
AcDbCircle
 10
14.44394131437443
 20
-2.419705723874032
 30
0.0
 40
1.4375
100
AcDbArc
 50
142.3706296439194
 51
37.62937035608057
  0
ARC
  5
19E
330
18
100
AcDbEntity
  8
ADP1DETAIL
100
AcDbCircle
 10
14.44394131437443
 20
-2.419705723874032
 30
0.0
 40
1.5
100
AcDbArc
 50
144.1891266479682
 51
35.81087335203176
  0
ARC
  5
19F
330
18
100
AcDbEntity
  8
ADP1DETAIL
100
AcDbCircle
 10
14.44394131437443
 20
-2.419705723874032
 30
0.0
 40
0.5
100
AcDbArc
 50
138.677075376201
 51
41.49617109724033
  0
ARC
  5
1A0
330
18
100
AcDbEntity
  8
ADP1DETAIL
100
AcDbCircle
 10
14.44394131437443
 20
-2.419705723874032
 30
0.0
 40
0.625
100
AcDbArc
 50
126.9272149369694
 51
53.18737667338435
  0
ARC
  5
1A1
330
18
100
AcDbEntity
  8
ADP1DETAIL
100
AcDbCircle
 10
14.44394131437443
 20
-2.416538346775003
 30
0.0
 40
0.3745
100
AcDbArc
 50
270.0
 51
0.0
  0
CIRCLE
  5
1A2
330
18
100
AcDbEntity
  8
ADP1DETAIL
100
AcDbCircle
 10
14.44394131437443
 20
-2.419705723874032
 30
0.0
 40
0.3125
  0
CIRCLE
  5
1A3
330
18
100
AcDbEntity
  8
ADP1DETAIL
100
AcDbCircle
 10
14.44394131437443
 20
-2.419705723874032
 30
0.0
 40
0.2859512779740925
  0
ARC
  5
1A4
330
18
100
AcDbEntity
  8
ADP1DETAIL
100
AcDbCircle
 10
14.44294131437443
 20
-2.416538346775003
 30
0.0
 40
0.3745
100
AcDbArc
 50
180.0
 51
270.0
  0
DIMENSION
  5
1A5
330
18
100
AcDbEntity
  8
ADPDIM
100
AcDbDimension
  2
*D2
 10
15.5627061581934
 20
-1.420523446091492
 30
0.0
 11
12.96779325655772
 21
-3.73807122928156
 31
0.0
 70
     3
100
AcDbDiametricDimension
 15
13.32517647055545
 25
-3.418888001656581
 35
0.0
 40
0.22279050183883
  0
LINE
  5
1A6
330
18
100
AcDbEntity
  8
ADP1DETAIL
100
AcDbLine
 10
15.69344131437443
 20
-1.542038346775002
 30
0.0
 11
14.94344131437443
 21
-1.542038346775002
 31
0.0
  0
LINE
  5
1A7
330
18
100
AcDbEntity
  8
ADP1DETAIL
100
AcDbLine
 10
15.69344131437443
 20
-1.354038346775003
 30
0.0
 11
14.63052791304733
 21
-1.352951656369876
 31
0.0
  0
ARC
  5
1A8
330
18
100
AcDbEntity
  8
ADP1DETAIL
100
AcDbCircle
 10
14.44394131437443
 20
-2.419705723874032
 30
0.0
 40
1.4375
100
AcDbArc
 50
47.86972332098648
 51
132.154838505089
  0
ARC
  5
1A9
330
18
100
AcDbEntity
  8
ADP1DETAIL
100
AcDbCircle
 10
14.44394131437443
 20
-2.419705723874032
 30
0.0
 40
1.5
100
AcDbArc
 50
45.28640669157143
 51
134.7288733778345
  0
DIMENSION
  5
1AA
330
18
100
AcDbEntity
  8
ADPDIM
100
AcDbDimension
  2
*D4
 10
15.25479604722017
 20
-0.7627252812171057
 30
0.0
 11
14.44229604722017
 21
-0.7627252812171057
 31
0.0
100
AcDbAlignedDimension
 13
13.62979604722017
 23
-1.342674404978109
 33
0.0
 14
15.25479604722017
 24
-1.342674404978109
 34
0.0
100
AcDbRotatedDimension
  0
DIMENSION
  5
1AB
330
18
100
AcDbEntity
  8
ADPDIM
100
AcDbDimension
  2
*D3
 10
15.69344131437443
 20
-0.4072725894893075
 30
0.0
 11
14.44344131437443
 21
-0.4072725894893075
 31
0.0
100
AcDbAlignedDimension
 13
13.19344131437443
 23
-1.354038346775003
 33
0.0
 14
15.69344131437443
 24
-1.354038346775003
 34
0.0
100
AcDbRotatedDimension
  0
LINE
  5
1AC
330
18
100
AcDbEntity
  8
ADP1DETAIL
100
AcDbLine
 10
13.19344131437443
 20
-1.354038346775003
 30
0.0
 11
14.25356775790621
 21
-1.354038346775003
 31
0.0
  0
ARC
  5
1AD
330
18
100
AcDbEntity
  8
ADP1DETAIL
100
AcDbCircle
 10
13.94344131437443
 20
-1.667038346775002
 30
0.0
 40
0.125
100
AcDbArc
 50
0.0
 51
90.0
  0
LINE
  5
1AE
330
18
100
AcDbEntity
  8
ADP2DETAIL
100
AcDbLine
 10
13.53620981558963
 20
-1.355432212555251
 30
0.0
 11
13.53620981558963
 21
-1.480432212555251
 31
0.0
  0
LINE
  5
1AF
330
18
100
AcDbEntity
  8
ADP2DETAIL
100
AcDbLine
 10
13.72420981558963
 20
-1.355432212555251
 30
0.0
 11
13.72420981558963
 21
-1.480432212555251
 31
0.0
  0
LINE
  5
1B0
330
18
100
AcDbEntity
  8
ADP1DETAIL
100
AcDbLine
 10
13.19344131437443
 20
-1.542038346775002
 30
0.0
 11
13.19344131437443
 21
-1.354038346775003
 31
0.0
  0
LINE
  5
1B1
330
18
100
AcDbEntity
  8
ADP1DETAIL
100
AcDbLine
 10
13.94344131437443
 20
-1.542038346775002
 30
0.0
 11
13.19344131437443
 21
-1.542038346775002
 31
0.0
  0
LINE
  5
1B2
330
18
100
AcDbEntity
  8
ADP2DETAIL
100
AcDbLine
 10
13.53620981558963
 20
-1.480432212555251
 30
0.0
 11
13.47420981558963
 21
-1.542432212555249
 31
0.0
  0
LINE
  5
1B3
330
18
100
AcDbEntity
  8
ADP2DETAIL
100
AcDbLine
 10
13.72420981558963
 20
-1.480432212555251
 30
0.0
 11
13.78620981558963
 21
-1.542432212555249
 31
0.0
  0
LINE
  5
1B4
330
18
100
AcDbEntity
  8
ADP2DETAIL
100
AcDbLine
 10
15.16120981558963
 20
-1.355432212555251
 30
0.0
 11
15.16120981558963
 21
-1.480432212555251
 31
0.0
  0
LINE
  5
1B5
330
18
100
AcDbEntity
  8
ADP1DETAIL
100
AcDbLine
 10
14.25594131437443
 20
-2.170081506298893
 30
0.0
 11
14.25594131437443
 21
-1.335056475911192
 31
0.0
  0
LINE
  5
1B6
330
18
100
AcDbEntity
  8
ADP1DETAIL
100
AcDbLine
 10
14.63094131437443
 20
-1.335056475911192
 30
0.0
 11
14.63094131437443
 21
-2.169331503955125
 31
0.0
  0
LINE
  5
1B7
330
18
100
AcDbEntity
  8
ADP1DETAIL
100
AcDbLine
 10
14.06844131437443
 20
-2.416538346775003
 30
0.0
 11
14.06844131437443
 21
-1.667038346775002
 31
0.0
  0
LINE
  5
1B8
330
18
100
AcDbEntity
  8
ADP2DETAIL
100
AcDbLine
 10
15.16120981558963
 20
-1.480432212555251
 30
0.0
 11
15.09920981558963
 21
-1.542432212555249
 31
0.0
  0
LINE
  5
1B9
330
18
100
AcDbEntity
  8
ADP1DETAIL
100
AcDbLine
 10
14.81844131437443
 20
-1.667038346775002
 30
0.0
 11
14.81844131437443
 21
-2.416538346775003
 31
0.0
  0
ARC
  5
1BA
330
18
100
AcDbEntity
  8
ADP1DETAIL
100
AcDbCircle
 10
14.94344131437443
 20
-1.667038346775002
 30
0.0
 40
0.125
100
AcDbArc
 50
90.0
 51
180.0
  0
LINE
  5
1BB
330
18
100
AcDbEntity
  8
ADP1DETAIL
100
AcDbLine
 10
14.25479604722017
 20
-1.335056475911192
 30
0.0
 11
14.62979604722017
 21
-1.335056475911192
 31
0.0
  0
LINE
  5
1BC
330
18
100
AcDbEntity
  8
ADP2DETAIL
100
AcDbLine
 10
15.34920981558963
 20
-1.355432212555251
 30
0.0
 11
15.34920981558963
 21
-1.480432212555251
 31
0.0
  0
LINE
  5
1BD
330
18
100
AcDbEntity
  8
ADP1DETAIL
100
AcDbLine
 10
15.69344131437443
 20
-1.354038346775003
 30
0.0
 11
15.69344131437443
 21
-1.542038346775002
 31
0.0
  0
LINE
  5
1BE
330
18
100
AcDbEntity
  8
ADP2DETAIL
100
AcDbLine
 10
15.34920981558963
 20
-1.480432212555251
 30
0.0
 11
15.41120981558963
 21
-1.542432212555249
 31
0.0
  0
TEXT
  5
1CC
330
18
100
AcDbEntity
  8
ADPDIM
100
AcDbText
 10
5.21374460111718
 20
-5.00457645998013
 30
0.0
 40
0.125
  1
J U L I U S  B L U M  &  C O . ,  I N C .      ( 8 0 0 )  5 2 6 - 6 2 9 3        W W W . J U L I U S B L U M . C O M        P A R T  N o .  8 4 3
 41
1.25
  7
ARIAL_WIDE
 72
     1
 11
11.64845213863423
 21
-4.87957645998013
 31
0.0
100
AcDbText
 73
     3
  0
ENDSEC
  0
SECTION
  2
OBJECTS
  0
DICTIONARY
  5
C
330
0
100
AcDbDictionary
  3
ACAD_GROUP
350
D
  3
ACAD_LAYOUT
350
1C5
  3
ACAD_MLINESTYLE
350
E
  3
ACAD_PLOTSETTINGS
350
1C6
  3
ACAD_PLOTSTYLENAME
350
1C3
  3
ACDBHEADERROUNDTRIPXREC
350
310
  3
ACDBVARIABLEDICTIONARY
350
226
  0
DICTIONARY
  5
220
330
18
100
AcDbDictionary
280
     1
  3
ACAD_LAYOUTSELFREF
360
331
  0
DICTIONARY
  5
21E
330
15
100
AcDbDictionary
280
     1
  3
ACAD_LAYOUTSELFREF
360
330
  0
DICTIONARY
  5
D
102
{ACAD_REACTORS
330
C
102
}
330
C
100
AcDbDictionary
  0
DICTIONARY
  5
1C5
102
{ACAD_REACTORS
330
C
102
}
330
C
100
AcDbDictionary
  0
DICTIONARY
  5
E
102
{ACAD_REACTORS
330
C
102
}
330
C
100
AcDbDictionary
  3
STANDARD
350
1B
  0
DICTIONARY
  5
1C6
102
{ACAD_REACTORS
330
C
102
}
330
C
100
AcDbDictionary
  0
ACDBDICTIONARYWDFLT
  5
1C3
102
{ACAD_REACTORS
330
C
102
}
330
C
100
AcDbDictionary
281
     1
  3
Normal
350
1C4
100
AcDbDictionaryWithDefault
340
1C4
  0
DICTIONARY
  5
310
102
{ACAD_REACTORS
330
C
102
}
330
C
100
AcDbDictionary
  3
CEPSNTYPE
350
31A
  3
FINGERPRINTGUID
350
31B
  3
HYPERLINKBASE
350
313
  3
INSUNITS
350
319
  3
LAYOUTDICT
350
315
  3
LWETCUNION
350
318
  3
PLOTSETDICT
350
316
  3
PLOTSTYLNAMDICT
350
317
  3
PSVPSCALE
350
31D
  3
PUCSBASE
350
320
  3
PUCSORGBACK
350
326
  3
PUCSORGBOTTOM
350
322
  3
PUCSORGFRONT
350
325
  3
PUCSORGLEFT
350
323
  3
PUCSORGRIGHT
350
324
  3
PUCSORGTOP
350
321
  3
PUCSORTHOREF
350
31E
  3
PUCSORTHOVIEW
350
31F
  3
STYLESHEET
350
314
  3
TSTACKALIGN
350
311
  3
TSTACKSIZE
350
312
  3
UCSBASE
350
329
  3
UCSORGBACK
350
32F
  3
UCSORGBOTTOM
350
32B
  3
UCSORGFRONT
350
32E
  3
UCSORGLEFT
350
32C
  3
UCSORGRIGHT
350
32D
  3
UCSORGTOP
350
32A
  3
UCSORTHOREF
350
327
  3
UCSORTHOVIEW
350
328
  3
VERSIONGUID
350
31C
  0
DICTIONARY
  5
226
102
{ACAD_REACTORS
330
C
102
}
330
C
100
AcDbDictionary
  3
DIMASSOC
350
227
  0
XRECORD
  5
331
102
{ACAD_REACTORS
330
220
102
}
330
220
100
AcDbXrecord
340
18
  0
XRECORD
  5
330
102
{ACAD_REACTORS
330
21E
102
}
330
21E
100
AcDbXrecord
340
15
  0
MLINESTYLE
  5
1B
102
{ACAD_REACTORS
330
E
102
}
330
E
100
AcDbMlineStyle
  2
STANDARD
 70
     0
  3

 62
     0
 51
90.0
 52
90.0
 71
     2
 49
0.5
 62
   256
  6
BYLAYER
 49
-0.5
 62
   256
  6
BYLAYER
  0
ACDBPLACEHOLDER
  5
1C4
102
{ACAD_REACTORS
330
1C3
102
}
330
1C3
100
AcDbPlaceHolder
280
     0
  0
XRECORD
  5
31A
102
{ACAD_REACTORS
330
310
102
}
330
310
100
AcDbXrecord
 90
        0
  0
XRECORD
  5
31B
102
{ACAD_REACTORS
330
310
102
}
330
310
100
AcDbXrecord
  1
{C195624C-9817-4A4E-AF23-F0F44B14150F}
  0
XRECORD
  5
313
102
{ACAD_REACTORS
330
310
102
}
330
310
100
AcDbXrecord
  1

  0
XRECORD
  5
319
102
{ACAD_REACTORS
330
310
102
}
330
310
100
AcDbXrecord
 90
        0
  0
XRECORD
  5
315
102
{ACAD_REACTORS
330
310
102
}
330
310
100
AcDbXrecord
340
1C5
  0
XRECORD
  5
318
102
{ACAD_REACTORS
330
310
102
}
330
310
100
AcDbXrecord
 90
    14877
  0
XRECORD
  5
316
102
{ACAD_REACTORS
330
310
102
}
330
310
100
AcDbXrecord
340
1C6
  0
XRECORD
  5
317
102
{ACAD_REACTORS
330
310
102
}
330
310
100
AcDbXrecord
340
1C3
  0
XRECORD
  5
31D
102
{ACAD_REACTORS
330
310
102
}
330
310
100
AcDbXrecord
 40
0.0
  0
XRECORD
  5
320
102
{ACAD_REACTORS
330
310
102
}
330
310
100
AcDbXrecord
340
0
  0
XRECORD
  5
326
102
{ACAD_REACTORS
330
310
102
}
330
310
100
AcDbXrecord
 10
0.0
 20
0.0
 30
0.0
  0
XRECORD
  5
322
102
{ACAD_REACTORS
330
310
102
}
330
310
100
AcDbXrecord
 10
0.0
 20
0.0
 30
0.0
  0
XRECORD
  5
325
102
{ACAD_REACTORS
330
310
102
}
330
310
100
AcDbXrecord
 10
0.0
 20
0.0
 30
0.0
  0
XRECORD
  5
323
102
{ACAD_REACTORS
330
310
102
}
330
310
100
AcDbXrecord
 10
0.0
 20
0.0
 30
0.0
  0
XRECORD
  5
324
102
{ACAD_REACTORS
330
310
102
}
330
310
100
AcDbXrecord
 10
0.0
 20
0.0
 30
0.0
  0
XRECORD
  5
321
102
{ACAD_REACTORS
330
310
102
}
330
310
100
AcDbXrecord
 10
0.0
 20
0.0
 30
0.0
  0
XRECORD
  5
31E
102
{ACAD_REACTORS
330
310
102
}
330
310
100
AcDbXrecord
340
0
  0
XRECORD
  5
31F
102
{ACAD_REACTORS
330
310
102
}
330
310
100
AcDbXrecord
 70
     0
  0
XRECORD
  5
314
102
{ACAD_REACTORS
330
310
102
}
330
310
100
AcDbXrecord
  1

  0
XRECORD
  5
311
102
{ACAD_REACTORS
330
310
102
}
330
310
100
AcDbXrecord
 90
        1
  0
XRECORD
  5
312
102
{ACAD_REACTORS
330
310
102
}
330
310
100
AcDbXrecord
 90
       70
  0
XRECORD
  5
329
102
{ACAD_REACTORS
330
310
102
}
330
310
100
AcDbXrecord
340
0
  0
XRECORD
  5
32F
102
{ACAD_REACTORS
330
310
102
}
330
310
100
AcDbXrecord
 10
0.0
 20
0.0
 30
0.0
  0
XRECORD
  5
32B
102
{ACAD_REACTORS
330
310
102
}
330
310
100
AcDbXrecord
 10
0.0
 20
0.0
 30
0.0
  0
XRECORD
  5
32E
102
{ACAD_REACTORS
330
310
102
}
330
310
100
AcDbXrecord
 10
0.0
 20
0.0
 30
0.0
  0
XRECORD
  5
32C
102
{ACAD_REACTORS
330
310
102
}
330
310
100
AcDbXrecord
 10
0.0
 20
0.0
 30
0.0
  0
XRECORD
  5
32D
102
{ACAD_REACTORS
330
310
102
}
330
310
100
AcDbXrecord
 10
0.0
 20
0.0
 30
0.0
  0
XRECORD
  5
32A
102
{ACAD_REACTORS
330
310
102
}
330
310
100
AcDbXrecord
 10
0.0
 20
0.0
 30
0.0
  0
XRECORD
  5
327
102
{ACAD_REACTORS
330
310
102
}
330
310
100
AcDbXrecord
340
0
  0
XRECORD
  5
328
102
{ACAD_REACTORS
330
310
102
}
330
310
100
AcDbXrecord
 70
     0
  0
XRECORD
  5
31C
102
{ACAD_REACTORS
330
310
102
}
330
310
100
AcDbXrecord
  1
{06E816D1-8289-410C-81CB-A86EBFD58725}
  0
DICTIONARYVAR
  5
227
102
{ACAD_REACTORS
330
226
102
}
330
226
100
DictionaryVariables
280
     0
  1
1
  0
ENDSEC
  0
EOF
