  0
SECTION
  2
HEADER
  9
$ACADVER
  1
AC1015
  9
$ACADMAINTVER
 70
    20
  9
$DWGCODEPAGE
  3
ANSI_1252
  9
$INSBASE
 10
0.0
 20
-1.795702954185626
 30
0.0
  9
$EXTMIN
 10
-5.854729024556616
 20
-199.1367954441847
 30
0.0
  9
$EXTMAX
 10
301.8566866912284
 20
0.8850462350048875
 30
0.0
  9
$LIMMIN
 10
0.0
 20
0.0
  9
$LIMMAX
 10
36.0
 20
36.0
  9
$ORTHOMODE
 70
     1
  9
$REGENMODE
 70
     1
  9
$FILLMODE
 70
     1
  9
$QTEXTMODE
 70
     0
  9
$MIRRTEXT
 70
     1
  9
$LTSCALE
 40
1.0
  9
$ATTMODE
 70
     1
  9
$TEXTSIZE
 40
0.2
  9
$TRACEWID
 40
0.05
  9
$TEXTSTYLE
  7
STANDARD
  9
$CLAYER
  8
ADPDIM
  9
$CELTYPE
  6
ByLayer
  9
$CECOLOR
 62
   256
  9
$CELTSCALE
 40
1.0
  9
$DISPSILH
 70
     0
  9
$DIMSCALE
 40
1.0
  9
$DIMASZ
 40
0.125
  9
$DIMEXO
 40
0.0625
  9
$DIMDLI
 40
0.38
  9
$DIMRND
 40
0.0
  9
$DIMDLE
 40
0.0
  9
$DIMEXE
 40
0.18
  9
$DIMTP
 40
0.0
  9
$DIMTM
 40
0.0
  9
$DIMTXT
 40
0.125
  9
$DIMCEN
 40
0.1875
  9
$DIMTSZ
 40
0.125
  9
$DIMTOL
 70
     0
  9
$DIMLIM
 70
     0
  9
$DIMTIH
 70
     0
  9
$DIMTOH
 70
     0
  9
$DIMSE1
 70
     0
  9
$DIMSE2
 70
     0
  9
$DIMTAD
 70
     0
  9
$DIMZIN
 70
     3
  9
$DIMBLK
  1

  9
$DIMASO
 70
     1
  9
$DIMSHO
 70
     1
  9
$DIMPOST
  1

  9
$DIMAPOST
  1

  9
$DIMALT
 70
     0
  9
$DIMALTD
 70
     1
  9
$DIMALTF
 40
25.4
  9
$DIMLFAC
 40
1.0
  9
$DIMTOFL
 70
     0
  9
$DIMTVP
 40
0.0
  9
$DIMTIX
 70
     0
  9
$DIMSOXD
 70
     0
  9
$DIMSAH
 70
     0
  9
$DIMBLK1
  1

  9
$DIMBLK2
  1

  9
$DIMSTYLE
  2
Standard
  9
$DIMCLRD
 70
     0
  9
$DIMCLRE
 70
     0
  9
$DIMCLRT
 70
     0
  9
$DIMTFAC
 40
1.0
  9
$DIMGAP
 40
0.125
  9
$DIMJUST
 70
     0
  9
$DIMSD1
 70
     0
  9
$DIMSD2
 70
     0
  9
$DIMTOLJ
 70
     1
  9
$DIMTZIN
 70
     3
  9
$DIMALTZ
 70
     3
  9
$DIMALTTZ
 70
     3
  9
$DIMUPT
 70
     0
  9
$DIMDEC
 70
     5
  9
$DIMTDEC
 70
     5
  9
$DIMALTU
 70
     5
  9
$DIMALTTD
 70
     1
  9
$DIMTXSTY
  7
STANDARD
  9
$DIMAUNIT
 70
     0
  9
$DIMADEC
 70
     0
  9
$DIMALTRND
 40
0.0
  9
$DIMAZIN
 70
     0
  9
$DIMDSEP
 70
    46
  9
$DIMATFIT
 70
     3
  9
$DIMFRAC
 70
     0
  9
$DIMLDRBLK
  1

  9
$DIMLUNIT
 70
     5
  9
$DIMLWD
 70
    -2
  9
$DIMLWE
 70
    -2
  9
$DIMTMOVE
 70
     2
  9
$LUNITS
 70
     5
  9
$LUPREC
 70
     5
  9
$SKETCHINC
 40
0.1
  9
$FILLETRAD
 40
0.0
  9
$AUNITS
 70
     0
  9
$AUPREC
 70
     0
  9
$MENU
  1
acad
  9
$ELEVATION
 40
0.0
  9
$PELEVATION
 40
0.0
  9
$THICKNESS
 40
0.0
  9
$LIMCHECK
 70
     0
  9
$CHAMFERA
 40
0.0
  9
$CHAMFERB
 40
0.0
  9
$CHAMFERC
 40
0.0
  9
$CHAMFERD
 40
0.0
  9
$SKPOLY
 70
     0
  9
$TDCREATE
 40
2450217.526466818
  9
$TDUCREATE
 40
2450217.693133484
  9
$TDUPDATE
 40
2453960.709081898
  9
$TDUUPDATE
 40
2453960.875748565
  9
$TDINDWG
 40
0.0423480556
  9
$TDUSRTIMER
 40
0.0423480556
  9
$USRTIMER
 70
     1
  9
$ANGBASE
 50
0.0
  9
$ANGDIR
 70
     0
  9
$PDMODE
 70
     0
  9
$PDSIZE
 40
0.0
  9
$PLINEWID
 40
0.0
  9
$SPLFRAME
 70
     0
  9
$SPLINETYPE
 70
     6
  9
$SPLINESEGS
 70
     8
  9
$HANDSEED
  5
372
  9
$SURFTAB1
 70
     6
  9
$SURFTAB2
 70
     6
  9
$SURFTYPE
 70
     6
  9
$SURFU
 70
     6
  9
$SURFV
 70
     6
  9
$UCSBASE
  2

  9
$UCSNAME
  2

  9
$UCSORG
 10
0.0
 20
0.0
 30
0.0
  9
$UCSXDIR
 10
1.0
 20
0.0
 30
0.0
  9
$UCSYDIR
 10
0.0
 20
1.0
 30
0.0
  9
$UCSORTHOREF
  2

  9
$UCSORTHOVIEW
 70
     0
  9
$UCSORGTOP
 10
0.0
 20
0.0
 30
0.0
  9
$UCSORGBOTTOM
 10
0.0
 20
0.0
 30
0.0
  9
$UCSORGLEFT
 10
0.0
 20
0.0
 30
0.0
  9
$UCSORGRIGHT
 10
0.0
 20
0.0
 30
0.0
  9
$UCSORGFRONT
 10
0.0
 20
0.0
 30
0.0
  9
$UCSORGBACK
 10
0.0
 20
0.0
 30
0.0
  9
$PUCSBASE
  2

  9
$PUCSNAME
  2

  9
$PUCSORG
 10
0.0
 20
0.0
 30
0.0
  9
$PUCSXDIR
 10
1.0
 20
0.0
 30
0.0
  9
$PUCSYDIR
 10
0.0
 20
1.0
 30
0.0
  9
$PUCSORTHOREF
  2

  9
$PUCSORTHOVIEW
 70
     0
  9
$PUCSORGTOP
 10
0.0
 20
0.0
 30
0.0
  9
$PUCSORGBOTTOM
 10
0.0
 20
0.0
 30
0.0
  9
$PUCSORGLEFT
 10
0.0
 20
0.0
 30
0.0
  9
$PUCSORGRIGHT
 10
0.0
 20
0.0
 30
0.0
  9
$PUCSORGFRONT
 10
0.0
 20
0.0
 30
0.0
  9
$PUCSORGBACK
 10
0.0
 20
0.0
 30
0.0
  9
$USERI1
 70
     0
  9
$USERI2
 70
     0
  9
$USERI3
 70
     0
  9
$USERI4
 70
     0
  9
$USERI5
 70
     0
  9
$USERR1
 40
0.0
  9
$USERR2
 40
0.0
  9
$USERR3
 40
0.0
  9
$USERR4
 40
0.0
  9
$USERR5
 40
0.0
  9
$WORLDVIEW
 70
     1
  9
$SHADEDGE
 70
     3
  9
$SHADEDIF
 70
    70
  9
$TILEMODE
 70
     1
  9
$MAXACTVP
 70
    15
  9
$PINSBASE
 10
0.0008545056916773
 20
1.250276130627782
 30
0.0
  9
$PLIMCHECK
 70
     0
  9
$PEXTMIN
 10
1.000000000000000E+20
 20
1.000000000000000E+20
 30
1.000000000000000E+20
  9
$PEXTMAX
 10
-1.000000000000000E+20
 20
-1.000000000000000E+20
 30
-1.000000000000000E+20
  9
$PLIMMIN
 10
0.0
 20
0.0
  9
$PLIMMAX
 10
12.0
 20
9.0
  9
$UNITMODE
 70
     0
  9
$VISRETAIN
 70
     0
  9
$PLINEGEN
 70
     0
  9
$PSLTSCALE
 70
     1
  9
$TREEDEPTH
 70
  3020
  9
$CMLSTYLE
  2
Standard
  9
$CMLJUST
 70
     0
  9
$CMLSCALE
 40
1.0
  9
$PROXYGRAPHICS
 70
     1
  9
$MEASUREMENT
 70
     0
  9
$CELWEIGHT
370
    -1
  9
$ENDCAPS
280
     0
  9
$JOINSTYLE
280
     0
  9
$LWDISPLAY
290
     0
  9
$INSUNITS
 70
     0
  9
$HYPERLINKBASE
  1

  9
$STYLESHEET
  1

  9
$XEDIT
290
     1
  9
$CEPSNTYPE
380
     0
  9
$PSTYLEMODE
290
     1
  9
$FINGERPRINTGUID
  2
{CA65ECB3-4DB5-4A8F-ACF7-35718BCE2E1F}
  9
$VERSIONGUID
  2
{DD793CBF-05E9-4E09-9752-67A55FEFE748}
  9
$EXTNAMES
290
     1
  9
$PSVPSCALE
 40
0.0
  9
$OLESTARTUP
290
     0
  0
ENDSEC
  0
SECTION
  2
CLASSES
  0
CLASS
  1
ACDBDICTIONARYWDFLT
  2
AcDbDictionaryWithDefault
  3
ObjectDBX Classes
 90
        0
280
     0
281
     0
  0
CLASS
  1
ACDBPLACEHOLDER
  2
AcDbPlaceHolder
  3
ObjectDBX Classes
 90
        0
280
     0
281
     0
  0
CLASS
  1
LAYOUT
  2
AcDbLayout
  3
ObjectDBX Classes
 90
        0
280
     0
281
     0
  0
CLASS
  1
DICTIONARYVAR
  2
AcDbDictionaryVar
  3
ObjectDBX Classes
 90
        0
280
     0
281
     0
  0
CLASS
  1
MATERIAL
  2
AcDbMaterial
  3
ObjectDBX Classes
 90
     1024
280
     0
281
     0
  0
CLASS
  1
VISUALSTYLE
  2
AcDbVisualStyle
  3
ObjectDBX Classes
 90
     4095
280
     0
281
     0
  0
CLASS
  1
TABLESTYLE
  2
AcDbTableStyle
  3
ObjectDBX Classes
 90
     4095
280
     0
281
     0
  0
ENDSEC
  0
SECTION
  2
TABLES
  0
TABLE
  2
VPORT
  5
8
330
0
100
AcDbSymbolTable
 70
     1
  0
VPORT
  5
264
330
8
100
AcDbSymbolTableRecord
100
AcDbViewportTableRecord
  2
*Active
 70
     0
 10
0.0
 20
0.0
 11
1.0
 21
1.0
 12
1.413604121933739
 22
-4.291029175951633
 13
0.0
 23
0.0
 14
0.5740882589684922
 24
0.5740882589684922
 15
0.5
 25
0.5
 16
0.0
 26
0.0
 36
1.0
 17
0.0
 27
0.0
 37
0.0
 40
3.313909866395515
 41
0.9290060851926977
 42
50.0
 43
0.0
 44
0.0
 50
0.0
 51
0.0
 71
     0
 72
   100
 73
     1
 74
     0
 75
     0
 76
     0
 77
     0
 78
     0
281
     0
 65
     1
110
0.0
120
0.0
130
0.0
111
1.0
121
0.0
131
0.0
112
0.0
122
1.0
132
0.0
 79
     0
146
0.0
  0
ENDTAB
  0
TABLE
  2
LTYPE
  5
5
330
0
100
AcDbSymbolTable
 70
     1
  0
LTYPE
  5
13
330
5
100
AcDbSymbolTableRecord
100
AcDbLinetypeTableRecord
  2
ByBlock
 70
     0
  3

 72
    65
 73
     0
 40
0.0
  0
LTYPE
  5
14
330
5
100
AcDbSymbolTableRecord
100
AcDbLinetypeTableRecord
  2
ByLayer
 70
     0
  3

 72
    65
 73
     0
 40
0.0
  0
LTYPE
  5
15
330
5
100
AcDbSymbolTableRecord
100
AcDbLinetypeTableRecord
  2
CONTINUOUS
 70
     0
  3
Solid line
 72
    65
 73
     0
 40
0.0
  0
ENDTAB
  0
TABLE
  2
LAYER
  5
2
330
0
100
AcDbSymbolTable
 70
     4
  0
LAYER
  5
10
330
2
100
AcDbSymbolTableRecord
100
AcDbLayerTableRecord
  2
0
 70
     0
 62
     7
  6
CONTINUOUS
370
    -3
390
F
  0
LAYER
  5
45
330
2
100
AcDbSymbolTableRecord
100
AcDbLayerTableRecord
  2
ADPDIM
 70
     0
 62
     3
  6
CONTINUOUS
370
    -3
390
F
  0
LAYER
  5
47
330
2
100
AcDbSymbolTableRecord
100
AcDbLayerTableRecord
  2
ADP1DETAIL
 70
     0
 62
     7
  6
CONTINUOUS
370
    -3
390
F
  0
LAYER
  5
49
330
2
100
AcDbSymbolTableRecord
100
AcDbLayerTableRecord
  2
DEFPOINTS
 70
     0
 62
     7
  6
CONTINUOUS
290
     0
370
    -3
390
F
  0
ENDTAB
  0
TABLE
  2
STYLE
  5
3
330
0
100
AcDbSymbolTable
 70
     2
  0
STYLE
  5
11
330
3
100
AcDbSymbolTableRecord
100
AcDbTextStyleTableRecord
  2
STANDARD
 70
     0
 40
0.0
 41
1.0
 50
0.0
 71
     0
 42
0.2
  3
txt
  4

  0
STYLE
  5
10B
330
3
100
AcDbSymbolTableRecord
100
AcDbTextStyleTableRecord
  2
ARIAL_WIDE
 70
     0
 40
0.0
 41
1.25
 50
0.0
 71
     0
 42
0.2
  3
ARIAL.TTF
  4

1001
ACAD
1000
Arial
1071
       34
  0
ENDTAB
  0
TABLE
  2
VIEW
  5
6
330
0
100
AcDbSymbolTable
 70
     0
  0
ENDTAB
  0
TABLE
  2
UCS
  5
7
330
0
100
AcDbSymbolTable
 70
     0
  0
ENDTAB
  0
TABLE
  2
APPID
  5
9
330
0
100
AcDbSymbolTable
 70
     2
  0
APPID
  5
12
330
9
100
AcDbSymbolTableRecord
100
AcDbRegAppTableRecord
  2
ACAD
 70
     0
  0
APPID
  5
346
330
9
100
AcDbSymbolTableRecord
100
AcDbRegAppTableRecord
  2
DCO15
 70
     0
  0
ENDTAB
  0
TABLE
  2
DIMSTYLE
  5
A
330
0
100
AcDbSymbolTable
 70
     1
100
AcDbDimStyleTable
 71
     1
340
109
  0
DIMSTYLE
105
109
102
{ACAD_REACTORS
330
2B6
330
2C4
330
2DC
102
}
330
A
100
AcDbSymbolTableRecord
100
AcDbDimStyleTableRecord
  2
Standard
 70
     0
340
11
  0
ENDTAB
  0
TABLE
  2
BLOCK_RECORD
  5
1
330
0
100
AcDbSymbolTable
 70
    10
  0
BLOCK_RECORD
  5
1E
102
{ACAD_XDICTIONARY
360
148
102
}
330
1
100
AcDbSymbolTableRecord
100
AcDbBlockTableRecord
  2
*Model_Space
340
21
  0
BLOCK_RECORD
  5
1A
102
{ACAD_XDICTIONARY
360
14A
102
}
330
1
100
AcDbSymbolTableRecord
100
AcDbBlockTableRecord
  2
*Paper_Space
340
1D
  0
BLOCK_RECORD
  5
36
330
1
100
AcDbSymbolTableRecord
100
AcDbBlockTableRecord
  2
8107
340
0
  0
BLOCK_RECORD
  5
3D
330
1
100
AcDbSymbolTableRecord
100
AcDbBlockTableRecord
  2
*D1
340
0
  0
BLOCK_RECORD
  5
3E
330
1
100
AcDbSymbolTableRecord
100
AcDbBlockTableRecord
  2
*D2
340
0
  0
BLOCK_RECORD
  5
3F
330
1
100
AcDbSymbolTableRecord
100
AcDbBlockTableRecord
  2
*D3
340
0
  0
BLOCK_RECORD
  5
41
330
1
100
AcDbSymbolTableRecord
100
AcDbBlockTableRecord
  2
*D4
340
0
  0
BLOCK_RECORD
  5
42
330
1
100
AcDbSymbolTableRecord
100
AcDbBlockTableRecord
  2
*D5
340
0
  0
BLOCK_RECORD
  5
43
330
1
100
AcDbSymbolTableRecord
100
AcDbBlockTableRecord
  2
*D6
340
0
  0
BLOCK_RECORD
  5
2B7
330
1
100
AcDbSymbolTableRecord
100
AcDbBlockTableRecord
  2
*D7
340
0
  0
BLOCK_RECORD
  5
2C5
330
1
100
AcDbSymbolTableRecord
100
AcDbBlockTableRecord
  2
*D8
340
0
  0
BLOCK_RECORD
  5
2DD
330
1
100
AcDbSymbolTableRecord
100
AcDbBlockTableRecord
  2
*D9
340
0
  0
ENDTAB
  0
ENDSEC
  0
SECTION
  2
BLOCKS
  0
BLOCK
  5
4C
330
1E
100
AcDbEntity
  8
0
100
AcDbBlockBegin
  2
*Model_Space
 70
     0
 10
0.0
 20
0.0
 30
0.0
  3
*Model_Space
  1

  0
ENDBLK
  5
4D
330
1E
100
AcDbEntity
  8
0
100
AcDbBlockEnd
  0
BLOCK
  5
4A
330
1A
100
AcDbEntity
 67
     1
  8
0
100
AcDbBlockBegin
  2
*Paper_Space
 70
     0
 10
0.0
 20
0.0
 30
0.0
  3
*Paper_Space
  1

  0
ENDBLK
  5
4B
330
1A
100
AcDbEntity
 67
     1
  8
0
100
AcDbBlockEnd
  0
BLOCK
  5
4F
330
36
100
AcDbEntity
  8
0
100
AcDbBlockBegin
  2
8107
 70
     0
 10
0.0
 20
0.0
 30
0.0
  3
8107
  1

  0
ARC
  5
50
330
36
100
AcDbEntity
  8
ADP1DETAIL
100
AcDbCircle
 10
0.7534999999999999
 20
-0.1205
 30
0.0
 40
0.0245
100
AcDbArc
 50
0.0
 51
90.0
  0
ARC
  5
51
330
36
100
AcDbEntity
  8
ADP1DETAIL
100
AcDbCircle
 10
0.7534999999999999
 20
-0.1315000000000001
 30
0.0
 40
0.0245
100
AcDbArc
 50
270.0
 51
0.0
  0
ARC
  5
52
330
36
100
AcDbEntity
  8
ADP1DETAIL
100
AcDbCircle
 10
0.0750000000000002
 20
0.456
 30
0.0
 40
0.025
100
AcDbArc
 50
90.0
 51
180.0
  0
LINE
  5
53
330
36
100
AcDbEntity
  8
ADP1DETAIL
100
AcDbLine
 10
0.718
 20
0.5310000000000002
 30
0.0
 11
0.0
 21
0.5310000000000002
 31
0.0
  0
LINE
  5
54
330
36
100
AcDbEntity
  8
ADP1DETAIL
100
AcDbLine
 10
0.2029999999999998
 20
0.0
 30
0.0
 11
0.0
 21
0.0
 31
0.0
  0
ARC
  5
55
330
36
100
AcDbEntity
  8
ADP1DETAIL
100
AcDbCircle
 10
0.0750000000000002
 20
0.075
 30
0.0
 40
0.025
100
AcDbArc
 50
180.0
 51
270.0
  0
LINE
  5
56
330
36
100
AcDbEntity
  8
ADP1DETAIL
100
AcDbLine
 10
0.0499999999999998
 20
0.456
 30
0.0
 11
0.0499999999999998
 21
0.075
 31
0.0
  0
LINE
  5
57
330
36
100
AcDbEntity
  8
ADP1DETAIL
100
AcDbLine
 10
0.0
 20
0.0
 30
0.0
 11
0.0
 21
0.5310000000000002
 31
0.0
  0
LINE
  5
58
330
36
100
AcDbEntity
  8
ADP1DETAIL
100
AcDbLine
 10
0.6680000000000002
 20
-0.131
 30
0.0
 11
0.6680000000000002
 21
0.456
 31
0.0
  0
ARC
  5
59
330
36
100
AcDbEntity
  8
ADP1DETAIL
100
AcDbCircle
 10
0.6930000000000001
 20
-0.131
 30
0.0
 40
0.025
100
AcDbArc
 50
180.0
 51
270.0
  0
LINE
  5
5A
330
36
100
AcDbEntity
  8
ADP1DETAIL
100
AcDbLine
 10
0.7534999999999999
 20
-0.156
 30
0.0
 11
0.6930000000000001
 21
-0.156
 31
0.0
  0
LINE
  5
5B
330
36
100
AcDbEntity
  8
ADP1DETAIL
100
AcDbLine
 10
0.0750000000000002
 20
0.4810000000000001
 30
0.0
 11
0.6429999999999998
 21
0.4810000000000001
 31
0.0
  0
LINE
  5
5C
330
36
100
AcDbEntity
  8
ADP1DETAIL
100
AcDbLine
 10
0.0750000000000002
 20
0.0500000000000001
 30
0.0
 11
0.264562446270209
 21
0.0500000000000001
 31
0.0
  0
ARC
  5
5D
330
36
100
AcDbEntity
  8
ADP1DETAIL
100
AcDbCircle
 10
0.1837106777502648
 20
-0.0553517677218591
 30
0.0
 40
0.0245
100
AcDbArc
 50
225.0
 51
315.0
  0
LINE
  5
5E
330
36
100
AcDbEntity
  8
ADP1DETAIL
100
AcDbLine
 10
0.2029999999999998
 20
0.0
 30
0.0
 11
0.165679455198398
 21
-0.0373205448016021
 31
0.0
  0
LINE
  5
5F
330
36
100
AcDbEntity
  8
ADP1DETAIL
100
AcDbLine
 10
0.165679455198398
 20
-0.071968777079743
 30
0.0
 11
0.1663865616111946
 21
-0.0726758838609295
 31
0.0
  0
ARC
  5
60
330
36
100
AcDbEntity
  8
ADP1DETAIL
100
AcDbCircle
 10
0.1830035713374682
 20
-0.0546446609406726
 30
0.0
 40
0.0245
100
AcDbArc
 50
135.0
 51
225.0
  0
ARC
  5
61
330
36
100
AcDbEntity
  8
ADP1DETAIL
100
AcDbCircle
 10
0.264562446270209
 20
0.0255000000000001
 30
0.0
 40
0.0245
100
AcDbArc
 50
314.9999997172177
 51
90.0
  0
LINE
  5
62
330
36
100
AcDbEntity
  8
ADP1DETAIL
100
AcDbLine
 10
0.2818865623237765
 20
0.0081758837754267
 30
0.0
 11
0.2010347938893355
 21
-0.0726758838609295
 31
0.0
  0
ARC
  5
63
330
36
100
AcDbEntity
  8
ADP1DETAIL
100
AcDbCircle
 10
0.6429999999999998
 20
0.456
 30
0.0
 40
0.025
100
AcDbArc
 50
0.0
 51
90.0
  0
LINE
  5
64
330
36
100
AcDbEntity
  8
ADP1DETAIL
100
AcDbLine
 10
0.718
 20
-0.0960000000000001
 30
0.0
 11
0.7534999999999999
 21
-0.0960000000000001
 31
0.0
  0
LINE
  5
65
330
36
100
AcDbEntity
  8
ADP1DETAIL
100
AcDbLine
 10
0.718
 20
0.5310000000000002
 30
0.0
 11
0.718
 21
-0.0960000000000001
 31
0.0
  0
LINE
  5
66
330
36
100
AcDbEntity
  8
ADP1DETAIL
100
AcDbLine
 10
0.7779999999999996
 20
-0.1205
 30
0.0
 11
0.7779999999999996
 21
-0.1315000000000001
 31
0.0
  0
ENDBLK
  5
67
330
36
100
AcDbEntity
  8
0
100
AcDbBlockEnd
  0
BLOCK
  5
68
330
3D
100
AcDbEntity
  8
0
100
AcDbBlockBegin
  2
*D1
 70
     1
 10
0.0
 20
0.0
 30
0.0
  3
*D1
  1

  0
LINE
  5
69
330
3D
100
AcDbEntity
  8
0
  6
ByBlock
 62
     0
100
AcDbLine
 10
0.0
 20
-0.2805
 30
0.0
 11
0.0
 21
-0.5855723761337643
 31
0.0
  0
LINE
  5
6A
330
3D
100
AcDbEntity
  8
0
  6
ByBlock
 62
     0
100
AcDbLine
 10
1.341999999999999
 20
-0.2805
 30
0.0
 11
1.341999999999999
 21
-0.5855723761337643
 31
0.0
  0
LINE
  5
6B
330
3D
100
AcDbEntity
  8
0
  6
ByBlock
 62
     0
100
AcDbLine
 10
0.0
 20
-0.4055723761337644
 30
0.0
 11
-0.25
 21
-0.4055723761337644
 31
0.0
  0
LINE
  5
6C
330
3D
100
AcDbEntity
  8
0
  6
ByBlock
 62
     0
100
AcDbLine
 10
1.341999999999999
 20
-0.4055723761337644
 30
0.0
 11
1.591999999999999
 21
-0.4055723761337644
 31
0.0
  0
LINE
  5
6D
330
3D
100
AcDbEntity
  8
0
  6
ByBlock
 62
     0
100
AcDbLine
 10
-0.125
 20
-0.5305723761337644
 30
0.0
 11
0.125
 21
-0.2805723761337644
 31
0.0
  0
LINE
  5
6E
330
3D
100
AcDbEntity
  8
0
  6
ByBlock
 62
     0
100
AcDbLine
 10
1.216999999999999
 20
-0.5305723761337644
 30
0.0
 11
1.466999999999999
 21
-0.2805723761337644
 31
0.0
  0
TEXT
  5
6F
330
3D
100
AcDbEntity
  8
0
  6
ByBlock
 62
     0
100
AcDbText
 10
1.716999999999999
 20
-0.4680723761337644
 30
0.0
 40
0.125
  1
1 11/32
 72
     1
 11
2.071166666666666
 21
-0.4055723761337644
 31
0.0
100
AcDbText
 73
     2
  0
POINT
  5
71
330
3D
100
AcDbEntity
  8
DEFPOINTS
  6
ByBlock
 62
     0
100
AcDbPoint
 10
0.0
 20
-0.218
 30
0.0
  0
POINT
  5
72
330
3D
100
AcDbEntity
  8
DEFPOINTS
  6
ByBlock
 62
     0
100
AcDbPoint
 10
1.341999999999999
 20
-0.218
 30
0.0
  0
POINT
  5
73
330
3D
100
AcDbEntity
  8
DEFPOINTS
  6
ByBlock
 62
     0
100
AcDbPoint
 10
1.341999999999999
 20
-0.4055723761337644
 30
0.0
  0
ENDBLK
  5
74
330
3D
100
AcDbEntity
  8
0
100
AcDbBlockEnd
  0
BLOCK
  5
75
330
3E
100
AcDbEntity
  8
0
100
AcDbBlockBegin
  2
*D2
 70
     1
 10
0.0
 20
0.0
 30
0.0
  3
*D2
  1

  0
LINE
  5
76
330
3E
100
AcDbEntity
  8
0
  6
ByBlock
 62
     0
100
AcDbLine
 10
0.0
 20
-2.516642150377753
 30
0.0
 11
0.0
 21
-2.241008603520242
 31
0.0
  0
LINE
  5
77
330
3E
100
AcDbEntity
  8
0
  6
ByBlock
 62
     0
100
AcDbLine
 10
0.718
 20
-2.516642150377753
 30
0.0
 11
0.718
 21
-2.241008603520242
 31
0.0
  0
LINE
  5
78
330
3E
100
AcDbEntity
  8
0
  6
ByBlock
 62
     0
100
AcDbLine
 10
0.0
 20
-2.421008603520242
 30
0.0
 11
-0.25
 21
-2.421008603520242
 31
0.0
  0
LINE
  5
79
330
3E
100
AcDbEntity
  8
0
  6
ByBlock
 62
     0
100
AcDbLine
 10
0.718
 20
-2.421008603520242
 30
0.0
 11
0.9679999999999999
 21
-2.421008603520242
 31
0.0
  0
LINE
  5
7A
330
3E
100
AcDbEntity
  8
0
  6
ByBlock
 62
     0
100
AcDbLine
 10
-0.125
 20
-2.546008603520242
 30
0.0
 11
0.125
 21
-2.296008603520242
 31
0.0
  0
LINE
  5
7B
330
3E
100
AcDbEntity
  8
0
  6
ByBlock
 62
     0
100
AcDbLine
 10
0.593
 20
-2.546008603520242
 30
0.0
 11
0.8429999999999999
 21
-2.296008603520242
 31
0.0
  0
TEXT
  5
7C
330
3E
100
AcDbEntity
  8
0
  6
ByBlock
 62
     0
100
AcDbText
 10
1.092999999999999
 20
-2.483508603520242
 30
0.0
 40
0.125
  1
23/32
 72
     1
 11
1.384666666666666
 21
-2.421008603520242
 31
0.0
100
AcDbText
 73
     2
  0
POINT
  5
7D
330
3E
100
AcDbEntity
  8
DEFPOINTS
  6
ByBlock
 62
     0
100
AcDbPoint
 10
0.0
 20
-2.579142150377753
 30
0.0
  0
POINT
  5
7E
330
3E
100
AcDbEntity
  8
DEFPOINTS
  6
ByBlock
 62
     0
100
AcDbPoint
 10
0.718
 20
-2.579142150377753
 30
0.0
  0
POINT
  5
7F
330
3E
100
AcDbEntity
  8
DEFPOINTS
  6
ByBlock
 62
     0
100
AcDbPoint
 10
0.718
 20
-2.421008603520242
 30
0.0
  0
ENDBLK
  5
80
330
3E
100
AcDbEntity
  8
0
100
AcDbBlockEnd
  0
BLOCK
  5
81
330
3F
100
AcDbEntity
  8
0
100
AcDbBlockBegin
  2
*D3
 70
     1
 10
0.0
 20
0.0
 30
0.0
  3
*D3
  1

  0
LINE
  5
82
330
3F
100
AcDbEntity
  8
0
  6
ByBlock
 62
     0
100
AcDbLine
 10
-0.0625
 20
0.5310000000000002
 30
0.0
 11
-0.3983949893057338
 21
0.5310000000000002
 31
0.0
  0
LINE
  5
83
330
3F
100
AcDbEntity
  8
0
  6
ByBlock
 62
     0
100
AcDbLine
 10
-0.0625
 20
-0.218
 30
0.0
 11
-0.3983949893057339
 21
-0.218
 31
0.0
  0
LINE
  5
84
330
3F
100
AcDbEntity
  8
0
  6
ByBlock
 62
     0
100
AcDbLine
 10
-0.2183949893057338
 20
0.5310000000000002
 30
0.0
 11
-0.2183949893057338
 21
0.7810000000000002
 31
0.0
  0
LINE
  5
85
330
3F
100
AcDbEntity
  8
0
  6
ByBlock
 62
     0
100
AcDbLine
 10
-0.2183949893057338
 20
-0.218
 30
0.0
 11
-0.2183949893057339
 21
-0.468
 31
0.0
  0
LINE
  5
86
330
3F
100
AcDbEntity
  8
0
  6
ByBlock
 62
     0
100
AcDbLine
 10
-0.0933949893057339
 20
0.4060000000000002
 30
0.0
 11
-0.3433949893057338
 21
0.6560000000000002
 31
0.0
  0
LINE
  5
87
330
3F
100
AcDbEntity
  8
0
  6
ByBlock
 62
     0
100
AcDbLine
 10
-0.0933949893057339
 20
-0.343
 30
0.0
 11
-0.3433949893057338
 21
-0.093
 31
0.0
  0
TEXT
  5
88
330
3F
100
AcDbEntity
  8
0
  6
ByBlock
 62
     0
100
AcDbText
 10
-0.1558949893057339
 20
-0.9263333333333331
 30
0.0
 40
0.125
  1
3/4
 50
90.0
 72
     1
 11
-0.2183949893057339
 21
-0.7596666666666666
 31
0.0
100
AcDbText
 73
     2
  0
POINT
  5
89
330
3F
100
AcDbEntity
  8
DEFPOINTS
  6
ByBlock
 62
     0
100
AcDbPoint
 10
0.0
 20
0.5310000000000002
 30
0.0
  0
POINT
  5
8A
330
3F
100
AcDbEntity
  8
DEFPOINTS
  6
ByBlock
 62
     0
100
AcDbPoint
 10
0.0
 20
-0.218
 30
0.0
  0
POINT
  5
8B
330
3F
100
AcDbEntity
  8
DEFPOINTS
  6
ByBlock
 62
     0
100
AcDbPoint
 10
-0.2183949893057338
 20
-0.218
 30
0.0
  0
ENDBLK
  5
8C
330
3F
100
AcDbEntity
  8
0
100
AcDbBlockEnd
  0
BLOCK
  5
8D
330
41
100
AcDbEntity
  8
0
100
AcDbBlockBegin
  2
*D4
 70
     1
 10
0.0
 20
0.0
 30
0.0
  3
*D4
  1

  0
LINE
  5
8E
330
41
100
AcDbEntity
  8
0
  6
ByBlock
 62
     0
100
AcDbLine
 10
0.8504999999999999
 20
0.5945000000000001
 30
0.0
 11
0.8504999999999999
 21
0.8850462350048875
 31
0.0
  0
LINE
  5
8F
330
41
100
AcDbEntity
  8
0
  6
ByBlock
 62
     0
100
AcDbLine
 10
1.100499999999999
 20
0.5945000000000001
 30
0.0
 11
1.100499999999999
 21
0.8850462350048875
 31
0.0
  0
LINE
  5
90
330
41
100
AcDbEntity
  8
0
  6
ByBlock
 62
     0
100
AcDbLine
 10
0.8504999999999999
 20
0.7050462350048875
 30
0.0
 11
0.6004999999999999
 21
0.7050462350048875
 31
0.0
  0
LINE
  5
91
330
41
100
AcDbEntity
  8
0
  6
ByBlock
 62
     0
100
AcDbLine
 10
1.100499999999999
 20
0.7050462350048875
 30
0.0
 11
1.350499999999999
 21
0.7050462350048875
 31
0.0
  0
LINE
  5
92
330
41
100
AcDbEntity
  8
0
  6
ByBlock
 62
     0
100
AcDbLine
 10
0.7254999999999999
 20
0.5800462350048875
 30
0.0
 11
0.9754999999999999
 21
0.8300462350048874
 31
0.0
  0
LINE
  5
93
330
41
100
AcDbEntity
  8
0
  6
ByBlock
 62
     0
100
AcDbLine
 10
0.9754999999999999
 20
0.5800462350048875
 30
0.0
 11
1.225499999999999
 21
0.8300462350048874
 31
0.0
  0
TEXT
  5
94
330
41
100
AcDbEntity
  8
0
  6
ByBlock
 62
     0
100
AcDbText
 10
1.475499999999999
 20
0.6425462350048875
 30
0.0
 40
0.125
  1
1/4
 72
     1
 11
1.621333333333333
 21
0.7050462350048875
 31
0.0
100
AcDbText
 73
     2
  0
POINT
  5
95
330
41
100
AcDbEntity
  8
DEFPOINTS
  6
ByBlock
 62
     0
100
AcDbPoint
 10
0.8504999999999999
 20
0.5320000000000001
 30
0.0
  0
POINT
  5
96
330
41
100
AcDbEntity
  8
DEFPOINTS
  6
ByBlock
 62
     0
100
AcDbPoint
 10
1.100499999999999
 20
0.5320000000000001
 30
0.0
  0
POINT
  5
97
330
41
100
AcDbEntity
  8
DEFPOINTS
  6
ByBlock
 62
     0
100
AcDbPoint
 10
1.100499999999999
 20
0.7050462350048875
 30
0.0
  0
ENDBLK
  5
98
330
41
100
AcDbEntity
  8
0
100
AcDbBlockEnd
  0
BLOCK
  5
99
330
42
100
AcDbEntity
  8
0
100
AcDbBlockBegin
  2
*D5
 70
     1
 10
0.0
 20
0.0
 30
0.0
  3
*D5
  1

  0
LINE
  5
9A
330
42
100
AcDbEntity
  8
0
  6
ByBlock
 62
     0
100
AcDbLine
 10
0.7329999999999999
 20
-4.27274896540176
 30
0.0
 11
0.7329999999999999
 21
-4.581941863827186
 31
0.0
  0
LINE
  5
9B
330
42
100
AcDbEntity
  8
0
  6
ByBlock
 62
     0
100
AcDbLine
 10
1.232999999999999
 20
-4.27274896540176
 30
0.0
 11
1.232999999999999
 21
-4.581941863827186
 31
0.0
  0
LINE
  5
9C
330
42
100
AcDbEntity
  8
0
  6
ByBlock
 62
     0
100
AcDbLine
 10
0.7329999999999999
 20
-4.401941863827186
 30
0.0
 11
0.4829999999999999
 21
-4.401941863827186
 31
0.0
  0
LINE
  5
9D
330
42
100
AcDbEntity
  8
0
  6
ByBlock
 62
     0
100
AcDbLine
 10
1.232999999999999
 20
-4.401941863827186
 30
0.0
 11
1.482999999999999
 21
-4.401941863827186
 31
0.0
  0
LINE
  5
9E
330
42
100
AcDbEntity
  8
0
  6
ByBlock
 62
     0
100
AcDbLine
 10
0.6079999999999999
 20
-4.526941863827186
 30
0.0
 11
0.8579999999999998
 21
-4.276941863827186
 31
0.0
  0
LINE
  5
9F
330
42
100
AcDbEntity
  8
0
  6
ByBlock
 62
     0
100
AcDbLine
 10
1.107999999999999
 20
-4.526941863827186
 30
0.0
 11
1.357999999999999
 21
-4.276941863827186
 31
0.0
  0
TEXT
  5
A0
330
42
100
AcDbEntity
  8
0
  6
ByBlock
 62
     0
100
AcDbText
 10
1.607999999999999
 20
-4.464441863827186
 30
0.0
 40
0.125
  1
1/2
 72
     1
 11
1.753833333333333
 21
-4.401941863827186
 31
0.0
100
AcDbText
 73
     2
  0
POINT
  5
A1
330
42
100
AcDbEntity
  8
DEFPOINTS
  6
ByBlock
 62
     0
100
AcDbPoint
 10
0.7329999999999999
 20
-4.21024896540176
 30
0.0
  0
POINT
  5
A2
330
42
100
AcDbEntity
  8
DEFPOINTS
  6
ByBlock
 62
     0
100
AcDbPoint
 10
1.232999999999999
 20
-4.21024896540176
 30
0.0
  0
POINT
  5
A3
330
42
100
AcDbEntity
  8
DEFPOINTS
  6
ByBlock
 62
     0
100
AcDbPoint
 10
1.232999999999999
 20
-4.401941863827186
 30
0.0
  0
ENDBLK
  5
A4
330
42
100
AcDbEntity
  8
0
100
AcDbBlockEnd
  0
BLOCK
  5
A5
330
43
100
AcDbEntity
  8
0
100
AcDbBlockBegin
  2
*D6
 70
     1
 10
0.0
 20
0.0
 30
0.0
  3
*D6
  1

  0
LINE
  5
A6
330
43
100
AcDbEntity
  8
0
  6
ByBlock
 62
     0
100
AcDbLine
 10
0.7954999999999999
 20
-3.58524896540176
 30
0.0
 11
0.214053265257012
 21
-3.58524896540176
 31
0.0
  0
LINE
  5
A7
330
43
100
AcDbEntity
  8
0
  6
ByBlock
 62
     0
100
AcDbLine
 10
0.6704999999999999
 20
-4.21024896540176
 30
0.0
 11
0.2140532652570119
 21
-4.21024896540176
 31
0.0
  0
LINE
  5
A8
330
43
100
AcDbEntity
  8
0
  6
ByBlock
 62
     0
100
AcDbLine
 10
0.3940532652570119
 20
-3.58524896540176
 30
0.0
 11
0.3940532652570119
 21
-3.33524896540176
 31
0.0
  0
LINE
  5
A9
330
43
100
AcDbEntity
  8
0
  6
ByBlock
 62
     0
100
AcDbLine
 10
0.3940532652570119
 20
-4.21024896540176
 30
0.0
 11
0.3940532652570119
 21
-4.46024896540176
 31
0.0
  0
LINE
  5
AA
330
43
100
AcDbEntity
  8
0
  6
ByBlock
 62
     0
100
AcDbLine
 10
0.5190532652570119
 20
-3.71024896540176
 30
0.0
 11
0.2690532652570119
 21
-3.46024896540176
 31
0.0
  0
LINE
  5
AB
330
43
100
AcDbEntity
  8
0
  6
ByBlock
 62
     0
100
AcDbLine
 10
0.5190532652570119
 20
-4.33524896540176
 30
0.0
 11
0.2690532652570119
 21
-4.08524896540176
 31
0.0
  0
TEXT
  5
AC
330
43
100
AcDbEntity
  8
0
  6
ByBlock
 62
     0
100
AcDbText
 10
0.4565532652570119
 20
-4.918582298735094
 30
0.0
 40
0.125
  1
5/8
 50
90.0
 72
     1
 11
0.3940532652570119
 21
-4.751915632068427
 31
0.0
100
AcDbText
 73
     2
  0
POINT
  5
AD
330
43
100
AcDbEntity
  8
DEFPOINTS
  6
ByBlock
 62
     0
100
AcDbPoint
 10
0.8579999999999998
 20
-3.58524896540176
 30
0.0
  0
POINT
  5
AE
330
43
100
AcDbEntity
  8
DEFPOINTS
  6
ByBlock
 62
     0
100
AcDbPoint
 10
0.7329999999999999
 20
-4.21024896540176
 30
0.0
  0
POINT
  5
AF
330
43
100
AcDbEntity
  8
DEFPOINTS
  6
ByBlock
 62
     0
100
AcDbPoint
 10
0.3940532652570119
 20
-4.21024896540176
 30
0.0
  0
ENDBLK
  5
B0
330
43
100
AcDbEntity
  8
0
100
AcDbBlockEnd
  0
BLOCK
  5
2C2
330
2B7
100
AcDbEntity
  8
0
 62
     3
100
AcDbBlockBegin
  2
*D7
 70
     1
 10
0.0
 20
0.0
 30
0.0
  3
*D7
  1

  0
LINE
  5
312
330
2B7
100
AcDbEntity
  8
ADPDIM
 62
     0
370
    -2
100
AcDbLine
 10
0.3915219758445829
 20
-4.245442754312062
 30
0.0
 11
0.391521975844583
 21
-3.800616177507279
 31
0.0
  0
LINE
  5
313
330
2B7
100
AcDbEntity
  8
ADPDIM
 62
     0
370
    -2
100
AcDbLine
 10
1.736328582350367
 20
-4.245442754312062
 30
0.0
 11
1.736328582350367
 21
-3.800616177507279
 31
0.0
  0
LINE
  5
314
330
2B7
100
AcDbEntity
  8
ADPDIM
 62
     0
370
    -2
100
AcDbLine
 10
0.3915219758445829
 20
-3.980616177507279
 30
0.0
 11
0.7618419457641418
 21
-3.980616177507279
 31
0.0
  0
LINE
  5
315
330
2B7
100
AcDbEntity
  8
ADPDIM
 62
     0
370
    -2
100
AcDbLine
 10
1.736328582350367
 20
-3.980616177507279
 30
0.0
 11
1.366008612430808
 21
-3.980616177507279
 31
0.0
  0
LINE
  5
316
330
2B7
100
AcDbEntity
  8
ADPDIM
 62
     0
370
    -2
100
AcDbLine
 10
1.611328582350367
 20
-4.105616177507279
 30
0.0
 11
1.861328582350367
 21
-3.855616177507279
 31
0.0
  0
LINE
  5
317
330
2B7
100
AcDbEntity
  8
ADPDIM
 62
     0
370
    -2
100
AcDbLine
 10
0.2665219758445829
 20
-4.105616177507279
 30
0.0
 11
0.516521975844583
 21
-3.855616177507279
 31
0.0
  0
MTEXT
  5
318
330
2B7
100
AcDbEntity
  8
ADPDIM
 62
     0
100
AcDbMText
 10
1.063925279097475
 20
-3.980616177507279
 30
0.0
 40
0.0625
 41
0.0
 71
     5
 72
     1
  1
\A1;1 11/32
 73
     1
 44
1.0
1001
ACAD
1000
MTEXTBEGIN
1070
    73
1070
     1
1070
    44
1040
1.0
1070
    74
1070
     0
1000
MTEXTEND
  0
POINT
  5
319
330
2B7
100
AcDbEntity
  8
DEFPOINTS
 62
     0
100
AcDbPoint
 10
0.3915219758445829
 20
-4.307942754312062
 30
0.0
  0
POINT
  5
31A
330
2B7
100
AcDbEntity
  8
DEFPOINTS
 62
     0
100
AcDbPoint
 10
1.736328582350367
 20
-4.307942754312062
 30
0.0
  0
POINT
  5
31B
330
2B7
100
AcDbEntity
  8
DEFPOINTS
 62
     0
100
AcDbPoint
 10
1.736328582350367
 20
-3.980616177507279
 30
0.0
  0
ENDBLK
  5
2C3
330
2B7
100
AcDbEntity
  8
0
 62
     3
100
AcDbBlockEnd
  0
BLOCK
  5
2D0
330
2C5
100
AcDbEntity
  8
0
 62
     3
100
AcDbBlockBegin
  2
*D8
 70
     1
 10
0.0
 20
0.0
 30
0.0
  3
*D8
  1

  0
LINE
  5
330
330
2C5
100
AcDbEntity
  8
ADPDIM
 62
     0
370
    -2
100
AcDbLine
 10
0.3908744943619311
 20
-5.121695587751553
 30
0.0
 11
0.3908744943619311
 21
-5.363027623934556
 31
0.0
  0
LINE
  5
331
330
2C5
100
AcDbEntity
  8
ADPDIM
 62
     0
370
    -2
100
AcDbLine
 10
0.4999477486300066
 20
-5.121695587751553
 30
0.0
 11
0.4999477486300066
 21
-5.363027623934556
 31
0.0
  0
LINE
  5
332
330
2C5
100
AcDbEntity
  8
ADPDIM
 62
     0
370
    -2
100
AcDbLine
 10
0.3908744943619311
 20
-5.183027623934556
 30
0.0
 11
0.1408744943619311
 21
-5.183027623934556
 31
0.0
  0
LINE
  5
333
330
2C5
100
AcDbEntity
  8
ADPDIM
 62
     0
370
    -2
100
AcDbLine
 10
0.4999477486300066
 20
-5.183027623934556
 30
0.0
 11
0.7499477486300066
 21
-5.183027623934556
 31
0.0
  0
MTEXT
  5
334
330
2C5
100
AcDbEntity
  8
ADPDIM
 62
     0
100
AcDbMText
 10
0.972509767203654
 20
-5.18175217666878
 30
0.0
 40
0.0625
 41
0.0
 71
     5
 72
     1
  1
\A1;1/8
 73
     1
 44
1.0
1001
ACAD
1000
MTEXTBEGIN
1070
    73
1070
     1
1070
    44
1040
1.0
1070
    74
1070
     0
1000
MTEXTEND
  0
LINE
  5
335
330
2C5
100
AcDbEntity
  8
ADPDIM
 62
     0
370
    -2
100
AcDbLine
 10
0.3749477486300066
 20
-5.308027623934556
 30
0.0
 11
0.6249477486300066
 21
-5.058027623934556
 31
0.0
  0
LINE
  5
336
330
2C5
100
AcDbEntity
  8
ADPDIM
 62
     0
370
    -2
100
AcDbLine
 10
0.2658744943619311
 20
-5.308027623934556
 30
0.0
 11
0.5158744943619312
 21
-5.058027623934556
 31
0.0
  0
POINT
  5
337
330
2C5
100
AcDbEntity
  8
DEFPOINTS
 62
     0
100
AcDbPoint
 10
0.3908744943619311
 20
-5.059195587751553
 30
0.0
  0
POINT
  5
338
330
2C5
100
AcDbEntity
  8
DEFPOINTS
 62
     0
100
AcDbPoint
 10
0.4999477486300066
 20
-5.059195587751553
 30
0.0
  0
POINT
  5
339
330
2C5
100
AcDbEntity
  8
DEFPOINTS
 62
     0
100
AcDbPoint
 10
0.4999477486300066
 20
-5.183027623934556
 30
0.0
  0
ENDBLK
  5
2D1
330
2C5
100
AcDbEntity
  8
0
 62
     3
100
AcDbBlockEnd
  0
BLOCK
  5
2E8
330
2DD
100
AcDbEntity
  8
0
 62
     3
100
AcDbBlockBegin
  2
*D9
 70
     1
 10
0.0
 20
0.0
 30
0.0
  3
*D9
  1

  0
LINE
  5
33A
330
2DD
100
AcDbEntity
  8
ADPDIM
 62
     0
370
    -2
100
AcDbLine
 10
1.793206300926115
 20
-4.311220491926814
 30
0.0
 11
2.278205757371388
 21
-4.311220491926815
 31
0.0
  0
LINE
  5
33B
330
2DD
100
AcDbEntity
  8
ADPDIM
 62
     0
370
    -2
100
AcDbLine
 10
0.8590341913366401
 20
-5.061220491926814
 30
0.0
 11
2.278205757371388
 21
-5.061220491926815
 31
0.0
  0
LINE
  5
33C
330
2DD
100
AcDbEntity
  8
ADPDIM
 62
     0
370
    -2
100
AcDbLine
 10
2.098205757371388
 20
-4.311220491926815
 30
0.0
 11
2.098205757371388
 21
-4.477887158593482
 31
0.0
  0
LINE
  5
33D
330
2DD
100
AcDbEntity
  8
ADPDIM
 62
     0
370
    -2
100
AcDbLine
 10
2.098205757371388
 20
-5.061220491926815
 30
0.0
 11
2.098205757371388
 21
-4.894553825260148
 31
0.0
  0
LINE
  5
33E
330
2DD
100
AcDbEntity
  8
ADPDIM
 62
     0
370
    -2
100
AcDbLine
 10
2.223205757371388
 20
-5.186220491926815
 30
0.0
 11
1.973205757371388
 21
-4.936220491926814
 31
0.0
  0
LINE
  5
33F
330
2DD
100
AcDbEntity
  8
ADPDIM
 62
     0
370
    -2
100
AcDbLine
 10
2.223205757371388
 20
-4.436220491926815
 30
0.0
 11
1.973205757371388
 21
-4.186220491926814
 31
0.0
  0
MTEXT
  5
340
330
2DD
100
AcDbEntity
  8
ADPDIM
 62
     0
100
AcDbMText
 10
2.098205757371389
 20
-4.686220491926814
 30
0.0
 40
0.0625
 41
0.0
 71
     5
 72
     1
  1
\A1;3/4
 11
0.0000000000000001
 21
1.0
 31
0.0
 73
     1
 44
1.0
1001
ACAD
1000
MTEXTBEGIN
1070
    73
1070
     1
1070
    44
1040
1.0
1070
    74
1070
     0
1000
MTEXTEND
  0
POINT
  5
341
330
2DD
100
AcDbEntity
  8
DEFPOINTS
 62
     0
100
AcDbPoint
 10
1.730706300926115
 20
-4.311220491926814
 30
0.0
  0
POINT
  5
342
330
2DD
100
AcDbEntity
  8
DEFPOINTS
 62
     0
100
AcDbPoint
 10
0.7965341913366402
 20
-5.061220491926814
 30
0.0
  0
POINT
  5
343
330
2DD
100
AcDbEntity
  8
DEFPOINTS
 62
     0
100
AcDbPoint
 10
2.098205757371388
 20
-5.061220491926815
 30
0.0
  0
ENDBLK
  5
2E9
330
2DD
100
AcDbEntity
  8
0
 62
     3
100
AcDbBlockEnd
  0
ENDSEC
  0
SECTION
  2
ENTITIES
  0
LINE
  5
B7
330
1E
100
AcDbEntity
  8
ADP1DETAIL
100
AcDbLine
 10
0.9634636262442539
 20
-4.368072477401979
 30
0.0
 11
1.065963626244253
 21
-4.368072477401979
 31
0.0
  0
LINE
  5
BD
330
1E
100
AcDbEntity
  8
ADP1DETAIL
100
AcDbLine
 10
1.732463626244254
 20
-4.308509384864157
 30
0.0
 11
0.3904636262442545
 21
-4.308509384864157
 31
0.0
  0
LINE
  5
C1
330
1E
100
AcDbEntity
  8
ADP1DETAIL
100
AcDbLine
 10
1.732463626244254
 20
-4.526509384864157
 30
0.0
 11
1.584506976664888
 21
-4.526509384864157
 31
0.0
  0
LINE
  5
C2
330
1E
100
AcDbEntity
  8
ADP1DETAIL
100
AcDbLine
 10
1.732463626244254
 20
-4.526509384864157
 30
0.0
 11
1.732463626244254
 21
-4.308509384864157
 31
0.0
  0
ARC
  5
C3
330
1E
100
AcDbEntity
  8
ADP1DETAIL
100
AcDbCircle
 10
1.584506976664888
 20
-4.516509384864157
 30
0.0
 40
0.01
100
AcDbArc
 50
136.9182803251468
 51
270.0
  0
LINE
  5
C4
330
1E
100
AcDbEntity
  8
ADP1DETAIL
100
AcDbLine
 10
1.349963626244254
 20
-4.411009384864158
 30
0.0
 11
1.342463626244253
 21
-4.418859384864157
 31
0.0
  0
LINE
  5
C5
330
1E
100
AcDbEntity
  8
ADP1DETAIL
100
AcDbLine
 10
1.357463626244253
 20
-4.418509384864157
 30
0.0
 11
1.349963626244254
 21
-4.411009384864158
 31
0.0
  0
LINE
  5
C6
330
1E
100
AcDbEntity
  8
ADP1DETAIL
100
AcDbLine
 10
1.57720317427265
 20
-4.509678977071416
 30
0.0
 11
1.638854304201658
 21
-4.443754996553269
 31
0.0
  0
ARC
  5
C7
330
1E
100
AcDbEntity
  8
ADP1DETAIL
100
AcDbCircle
 10
1.627898600613301
 20
-4.433509384864157
 30
0.0
 40
0.015
100
AcDbArc
 50
316.9182803251468
 51
89.99999999999998
  0
LINE
  5
C8
330
1E
100
AcDbEntity
  8
ADP1DETAIL
100
AcDbLine
 10
1.627898600613301
 20
-4.418509384864157
 30
0.0
 11
1.357463626244253
 21
-4.418509384864157
 31
0.0
  0
ARC
  5
C9
330
1E
100
AcDbEntity
  8
ADP1DETAIL
100
AcDbCircle
 10
1.153015745821342
 20
-4.368859384864157
 30
0.0
 40
0.05
100
AcDbArc
 50
209.4807375988303
 51
270.0
  0
ARC
  5
CA
330
1E
100
AcDbEntity
  8
ADP1DETAIL
100
AcDbCircle
 10
1.065963626244253
 20
-4.418072477401979
 30
0.0
 40
0.05
100
AcDbArc
 50
29.48073759883027
 51
89.99999999999998
  0
LINE
  5
CB
330
1E
100
AcDbEntity
  8
ADP1DETAIL
100
AcDbLine
 10
1.342463626244253
 20
-4.418859384864157
 30
0.0
 11
1.153015745821342
 21
-4.418859384864157
 31
0.0
  0
LINE
  5
DC
330
1E
100
AcDbEntity
  8
ADP1DETAIL
100
AcDbLine
 10
0.4994636262442544
 20
-4.433509384864157
 30
0.0
 11
0.4994636262442543
 21
-4.748509384864157
 31
0.0
  0
LINE
  5
DD
330
1E
100
AcDbEntity
  8
ADP1DETAIL
100
AcDbLine
 10
0.3904636262442545
 20
-4.308509384864157
 30
0.0
 11
0.3904636262442542
 21
-5.058509384864157
 31
0.0
  0
LINE
  5
DE
330
1E
100
AcDbEntity
  8
ADP1DETAIL
100
AcDbLine
 10
0.7024636262442544
 20
-4.433509384864157
 30
0.0
 11
0.4994636262442544
 21
-4.433509384864157
 31
0.0
  0
ARC
  5
DF
330
1E
100
AcDbEntity
  8
ADP1DETAIL
100
AcDbCircle
 10
0.9259636262442542
 20
-4.438072477401979
 30
0.0
 40
0.055
100
AcDbArc
 50
174.8749964368158
 51
270.0
  0
LINE
  5
E0
330
1E
100
AcDbEntity
  8
ADP1DETAIL
100
AcDbLine
 10
0.7174636262442542
 20
-4.433159384864158
 30
0.0
 11
0.8711835064769996
 21
-4.433159384864158
 31
0.0
  0
LINE
  5
E1
330
1E
100
AcDbEntity
  8
ADP1DETAIL
100
AcDbLine
 10
0.7099636262442544
 20
-4.425659384864157
 30
0.0
 11
0.7024636262442544
 21
-4.433509384864157
 31
0.0
  0
LINE
  5
E2
330
1E
100
AcDbEntity
  8
ADP1DETAIL
100
AcDbLine
 10
0.7174636262442542
 20
-4.433159384864158
 30
0.0
 11
0.7099636262442544
 21
-4.425659384864157
 31
0.0
  0
ARC
  5
E3
330
1E
100
AcDbEntity
  8
ADP1DETAIL
100
AcDbCircle
 10
0.9634636262442539
 20
-4.46557247740198
 30
0.0
 40
0.0275
100
AcDbArc
 50
270.0
 51
89.99999999999998
  0
ARC
  5
E4
330
1E
100
AcDbEntity
  8
ADP1DETAIL
100
AcDbCircle
 10
0.9634636262442539
 20
-4.40307247740198
 30
0.0
 40
0.035
100
AcDbArc
 50
89.99999999999998
 51
270.0
  0
LINE
  5
E5
330
1E
100
AcDbEntity
  8
ADP1DETAIL
100
AcDbLine
 10
0.9634636262442539
 20
-4.493072477401979
 30
0.0
 11
0.9259636262442542
 21
-4.493072477401979
 31
0.0
  0
LINE
  5
E6
330
1E
100
AcDbEntity
  8
ADP1DETAIL
100
AcDbLine
 10
0.4674636262442542
 20
-4.934509384864157
 30
0.0
 11
0.4994636262442543
 21
-4.872509384864157
 31
0.0
  0
LINE
  5
E7
330
1E
100
AcDbEntity
  8
ADP1DETAIL
100
AcDbLine
 10
0.4994636262442543
 20
-4.872509384864157
 30
0.0
 11
0.4674636262442542
 21
-4.872509384864157
 31
0.0
  0
LINE
  5
E8
330
1E
100
AcDbEntity
  8
ADP1DETAIL
100
AcDbLine
 10
0.4994636262442543
 20
-4.934509384864157
 30
0.0
 11
0.4674636262442542
 21
-4.934509384864157
 31
0.0
  0
LINE
  5
E9
330
1E
100
AcDbEntity
  8
ADP1DETAIL
100
AcDbLine
 10
0.4674636262442542
 20
-4.996509384864157
 30
0.0
 11
0.4994636262442543
 21
-4.934509384864157
 31
0.0
  0
LINE
  5
EA
330
1E
100
AcDbEntity
  8
ADP1DETAIL
100
AcDbLine
 10
0.4994636262442543
 20
-4.996509384864157
 30
0.0
 11
0.4674636262442542
 21
-4.996509384864157
 31
0.0
  0
LINE
  5
EB
330
1E
100
AcDbEntity
  8
ADP1DETAIL
100
AcDbLine
 10
0.4994636262442543
 20
-5.058509384864157
 30
0.0
 11
0.4994636262442543
 21
-4.996509384864157
 31
0.0
  0
LINE
  5
EC
330
1E
100
AcDbEntity
  8
ADP1DETAIL
100
AcDbLine
 10
0.3904636262442542
 20
-5.058509384864157
 30
0.0
 11
0.4994636262442543
 21
-5.058509384864157
 31
0.0
  0
LINE
  5
ED
330
1E
100
AcDbEntity
  8
ADP1DETAIL
100
AcDbLine
 10
0.4674636262442542
 20
-4.810509384864158
 30
0.0
 11
0.4994636262442543
 21
-4.748509384864157
 31
0.0
  0
LINE
  5
EE
330
1E
100
AcDbEntity
  8
ADP1DETAIL
100
AcDbLine
 10
0.4994636262442543
 20
-4.810509384864158
 30
0.0
 11
0.4674636262442542
 21
-4.810509384864158
 31
0.0
  0
LINE
  5
EF
330
1E
100
AcDbEntity
  8
ADP1DETAIL
100
AcDbLine
 10
0.4674636262442542
 20
-4.872509384864157
 30
0.0
 11
0.4994636262442543
 21
-4.810509384864158
 31
0.0
  0
TEXT
  5
10C
330
1E
100
AcDbEntity
  8
ADPDIM
100
AcDbText
 10
-2.591864512278308
 20
-5.626688749323642
 30
0.0
 40
0.0625
  1
J U L I U S  B L U M  &  C O . ,  I N C .      ( 8 0 0 )  5 2 6 - 6 2 9 3        W W W . J U L I U S B L U M . C O M        P A R T  N o .  8 1 0 6
 41
1.25
  7
ARIAL_WIDE
 72
     1
 11
0.6709999999999999
 21
-5.564188749323642
 31
0.0
100
AcDbText
 73
     3
  0
DIMENSION
  5
2B6
330
1E
100
AcDbEntity
  8
ADPDIM
 62
     3
100
AcDbDimension
  2
*D7
 10
1.736328582350367
 20
-3.980616177507279
 30
0.0
 11
1.063925279097475
 21
-3.980616177507279
 31
0.0
 70
    32
 71
     5
 42
1.344806606505784
  3
Standard
100
AcDbAlignedDimension
 13
0.3915219758445829
 23
-4.307942754312062
 33
0.0
 14
1.736328582350367
 24
-4.307942754312062
 34
0.0
100
AcDbRotatedDimension
1001
ACAD
1000
DSTYLE
1002
{
1070
   276
1070
     2
1070
    41
1040
0.125
1070
    73
1070
     0
1070
    74
1070
     0
1070
    78
1070
     3
1070
   140
1040
0.0625
1070
   141
1040
0.1875
1070
   142
1040
0.125
1070
   147
1040
0.125
1070
   171
1070
     1
1070
   271
1070
     5
1070
   272
1070
     5
1070
   273
1070
     5
1070
   274
1070
     1
1070
   277
1070
     5
1070
   279
1070
     2
1070
   284
1070
     3
1070
   285
1070
     3
1070
   286
1070
     3
1002
}
  0
DIMENSION
  5
2C4
330
1E
100
AcDbEntity
  8
ADPDIM
 62
     3
100
AcDbDimension
  2
*D8
 10
0.4999477486300066
 20
-5.183027623934556
 30
0.0
 11
0.972509767203654
 21
-5.18175217666878
 31
0.0
 70
   160
 71
     5
 42
0.1090732542680755
  3
Standard
100
AcDbAlignedDimension
 13
0.3908744943619311
 23
-5.059195587751553
 33
0.0
 14
0.4999477486300066
 24
-5.059195587751553
 34
0.0
100
AcDbRotatedDimension
1001
ACAD
1000
DSTYLE
1002
{
1070
   276
1070
     2
1070
    41
1040
0.125
1070
    73
1070
     0
1070
    74
1070
     0
1070
    78
1070
     3
1070
   140
1040
0.0625
1070
   141
1040
0.1875
1070
   142
1040
0.125
1070
   147
1040
0.125
1070
   171
1070
     1
1070
   271
1070
     3
1070
   272
1070
     5
1070
   273
1070
     5
1070
   274
1070
     1
1070
   277
1070
     5
1070
   279
1070
     2
1070
   284
1070
     3
1070
   285
1070
     3
1070
   286
1070
     3
1002
}
  0
DIMENSION
  5
2DC
330
1E
100
AcDbEntity
  8
ADPDIM
 62
     3
100
AcDbDimension
  2
*D9
 10
2.098205757371388
 20
-5.061220491926815
 30
0.0
 11
2.098205757371389
 21
-4.686220491926814
 31
0.0
 70
    32
 71
     5
 42
0.75
  3
Standard
100
AcDbAlignedDimension
 13
1.730706300926115
 23
-4.311220491926814
 33
0.0
 14
0.7965341913366402
 24
-5.061220491926814
 34
0.0
 50
90.0
100
AcDbRotatedDimension
1001
ACAD
1000
DSTYLE
1002
{
1070
   276
1070
     2
1070
    41
1040
0.125
1070
    73
1070
     0
1070
    74
1070
     0
1070
    78
1070
     3
1070
   140
1040
0.0625
1070
   141
1040
0.1875
1070
   142
1040
0.125
1070
   147
1040
0.125
1070
   171
1070
     1
1070
   271
1070
     5
1070
   272
1070
     5
1070
   273
1070
     5
1070
   274
1070
     1
1070
   277
1070
     5
1070
   279
1070
     2
1070
   284
1070
     3
1070
   285
1070
     3
1070
   286
1070
     3
1002
}
  0
ENDSEC
  0
SECTION
  2
OBJECTS
  0
DICTIONARY
  5
C
330
0
100
AcDbDictionary
281
     1
  3
ACAD_COLOR
350
2B0
  3
ACAD_GROUP
350
D
  3
ACAD_LAYOUT
350
19
  3
ACAD_MATERIAL
350
29B
  3
ACAD_MLINESTYLE
350
16
  3
ACAD_PLOTSETTINGS
350
18
  3
ACAD_PLOTSTYLENAME
350
E
  3
ACAD_TABLESTYLE
350
2B1
  3
ACAD_VISUALSTYLE
350
29F
  3
AcDbVariableDictionary
350
17D
  3
ASE_INDEX_DICTIONARY
350
345
  3
DWGPROPS
350
365
  0
DICTIONARY
  5
148
330
1E
100
AcDbDictionary
280
     1
281
     1
  3
ACAD_LAYOUTSELFREF
360
297
  0
DICTIONARY
  5
14A
330
1A
100
AcDbDictionary
280
     1
281
     1
  3
ACAD_LAYOUTSELFREF
360
296
  0
DICTIONARY
  5
2B0
102
{ACAD_REACTORS
330
C
102
}
330
C
100
AcDbDictionary
281
     1
  0
DICTIONARY
  5
D
102
{ACAD_REACTORS
330
C
102
}
330
C
100
AcDbDictionary
281
     1
  0
DICTIONARY
  5
19
102
{ACAD_REACTORS
330
C
102
}
330
C
100
AcDbDictionary
281
     1
  3
Layout1
350
1D
  3
Model
350
21
  0
DICTIONARY
  5
29B
102
{ACAD_REACTORS
330
C
102
}
330
C
100
AcDbDictionary
281
     1
  3
ByBlock
350
29D
  3
ByLayer
350
29C
  3
Global
350
29E
  0
DICTIONARY
  5
16
102
{ACAD_REACTORS
330
C
102
}
330
C
100
AcDbDictionary
281
     1
  3
Standard
350
17
  0
DICTIONARY
  5
18
102
{ACAD_REACTORS
330
C
102
}
330
C
100
AcDbDictionary
281
     1
  0
ACDBDICTIONARYWDFLT
  5
E
102
{ACAD_REACTORS
330
C
102
}
330
C
100
AcDbDictionary
281
     1
  3
Normal
350
F
100
AcDbDictionaryWithDefault
340
F
  0
DICTIONARY
  5
2B1
102
{ACAD_REACTORS
330
C
102
}
330
C
100
AcDbDictionary
281
     1
  3
Standard
350
2B2
  0
DICTIONARY
  5
29F
102
{ACAD_REACTORS
330
C
102
}
330
C
100
AcDbDictionary
281
     1
  3
2dWireframe
350
2A5
  3
3D Hidden
350
2A7
  3
3dWireframe
350
2A6
  3
Basic
350
2A4
  3
Brighten
350
2AB
  3
ColorChange
350
2AF
  3
Conceptual
350
2A8
  3
Dim
350
2AA
  3
Facepattern
350
2AE
  3
Flat
350
2A0
  3
FlatWithEdges
350
2A1
  3
Gouraud
350
2A2
  3
GouraudWithEdges
350
2A3
  3
Linepattern
350
2AD
  3
Realistic
350
2A9
  3
Thicken
350
2AC
  0
DICTIONARY
  5
17D
102
{ACAD_REACTORS
330
C
102
}
330
C
100
AcDbDictionary
281
     1
  3
CTABLESTYLE
350
362
  3
DIMASSOC
350
17F
  3
HIDETEXT
350
17E
  3
INDEXCTL
350
364
  3
SORTENTS
350
363
  0
DICTIONARY
  5
345
102
{ACAD_REACTORS
330
C
102
}
330
C
100
AcDbDictionary
281
     1
  3
ASEBlockHierarchyIndexRecord
350
347
1001
DCO15
1040
1568807760.676
  0
XRECORD
  5
365
102
{ACAD_REACTORS
330
C
102
}
330
C
100
AcDbXrecord
280
     1
  1
DWGPROPS COOKIE
  2

  3

  4

  6

  7

  8
Yu Hu
  9

300
=
301
=
302
=
303
=
304
=
305
=
306
=
307
=
308
=
309
=
 40
0.0423480555555556
 41
2450217.526466818
 42
2453960.709081898
  1

 90
        0
  0
XRECORD
  5
297
102
{ACAD_REACTORS
330
148
102
}
330
148
100
AcDbXrecord
280
     1
340
1E
  0
XRECORD
  5
296
102
{ACAD_REACTORS
330
14A
102
}
330
14A
100
AcDbXrecord
280
     1
340
1A
  0
LAYOUT
  5
1D
102
{ACAD_XDICTIONARY
360
366
102
}
102
{ACAD_REACTORS
330
19
102
}
330
19
100
AcDbPlotSettings
  1

  2
Fax
  4

  6

 40
0.0
 41
0.0
 42
0.0
 43
0.0
 44
0.0
 45
0.0
 46
0.0
 47
0.0
 48
0.0
 49
0.0
140
0.0
141
0.0
142
1.0
143
1.0
 70
   688
 72
     0
 73
     0
 74
     5
  7
Default R14 pen assignments.ctb
 75
    16
147
1.0
148
0.0
149
0.0
100
AcDbLayout
  1
Layout1
 70
     1
 71
     1
 10
0.0
 20
0.0
 11
12.0
 21
9.0
 12
0.0008545056916773
 22
1.250276130627782
 32
0.0
 14
1.000000000000000E+20
 24
1.000000000000000E+20
 34
1.000000000000000E+20
 15
-1.000000000000000E+20
 25
-1.000000000000000E+20
 35
-1.000000000000000E+20
146
0.0
 13
0.0
 23
0.0
 33
0.0
 16
1.0
 26
0.0
 36
0.0
 17
0.0
 27
1.0
 37
0.0
 76
     0
330
1A
  0
LAYOUT
  5
21
102
{ACAD_XDICTIONARY
360
368
102
}
102
{ACAD_REACTORS
330
19
102
}
330
19
100
AcDbPlotSettings
  1

  2
Fax
  4

  6

 40
0.0
 41
0.0
 42
0.0
 43
0.0
 44
0.0
 45
0.0
 46
0.0
 47
0.0
 48
0.0
 49
0.0
140
0.0
141
0.0
142
1.0
143
1.0
 70
  1712
 72
     0
 73
     0
 74
     0
  7
Default R14 pen assignments.ctb
 75
     0
147
1.0
148
0.0
149
0.0
100
AcDbLayout
  1
Model
 70
     1
 71
     0
 10
0.0
 20
0.0
 11
12.0
 21
9.0
 12
0.0
 22
0.0
 32
0.0
 14
0.0
 24
0.0
 34
0.0
 15
0.0
 25
0.0
 35
0.0
146
0.0
 13
0.0
 23
0.0
 33
0.0
 16
1.0
 26
0.0
 36
0.0
 17
0.0
 27
1.0
 37
0.0
 76
     0
330
1E
331
264
  0
MATERIAL
  5
29D
102
{ACAD_XDICTIONARY
360
36C
102
}
102
{ACAD_REACTORS
330
29B
102
}
330
29B
100
AcDbMaterial
  1
ByBlock
  0
MATERIAL
  5
29C
102
{ACAD_XDICTIONARY
360
36A
102
}
102
{ACAD_REACTORS
330
29B
102
}
330
29B
100
AcDbMaterial
  1
ByLayer
  0
MATERIAL
  5
29E
102
{ACAD_XDICTIONARY
360
36E
102
}
102
{ACAD_REACTORS
330
29B
102
}
330
29B
100
AcDbMaterial
  1
Global
  0
MLINESTYLE
  5
17
102
{ACAD_REACTORS
330
16
102
}
330
16
100
AcDbMlineStyle
  2
STANDARD
 70
     0
  3

 62
   256
 51
90.0
 52
90.0
 71
     2
 49
0.5
 62
   256
  6
BYLAYER
 49
-0.5
 62
   256
  6
BYLAYER
  0
ACDBPLACEHOLDER
  5
F
102
{ACAD_REACTORS
330
E
102
}
330
E
  0
TABLESTYLE
  5
2B2
102
{ACAD_XDICTIONARY
360
370
102
}
102
{ACAD_REACTORS
330
2B1
102
}
330
2B1
100
AcDbTableStyle
  3
Standard
 70
     0
 71
     0
 40
0.06
 41
0.06
280
     0
281
     0
  7
STANDARD
140
0.18
170
     2
 62
     0
 63
     7
283
     0
274
    -2
284
     1
 64
     0
275
    -2
285
     1
 65
     0
276
    -2
286
     1
 66
     0
277
    -2
287
     1
 67
     0
278
    -2
288
     1
 68
     0
279
    -2
289
     1
 69
     0
  7
STANDARD
140
0.25
170
     5
 62
     0
 63
     7
283
     0
274
    -2
284
     1
 64
     0
275
    -2
285
     1
 65
     0
276
    -2
286
     1
 66
     0
277
    -2
287
     1
 67
     0
278
    -2
288
     1
 68
     0
279
    -2
289
     1
 69
     0
  7
STANDARD
140
0.18
170
     5
 62
     0
 63
     7
283
     0
274
    -2
284
     1
 64
     0
275
    -2
285
     1
 65
     0
276
    -2
286
     1
 66
     0
277
    -2
287
     1
 67
     0
278
    -2
288
     1
 68
     0
279
    -2
289
     1
 69
     0
  0
VISUALSTYLE
  5
2A5
102
{ACAD_REACTORS
330
29F
102
}
330
29F
100
AcDbVisualStyle
  2
2dWireframe
 70
     4
 71
     0
 72
     2
 73
     0
 90
        0
 40
-0.6
 41
-30.0
 62
     5
 63
     7
 74
     1
 91
        4
 64
     7
 65
   257
 75
     1
175
     1
 42
1.0
 92
        0
 66
   257
 43
1.0
 76
     1
 77
     6
 78
     2
 67
     7
 79
     5
170
     0
171
     0
290
     0
174
     0
 93
        1
 44
0.0
173
     0
291
     0
 45
0.0
1001
ACAD
1000
AcDbSavedByObjectVersion
1070
     0
  0
VISUALSTYLE
  5
2A7
102
{ACAD_REACTORS
330
29F
102
}
330
29F
100
AcDbVisualStyle
  2
3D Hidden
 70
     6
 71
     1
 72
     2
 73
     2
 90
        0
 40
-0.6
 41
-30.0
 62
     5
 63
     7
 74
     2
 91
        2
 64
     7
 65
   257
 75
     2
175
     1
 42
40.0
 92
        0
 66
   257
 43
1.0
 76
     1
 77
     6
 78
     2
 67
     7
 79
     3
170
     0
171
     0
290
     0
174
     0
 93
        1
 44
0.0
173
     0
291
     0
 45
0.0
1001
ACAD
1000
AcDbSavedByObjectVersion
1070
     0
  0
VISUALSTYLE
  5
2A6
102
{ACAD_REACTORS
330
29F
102
}
330
29F
100
AcDbVisualStyle
  2
3dWireframe
 70
     5
 71
     0
 72
     2
 73
     0
 90
        0
 40
-0.6
 41
-30.0
 62
     5
 63
     7
 74
     1
 91
        4
 64
     7
 65
   257
 75
     1
175
     1
 42
1.0
 92
        0
 66
   257
 43
1.0
 76
     1
 77
     6
 78
     2
 67
     7
 79
     5
170
     0
171
     0
290
     0
174
     0
 93
        1
 44
0.0
173
     0
291
     0
 45
0.0
1001
ACAD
1000
AcDbSavedByObjectVersion
1070
     0
  0
VISUALSTYLE
  5
2A4
102
{ACAD_REACTORS
330
29F
102
}
330
29F
100
AcDbVisualStyle
  2
Basic
 70
     7
 71
     1
 72
     0
 73
     1
 90
        0
 40
-0.6
 41
-30.0
 62
     5
 63
     7
 74
     0
 91
        4
 64
     7
 65
   257
 75
     1
175
     1
 42
1.0
 92
        8
 66
     7
 43
1.0
 76
     1
 77
     6
 78
     2
 67
     7
 79
     5
170
     0
171
     0
290
     0
174
     0
 93
        1
 44
0.0
173
     0
291
     1
 45
0.0
1001
ACAD
1000
AcDbSavedByObjectVersion
1070
     0
  0
VISUALSTYLE
  5
2AB
102
{ACAD_REACTORS
330
29F
102
}
330
29F
100
AcDbVisualStyle
  2
Brighten
 70
    12
 71
     2
 72
     2
 73
     0
 90
        0
 40
-0.6
 41
-30.0
 62
     5
 63
     7
 74
     1
 91
        4
 64
     7
 65
   257
 75
     1
175
     1
 42
1.0
 92
        8
 66
     7
 43
1.0
 76
     1
 77
     6
 78
     2
 67
     7
 79
     5
170
     0
171
     0
290
     0
174
     0
 93
        1
 44
50.0
173
     0
291
     1
 45
0.0
1001
ACAD
1000
AcDbSavedByObjectVersion
1070
     0
  0
VISUALSTYLE
  5
2AF
102
{ACAD_REACTORS
330
29F
102
}
330
29F
100
AcDbVisualStyle
  2
ColorChange
 70
    16
 71
     2
 72
     2
 73
     3
 90
        0
 40
-0.6
 41
-30.0
 62
     5
 63
     8
 74
     1
 91
        4
 64
     7
 65
   257
 75
     1
175
     1
 42
1.0
 92
        8
 66
     8
 43
1.0
 76
     1
 77
     6
 78
     2
 67
     7
 79
     5
170
     0
171
     0
290
     0
174
     0
 93
        1
 44
0.0
173
     0
291
     1
 45
0.0
1001
ACAD
1000
AcDbSavedByObjectVersion
1070
     0
  0
VISUALSTYLE
  5
2A8
102
{ACAD_REACTORS
330
29F
102
}
330
29F
100
AcDbVisualStyle
  2
Conceptual
 70
     9
 71
     3
 72
     2
 73
     0
 90
        0
 40
-0.6
 41
-30.0
 62
     5
 63
     7
 74
     2
 91
        2
 64
     7
 65
   257
 75
     1
175
     1
 42
40.0
 92
        8
 66
     7
 43
1.0
 76
     1
 77
     6
 78
     2
 67
     7
 79
     3
170
     0
171
     0
290
     0
174
     0
 93
        1
 44
0.0
173
     0
291
     0
 45
0.0
1001
ACAD
1000
AcDbSavedByObjectVersion
1070
     0
  0
VISUALSTYLE
  5
2AA
102
{ACAD_REACTORS
330
29F
102
}
330
29F
100
AcDbVisualStyle
  2
Dim
 70
    11
 71
     2
 72
     2
 73
     0
 90
        0
 40
-0.6
 41
-30.0
 62
     5
 63
     7
 74
     1
 91
        4
 64
     7
 65
   257
 75
     1
175
     1
 42
1.0
 92
        8
 66
     7
 43
1.0
 76
     1
 77
     6
 78
     2
 67
     7
 79
     5
170
     0
171
     0
290
     0
174
     0
 93
        1
 44
-50.0
173
     0
291
     1
 45
0.0
1001
ACAD
1000
AcDbSavedByObjectVersion
1070
     0
  0
VISUALSTYLE
  5
2AE
102
{ACAD_REACTORS
330
29F
102
}
330
29F
100
AcDbVisualStyle
  2
Facepattern
 70
    15
 71
     2
 72
     2
 73
     0
 90
        0
 40
-0.6
 41
-30.0
 62
     5
 63
     7
 74
     1
 91
        4
 64
     7
 65
   257
 75
     1
175
     1
 42
1.0
 92
        8
 66
     7
 43
1.0
 76
     1
 77
     6
 78
     2
 67
     7
 79
     5
170
     0
171
     0
290
     0
174
     0
 93
        1
 44
0.0
173
     0
291
     1
 45
0.0
1001
ACAD
1000
AcDbSavedByObjectVersion
1070
     0
  0
VISUALSTYLE
  5
2A0
102
{ACAD_REACTORS
330
29F
102
}
330
29F
100
AcDbVisualStyle
  2
Flat
 70
     0
 71
     2
 72
     1
 73
     1
 90
        2
 40
-0.6
 41
30.0
 62
     5
 63
     7
 74
     0
 91
        4
 64
     7
 65
   257
 75
     1
175
     1
 42
1.0
 92
        8
 66
     7
 43
1.0
 76
     1
 77
     6
 78
     2
 67
     7
 79
     5
170
     0
171
     0
290
     0
174
     0
 93
       13
 44
0.0
173
     0
291
     1
 45
0.0
1001
ACAD
1000
AcDbSavedByObjectVersion
1070
     0
  0
VISUALSTYLE
  5
2A1
102
{ACAD_REACTORS
330
29F
102
}
330
29F
100
AcDbVisualStyle
  2
FlatWithEdges
 70
     1
 71
     2
 72
     1
 73
     1
 90
        2
 40
-0.6
 41
30.0
 62
     5
 63
     7
 74
     1
 91
        4
 64
     7
 65
   257
 75
     1
175
     1
 42
1.0
 92
        0
 66
   257
 43
1.0
 76
     1
 77
     6
 78
     2
 67
     7
 79
     5
170
     0
171
     0
290
     0
174
     0
 93
       13
 44
0.0
173
     0
291
     1
 45
0.0
1001
ACAD
1000
AcDbSavedByObjectVersion
1070
     0
  0
VISUALSTYLE
  5
2A2
102
{ACAD_REACTORS
330
29F
102
}
330
29F
100
AcDbVisualStyle
  2
Gouraud
 70
     2
 71
     2
 72
     2
 73
     1
 90
        2
 40
-0.6
 41
30.0
 62
     5
 63
     7
 74
     0
 91
        4
 64
     7
 65
   257
 75
     1
175
     1
 42
1.0
 92
        0
 66
     7
 43
1.0
 76
     1
 77
     6
 78
     2
 67
     7
 79
     5
170
     0
171
     0
290
     0
174
     0
 93
       13
 44
0.0
173
     0
291
     1
 45
0.0
1001
ACAD
1000
AcDbSavedByObjectVersion
1070
     0
  0
VISUALSTYLE
  5
2A3
102
{ACAD_REACTORS
330
29F
102
}
330
29F
100
AcDbVisualStyle
  2
GouraudWithEdges
 70
     3
 71
     2
 72
     2
 73
     1
 90
        2
 40
-0.6
 41
30.0
 62
     5
 63
     7
 74
     1
 91
        4
 64
     7
 65
   257
 75
     1
175
     1
 42
1.0
 92
        0
 66
   257
 43
1.0
 76
     1
 77
     6
 78
     2
 67
     7
 79
     5
170
     0
171
     0
290
     0
174
     0
 93
       13
 44
0.0
173
     0
291
     1
 45
0.0
1001
ACAD
1000
AcDbSavedByObjectVersion
1070
     0
  0
VISUALSTYLE
  5
2AD
102
{ACAD_REACTORS
330
29F
102
}
330
29F
100
AcDbVisualStyle
  2
Linepattern
 70
    14
 71
     2
 72
     2
 73
     0
 90
        0
 40
-0.6
 41
-30.0
 62
     5
 63
     7
 74
     1
 91
        4
 64
     7
 65
   257
 75
     7
175
     7
 42
1.0
 92
        8
 66
     7
 43
1.0
 76
     1
 77
     6
 78
     2
 67
     7
 79
     5
170
     0
171
     0
290
     0
174
     0
 93
        1
 44
0.0
173
     0
291
     1
 45
0.0
1001
ACAD
1000
AcDbSavedByObjectVersion
1070
     0
  0
VISUALSTYLE
  5
2A9
102
{ACAD_REACTORS
330
29F
102
}
330
29F
100
AcDbVisualStyle
  2
Realistic
 70
     8
 71
     2
 72
     2
 73
     0
 90
        0
 40
-0.6
 41
-30.0
 62
     5
 63
     7
 74
     1
 91
        0
 64
     7
 65
   257
 75
     1
175
     1
 42
1.0
 92
        8
 66
     8
 43
1.0
 76
     1
 77
     6
 78
     2
 67
     7
 79
     5
170
     0
171
     0
290
     0
174
     0
 93
       13
 44
0.0
173
     0
291
     0
 45
0.0
1001
ACAD
1000
AcDbSavedByObjectVersion
1070
     0
  0
VISUALSTYLE
  5
2AC
102
{ACAD_REACTORS
330
29F
102
}
330
29F
100
AcDbVisualStyle
  2
Thicken
 70
    13
 71
     2
 72
     2
 73
     0
 90
        0
 40
-0.6
 41
-30.0
 62
     5
 63
     7
 74
     1
 91
        4
 64
     7
 65
   257
 75
     1
175
     1
 42
1.0
 92
       12
 66
     7
 43
1.0
 76
     1
 77
     6
 78
     2
 67
     7
 79
     5
170
     0
171
     0
290
     0
174
     0
 93
        1
 44
0.0
173
     0
291
     1
 45
0.0
1001
ACAD
1000
AcDbSavedByObjectVersion
1070
     0
  0
DICTIONARYVAR
  5
362
102
{ACAD_REACTORS
330
17D
102
}
330
17D
100
DictionaryVariables
280
     0
  1
STANDARD
  0
DICTIONARYVAR
  5
17F
102
{ACAD_REACTORS
330
17D
102
}
330
17D
100
DictionaryVariables
280
     0
  1
2
  0
DICTIONARYVAR
  5
17E
102
{ACAD_REACTORS
330
17D
102
}
330
17D
100
DictionaryVariables
280
     0
  1
1
  0
DICTIONARYVAR
  5
364
102
{ACAD_REACTORS
330
17D
102
}
330
17D
100
DictionaryVariables
280
     0
  1
0
  0
DICTIONARYVAR
  5
363
102
{ACAD_REACTORS
330
17D
102
}
330
17D
100
DictionaryVariables
280
     0
  1
127
  0
XRECORD
  5
347
102
{ACAD_REACTORS
330
345
102
}
330
345
100
AcDbXrecord
280
     1
  0
DICTIONARY
  5
366
330
1D
100
AcDbDictionary
280
     1
281
     1
  3
ACAD_XREC_ROUNDTRIP
360
367
  0
DICTIONARY
  5
368
330
21
100
AcDbDictionary
280
     1
281
     1
  3
ACAD_XREC_ROUNDTRIP
360
369
  0
DICTIONARY
  5
36C
330
29D
100
AcDbDictionary
280
     1
281
     1
  3
ACAD_XREC_ROUNDTRIP
360
36D
  0
DICTIONARY
  5
36A
330
29C
100
AcDbDictionary
280
     1
281
     1
  3
ACAD_XREC_ROUNDTRIP
360
36B
  0
DICTIONARY
  5
36E
330
29E
100
AcDbDictionary
280
     1
281
     1
  3
ACAD_XREC_ROUNDTRIP
360
36F
  0
DICTIONARY
  5
370
330
2B2
100
AcDbDictionary
280
     1
281
     1
  3
ACAD_XREC_ROUNDTRIP
360
371
  0
XRECORD
  5
367
102
{ACAD_REACTORS
330
366
102
}
330
366
100
AcDbXrecord
280
     1
102
SHADEPLOT
 70
     0
102
SHADEPLOTRESLEVEL
 70
     2
102
SHADEPLOTCUSTOMDPI
 70
   300
  0
XRECORD
  5
369
102
{ACAD_REACTORS
330
368
102
}
330
368
100
AcDbXrecord
280
     1
102
SHADEPLOT
 70
     0
102
SHADEPLOTRESLEVEL
 70
     2
102
SHADEPLOTCUSTOMDPI
 70
   300
  0
XRECORD
  5
36D
102
{ACAD_REACTORS
330
36C
102
}
330
36C
100
AcDbXrecord
280
     1
102
MATERIAL
148
0.0
149
0.0
149
0.0
 93
        0
 94
       63
282
     0
 72
     1
 77
     1
171
     1
175
     1
179
     1
273
     0
  0
XRECORD
  5
36B
102
{ACAD_REACTORS
330
36A
102
}
330
36A
100
AcDbXrecord
280
     1
102
MATERIAL
148
0.0
149
0.0
149
0.0
 93
        0
 94
       63
282
     0
 72
     1
 77
     1
171
     1
175
     1
179
     1
273
     0
  0
XRECORD
  5
36F
102
{ACAD_REACTORS
330
36E
102
}
330
36E
100
AcDbXrecord
280
     1
102
MATERIAL
148
0.0
149
0.0
149
0.0
 93
        0
 94
       63
282
     0
 72
     1
 77
     1
171
     1
175
     1
179
     1
273
     0
  0
XRECORD
  5
371
102
{ACAD_REACTORS
330
370
102
}
330
370
100
AcDbXrecord
280
     1
102
ACAD_ROUNDTRIP_PRE2007_TABLESTYLE
 90
      512
 91
        0
  1

 92
      512
 93
        0
  2

 94
      512
 95
        0
  3

  0
ENDSEC
  0
EOF
