  0
SECTION
  2
HEADER
  9
$ACADVER
  1
AC1015
  9
$ACADMAINTVER
 70
    20
  9
$DWGCODEPAGE
  3
ANSI_936
  9
$INSBASE
 10
3.666421690334891
 20
-0.4618490818429859
 30
0.0
  9
$EXTMIN
 10
-0.0834960100281706
 20
-1.132690347187093
 30
-0.0015258207003583
  9
$EXTMAX
 10
9.57348638117952
 20
1.344726605974983
 30
0.0000000349246037
  9
$LIMMIN
 10
0.0
 20
0.0
  9
$LIMMAX
 10
36.0
 20
36.0
  9
$ORTHOMODE
 70
     1
  9
$REGENMODE
 70
     1
  9
$FILLMODE
 70
     1
  9
$QTEXTMODE
 70
     0
  9
$MIRRTEXT
 70
     1
  9
$LTSCALE
 40
1.0
  9
$ATTMODE
 70
     1
  9
$TEXTSIZE
 40
0.2
  9
$TRACEWID
 40
0.05
  9
$TEXTSTYLE
  7
STANDARD
  9
$CLAYER
  8
ADP1DETAIL
  9
$CELTYPE
  6
BYLAYER
  9
$CECOLOR
 62
   256
  9
$CELTSCALE
 40
1.0
  9
$DISPSILH
 70
     0
  9
$DIMSCALE
 40
1.0
  9
$DIMASZ
 40
0.125
  9
$DIMEXO
 40
0.0625
  9
$DIMDLI
 40
0.38
  9
$DIMRND
 40
0.0
  9
$DIMDLE
 40
0.0
  9
$DIMEXE
 40
0.18
  9
$DIMTP
 40
0.0
  9
$DIMTM
 40
0.0
  9
$DIMTXT
 40
0.125
  9
$DIMCEN
 40
0.1875
  9
$DIMTSZ
 40
0.125
  9
$DIMTOL
 70
     0
  9
$DIMLIM
 70
     0
  9
$DIMTIH
 70
     0
  9
$DIMTOH
 70
     0
  9
$DIMSE1
 70
     0
  9
$DIMSE2
 70
     0
  9
$DIMTAD
 70
     0
  9
$DIMZIN
 70
     3
  9
$DIMBLK
  1

  9
$DIMASO
 70
     1
  9
$DIMSHO
 70
     1
  9
$DIMPOST
  1

  9
$DIMAPOST
  1

  9
$DIMALT
 70
     0
  9
$DIMALTD
 70
     1
  9
$DIMALTF
 40
25.4
  9
$DIMLFAC
 40
1.0
  9
$DIMTOFL
 70
     0
  9
$DIMTVP
 40
0.0
  9
$DIMTIX
 70
     0
  9
$DIMSOXD
 70
     0
  9
$DIMSAH
 70
     0
  9
$DIMBLK1
  1

  9
$DIMBLK2
  1

  9
$DIMSTYLE
  2
STANDARD
  9
$DIMCLRD
 70
     0
  9
$DIMCLRE
 70
     0
  9
$DIMCLRT
 70
     0
  9
$DIMTFAC
 40
1.0
  9
$DIMGAP
 40
0.125
  9
$DIMJUST
 70
     0
  9
$DIMSD1
 70
     0
  9
$DIMSD2
 70
     0
  9
$DIMTOLJ
 70
     1
  9
$DIMTZIN
 70
     0
  9
$DIMALTZ
 70
     0
  9
$DIMALTTZ
 70
     0
  9
$DIMUPT
 70
     0
  9
$DIMDEC
 70
     4
  9
$DIMTDEC
 70
     4
  9
$DIMALTU
 70
     2
  9
$DIMALTTD
 70
     2
  9
$DIMTXSTY
  7
STANDARD
  9
$DIMAUNIT
 70
     0
  9
$DIMADEC
 70
     0
  9
$DIMALTRND
 40
0.0
  9
$DIMAZIN
 70
     0
  9
$DIMDSEP
 70
    46
  9
$DIMATFIT
 70
     3
  9
$DIMFRAC
 70
     0
  9
$DIMLDRBLK
  1

  9
$DIMLUNIT
 70
     2
  9
$DIMLWD
 70
    -2
  9
$DIMLWE
 70
    -2
  9
$DIMTMOVE
 70
     0
  9
$LUNITS
 70
     5
  9
$LUPREC
 70
     4
  9
$SKETCHINC
 40
0.1
  9
$FILLETRAD
 40
0.06
  9
$AUNITS
 70
     0
  9
$AUPREC
 70
     0
  9
$MENU
  1
acad
  9
$ELEVATION
 40
0.0
  9
$PELEVATION
 40
0.0
  9
$THICKNESS
 40
0.0
  9
$LIMCHECK
 70
     0
  9
$CHAMFERA
 40
0.0
  9
$CHAMFERB
 40
0.0
  9
$CHAMFERC
 40
0.0
  9
$CHAMFERD
 40
0.0
  9
$SKPOLY
 70
     0
  9
$TDCREATE
 40
2450350.157799769
  9
$TDUCREATE
 40
2450350.366133102
  9
$TDUPDATE
 40
2455238.879058484
  9
$TDUUPDATE
 40
2455239.087391817
  9
$TDINDWG
 40
0.0375126042
  9
$TDUSRTIMER
 40
0.0375126042
  9
$USRTIMER
 70
     1
  9
$ANGBASE
 50
0.0
  9
$ANGDIR
 70
     0
  9
$PDMODE
 70
     0
  9
$PDSIZE
 40
0.0
  9
$PLINEWID
 40
0.0
  9
$SPLFRAME
 70
     0
  9
$SPLINETYPE
 70
     6
  9
$SPLINESEGS
 70
     8
  9
$HANDSEED
  5
E7F
  9
$SURFTAB1
 70
     6
  9
$SURFTAB2
 70
     6
  9
$SURFTYPE
 70
     6
  9
$SURFU
 70
     6
  9
$SURFV
 70
     6
  9
$UCSBASE
  2

  9
$UCSNAME
  2

  9
$UCSORG
 10
0.0
 20
0.0
 30
0.0
  9
$UCSXDIR
 10
1.0
 20
0.0
 30
0.0
  9
$UCSYDIR
 10
0.0
 20
1.0
 30
0.0
  9
$UCSORTHOREF
  2

  9
$UCSORTHOVIEW
 70
     0
  9
$UCSORGTOP
 10
0.0
 20
0.0
 30
0.0
  9
$UCSORGBOTTOM
 10
0.0
 20
0.0
 30
0.0
  9
$UCSORGLEFT
 10
0.0
 20
0.0
 30
0.0
  9
$UCSORGRIGHT
 10
0.0
 20
0.0
 30
0.0
  9
$UCSORGFRONT
 10
0.0
 20
0.0
 30
0.0
  9
$UCSORGBACK
 10
0.0
 20
0.0
 30
0.0
  9
$PUCSBASE
  2

  9
$PUCSNAME
  2

  9
$PUCSORG
 10
0.0
 20
0.0
 30
0.0
  9
$PUCSXDIR
 10
1.0
 20
0.0
 30
0.0
  9
$PUCSYDIR
 10
0.0
 20
1.0
 30
0.0
  9
$PUCSORTHOREF
  2

  9
$PUCSORTHOVIEW
 70
     0
  9
$PUCSORGTOP
 10
0.0
 20
0.0
 30
0.0
  9
$PUCSORGBOTTOM
 10
0.0
 20
0.0
 30
0.0
  9
$PUCSORGLEFT
 10
0.0
 20
0.0
 30
0.0
  9
$PUCSORGRIGHT
 10
0.0
 20
0.0
 30
0.0
  9
$PUCSORGFRONT
 10
0.0
 20
0.0
 30
0.0
  9
$PUCSORGBACK
 10
0.0
 20
0.0
 30
0.0
  9
$USERI1
 70
     0
  9
$USERI2
 70
     0
  9
$USERI3
 70
     0
  9
$USERI4
 70
     0
  9
$USERI5
 70
     0
  9
$USERR1
 40
0.0
  9
$USERR2
 40
0.0
  9
$USERR3
 40
0.0
  9
$USERR4
 40
0.0
  9
$USERR5
 40
0.0
  9
$WORLDVIEW
 70
     1
  9
$SHADEDGE
 70
     3
  9
$SHADEDIF
 70
    70
  9
$TILEMODE
 70
     1
  9
$MAXACTVP
 70
    15
  9
$PINSBASE
 10
0.0
 20
0.0
 30
0.0
  9
$PLIMCHECK
 70
     0
  9
$PEXTMIN
 10
1.000000000000000E+20
 20
1.000000000000000E+20
 30
1.000000000000000E+20
  9
$PEXTMAX
 10
-1.000000000000000E+20
 20
-1.000000000000000E+20
 30
-1.000000000000000E+20
  9
$PLIMMIN
 10
0.0
 20
0.0
  9
$PLIMMAX
 10
12.0
 20
9.0
  9
$UNITMODE
 70
     0
  9
$VISRETAIN
 70
     0
  9
$PLINEGEN
 70
     0
  9
$PSLTSCALE
 70
     1
  9
$TREEDEPTH
 70
  3020
  9
$CMLSTYLE
  2
STANDARD
  9
$CMLJUST
 70
     0
  9
$CMLSCALE
 40
1.0
  9
$PROXYGRAPHICS
 70
     1
  9
$MEASUREMENT
 70
     0
  9
$CELWEIGHT
370
    -1
  9
$ENDCAPS
280
     0
  9
$JOINSTYLE
280
     0
  9
$LWDISPLAY
290
     0
  9
$INSUNITS
 70
     0
  9
$HYPERLINKBASE
  1

  9
$STYLESHEET
  1

  9
$XEDIT
290
     1
  9
$CEPSNTYPE
380
     0
  9
$PSTYLEMODE
290
     1
  9
$FINGERPRINTGUID
  2
{2011480C-793A-4786-AE92-1FB6B8D14116}
  9
$VERSIONGUID
  2
{6A7BE172-4945-46A4-A8D7-6FB27B92AE28}
  9
$EXTNAMES
290
     1
  9
$PSVPSCALE
 40
0.0
  9
$OLESTARTUP
290
     0
  0
ENDSEC
  0
SECTION
  2
CLASSES
  0
CLASS
  1
ACDBDICTIONARYWDFLT
  2
AcDbDictionaryWithDefault
  3
ObjectDBX Classes
 90
        0
280
     0
281
     0
  0
CLASS
  1
ACDBPLACEHOLDER
  2
AcDbPlaceHolder
  3
ObjectDBX Classes
 90
        0
280
     0
281
     0
  0
CLASS
  1
LAYOUT
  2
AcDbLayout
  3
ObjectDBX Classes
 90
        0
280
     0
281
     0
  0
CLASS
  1
DICTIONARYVAR
  2
AcDbDictionaryVar
  3
ObjectDBX Classes
 90
        0
280
     0
281
     0
  0
CLASS
  1
MATERIAL
  2
AcDbMaterial
  3
ObjectDBX Classes
 90
     1024
280
     0
281
     0
  0
CLASS
  1
VISUALSTYLE
  2
AcDbVisualStyle
  3
ObjectDBX Classes
 90
     4095
280
     0
281
     0
  0
CLASS
  1
TABLESTYLE
  2
AcDbTableStyle
  3
ObjectDBX Classes
 90
     4095
280
     0
281
     0
  0
CLASS
  1
ACAD_EVALUATION_GRAPH
  2
AcDbEvalGraph
  3
ObjectDBX Classes
 90
     1153
280
     0
281
     0
  0
CLASS
  1
ACAECUSTOBJ
  2
AcAeEditorObj
  3
AcAeEditorObj
 90
     1024
280
     0
281
     0
  0
CLASS
  1
ACDB_DYNAMICBLOCKPURGEPREVENTER_VERSION
  2
AcDbDynamicBlockPurgePreventer
  3
ObjectDBX Classes
 90
    33921
280
     0
281
     0
  0
ENDSEC
  0
SECTION
  2
TABLES
  0
TABLE
  2
VPORT
  5
8
102
{ACAD_XDICTIONARY
360
1F1
102
}
330
0
100
AcDbSymbolTable
 70
     1
  0
VPORT
  5
17D
330
8
100
AcDbSymbolTableRecord
100
AcDbViewportTableRecord
  2
*Active
 70
     0
 10
0.0
 20
0.0
 11
1.0
 21
1.0
 12
4.744995185575675
 22
0.1060181293939451
 13
0.0
 23
0.0
 14
0.5740882589684922
 24
0.5740882589684922
 15
0.5
 25
0.5
 16
0.0
 26
0.0
 36
1.0
 17
0.0
 27
0.0
 37
0.0
 40
4.260992335828786
 41
2.277467411545623
 42
50.0
 43
0.0
 44
0.0
 50
0.0
 51
0.0
 71
     0
 72
   100
 73
     1
 74
     1
 75
     0
 76
     0
 77
     0
 78
     0
281
     0
 65
     1
110
0.0
120
0.0
130
0.0
111
1.0
121
0.0
131
0.0
112
0.0
122
1.0
132
0.0
 79
     0
146
0.0
  0
ENDTAB
  0
TABLE
  2
LTYPE
  5
5
330
0
100
AcDbSymbolTable
 70
    14
  0
LTYPE
  5
12
330
5
100
AcDbSymbolTableRecord
100
AcDbLinetypeTableRecord
  2
BYBLOCK
 70
     0
  3

 72
    65
 73
     0
 40
0.0
  0
LTYPE
  5
13
330
5
100
AcDbSymbolTableRecord
100
AcDbLinetypeTableRecord
  2
BYLAYER
 70
     0
  3

 72
    65
 73
     0
 40
0.0
  0
LTYPE
  5
14
330
5
100
AcDbSymbolTableRecord
100
AcDbLinetypeTableRecord
  2
CONTINUOUS
 70
     0
  3
Solid line
 72
    65
 73
     0
 40
0.0
  0
LTYPE
  5
36D
330
5
100
AcDbSymbolTableRecord
100
AcDbLinetypeTableRecord
  2
AI-Linetype-1
 70
     0
  3
Adobe Illustrator Linetype No. 1
 72
    65
 73
     2
 40
0.0555555921913822
 49
0.0277777960956911
 74
     0
 49
-0.0277777960956911
 74
     0
  0
LTYPE
  5
36E
330
5
100
AcDbSymbolTableRecord
100
AcDbLinetypeTableRecord
  2
AI-Linetype-5
 70
     0
  3
Adobe Illustrator Linetype No. 5
 72
    65
 73
     2
 40
0.0555555921913822
 49
0.0277777960956911
 74
     0
 49
-0.0277777960956911
 74
     0
  0
LTYPE
  5
36F
330
5
100
AcDbSymbolTableRecord
100
AcDbLinetypeTableRecord
  2
AI-Linetype-6
 70
     0
  3
Adobe Illustrator Linetype No. 6
 72
    65
 73
     2
 40
0.0555555921913822
 49
0.0277777960956911
 74
     0
 49
-0.0277777960956911
 74
     0
  0
LTYPE
  5
B05
330
5
100
AcDbSymbolTableRecord
100
AcDbLinetypeTableRecord
  2
AI-Linetype-2
 70
     0
  3
Adobe Illustrator Linetype No. 2
 72
    65
 73
     2
 40
3.959999918937683
 49
2.375999927520751
 74
     0
 49
-1.583999991416931
 74
     0
  0
LTYPE
  5
B06
330
5
100
AcDbSymbolTableRecord
100
AcDbLinetypeTableRecord
  2
AI-Linetype-3
 70
     0
  3
Adobe Illustrator Linetype No. 3
 72
    65
 73
     2
 40
3.959999918937683
 49
2.375999927520751
 74
     0
 49
-1.583999991416931
 74
     0
  0
LTYPE
  5
B07
330
5
100
AcDbSymbolTableRecord
100
AcDbLinetypeTableRecord
  2
AI-Linetype-4
 70
     0
  3
Adobe Illustrator Linetype No. 4
 72
    65
 73
     2
 40
3.959999918937683
 49
2.375999927520751
 74
     0
 49
-1.583999991416931
 74
     0
  0
LTYPE
  5
B08
330
5
100
AcDbSymbolTableRecord
100
AcDbLinetypeTableRecord
  2
AI-Linetype-9
 70
     0
  3
Adobe Illustrator Linetype No. 9
 72
    65
 73
     2
 40
3.959999918937683
 49
2.375999927520751
 74
     0
 49
-1.583999991416931
 74
     0
  0
LTYPE
  5
B09
330
5
100
AcDbSymbolTableRecord
100
AcDbLinetypeTableRecord
  2
AI-Linetype-10
 70
     0
  3
Adobe Illustrator Linetype No. 10
 72
    65
 73
     2
 40
3.959999918937683
 49
2.375999927520751
 74
     0
 49
-1.583999991416931
 74
     0
  0
LTYPE
  5
B0A
330
5
100
AcDbSymbolTableRecord
100
AcDbLinetypeTableRecord
  2
AI-Linetype-11
 70
     0
  3
Adobe Illustrator Linetype No. 11
 72
    65
 73
     2
 40
3.959999918937683
 49
2.375999927520751
 74
     0
 49
-1.583999991416931
 74
     0
  0
LTYPE
  5
B0B
330
5
100
AcDbSymbolTableRecord
100
AcDbLinetypeTableRecord
  2
AI-Linetype-14
 70
     0
  3
Adobe Illustrator Linetype No. 14
 72
    65
 73
     2
 40
3.959999918937683
 49
2.375999927520751
 74
     0
 49
-1.583999991416931
 74
     0
  0
LTYPE
  5
B0C
330
5
100
AcDbSymbolTableRecord
100
AcDbLinetypeTableRecord
  2
AI-Linetype-15
 70
     0
  3
Adobe Illustrator Linetype No. 15
 72
    65
 73
     2
 40
3.959999918937683
 49
2.375999927520751
 74
     0
 49
-1.583999991416931
 74
     0
  0
LTYPE
  5
B0D
330
5
100
AcDbSymbolTableRecord
100
AcDbLinetypeTableRecord
  2
AI-Linetype-16
 70
     0
  3
Adobe Illustrator Linetype No. 16
 72
    65
 73
     2
 40
3.959999918937683
 49
2.375999927520751
 74
     0
 49
-1.583999991416931
 74
     0
  0
LTYPE
  5
B0E
330
5
100
AcDbSymbolTableRecord
100
AcDbLinetypeTableRecord
  2
AI-Linetype-17
 70
     0
  3
Adobe Illustrator Linetype No. 17
 72
    65
 73
     2
 40
3.959999918937683
 49
2.375999927520751
 74
     0
 49
-1.583999991416931
 74
     0
  0
ENDTAB
  0
TABLE
  2
LAYER
  5
2
330
0
100
AcDbSymbolTable
 70
     5
  0
LAYER
  5
F
330
2
100
AcDbSymbolTableRecord
100
AcDbLayerTableRecord
  2
0
 70
     0
 62
     7
  6
CONTINUOUS
370
    -3
390
61
  0
LAYER
  5
22
330
2
100
AcDbSymbolTableRecord
100
AcDbLayerTableRecord
  2
ADPDIM
 70
     0
 62
     3
  6
CONTINUOUS
370
    -3
390
61
  0
LAYER
  5
23
330
2
100
AcDbSymbolTableRecord
100
AcDbLayerTableRecord
  2
ADP1DETAIL
 70
     0
 62
     7
  6
CONTINUOUS
370
    -3
390
61
  0
LAYER
  5
24
330
2
100
AcDbSymbolTableRecord
100
AcDbLayerTableRecord
  2
DEFPOINTS
 70
     0
 62
     7
  6
CONTINUOUS
290
     0
370
    -3
390
61
  0
LAYER
  5
370
330
2
100
AcDbSymbolTableRecord
100
AcDbLayerTableRecord
  2
Layer 1
 70
     0
 62
     7
  6
CONTINUOUS
370
    -3
390
61
  0
ENDTAB
  0
TABLE
  2
STYLE
  5
3
330
0
100
AcDbSymbolTable
 70
     2
  0
STYLE
  5
10
330
3
100
AcDbSymbolTableRecord
100
AcDbTextStyleTableRecord
  2
STANDARD
 70
     0
 40
0.0
 41
1.0
 50
0.0
 71
     0
 42
0.2
  3
txt
  4

  0
STYLE
  5
68
330
3
100
AcDbSymbolTableRecord
100
AcDbTextStyleTableRecord
  2
ARIAL_WIDE
 70
     0
 40
0.0
 41
1.25
 50
0.0
 71
     0
 42
0.2
  3
arial.ttf
  4

1001
ACAD
1000
Arial
1071
       34
  0
ENDTAB
  0
TABLE
  2
VIEW
  5
6
330
0
100
AcDbSymbolTable
 70
     0
  0
ENDTAB
  0
TABLE
  2
UCS
  5
7
330
0
100
AcDbSymbolTable
 70
     0
  0
ENDTAB
  0
TABLE
  2
APPID
  5
9
330
0
100
AcDbSymbolTable
 70
     5
  0
APPID
  5
11
330
9
100
AcDbSymbolTableRecord
100
AcDbRegAppTableRecord
  2
ACAD
 70
     0
  0
APPID
  5
371
330
9
100
AcDbSymbolTableRecord
100
AcDbRegAppTableRecord
  2
AcDbDynamicBlockGUID
 70
     0
  0
APPID
  5
372
330
9
100
AcDbSymbolTableRecord
100
AcDbRegAppTableRecord
  2
AcDbBlockRepETag
 70
     0
  0
APPID
  5
3C9
330
9
100
AcDbSymbolTableRecord
100
AcDbRegAppTableRecord
  2
ACAUTHENVIRON
 70
     0
  0
APPID
  5
3CC
330
9
100
AcDbSymbolTableRecord
100
AcDbRegAppTableRecord
  2
AcDbDynamicBlockTrueName
 70
     0
  0
ENDTAB
  0
TABLE
  2
DIMSTYLE
  5
A
330
0
100
AcDbSymbolTable
 70
     1
100
AcDbDimStyleTable
 71
     1
340
5C
  0
DIMSTYLE
105
5C
102
{ACAD_REACTORS
330
1D2
330
3F4
102
}
330
A
100
AcDbSymbolTableRecord
100
AcDbDimStyleTableRecord
  2
STANDARD
 70
     0
340
10
  0
ENDTAB
  0
TABLE
  2
BLOCK_RECORD
  5
1
330
0
100
AcDbSymbolTable
 70
     8
  0
BLOCK_RECORD
  5
18
102
{ACAD_XDICTIONARY
360
BD
102
}
330
1
100
AcDbSymbolTableRecord
100
AcDbBlockTableRecord
  2
*MODEL_SPACE
340
64
  0
BLOCK_RECORD
  5
15
102
{ACAD_XDICTIONARY
360
BB
102
}
330
1
100
AcDbSymbolTableRecord
100
AcDbBlockTableRecord
  2
*PAPER_SPACE
340
65
  0
BLOCK_RECORD
  5
1D3
330
1
100
AcDbSymbolTableRecord
100
AcDbBlockTableRecord
  2
*D1
340
0
  0
BLOCK_RECORD
  5
20E
102
{ACAD_XDICTIONARY
360
3C8
102
}
330
1
100
AcDbSymbolTableRecord
100
AcDbBlockTableRecord
  2
block 2
340
0
1001
AcDbDynamicBlockGUID
1000
{2DD9DB0B-1C2F-41C8-ACF0-0380B1F1FE9E}
1001
AcDbBlockRepETag
1070
     1
1071
        7
  0
BLOCK_RECORD
  5
232
330
1
100
AcDbSymbolTableRecord
100
AcDbBlockTableRecord
  2
block 3
340
0
102
{BLKREFS
331
3C2
331
452
102
}
  0
BLOCK_RECORD
  5
3F5
330
1
100
AcDbSymbolTableRecord
100
AcDbBlockTableRecord
  2
*D5
340
0
  0
ENDTAB
  0
ENDSEC
  0
SECTION
  2
BLOCKS
  0
BLOCK
  5
27
330
18
100
AcDbEntity
  8
0
100
AcDbBlockBegin
  2
*MODEL_SPACE
 70
     0
 10
0.0
 20
0.0
 30
0.0
  3
*MODEL_SPACE
  1

  0
ENDBLK
  5
28
330
18
100
AcDbEntity
  8
0
100
AcDbBlockEnd
  0
BLOCK
  5
25
330
15
100
AcDbEntity
 67
     1
  8
0
100
AcDbBlockBegin
  2
*PAPER_SPACE
 70
     0
 10
0.0
 20
0.0
 30
0.0
  3
*PAPER_SPACE
  1

  0
ENDBLK
  5
26
330
15
100
AcDbEntity
 67
     1
  8
0
100
AcDbBlockEnd
  0
BLOCK
  5
1DE
330
1D3
100
AcDbEntity
  8
0
 62
     3
100
AcDbBlockBegin
  2
*D1
 70
     1
 10
0.0
 20
0.0
 30
0.0
  3
*D1
  1

  0
LINE
  5
1D4
330
1D3
100
AcDbEntity
  8
ADPDIM
 62
     0
370
    -2
100
AcDbLine
 10
3.253921690334891
 20
1.218150918157014
 30
0.0
 11
2.197225868716252
 21
1.218150918157014
 31
0.0
  0
LINE
  5
1D5
330
1D3
100
AcDbEntity
  8
ADPDIM
 62
     0
370
    -2
100
AcDbLine
 10
3.253921690334891
 20
-0.4418490818429857
 30
0.0
 11
2.197225868716252
 21
-0.4418490818429854
 31
0.0
  0
LINE
  5
1D6
330
1D3
100
AcDbEntity
  8
ADPDIM
 62
     0
370
    -2
100
AcDbLine
 10
2.377225868716252
 20
1.218150918157014
 30
0.0
 11
2.377225868716251
 21
0.7839842514903476
 31
0.0
  0
LINE
  5
1D7
330
1D3
100
AcDbEntity
  8
ADPDIM
 62
     0
370
    -2
100
AcDbLine
 10
2.377225868716251
 20
-0.4418490818429854
 30
0.0
 11
2.377225868716251
 21
-0.007682415176319
 31
0.0
  0
LINE
  5
1D8
330
1D3
100
AcDbEntity
  8
ADPDIM
 62
     0
370
    -2
100
AcDbLine
 10
2.502225868716251
 20
-0.5668490818429854
 30
0.0
 11
2.252225868716251
 21
-0.3168490818429854
 31
0.0
  0
LINE
  5
1D9
330
1D3
100
AcDbEntity
  8
ADPDIM
 62
     0
370
    -2
100
AcDbLine
 10
2.502225868716252
 20
1.093150918157014
 30
0.0
 11
2.252225868716252
 21
1.343150918157014
 31
0.0
  0
MTEXT
  5
1DA
330
1D3
100
AcDbEntity
  8
ADPDIM
 62
     0
100
AcDbMText
 10
2.377225868716251
 20
0.3881509181570148
 30
0.0
 40
0.125
 41
0.0
 71
     5
 72
     1
  1
\A1;1.6600
 11
0.0000000000000001
 21
1.0
 31
0.0
 73
     1
 44
1.0
1001
ACAD
1000
MTEXTBEGIN
1070
    73
1070
     1
1070
    44
1040
1.0
1070
    74
1070
     0
1000
MTEXTEND
  0
POINT
  5
1DB
330
1D3
100
AcDbEntity
  8
DEFPOINTS
 62
     0
100
AcDbPoint
 10
3.316421690334891
 20
1.218150918157014
 30
0.0
  0
POINT
  5
1DC
330
1D3
100
AcDbEntity
  8
DEFPOINTS
 62
     0
100
AcDbPoint
 10
3.316421690334891
 20
-0.4418490818429857
 30
0.0
  0
POINT
  5
1DD
330
1D3
100
AcDbEntity
  8
DEFPOINTS
 62
     0
100
AcDbPoint
 10
2.377225868716251
 20
-0.4418490818429854
 30
0.0
  0
ENDBLK
  5
1DF
330
1D3
100
AcDbEntity
  8
0
 62
     3
100
AcDbBlockEnd
  0
BLOCK
  5
210
330
20E
100
AcDbEntity
  8
0
100
AcDbBlockBegin
  2
block 2
 70
     0
 10
0.0
 20
0.0
 30
0.0
  3
block 2
  1

  0
SPLINE
  5
3A8
330
20E
100
AcDbEntity
  8
Layer 1
 62
     7
370
    18
100
AcDbSpline
210
0.0
220
0.0
230
1.0
 70
     8
 71
     3
 72
    20
 73
    16
 74
     0
 42
0.0000000001
 43
0.0000000001
 40
0.0
 40
0.0
 40
0.0
 40
0.0
 40
1.0
 40
1.0
 40
1.0
 40
2.0
 40
2.0
 40
2.0
 40
3.0
 40
3.0
 40
3.0
 40
4.0
 40
4.0
 40
4.0
 40
5.0
 40
5.0
 40
5.0
 40
5.0
 10
2.486112750564352
 20
8.844020317817149
 30
0.0
 10
2.486112750564352
 20
8.346122311529686
 30
0.0
 10
2.649253049118538
 20
8.072006462362734
 30
0.0
 10
2.661276982828904
 20
8.072006462362734
 30
0.0
 10
2.761842641594286
 20
8.072006462362734
 30
0.0
 10
2.767485006426223
 20
8.013521180739385
 30
0.0
 10
2.767485006426223
 20
8.013521180739385
 30
0.0
 10
2.767485006426223
 20
8.013521180739385
 30
0.0
 10
2.767485006426223
 20
9.673522546685424
 30
0.0
 10
2.767485006426223
 20
9.673522546685424
 30
0.0
 10
2.767485006426223
 20
9.673522546685424
 30
0.0
 10
2.74617694115946
 20
9.61730234902105
 30
0.0
 10
2.661276982828904
 20
9.61730234902105
 30
0.0
 10
2.649042816775041
 20
9.598910409809255
 30
0.0
 10
2.486112750564352
 20
9.340948542649122
 30
0.0
 10
2.486112750564352
 20
8.84302340960766
 30
0.0
1001
AcDbBlockRepETag
1070
     1
1071
        0
1005
3A8
  0
POLYLINE
  5
3A9
330
20E
100
AcDbEntity
  8
Layer 1
 62
     7
370
    18
100
AcDb2dPolyline
 66
     1
 10
0.0
 20
0.0
 30
0.0
1001
AcDbBlockRepETag
1070
     1
1071
        1
1005
3A9
  0
VERTEX
  5
3AA
330
3A9
100
AcDbEntity
  8
Layer 1
 62
     7
370
    18
100
AcDbVertex
100
AcDb2dVertex
 10
4.203412602646255
 20
9.533521369292982
 30
0.0
  0
VERTEX
  5
3AB
330
3A9
100
AcDbEntity
  8
Layer 1
 62
     7
370
    18
100
AcDbVertex
100
AcDb2dVertex
 10
3.236113245148012
 20
9.533521369292982
 30
0.0
  0
VERTEX
  5
3AC
330
3A9
100
AcDbEntity
  8
Layer 1
 62
     7
370
    18
100
AcDbVertex
100
AcDb2dVertex
 10
3.236113245148012
 20
8.153515576443327
 30
0.0
  0
VERTEX
  5
3AD
330
3A9
100
AcDbEntity
  8
Layer 1
 62
     7
370
    18
100
AcDbVertex
100
AcDb2dVertex
 10
4.203412602646255
 20
8.153515576443327
 30
0.0
  0
VERTEX
  5
3AE
330
3A9
100
AcDbEntity
  8
Layer 1
 62
     7
370
    18
100
AcDbVertex
100
AcDb2dVertex
 10
4.233821693879917
 20
8.167418037868173
 30
0.0
  0
VERTEX
  5
3AF
330
3A9
100
AcDbEntity
  8
Layer 1
 62
     7
370
    18
100
AcDbVertex
100
AcDb2dVertex
 10
4.233821693879917
 20
8.785596071390298
 30
0.0
  0
VERTEX
  5
3B0
330
3A9
100
AcDbEntity
  8
Layer 1
 62
     7
370
    18
100
AcDbVertex
100
AcDb2dVertex
 10
4.233821693879917
 20
8.901406965903511
 30
0.0
  0
VERTEX
  5
3B1
330
3A9
100
AcDbEntity
  8
Layer 1
 62
     7
370
    18
100
AcDbVertex
100
AcDb2dVertex
 10
4.233821693879917
 20
9.519618907868135
 30
0.0
  0
VERTEX
  5
3B2
330
3A9
100
AcDbEntity
  8
Layer 1
 62
     7
370
    18
100
AcDbVertex
100
AcDb2dVertex
 10
4.203412602646255
 20
9.533521369292982
 30
0.0
  0
SEQEND
  5
3B3
330
3A9
100
AcDbEntity
  8
Layer 1
370
    18
  0
POLYLINE
  5
3B4
330
20E
100
AcDbEntity
  8
Layer 1
 62
     7
370
    18
100
AcDb2dPolyline
 66
     1
 10
0.0
 20
0.0
 30
0.0
1001
AcDbBlockRepETag
1070
     1
1071
        2
1005
3B4
  0
VERTEX
  5
3B5
330
3B4
100
AcDbEntity
  8
Layer 1
 62
     7
370
    18
100
AcDbVertex
100
AcDb2dVertex
 10
2.767485006426223
 20
8.013521180739385
 30
0.0
  0
VERTEX
  5
3B6
330
3B4
100
AcDbEntity
  8
Layer 1
 62
     7
370
    18
100
AcDbVertex
100
AcDb2dVertex
 10
3.236113245148012
 20
8.013521180739385
 30
0.0
  0
VERTEX
  5
3B7
330
3B4
100
AcDbEntity
  8
Layer 1
 62
     7
370
    18
100
AcDbVertex
100
AcDb2dVertex
 10
3.236113245148012
 20
9.673522546685424
 30
0.0
  0
VERTEX
  5
3B8
330
3B4
100
AcDbEntity
  8
Layer 1
 62
     7
370
    18
100
AcDbVertex
100
AcDb2dVertex
 10
2.767485006426223
 20
9.673522546685424
 30
0.0
  0
VERTEX
  5
3B9
330
3B4
100
AcDbEntity
  8
Layer 1
 62
     7
370
    18
100
AcDbVertex
100
AcDb2dVertex
 10
2.767485006426223
 20
8.013521180739385
 30
0.0
  0
SEQEND
  5
3BA
330
3B4
100
AcDbEntity
  8
Layer 1
370
    18
  0
POLYLINE
  5
3BB
330
20E
100
AcDbEntity
  8
Layer 1
 62
     7
370
    18
100
AcDb2dPolyline
 66
     1
 10
0.0
 20
0.0
 30
0.0
1001
AcDbBlockRepETag
1070
     1
1071
        3
1005
3BB
  0
VERTEX
  5
3BC
330
3BB
100
AcDbEntity
  8
Layer 1
 62
     7
370
    18
100
AcDbVertex
100
AcDb2dVertex
 10
2.767485006426223
 20
8.013521180739385
 30
0.0
  0
VERTEX
  5
3BD
330
3BB
100
AcDbEntity
  8
Layer 1
 62
     7
370
    18
100
AcDbVertex
100
AcDb2dVertex
 10
2.903322227079713
 20
8.013521180739385
 30
0.0
  0
VERTEX
  5
3BE
330
3BB
100
AcDbEntity
  8
Layer 1
 62
     7
370
    18
100
AcDbVertex
100
AcDb2dVertex
 10
2.903322227079713
 20
9.673522546685424
 30
0.0
  0
VERTEX
  5
3BF
330
3BB
100
AcDbEntity
  8
Layer 1
 62
     7
370
    18
100
AcDbVertex
100
AcDb2dVertex
 10
2.767485006426223
 20
9.673522546685424
 30
0.0
  0
VERTEX
  5
3C0
330
3BB
100
AcDbEntity
  8
Layer 1
 62
     7
370
    18
100
AcDbVertex
100
AcDb2dVertex
 10
2.767485006426223
 20
8.013521180739385
 30
0.0
  0
SEQEND
  5
3C1
330
3BB
100
AcDbEntity
  8
Layer 1
370
    18
  0
INSERT
  5
3C2
330
20E
100
AcDbEntity
  8
Layer 1
100
AcDbBlockReference
  2
block 3
 10
0.0
 20
0.0
 30
0.0
1001
AcDbBlockRepETag
1070
     1
1071
        4
1005
3C2
  0
POLYLINE
  5
3C3
330
20E
100
AcDbEntity
  8
Layer 1
 62
     7
370
    18
100
AcDb2dPolyline
 66
     1
 10
0.0
 20
0.0
 30
0.0
1001
AcDbBlockRepETag
1070
     1
1071
        5
1005
3C3
  0
VERTEX
  5
3C4
330
3C3
100
AcDbEntity
  8
Layer 1
 62
     7
370
    18
100
AcDbVertex
100
AcDb2dVertex
 10
4.203412602646255
 20
9.533528150981481
 30
0.0
  0
VERTEX
  5
3C5
330
3C3
100
AcDbEntity
  8
Layer 1
 62
     7
370
    18
100
AcDbVertex
100
AcDb2dVertex
 10
4.203412602646255
 20
8.153522358131828
 30
0.0
  0
SEQEND
  5
3C6
330
3C3
100
AcDbEntity
  8
Layer 1
370
    18
  0
SPLINE
  5
3C7
330
20E
100
AcDbEntity
  8
ADP1DETAIL
  6
AI-Linetype-1
 62
     5
370
    18
100
AcDbSpline
210
0.0
220
0.0
230
1.0
 70
     8
 71
     3
 72
    29
 73
    25
 74
     0
 42
0.0000000001
 43
0.0000000001
 40
0.0
 40
0.0
 40
0.0
 40
0.0
 40
1.0
 40
1.0
 40
1.0
 40
2.0
 40
2.0
 40
2.0
 40
3.0
 40
3.0
 40
3.0
 40
4.0
 40
4.0
 40
4.0
 40
5.0
 40
5.0
 40
5.0
 40
6.0
 40
6.0
 40
6.0
 40
7.0
 40
7.0
 40
7.0
 40
8.0
 40
8.0
 40
8.0
 40
8.0
 10
4.233821693879917
 20
8.264619979137592
 30
0.0
 10
4.233821693879917
 20
8.264619979137592
 30
0.0
 10
4.203412602646255
 20
8.278522440562438
 30
0.0
 10
4.203412602646255
 20
8.278522440562438
 30
0.0
 10
4.203412602646255
 20
8.278522440562438
 30
0.0
 10
3.236113245148012
 20
8.278522440562438
 30
0.0
 10
3.236113245148012
 20
8.278522440562438
 30
0.0
 10
3.236113245148012
 20
8.278515658873937
 30
0.0
 10
3.236113245148012
 20
8.405489212658025
 30
0.0
 10
3.236113245148012
 20
8.405489212658025
 30
0.0
 10
3.236113245148012
 20
8.405489212658025
 30
0.0
 10
3.159724305884862
 20
8.557419380121835
 30
0.0
 10
3.159724305884862
 20
8.843525254556654
 30
0.0
 10
3.159724305884862
 20
9.129631128991473
 30
0.0
 10
3.236113245148012
 20
9.281547733078284
 30
0.0
 10
3.236113245148012
 20
9.281547733078284
 30
0.0
 10
3.236113245148012
 20
9.281547733078284
 30
0.0
 10
3.236113245148012
 20
9.408521286862372
 30
0.0
 10
3.236113245148012
 20
9.408528068550872
 30
0.0
 10
3.236113245148012
 20
9.408521286862372
 30
0.0
 10
4.203412602646255
 20
9.408521286862372
 30
0.0
 10
4.203412602646255
 20
9.408521286862372
 30
0.0
 10
4.203412602646255
 20
9.408521286862372
 30
0.0
 10
4.233821693879917
 20
9.422423748287217
 30
0.0
 10
4.233821693879917
 20
9.422430529975716
 30
0.0
1001
AcDbBlockRepETag
1070
     1
1071
        6
1005
3C7
  0
ENDBLK
  5
231
330
20E
100
AcDbEntity
  8
0
100
AcDbBlockEnd
  0
BLOCK
  5
233
330
232
100
AcDbEntity
  8
0
100
AcDbBlockBegin
  2
block 3
 70
     0
 10
0.0
 20
0.0
 30
0.0
  3
block 3
  1

  0
POLYLINE
  5
234
330
232
100
AcDbEntity
  8
Layer 1
 62
     7
370
    18
100
AcDb2dPolyline
 66
     1
 10
0.0
 20
0.0
 30
0.0
  0
VERTEX
  5
235
330
234
100
AcDbEntity
  8
Layer 1
 62
     7
370
    18
100
AcDbVertex
100
AcDb2dVertex
 10
3.893035065070207
 20
9.533528150981481
 30
0.0
  0
VERTEX
  5
236
330
234
100
AcDbEntity
  8
Layer 1
 62
     7
370
    18
100
AcDbVertex
100
AcDb2dVertex
 10
3.51771607841888
 20
9.533528150981481
 30
0.0
  0
SEQEND
  5
237
330
234
100
AcDbEntity
  8
Layer 1
370
    18
  0
POLYLINE
  5
238
330
232
100
AcDbEntity
  8
Layer 1
 62
     7
370
    18
100
AcDb2dPolyline
 66
     1
 10
0.0
 20
0.0
 30
0.0
  0
VERTEX
  5
239
330
238
100
AcDbEntity
  8
Layer 1
 62
     7
370
    18
100
AcDbVertex
100
AcDb2dVertex
 10
3.893035065070207
 20
9.51561092996468
 30
0.0
  0
VERTEX
  5
23A
330
238
100
AcDbEntity
  8
Layer 1
 62
     7
370
    18
100
AcDbVertex
100
AcDb2dVertex
 10
3.51771607841888
 20
9.51561092996468
 30
0.0
  0
SEQEND
  5
23B
330
238
100
AcDbEntity
  8
Layer 1
370
    18
  0
POLYLINE
  5
23C
330
232
100
AcDbEntity
  8
Layer 1
 62
     7
370
    18
100
AcDb2dPolyline
 66
     1
 10
0.0
 20
0.0
 30
0.0
  0
VERTEX
  5
23D
330
23C
100
AcDbEntity
  8
Layer 1
 62
     7
370
    18
100
AcDbVertex
100
AcDb2dVertex
 10
3.893035065070207
 20
9.49768692725938
 30
0.0
  0
VERTEX
  5
23E
330
23C
100
AcDbEntity
  8
Layer 1
 62
     7
370
    18
100
AcDbVertex
100
AcDb2dVertex
 10
3.51771607841888
 20
9.49768692725938
 30
0.0
  0
SEQEND
  5
23F
330
23C
100
AcDbEntity
  8
Layer 1
370
    18
  0
POLYLINE
  5
240
330
232
100
AcDbEntity
  8
Layer 1
 62
     7
370
    18
100
AcDb2dPolyline
 66
     1
 10
0.0
 20
0.0
 30
0.0
  0
VERTEX
  5
241
330
240
100
AcDbEntity
  8
Layer 1
 62
     7
370
    18
100
AcDbVertex
100
AcDb2dVertex
 10
3.893035065070207
 20
9.47976970624258
 30
0.0
  0
VERTEX
  5
242
330
240
100
AcDbEntity
  8
Layer 1
 62
     7
370
    18
100
AcDbVertex
100
AcDb2dVertex
 10
3.51771607841888
 20
9.47976970624258
 30
0.0
  0
SEQEND
  5
243
330
240
100
AcDbEntity
  8
Layer 1
370
    18
  0
POLYLINE
  5
244
330
232
100
AcDbEntity
  8
Layer 1
 62
     7
370
    18
100
AcDb2dPolyline
 66
     1
 10
0.0
 20
0.0
 30
0.0
  0
VERTEX
  5
245
330
244
100
AcDbEntity
  8
Layer 1
 62
     7
370
    18
100
AcDbVertex
100
AcDb2dVertex
 10
3.893035065070207
 20
9.461838921848778
 30
0.0
  0
VERTEX
  5
246
330
244
100
AcDbEntity
  8
Layer 1
 62
     7
370
    18
100
AcDbVertex
100
AcDb2dVertex
 10
3.51771607841888
 20
9.461838921848778
 30
0.0
  0
SEQEND
  5
247
330
244
100
AcDbEntity
  8
Layer 1
370
    18
  0
POLYLINE
  5
248
330
232
100
AcDbEntity
  8
Layer 1
 62
     7
370
    18
100
AcDb2dPolyline
 66
     1
 10
0.0
 20
0.0
 30
0.0
  0
VERTEX
  5
249
330
248
100
AcDbEntity
  8
Layer 1
 62
     7
370
    18
100
AcDbVertex
100
AcDb2dVertex
 10
3.893028283381707
 20
9.443914919143477
 30
0.0
  0
VERTEX
  5
24A
330
248
100
AcDbEntity
  8
Layer 1
 62
     7
370
    18
100
AcDbVertex
100
AcDb2dVertex
 10
3.51771607841888
 20
9.443914919143477
 30
0.0
  0
SEQEND
  5
24B
330
248
100
AcDbEntity
  8
Layer 1
370
    18
  0
POLYLINE
  5
24C
330
232
100
AcDbEntity
  8
Layer 1
 62
     7
370
    18
100
AcDb2dPolyline
 66
     1
 10
0.0
 20
0.0
 30
0.0
  0
VERTEX
  5
24D
330
24C
100
AcDbEntity
  8
Layer 1
 62
     7
370
    18
100
AcDbVertex
100
AcDb2dVertex
 10
3.893035065070207
 20
9.425990916438177
 30
0.0
  0
VERTEX
  5
24E
330
24C
100
AcDbEntity
  8
Layer 1
 62
     7
370
    18
100
AcDbVertex
100
AcDb2dVertex
 10
3.51772286010738
 20
9.425990916438177
 30
0.0
  0
SEQEND
  5
24F
330
24C
100
AcDbEntity
  8
Layer 1
370
    18
  0
POLYLINE
  5
250
330
232
100
AcDbEntity
  8
Layer 1
 62
     7
370
    18
100
AcDb2dPolyline
 66
     1
 10
0.0
 20
0.0
 30
0.0
  0
VERTEX
  5
251
330
250
100
AcDbEntity
  8
Layer 1
 62
     7
370
    18
100
AcDbVertex
100
AcDb2dVertex
 10
3.893035065070207
 20
9.408066913732875
 30
0.0
  0
VERTEX
  5
252
330
250
100
AcDbEntity
  8
Layer 1
 62
     7
370
    18
100
AcDbVertex
100
AcDb2dVertex
 10
3.51771607841888
 20
9.408066913732875
 30
0.0
  0
SEQEND
  5
253
330
250
100
AcDbEntity
  8
Layer 1
370
    18
  0
POLYLINE
  5
254
330
232
100
AcDbEntity
  8
Layer 1
 62
     7
370
    18
100
AcDb2dPolyline
 66
     1
 10
0.0
 20
0.0
 30
0.0
  0
VERTEX
  5
255
330
254
100
AcDbEntity
  8
Layer 1
 62
     7
370
    18
100
AcDbVertex
100
AcDb2dVertex
 10
3.893035065070207
 20
9.390149692716075
 30
0.0
  0
VERTEX
  5
256
330
254
100
AcDbEntity
  8
Layer 1
 62
     7
370
    18
100
AcDbVertex
100
AcDb2dVertex
 10
3.51771607841888
 20
9.390149692716075
 30
0.0
  0
SEQEND
  5
257
330
254
100
AcDbEntity
  8
Layer 1
370
    18
  0
POLYLINE
  5
258
330
232
100
AcDbEntity
  8
Layer 1
 62
     7
370
    18
100
AcDb2dPolyline
 66
     1
 10
0.0
 20
0.0
 30
0.0
  0
VERTEX
  5
259
330
258
100
AcDbEntity
  8
Layer 1
 62
     7
370
    18
100
AcDbVertex
100
AcDb2dVertex
 10
3.893035065070207
 20
9.372225690010775
 30
0.0
  0
VERTEX
  5
25A
330
258
100
AcDbEntity
  8
Layer 1
 62
     7
370
    18
100
AcDbVertex
100
AcDb2dVertex
 10
3.51771607841888
 20
9.372225690010775
 30
0.0
  0
SEQEND
  5
25B
330
258
100
AcDbEntity
  8
Layer 1
370
    18
  0
POLYLINE
  5
25C
330
232
100
AcDbEntity
  8
Layer 1
 62
     7
370
    18
100
AcDb2dPolyline
 66
     1
 10
0.0
 20
0.0
 30
0.0
  0
VERTEX
  5
25D
330
25C
100
AcDbEntity
  8
Layer 1
 62
     7
370
    18
100
AcDbVertex
100
AcDb2dVertex
 10
3.893035065070207
 20
9.354308468993973
 30
0.0
  0
VERTEX
  5
25E
330
25C
100
AcDbEntity
  8
Layer 1
 62
     7
370
    18
100
AcDbVertex
100
AcDb2dVertex
 10
3.51771607841888
 20
9.354308468993973
 30
0.0
  0
SEQEND
  5
25F
330
25C
100
AcDbEntity
  8
Layer 1
370
    18
  0
POLYLINE
  5
260
330
232
100
AcDbEntity
  8
Layer 1
 62
     7
370
    18
100
AcDb2dPolyline
 66
     1
 10
0.0
 20
0.0
 30
0.0
  0
VERTEX
  5
261
330
260
100
AcDbEntity
  8
Layer 1
 62
     7
370
    18
100
AcDbVertex
100
AcDb2dVertex
 10
3.893035065070207
 20
9.336384466288674
 30
0.0
  0
VERTEX
  5
262
330
260
100
AcDbEntity
  8
Layer 1
 62
     7
370
    18
100
AcDbVertex
100
AcDb2dVertex
 10
3.51771607841888
 20
9.336384466288674
 30
0.0
  0
SEQEND
  5
263
330
260
100
AcDbEntity
  8
Layer 1
370
    18
  0
POLYLINE
  5
264
330
232
100
AcDbEntity
  8
Layer 1
 62
     7
370
    18
100
AcDb2dPolyline
 66
     1
 10
0.0
 20
0.0
 30
0.0
  0
VERTEX
  5
265
330
264
100
AcDbEntity
  8
Layer 1
 62
     7
370
    18
100
AcDbVertex
100
AcDb2dVertex
 10
3.893035065070207
 20
9.318467245271873
 30
0.0
  0
VERTEX
  5
266
330
264
100
AcDbEntity
  8
Layer 1
 62
     7
370
    18
100
AcDbVertex
100
AcDb2dVertex
 10
3.51771607841888
 20
9.318467245271873
 30
0.0
  0
SEQEND
  5
267
330
264
100
AcDbEntity
  8
Layer 1
370
    18
  0
POLYLINE
  5
268
330
232
100
AcDbEntity
  8
Layer 1
 62
     7
370
    18
100
AcDb2dPolyline
 66
     1
 10
0.0
 20
0.0
 30
0.0
  0
VERTEX
  5
269
330
268
100
AcDbEntity
  8
Layer 1
 62
     7
370
    18
100
AcDbVertex
100
AcDb2dVertex
 10
3.893035065070207
 20
9.300543242566572
 30
0.0
  0
VERTEX
  5
26A
330
268
100
AcDbEntity
  8
Layer 1
 62
     7
370
    18
100
AcDbVertex
100
AcDb2dVertex
 10
3.51771607841888
 20
9.300543242566572
 30
0.0
  0
SEQEND
  5
26B
330
268
100
AcDbEntity
  8
Layer 1
370
    18
  0
POLYLINE
  5
26C
330
232
100
AcDbEntity
  8
Layer 1
 62
     7
370
    18
100
AcDb2dPolyline
 66
     1
 10
0.0
 20
0.0
 30
0.0
  0
VERTEX
  5
26D
330
26C
100
AcDbEntity
  8
Layer 1
 62
     7
370
    18
100
AcDbVertex
100
AcDb2dVertex
 10
3.893041846758706
 20
9.282619239861272
 30
0.0
  0
VERTEX
  5
26E
330
26C
100
AcDbEntity
  8
Layer 1
 62
     7
370
    18
100
AcDbVertex
100
AcDb2dVertex
 10
3.51771607841888
 20
9.282619239861272
 30
0.0
  0
SEQEND
  5
26F
330
26C
100
AcDbEntity
  8
Layer 1
370
    18
  0
POLYLINE
  5
270
330
232
100
AcDbEntity
  8
Layer 1
 62
     7
370
    18
100
AcDb2dPolyline
 66
     1
 10
0.0
 20
0.0
 30
0.0
  0
VERTEX
  5
271
330
270
100
AcDbEntity
  8
Layer 1
 62
     7
370
    18
100
AcDbVertex
100
AcDb2dVertex
 10
3.893028283381707
 20
9.26469523715597
 30
0.0
  0
VERTEX
  5
272
330
270
100
AcDbEntity
  8
Layer 1
 62
     7
370
    18
100
AcDbVertex
100
AcDb2dVertex
 10
3.51771607841888
 20
9.26469523715597
 30
0.0
  0
SEQEND
  5
273
330
270
100
AcDbEntity
  8
Layer 1
370
    18
  0
POLYLINE
  5
274
330
232
100
AcDbEntity
  8
Layer 1
 62
     7
370
    18
100
AcDb2dPolyline
 66
     1
 10
0.0
 20
0.0
 30
0.0
  0
VERTEX
  5
275
330
274
100
AcDbEntity
  8
Layer 1
 62
     7
370
    18
100
AcDbVertex
100
AcDb2dVertex
 10
3.893035065070207
 20
9.246771234450671
 30
0.0
  0
VERTEX
  5
276
330
274
100
AcDbEntity
  8
Layer 1
 62
     7
370
    18
100
AcDbVertex
100
AcDb2dVertex
 10
3.51771607841888
 20
9.246771234450671
 30
0.0
  0
SEQEND
  5
277
330
274
100
AcDbEntity
  8
Layer 1
370
    18
  0
POLYLINE
  5
278
330
232
100
AcDbEntity
  8
Layer 1
 62
     7
370
    18
100
AcDb2dPolyline
 66
     1
 10
0.0
 20
0.0
 30
0.0
  0
VERTEX
  5
279
330
278
100
AcDbEntity
  8
Layer 1
 62
     7
370
    18
100
AcDbVertex
100
AcDb2dVertex
 10
3.893035065070207
 20
9.228854013433869
 30
0.0
  0
VERTEX
  5
27A
330
278
100
AcDbEntity
  8
Layer 1
 62
     7
370
    18
100
AcDbVertex
100
AcDb2dVertex
 10
3.51771607841888
 20
9.228854013433869
 30
0.0
  0
SEQEND
  5
27B
330
278
100
AcDbEntity
  8
Layer 1
370
    18
  0
POLYLINE
  5
27C
330
232
100
AcDbEntity
  8
Layer 1
 62
     7
370
    18
100
AcDb2dPolyline
 66
     1
 10
0.0
 20
0.0
 30
0.0
  0
VERTEX
  5
27D
330
27C
100
AcDbEntity
  8
Layer 1
 62
     7
370
    18
100
AcDbVertex
100
AcDb2dVertex
 10
3.893035065070207
 20
9.210930010728569
 30
0.0
  0
VERTEX
  5
27E
330
27C
100
AcDbEntity
  8
Layer 1
 62
     7
370
    18
100
AcDbVertex
100
AcDb2dVertex
 10
3.51771607841888
 20
9.210930010728569
 30
0.0
  0
SEQEND
  5
27F
330
27C
100
AcDbEntity
  8
Layer 1
370
    18
  0
POLYLINE
  5
280
330
232
100
AcDbEntity
  8
Layer 1
 62
     7
370
    18
100
AcDb2dPolyline
 66
     1
 10
0.0
 20
0.0
 30
0.0
  0
VERTEX
  5
281
330
280
100
AcDbEntity
  8
Layer 1
 62
     7
370
    18
100
AcDbVertex
100
AcDb2dVertex
 10
3.893035065070207
 20
9.193012789711767
 30
0.0
  0
VERTEX
  5
282
330
280
100
AcDbEntity
  8
Layer 1
 62
     7
370
    18
100
AcDbVertex
100
AcDb2dVertex
 10
3.51771607841888
 20
9.193012789711767
 30
0.0
  0
SEQEND
  5
283
330
280
100
AcDbEntity
  8
Layer 1
370
    18
  0
POLYLINE
  5
284
330
232
100
AcDbEntity
  8
Layer 1
 62
     7
370
    18
100
AcDb2dPolyline
 66
     1
 10
0.0
 20
0.0
 30
0.0
  0
VERTEX
  5
285
330
284
100
AcDbEntity
  8
Layer 1
 62
     7
370
    18
100
AcDbVertex
100
AcDb2dVertex
 10
3.893035065070207
 20
9.175082005317968
 30
0.0
  0
VERTEX
  5
286
330
284
100
AcDbEntity
  8
Layer 1
 62
     7
370
    18
100
AcDbVertex
100
AcDb2dVertex
 10
3.51771607841888
 20
9.175082005317968
 30
0.0
  0
SEQEND
  5
287
330
284
100
AcDbEntity
  8
Layer 1
370
    18
  0
POLYLINE
  5
288
330
232
100
AcDbEntity
  8
Layer 1
 62
     7
370
    18
100
AcDb2dPolyline
 66
     1
 10
0.0
 20
0.0
 30
0.0
  0
VERTEX
  5
289
330
288
100
AcDbEntity
  8
Layer 1
 62
     7
370
    18
100
AcDbVertex
100
AcDb2dVertex
 10
3.893035065070207
 20
9.157164784301166
 30
0.0
  0
VERTEX
  5
28A
330
288
100
AcDbEntity
  8
Layer 1
 62
     7
370
    18
100
AcDbVertex
100
AcDb2dVertex
 10
3.51771607841888
 20
9.157164784301166
 30
0.0
  0
SEQEND
  5
28B
330
288
100
AcDbEntity
  8
Layer 1
370
    18
  0
POLYLINE
  5
28C
330
232
100
AcDbEntity
  8
Layer 1
 62
     7
370
    18
100
AcDb2dPolyline
 66
     1
 10
0.0
 20
0.0
 30
0.0
  0
VERTEX
  5
28D
330
28C
100
AcDbEntity
  8
Layer 1
 62
     7
370
    18
100
AcDbVertex
100
AcDb2dVertex
 10
3.893041846758706
 20
9.139240781595866
 30
0.0
  0
VERTEX
  5
28E
330
28C
100
AcDbEntity
  8
Layer 1
 62
     7
370
    18
100
AcDbVertex
100
AcDb2dVertex
 10
3.51771607841888
 20
9.139240781595866
 30
0.0
  0
SEQEND
  5
28F
330
28C
100
AcDbEntity
  8
Layer 1
370
    18
  0
POLYLINE
  5
290
330
232
100
AcDbEntity
  8
Layer 1
 62
     7
370
    18
100
AcDb2dPolyline
 66
     1
 10
0.0
 20
0.0
 30
0.0
  0
VERTEX
  5
291
330
290
100
AcDbEntity
  8
Layer 1
 62
     7
370
    18
100
AcDbVertex
100
AcDb2dVertex
 10
3.893041846758706
 20
9.121316778890564
 30
0.0
  0
VERTEX
  5
292
330
290
100
AcDbEntity
  8
Layer 1
 62
     7
370
    18
100
AcDbVertex
100
AcDb2dVertex
 10
3.51771607841888
 20
9.121316778890564
 30
0.0
  0
SEQEND
  5
293
330
290
100
AcDbEntity
  8
Layer 1
370
    18
  0
POLYLINE
  5
294
330
232
100
AcDbEntity
  8
Layer 1
 62
     7
370
    18
100
AcDb2dPolyline
 66
     1
 10
0.0
 20
0.0
 30
0.0
  0
VERTEX
  5
295
330
294
100
AcDbEntity
  8
Layer 1
 62
     7
370
    18
100
AcDbVertex
100
AcDb2dVertex
 10
3.893028283381707
 20
9.103399557873764
 30
0.0
  0
VERTEX
  5
296
330
294
100
AcDbEntity
  8
Layer 1
 62
     7
370
    18
100
AcDbVertex
100
AcDb2dVertex
 10
3.51771607841888
 20
9.103399557873764
 30
0.0
  0
SEQEND
  5
297
330
294
100
AcDbEntity
  8
Layer 1
370
    18
  0
POLYLINE
  5
298
330
232
100
AcDbEntity
  8
Layer 1
 62
     7
370
    18
100
AcDb2dPolyline
 66
     1
 10
0.0
 20
0.0
 30
0.0
  0
VERTEX
  5
299
330
298
100
AcDbEntity
  8
Layer 1
 62
     7
370
    18
100
AcDbVertex
100
AcDb2dVertex
 10
3.893028283381707
 20
9.085482336856964
 30
0.0
  0
VERTEX
  5
29A
330
298
100
AcDbEntity
  8
Layer 1
 62
     7
370
    18
100
AcDbVertex
100
AcDb2dVertex
 10
3.51771607841888
 20
9.085482336856964
 30
0.0
  0
SEQEND
  5
29B
330
298
100
AcDbEntity
  8
Layer 1
370
    18
  0
POLYLINE
  5
29C
330
232
100
AcDbEntity
  8
Layer 1
 62
     7
370
    18
100
AcDb2dPolyline
 66
     1
 10
0.0
 20
0.0
 30
0.0
  0
VERTEX
  5
29D
330
29C
100
AcDbEntity
  8
Layer 1
 62
     7
370
    18
100
AcDbVertex
100
AcDb2dVertex
 10
3.893028283381707
 20
9.067551552463163
 30
0.0
  0
VERTEX
  5
29E
330
29C
100
AcDbEntity
  8
Layer 1
 62
     7
370
    18
100
AcDbVertex
100
AcDb2dVertex
 10
3.51771607841888
 20
9.067551552463163
 30
0.0
  0
SEQEND
  5
29F
330
29C
100
AcDbEntity
  8
Layer 1
370
    18
  0
POLYLINE
  5
2A0
330
232
100
AcDbEntity
  8
Layer 1
 62
     7
370
    18
100
AcDb2dPolyline
 66
     1
 10
0.0
 20
0.0
 30
0.0
  0
VERTEX
  5
2A1
330
2A0
100
AcDbEntity
  8
Layer 1
 62
     7
370
    18
100
AcDbVertex
100
AcDb2dVertex
 10
3.893035065070207
 20
9.049627549757863
 30
0.0
  0
VERTEX
  5
2A2
330
2A0
100
AcDbEntity
  8
Layer 1
 62
     7
370
    18
100
AcDbVertex
100
AcDb2dVertex
 10
3.51771607841888
 20
9.049627549757863
 30
0.0
  0
SEQEND
  5
2A3
330
2A0
100
AcDbEntity
  8
Layer 1
370
    18
  0
POLYLINE
  5
2A4
330
232
100
AcDbEntity
  8
Layer 1
 62
     7
370
    18
100
AcDb2dPolyline
 66
     1
 10
0.0
 20
0.0
 30
0.0
  0
VERTEX
  5
2A5
330
2A4
100
AcDbEntity
  8
Layer 1
 62
     7
370
    18
100
AcDbVertex
100
AcDb2dVertex
 10
3.893035065070207
 20
9.031710328741061
 30
0.0
  0
VERTEX
  5
2A6
330
2A4
100
AcDbEntity
  8
Layer 1
 62
     7
370
    18
100
AcDbVertex
100
AcDb2dVertex
 10
3.51771607841888
 20
9.031710328741061
 30
0.0
  0
SEQEND
  5
2A7
330
2A4
100
AcDbEntity
  8
Layer 1
370
    18
  0
POLYLINE
  5
2A8
330
232
100
AcDbEntity
  8
Layer 1
 62
     7
370
    18
100
AcDb2dPolyline
 66
     1
 10
0.0
 20
0.0
 30
0.0
  0
VERTEX
  5
2A9
330
2A8
100
AcDbEntity
  8
Layer 1
 62
     7
370
    18
100
AcDbVertex
100
AcDb2dVertex
 10
3.893035065070207
 20
9.013786326035761
 30
0.0
  0
VERTEX
  5
2AA
330
2A8
100
AcDbEntity
  8
Layer 1
 62
     7
370
    18
100
AcDbVertex
100
AcDb2dVertex
 10
3.51771607841888
 20
9.013786326035761
 30
0.0
  0
SEQEND
  5
2AB
330
2A8
100
AcDbEntity
  8
Layer 1
370
    18
  0
POLYLINE
  5
2AC
330
232
100
AcDbEntity
  8
Layer 1
 62
     7
370
    18
100
AcDb2dPolyline
 66
     1
 10
0.0
 20
0.0
 30
0.0
  0
VERTEX
  5
2AD
330
2AC
100
AcDbEntity
  8
Layer 1
 62
     7
370
    18
100
AcDbVertex
100
AcDb2dVertex
 10
3.893035065070207
 20
8.995869105018961
 30
0.0
  0
VERTEX
  5
2AE
330
2AC
100
AcDbEntity
  8
Layer 1
 62
     7
370
    18
100
AcDbVertex
100
AcDb2dVertex
 10
3.51771607841888
 20
8.995869105018961
 30
0.0
  0
SEQEND
  5
2AF
330
2AC
100
AcDbEntity
  8
Layer 1
370
    18
  0
POLYLINE
  5
2B0
330
232
100
AcDbEntity
  8
Layer 1
 62
     7
370
    18
100
AcDb2dPolyline
 66
     1
 10
0.0
 20
0.0
 30
0.0
  0
VERTEX
  5
2B1
330
2B0
100
AcDbEntity
  8
Layer 1
 62
     7
370
    18
100
AcDbVertex
100
AcDb2dVertex
 10
3.893035065070207
 20
8.97793832062516
 30
0.0
  0
VERTEX
  5
2B2
330
2B0
100
AcDbEntity
  8
Layer 1
 62
     7
370
    18
100
AcDbVertex
100
AcDb2dVertex
 10
3.51771607841888
 20
8.97793832062516
 30
0.0
  0
SEQEND
  5
2B3
330
2B0
100
AcDbEntity
  8
Layer 1
370
    18
  0
POLYLINE
  5
2B4
330
232
100
AcDbEntity
  8
Layer 1
 62
     7
370
    18
100
AcDb2dPolyline
 66
     1
 10
0.0
 20
0.0
 30
0.0
  0
VERTEX
  5
2B5
330
2B4
100
AcDbEntity
  8
Layer 1
 62
     7
370
    18
100
AcDbVertex
100
AcDb2dVertex
 10
3.893041846758706
 20
8.96002109960836
 30
0.0
  0
VERTEX
  5
2B6
330
2B4
100
AcDbEntity
  8
Layer 1
 62
     7
370
    18
100
AcDbVertex
100
AcDb2dVertex
 10
3.51771607841888
 20
8.96002109960836
 30
0.0
  0
SEQEND
  5
2B7
330
2B4
100
AcDbEntity
  8
Layer 1
370
    18
  0
POLYLINE
  5
2B8
330
232
100
AcDbEntity
  8
Layer 1
 62
     7
370
    18
100
AcDb2dPolyline
 66
     1
 10
0.0
 20
0.0
 30
0.0
  0
VERTEX
  5
2B9
330
2B8
100
AcDbEntity
  8
Layer 1
 62
     7
370
    18
100
AcDbVertex
100
AcDb2dVertex
 10
3.893041846758706
 20
8.942097096903058
 30
0.0
  0
VERTEX
  5
2BA
330
2B8
100
AcDbEntity
  8
Layer 1
 62
     7
370
    18
100
AcDbVertex
100
AcDb2dVertex
 10
3.51771607841888
 20
8.942097096903058
 30
0.0
  0
SEQEND
  5
2BB
330
2B8
100
AcDbEntity
  8
Layer 1
370
    18
  0
POLYLINE
  5
2BC
330
232
100
AcDbEntity
  8
Layer 1
 62
     7
370
    18
100
AcDb2dPolyline
 66
     1
 10
0.0
 20
0.0
 30
0.0
  0
VERTEX
  5
2BD
330
2BC
100
AcDbEntity
  8
Layer 1
 62
     7
370
    18
100
AcDbVertex
100
AcDb2dVertex
 10
3.893028283381707
 20
8.924173094197758
 30
0.0
  0
VERTEX
  5
2BE
330
2BC
100
AcDbEntity
  8
Layer 1
 62
     7
370
    18
100
AcDbVertex
100
AcDb2dVertex
 10
3.51771607841888
 20
8.924173094197758
 30
0.0
  0
SEQEND
  5
2BF
330
2BC
100
AcDbEntity
  8
Layer 1
370
    18
  0
POLYLINE
  5
2C0
330
232
100
AcDbEntity
  8
Layer 1
 62
     7
370
    18
100
AcDb2dPolyline
 66
     1
 10
0.0
 20
0.0
 30
0.0
  0
VERTEX
  5
2C1
330
2C0
100
AcDbEntity
  8
Layer 1
 62
     7
370
    18
100
AcDbVertex
100
AcDb2dVertex
 10
3.893028283381707
 20
8.906255873180956
 30
0.0
  0
VERTEX
  5
2C2
330
2C0
100
AcDbEntity
  8
Layer 1
 62
     7
370
    18
100
AcDbVertex
100
AcDb2dVertex
 10
3.51771607841888
 20
8.906255873180956
 30
0.0
  0
SEQEND
  5
2C3
330
2C0
100
AcDbEntity
  8
Layer 1
370
    18
  0
POLYLINE
  5
2C4
330
232
100
AcDbEntity
  8
Layer 1
 62
     7
370
    18
100
AcDb2dPolyline
 66
     1
 10
0.0
 20
0.0
 30
0.0
  0
VERTEX
  5
2C5
330
2C4
100
AcDbEntity
  8
Layer 1
 62
     7
370
    18
100
AcDbVertex
100
AcDb2dVertex
 10
3.893035065070207
 20
8.888325088787157
 30
0.0
  0
VERTEX
  5
2C6
330
2C4
100
AcDbEntity
  8
Layer 1
 62
     7
370
    18
100
AcDbVertex
100
AcDb2dVertex
 10
3.51771607841888
 20
8.888325088787157
 30
0.0
  0
SEQEND
  5
2C7
330
2C4
100
AcDbEntity
  8
Layer 1
370
    18
  0
POLYLINE
  5
2C8
330
232
100
AcDbEntity
  8
Layer 1
 62
     7
370
    18
100
AcDb2dPolyline
 66
     1
 10
0.0
 20
0.0
 30
0.0
  0
VERTEX
  5
2C9
330
2C8
100
AcDbEntity
  8
Layer 1
 62
     7
370
    18
100
AcDbVertex
100
AcDb2dVertex
 10
3.893035065070207
 20
8.870407867770355
 30
0.0
  0
VERTEX
  5
2CA
330
2C8
100
AcDbEntity
  8
Layer 1
 62
     7
370
    18
100
AcDbVertex
100
AcDb2dVertex
 10
3.51771607841888
 20
8.870407867770355
 30
0.0
  0
SEQEND
  5
2CB
330
2C8
100
AcDbEntity
  8
Layer 1
370
    18
  0
POLYLINE
  5
2CC
330
232
100
AcDbEntity
  8
Layer 1
 62
     7
370
    18
100
AcDb2dPolyline
 66
     1
 10
0.0
 20
0.0
 30
0.0
  0
VERTEX
  5
2CD
330
2CC
100
AcDbEntity
  8
Layer 1
 62
     7
370
    18
100
AcDbVertex
100
AcDb2dVertex
 10
3.893035065070207
 20
8.852490646753555
 30
0.0
  0
VERTEX
  5
2CE
330
2CC
100
AcDbEntity
  8
Layer 1
 62
     7
370
    18
100
AcDbVertex
100
AcDb2dVertex
 10
3.51771607841888
 20
8.852490646753555
 30
0.0
  0
SEQEND
  5
2CF
330
2CC
100
AcDbEntity
  8
Layer 1
370
    18
  0
POLYLINE
  5
2D0
330
232
100
AcDbEntity
  8
Layer 1
 62
     7
370
    18
100
AcDb2dPolyline
 66
     1
 10
0.0
 20
0.0
 30
0.0
  0
VERTEX
  5
2D1
330
2D0
100
AcDbEntity
  8
Layer 1
 62
     7
370
    18
100
AcDbVertex
100
AcDb2dVertex
 10
3.893035065070207
 20
8.834566644048253
 30
0.0
  0
VERTEX
  5
2D2
330
2D0
100
AcDbEntity
  8
Layer 1
 62
     7
370
    18
100
AcDbVertex
100
AcDb2dVertex
 10
3.51771607841888
 20
8.834566644048253
 30
0.0
  0
SEQEND
  5
2D3
330
2D0
100
AcDbEntity
  8
Layer 1
370
    18
  0
POLYLINE
  5
2D4
330
232
100
AcDbEntity
  8
Layer 1
 62
     7
370
    18
100
AcDb2dPolyline
 66
     1
 10
0.0
 20
0.0
 30
0.0
  0
VERTEX
  5
2D5
330
2D4
100
AcDbEntity
  8
Layer 1
 62
     7
370
    18
100
AcDbVertex
100
AcDb2dVertex
 10
3.893035065070207
 20
8.816642641342953
 30
0.0
  0
VERTEX
  5
2D6
330
2D4
100
AcDbEntity
  8
Layer 1
 62
     7
370
    18
100
AcDbVertex
100
AcDb2dVertex
 10
3.51771607841888
 20
8.816642641342953
 30
0.0
  0
SEQEND
  5
2D7
330
2D4
100
AcDbEntity
  8
Layer 1
370
    18
  0
POLYLINE
  5
2D8
330
232
100
AcDbEntity
  8
Layer 1
 62
     7
370
    18
100
AcDb2dPolyline
 66
     1
 10
0.0
 20
0.0
 30
0.0
  0
VERTEX
  5
2D9
330
2D8
100
AcDbEntity
  8
Layer 1
 62
     7
370
    18
100
AcDbVertex
100
AcDb2dVertex
 10
3.893028283381707
 20
8.798711856949152
 30
0.0
  0
VERTEX
  5
2DA
330
2D8
100
AcDbEntity
  8
Layer 1
 62
     7
370
    18
100
AcDbVertex
100
AcDb2dVertex
 10
3.51771607841888
 20
8.798711856949152
 30
0.0
  0
SEQEND
  5
2DB
330
2D8
100
AcDbEntity
  8
Layer 1
370
    18
  0
POLYLINE
  5
2DC
330
232
100
AcDbEntity
  8
Layer 1
 62
     7
370
    18
100
AcDb2dPolyline
 66
     1
 10
0.0
 20
0.0
 30
0.0
  0
VERTEX
  5
2DD
330
2DC
100
AcDbEntity
  8
Layer 1
 62
     7
370
    18
100
AcDbVertex
100
AcDb2dVertex
 10
3.893028283381707
 20
8.780794635932352
 30
0.0
  0
VERTEX
  5
2DE
330
2DC
100
AcDbEntity
  8
Layer 1
 62
     7
370
    18
100
AcDbVertex
100
AcDb2dVertex
 10
3.51771607841888
 20
8.780794635932352
 30
0.0
  0
SEQEND
  5
2DF
330
2DC
100
AcDbEntity
  8
Layer 1
370
    18
  0
POLYLINE
  5
2E0
330
232
100
AcDbEntity
  8
Layer 1
 62
     7
370
    18
100
AcDb2dPolyline
 66
     1
 10
0.0
 20
0.0
 30
0.0
  0
VERTEX
  5
2E1
330
2E0
100
AcDbEntity
  8
Layer 1
 62
     7
370
    18
100
AcDbVertex
100
AcDb2dVertex
 10
3.893028283381707
 20
8.762877414915552
 30
0.0
  0
VERTEX
  5
2E2
330
2E0
100
AcDbEntity
  8
Layer 1
 62
     7
370
    18
100
AcDbVertex
100
AcDb2dVertex
 10
3.51771607841888
 20
8.762877414915552
 30
0.0
  0
SEQEND
  5
2E3
330
2E0
100
AcDbEntity
  8
Layer 1
370
    18
  0
POLYLINE
  5
2E4
330
232
100
AcDbEntity
  8
Layer 1
 62
     7
370
    18
100
AcDb2dPolyline
 66
     1
 10
0.0
 20
0.0
 30
0.0
  0
VERTEX
  5
2E5
330
2E4
100
AcDbEntity
  8
Layer 1
 62
     7
370
    18
100
AcDbVertex
100
AcDb2dVertex
 10
3.893041846758706
 20
8.74495341221025
 30
0.0
  0
VERTEX
  5
2E6
330
2E4
100
AcDbEntity
  8
Layer 1
 62
     7
370
    18
100
AcDbVertex
100
AcDb2dVertex
 10
3.51771607841888
 20
8.74495341221025
 30
0.0
  0
SEQEND
  5
2E7
330
2E4
100
AcDbEntity
  8
Layer 1
370
    18
  0
POLYLINE
  5
2E8
330
232
100
AcDbEntity
  8
Layer 1
 62
     7
370
    18
100
AcDb2dPolyline
 66
     1
 10
0.0
 20
0.0
 30
0.0
  0
VERTEX
  5
2E9
330
2E8
100
AcDbEntity
  8
Layer 1
 62
     7
370
    18
100
AcDbVertex
100
AcDb2dVertex
 10
3.893041846758706
 20
8.72702940950495
 30
0.0
  0
VERTEX
  5
2EA
330
2E8
100
AcDbEntity
  8
Layer 1
 62
     7
370
    18
100
AcDbVertex
100
AcDb2dVertex
 10
3.51771607841888
 20
8.72702940950495
 30
0.0
  0
SEQEND
  5
2EB
330
2E8
100
AcDbEntity
  8
Layer 1
370
    18
  0
POLYLINE
  5
2EC
330
232
100
AcDbEntity
  8
Layer 1
 62
     7
370
    18
100
AcDb2dPolyline
 66
     1
 10
0.0
 20
0.0
 30
0.0
  0
VERTEX
  5
2ED
330
2EC
100
AcDbEntity
  8
Layer 1
 62
     7
370
    18
100
AcDbVertex
100
AcDb2dVertex
 10
3.893035065070207
 20
8.709112188488148
 30
0.0
  0
VERTEX
  5
2EE
330
2EC
100
AcDbEntity
  8
Layer 1
 62
     7
370
    18
100
AcDbVertex
100
AcDb2dVertex
 10
3.51771607841888
 20
8.709112188488148
 30
0.0
  0
SEQEND
  5
2EF
330
2EC
100
AcDbEntity
  8
Layer 1
370
    18
  0
POLYLINE
  5
2F0
330
232
100
AcDbEntity
  8
Layer 1
 62
     7
370
    18
100
AcDb2dPolyline
 66
     1
 10
0.0
 20
0.0
 30
0.0
  0
VERTEX
  5
2F1
330
2F0
100
AcDbEntity
  8
Layer 1
 62
     7
370
    18
100
AcDbVertex
100
AcDb2dVertex
 10
3.893035065070207
 20
8.691181404094349
 30
0.0
  0
VERTEX
  5
2F2
330
2F0
100
AcDbEntity
  8
Layer 1
 62
     7
370
    18
100
AcDbVertex
100
AcDb2dVertex
 10
3.51771607841888
 20
8.691181404094349
 30
0.0
  0
SEQEND
  5
2F3
330
2F0
100
AcDbEntity
  8
Layer 1
370
    18
  0
POLYLINE
  5
2F4
330
232
100
AcDbEntity
  8
Layer 1
 62
     7
370
    18
100
AcDb2dPolyline
 66
     1
 10
0.0
 20
0.0
 30
0.0
  0
VERTEX
  5
2F5
330
2F4
100
AcDbEntity
  8
Layer 1
 62
     7
370
    18
100
AcDbVertex
100
AcDb2dVertex
 10
3.893035065070207
 20
8.673264183077547
 30
0.0
  0
VERTEX
  5
2F6
330
2F4
100
AcDbEntity
  8
Layer 1
 62
     7
370
    18
100
AcDbVertex
100
AcDb2dVertex
 10
3.51771607841888
 20
8.673264183077547
 30
0.0
  0
SEQEND
  5
2F7
330
2F4
100
AcDbEntity
  8
Layer 1
370
    18
  0
POLYLINE
  5
2F8
330
232
100
AcDbEntity
  8
Layer 1
 62
     7
370
    18
100
AcDb2dPolyline
 66
     1
 10
0.0
 20
0.0
 30
0.0
  0
VERTEX
  5
2F9
330
2F8
100
AcDbEntity
  8
Layer 1
 62
     7
370
    18
100
AcDbVertex
100
AcDb2dVertex
 10
3.893035065070207
 20
8.655346962060747
 30
0.0
  0
VERTEX
  5
2FA
330
2F8
100
AcDbEntity
  8
Layer 1
 62
     7
370
    18
100
AcDbVertex
100
AcDb2dVertex
 10
3.51771607841888
 20
8.655346962060747
 30
0.0
  0
SEQEND
  5
2FB
330
2F8
100
AcDbEntity
  8
Layer 1
370
    18
  0
POLYLINE
  5
2FC
330
232
100
AcDbEntity
  8
Layer 1
 62
     7
370
    18
100
AcDb2dPolyline
 66
     1
 10
0.0
 20
0.0
 30
0.0
  0
VERTEX
  5
2FD
330
2FC
100
AcDbEntity
  8
Layer 1
 62
     7
370
    18
100
AcDbVertex
100
AcDb2dVertex
 10
3.893035065070207
 20
8.637422959355447
 30
0.0
  0
VERTEX
  5
2FE
330
2FC
100
AcDbEntity
  8
Layer 1
 62
     7
370
    18
100
AcDbVertex
100
AcDb2dVertex
 10
3.51771607841888
 20
8.637422959355447
 30
0.0
  0
SEQEND
  5
2FF
330
2FC
100
AcDbEntity
  8
Layer 1
370
    18
  0
POLYLINE
  5
300
330
232
100
AcDbEntity
  8
Layer 1
 62
     7
370
    18
100
AcDb2dPolyline
 66
     1
 10
0.0
 20
0.0
 30
0.0
  0
VERTEX
  5
301
330
300
100
AcDbEntity
  8
Layer 1
 62
     7
370
    18
100
AcDbVertex
100
AcDb2dVertex
 10
3.893028283381707
 20
8.619498956650145
 30
0.0
  0
VERTEX
  5
302
330
300
100
AcDbEntity
  8
Layer 1
 62
     7
370
    18
100
AcDbVertex
100
AcDb2dVertex
 10
3.51771607841888
 20
8.619498956650145
 30
0.0
  0
SEQEND
  5
303
330
300
100
AcDbEntity
  8
Layer 1
370
    18
  0
POLYLINE
  5
304
330
232
100
AcDbEntity
  8
Layer 1
 62
     7
370
    18
100
AcDb2dPolyline
 66
     1
 10
0.0
 20
0.0
 30
0.0
  0
VERTEX
  5
305
330
304
100
AcDbEntity
  8
Layer 1
 62
     7
370
    18
100
AcDbVertex
100
AcDb2dVertex
 10
3.893028283381707
 20
8.601568172256344
 30
0.0
  0
VERTEX
  5
306
330
304
100
AcDbEntity
  8
Layer 1
 62
     7
370
    18
100
AcDbVertex
100
AcDb2dVertex
 10
3.51771607841888
 20
8.601568172256344
 30
0.0
  0
SEQEND
  5
307
330
304
100
AcDbEntity
  8
Layer 1
370
    18
  0
POLYLINE
  5
308
330
232
100
AcDbEntity
  8
Layer 1
 62
     7
370
    18
100
AcDb2dPolyline
 66
     1
 10
0.0
 20
0.0
 30
0.0
  0
VERTEX
  5
309
330
308
100
AcDbEntity
  8
Layer 1
 62
     7
370
    18
100
AcDbVertex
100
AcDb2dVertex
 10
3.893041846758706
 20
8.583650951239544
 30
0.0
  0
VERTEX
  5
30A
330
308
100
AcDbEntity
  8
Layer 1
 62
     7
370
    18
100
AcDbVertex
100
AcDb2dVertex
 10
3.51771607841888
 20
8.583650951239544
 30
0.0
  0
SEQEND
  5
30B
330
308
100
AcDbEntity
  8
Layer 1
370
    18
  0
POLYLINE
  5
30C
330
232
100
AcDbEntity
  8
Layer 1
 62
     7
370
    18
100
AcDb2dPolyline
 66
     1
 10
0.0
 20
0.0
 30
0.0
  0
VERTEX
  5
30D
330
30C
100
AcDbEntity
  8
Layer 1
 62
     7
370
    18
100
AcDbVertex
100
AcDb2dVertex
 10
3.893041846758706
 20
8.565733730222744
 30
0.0
  0
VERTEX
  5
30E
330
30C
100
AcDbEntity
  8
Layer 1
 62
     7
370
    18
100
AcDbVertex
100
AcDb2dVertex
 10
3.51771607841888
 20
8.565733730222744
 30
0.0
  0
SEQEND
  5
30F
330
30C
100
AcDbEntity
  8
Layer 1
370
    18
  0
POLYLINE
  5
310
330
232
100
AcDbEntity
  8
Layer 1
 62
     7
370
    18
100
AcDb2dPolyline
 66
     1
 10
0.0
 20
0.0
 30
0.0
  0
VERTEX
  5
311
330
310
100
AcDbEntity
  8
Layer 1
 62
     7
370
    18
100
AcDbVertex
100
AcDb2dVertex
 10
3.893041846758706
 20
8.547809727517442
 30
0.0
  0
VERTEX
  5
312
330
310
100
AcDbEntity
  8
Layer 1
 62
     7
370
    18
100
AcDbVertex
100
AcDb2dVertex
 10
3.51771607841888
 20
8.547809727517442
 30
0.0
  0
SEQEND
  5
313
330
310
100
AcDbEntity
  8
Layer 1
370
    18
  0
POLYLINE
  5
314
330
232
100
AcDbEntity
  8
Layer 1
 62
     7
370
    18
100
AcDb2dPolyline
 66
     1
 10
0.0
 20
0.0
 30
0.0
  0
VERTEX
  5
315
330
314
100
AcDbEntity
  8
Layer 1
 62
     7
370
    18
100
AcDbVertex
100
AcDb2dVertex
 10
3.893035065070207
 20
8.529885724812142
 30
0.0
  0
VERTEX
  5
316
330
314
100
AcDbEntity
  8
Layer 1
 62
     7
370
    18
100
AcDbVertex
100
AcDb2dVertex
 10
3.51771607841888
 20
8.529885724812142
 30
0.0
  0
SEQEND
  5
317
330
314
100
AcDbEntity
  8
Layer 1
370
    18
  0
POLYLINE
  5
318
330
232
100
AcDbEntity
  8
Layer 1
 62
     7
370
    18
100
AcDb2dPolyline
 66
     1
 10
0.0
 20
0.0
 30
0.0
  0
VERTEX
  5
319
330
318
100
AcDbEntity
  8
Layer 1
 62
     7
370
    18
100
AcDbVertex
100
AcDb2dVertex
 10
3.893035065070207
 20
8.51196850379534
 30
0.0
  0
VERTEX
  5
31A
330
318
100
AcDbEntity
  8
Layer 1
 62
     7
370
    18
100
AcDbVertex
100
AcDb2dVertex
 10
3.51771607841888
 20
8.51196850379534
 30
0.0
  0
SEQEND
  5
31B
330
318
100
AcDbEntity
  8
Layer 1
370
    18
  0
POLYLINE
  5
31C
330
232
100
AcDbEntity
  8
Layer 1
 62
     7
370
    18
100
AcDb2dPolyline
 66
     1
 10
0.0
 20
0.0
 30
0.0
  0
VERTEX
  5
31D
330
31C
100
AcDbEntity
  8
Layer 1
 62
     7
370
    18
100
AcDbVertex
100
AcDb2dVertex
 10
3.893035065070207
 20
8.494037719401541
 30
0.0
  0
VERTEX
  5
31E
330
31C
100
AcDbEntity
  8
Layer 1
 62
     7
370
    18
100
AcDbVertex
100
AcDb2dVertex
 10
3.51771607841888
 20
8.494037719401541
 30
0.0
  0
SEQEND
  5
31F
330
31C
100
AcDbEntity
  8
Layer 1
370
    18
  0
POLYLINE
  5
320
330
232
100
AcDbEntity
  8
Layer 1
 62
     7
370
    18
100
AcDb2dPolyline
 66
     1
 10
0.0
 20
0.0
 30
0.0
  0
VERTEX
  5
321
330
320
100
AcDbEntity
  8
Layer 1
 62
     7
370
    18
100
AcDbVertex
100
AcDb2dVertex
 10
3.893035065070207
 20
8.476120498384741
 30
0.0
  0
VERTEX
  5
322
330
320
100
AcDbEntity
  8
Layer 1
 62
     7
370
    18
100
AcDbVertex
100
AcDb2dVertex
 10
3.51771607841888
 20
8.476120498384741
 30
0.0
  0
SEQEND
  5
323
330
320
100
AcDbEntity
  8
Layer 1
370
    18
  0
POLYLINE
  5
324
330
232
100
AcDbEntity
  8
Layer 1
 62
     7
370
    18
100
AcDb2dPolyline
 66
     1
 10
0.0
 20
0.0
 30
0.0
  0
VERTEX
  5
325
330
324
100
AcDbEntity
  8
Layer 1
 62
     7
370
    18
100
AcDbVertex
100
AcDb2dVertex
 10
3.893035065070207
 20
8.458196495679439
 30
0.0
  0
VERTEX
  5
326
330
324
100
AcDbEntity
  8
Layer 1
 62
     7
370
    18
100
AcDbVertex
100
AcDb2dVertex
 10
3.51771607841888
 20
8.458196495679439
 30
0.0
  0
SEQEND
  5
327
330
324
100
AcDbEntity
  8
Layer 1
370
    18
  0
POLYLINE
  5
328
330
232
100
AcDbEntity
  8
Layer 1
 62
     7
370
    18
100
AcDb2dPolyline
 66
     1
 10
0.0
 20
0.0
 30
0.0
  0
VERTEX
  5
329
330
328
100
AcDbEntity
  8
Layer 1
 62
     7
370
    18
100
AcDbVertex
100
AcDb2dVertex
 10
3.893035065070207
 20
8.440279274662639
 30
0.0
  0
VERTEX
  5
32A
330
328
100
AcDbEntity
  8
Layer 1
 62
     7
370
    18
100
AcDbVertex
100
AcDb2dVertex
 10
3.51771607841888
 20
8.440279274662639
 30
0.0
  0
SEQEND
  5
32B
330
328
100
AcDbEntity
  8
Layer 1
370
    18
  0
POLYLINE
  5
32C
330
232
100
AcDbEntity
  8
Layer 1
 62
     7
370
    18
100
AcDb2dPolyline
 66
     1
 10
0.0
 20
0.0
 30
0.0
  0
VERTEX
  5
32D
330
32C
100
AcDbEntity
  8
Layer 1
 62
     7
370
    18
100
AcDbVertex
100
AcDb2dVertex
 10
3.893028283381707
 20
8.422355271957338
 30
0.0
  0
VERTEX
  5
32E
330
32C
100
AcDbEntity
  8
Layer 1
 62
     7
370
    18
100
AcDbVertex
100
AcDb2dVertex
 10
3.51771607841888
 20
8.422355271957338
 30
0.0
  0
SEQEND
  5
32F
330
32C
100
AcDbEntity
  8
Layer 1
370
    18
  0
POLYLINE
  5
330
330
232
100
AcDbEntity
  8
Layer 1
 62
     7
370
    18
100
AcDb2dPolyline
 66
     1
 10
0.0
 20
0.0
 30
0.0
  0
VERTEX
  5
331
330
330
100
AcDbEntity
  8
Layer 1
 62
     7
370
    18
100
AcDbVertex
100
AcDb2dVertex
 10
3.893041846758706
 20
8.404438050940537
 30
0.0
  0
VERTEX
  5
332
330
330
100
AcDbEntity
  8
Layer 1
 62
     7
370
    18
100
AcDbVertex
100
AcDb2dVertex
 10
3.51771607841888
 20
8.404438050940537
 30
0.0
  0
SEQEND
  5
333
330
330
100
AcDbEntity
  8
Layer 1
370
    18
  0
POLYLINE
  5
334
330
232
100
AcDbEntity
  8
Layer 1
 62
     7
370
    18
100
AcDb2dPolyline
 66
     1
 10
0.0
 20
0.0
 30
0.0
  0
VERTEX
  5
335
330
334
100
AcDbEntity
  8
Layer 1
 62
     7
370
    18
100
AcDbVertex
100
AcDb2dVertex
 10
3.893035065070207
 20
8.386507266546736
 30
0.0
  0
VERTEX
  5
336
330
334
100
AcDbEntity
  8
Layer 1
 62
     7
370
    18
100
AcDbVertex
100
AcDb2dVertex
 10
3.51771607841888
 20
8.386507266546736
 30
0.0
  0
SEQEND
  5
337
330
334
100
AcDbEntity
  8
Layer 1
370
    18
  0
POLYLINE
  5
338
330
232
100
AcDbEntity
  8
Layer 1
 62
     7
370
    18
100
AcDb2dPolyline
 66
     1
 10
0.0
 20
0.0
 30
0.0
  0
VERTEX
  5
339
330
338
100
AcDbEntity
  8
Layer 1
 62
     7
370
    18
100
AcDbVertex
100
AcDb2dVertex
 10
3.893035065070207
 20
8.368590045529936
 30
0.0
  0
VERTEX
  5
33A
330
338
100
AcDbEntity
  8
Layer 1
 62
     7
370
    18
100
AcDbVertex
100
AcDb2dVertex
 10
3.51771607841888
 20
8.368590045529936
 30
0.0
  0
SEQEND
  5
33B
330
338
100
AcDbEntity
  8
Layer 1
370
    18
  0
POLYLINE
  5
33C
330
232
100
AcDbEntity
  8
Layer 1
 62
     7
370
    18
100
AcDb2dPolyline
 66
     1
 10
0.0
 20
0.0
 30
0.0
  0
VERTEX
  5
33D
330
33C
100
AcDbEntity
  8
Layer 1
 62
     7
370
    18
100
AcDbVertex
100
AcDb2dVertex
 10
3.893035065070207
 20
8.350666042824634
 30
0.0
  0
VERTEX
  5
33E
330
33C
100
AcDbEntity
  8
Layer 1
 62
     7
370
    18
100
AcDbVertex
100
AcDb2dVertex
 10
3.51771607841888
 20
8.350666042824634
 30
0.0
  0
SEQEND
  5
33F
330
33C
100
AcDbEntity
  8
Layer 1
370
    18
  0
POLYLINE
  5
340
330
232
100
AcDbEntity
  8
Layer 1
 62
     7
370
    18
100
AcDb2dPolyline
 66
     1
 10
0.0
 20
0.0
 30
0.0
  0
VERTEX
  5
341
330
340
100
AcDbEntity
  8
Layer 1
 62
     7
370
    18
100
AcDbVertex
100
AcDb2dVertex
 10
3.893035065070207
 20
8.332742040119335
 30
0.0
  0
VERTEX
  5
342
330
340
100
AcDbEntity
  8
Layer 1
 62
     7
370
    18
100
AcDbVertex
100
AcDb2dVertex
 10
3.51771607841888
 20
8.332742040119335
 30
0.0
  0
SEQEND
  5
343
330
340
100
AcDbEntity
  8
Layer 1
370
    18
  0
POLYLINE
  5
344
330
232
100
AcDbEntity
  8
Layer 1
 62
     7
370
    18
100
AcDb2dPolyline
 66
     1
 10
0.0
 20
0.0
 30
0.0
  0
VERTEX
  5
345
330
344
100
AcDbEntity
  8
Layer 1
 62
     7
370
    18
100
AcDbVertex
100
AcDb2dVertex
 10
3.893035065070207
 20
8.314824819102534
 30
0.0
  0
VERTEX
  5
346
330
344
100
AcDbEntity
  8
Layer 1
 62
     7
370
    18
100
AcDbVertex
100
AcDb2dVertex
 10
3.51771607841888
 20
8.314824819102534
 30
0.0
  0
SEQEND
  5
347
330
344
100
AcDbEntity
  8
Layer 1
370
    18
  0
POLYLINE
  5
348
330
232
100
AcDbEntity
  8
Layer 1
 62
     7
370
    18
100
AcDb2dPolyline
 66
     1
 10
0.0
 20
0.0
 30
0.0
  0
VERTEX
  5
349
330
348
100
AcDbEntity
  8
Layer 1
 62
     7
370
    18
100
AcDbVertex
100
AcDb2dVertex
 10
3.893035065070207
 20
8.296894034708733
 30
0.0
  0
VERTEX
  5
34A
330
348
100
AcDbEntity
  8
Layer 1
 62
     7
370
    18
100
AcDbVertex
100
AcDb2dVertex
 10
3.51771607841888
 20
8.296894034708733
 30
0.0
  0
SEQEND
  5
34B
330
348
100
AcDbEntity
  8
Layer 1
370
    18
  0
POLYLINE
  5
34C
330
232
100
AcDbEntity
  8
Layer 1
 62
     7
370
    18
100
AcDb2dPolyline
 66
     1
 10
0.0
 20
0.0
 30
0.0
  0
VERTEX
  5
34D
330
34C
100
AcDbEntity
  8
Layer 1
 62
     7
370
    18
100
AcDbVertex
100
AcDb2dVertex
 10
3.893035065070207
 20
8.278976813691933
 30
0.0
  0
VERTEX
  5
34E
330
34C
100
AcDbEntity
  8
Layer 1
 62
     7
370
    18
100
AcDbVertex
100
AcDb2dVertex
 10
3.51771607841888
 20
8.278976813691933
 30
0.0
  0
SEQEND
  5
34F
330
34C
100
AcDbEntity
  8
Layer 1
370
    18
  0
POLYLINE
  5
350
330
232
100
AcDbEntity
  8
Layer 1
 62
     7
370
    18
100
AcDb2dPolyline
 66
     1
 10
0.0
 20
0.0
 30
0.0
  0
VERTEX
  5
351
330
350
100
AcDbEntity
  8
Layer 1
 62
     7
370
    18
100
AcDbVertex
100
AcDb2dVertex
 10
3.893035065070207
 20
8.261052810986631
 30
0.0
  0
VERTEX
  5
352
330
350
100
AcDbEntity
  8
Layer 1
 62
     7
370
    18
100
AcDbVertex
100
AcDb2dVertex
 10
3.51771607841888
 20
8.261052810986631
 30
0.0
  0
SEQEND
  5
353
330
350
100
AcDbEntity
  8
Layer 1
370
    18
  0
POLYLINE
  5
354
330
232
100
AcDbEntity
  8
Layer 1
 62
     7
370
    18
100
AcDb2dPolyline
 66
     1
 10
0.0
 20
0.0
 30
0.0
  0
VERTEX
  5
355
330
354
100
AcDbEntity
  8
Layer 1
 62
     7
370
    18
100
AcDbVertex
100
AcDb2dVertex
 10
3.893028283381707
 20
8.243135589969831
 30
0.0
  0
VERTEX
  5
356
330
354
100
AcDbEntity
  8
Layer 1
 62
     7
370
    18
100
AcDbVertex
100
AcDb2dVertex
 10
3.51771607841888
 20
8.243135589969831
 30
0.0
  0
SEQEND
  5
357
330
354
100
AcDbEntity
  8
Layer 1
370
    18
  0
POLYLINE
  5
358
330
232
100
AcDbEntity
  8
Layer 1
 62
     7
370
    18
100
AcDb2dPolyline
 66
     1
 10
0.0
 20
0.0
 30
0.0
  0
VERTEX
  5
359
330
358
100
AcDbEntity
  8
Layer 1
 62
     7
370
    18
100
AcDbVertex
100
AcDb2dVertex
 10
3.893035065070207
 20
8.22521158726453
 30
0.0
  0
VERTEX
  5
35A
330
358
100
AcDbEntity
  8
Layer 1
 62
     7
370
    18
100
AcDbVertex
100
AcDb2dVertex
 10
3.51771607841888
 20
8.22521158726453
 30
0.0
  0
SEQEND
  5
35B
330
358
100
AcDbEntity
  8
Layer 1
370
    18
  0
POLYLINE
  5
35C
330
232
100
AcDbEntity
  8
Layer 1
 62
     7
370
    18
100
AcDb2dPolyline
 66
     1
 10
0.0
 20
0.0
 30
0.0
  0
VERTEX
  5
35D
330
35C
100
AcDbEntity
  8
Layer 1
 62
     7
370
    18
100
AcDbVertex
100
AcDb2dVertex
 10
3.893035065070207
 20
8.20729436624773
 30
0.0
  0
VERTEX
  5
35E
330
35C
100
AcDbEntity
  8
Layer 1
 62
     7
370
    18
100
AcDbVertex
100
AcDb2dVertex
 10
3.51771607841888
 20
8.20729436624773
 30
0.0
  0
SEQEND
  5
35F
330
35C
100
AcDbEntity
  8
Layer 1
370
    18
  0
POLYLINE
  5
360
330
232
100
AcDbEntity
  8
Layer 1
 62
     7
370
    18
100
AcDb2dPolyline
 66
     1
 10
0.0
 20
0.0
 30
0.0
  0
VERTEX
  5
361
330
360
100
AcDbEntity
  8
Layer 1
 62
     7
370
    18
100
AcDbVertex
100
AcDb2dVertex
 10
3.893035065070207
 20
8.189363581853928
 30
0.0
  0
VERTEX
  5
362
330
360
100
AcDbEntity
  8
Layer 1
 62
     7
370
    18
100
AcDbVertex
100
AcDb2dVertex
 10
3.51771607841888
 20
8.189363581853928
 30
0.0
  0
SEQEND
  5
363
330
360
100
AcDbEntity
  8
Layer 1
370
    18
  0
POLYLINE
  5
364
330
232
100
AcDbEntity
  8
Layer 1
 62
     7
370
    18
100
AcDb2dPolyline
 66
     1
 10
0.0
 20
0.0
 30
0.0
  0
VERTEX
  5
365
330
364
100
AcDbEntity
  8
Layer 1
 62
     7
370
    18
100
AcDbVertex
100
AcDb2dVertex
 10
3.893035065070207
 20
8.171446360837128
 30
0.0
  0
VERTEX
  5
366
330
364
100
AcDbEntity
  8
Layer 1
 62
     7
370
    18
100
AcDbVertex
100
AcDb2dVertex
 10
3.51771607841888
 20
8.171446360837128
 30
0.0
  0
SEQEND
  5
367
330
364
100
AcDbEntity
  8
Layer 1
370
    18
  0
POLYLINE
  5
368
330
232
100
AcDbEntity
  8
Layer 1
 62
     7
370
    18
100
AcDb2dPolyline
 66
     1
 10
0.0
 20
0.0
 30
0.0
  0
VERTEX
  5
369
330
368
100
AcDbEntity
  8
Layer 1
 62
     7
370
    18
100
AcDbVertex
100
AcDb2dVertex
 10
3.893035065070207
 20
8.153522358131828
 30
0.0
  0
VERTEX
  5
36A
330
368
100
AcDbEntity
  8
Layer 1
 62
     7
370
    18
100
AcDbVertex
100
AcDb2dVertex
 10
3.51771607841888
 20
8.153522358131828
 30
0.0
  0
SEQEND
  5
36B
330
368
100
AcDbEntity
  8
Layer 1
370
    18
  0
ENDBLK
  5
36C
330
232
100
AcDbEntity
  8
0
100
AcDbBlockEnd
  0
BLOCK
  5
400
330
3F5
100
AcDbEntity
  8
0
100
AcDbBlockBegin
  2
*D5
 70
     1
 10
0.0
 20
0.0
 30
0.0
  3
*D5
  1

  0
LINE
  5
402
330
3F5
100
AcDbEntity
  8
ADP1DETAIL
 62
     0
370
    -2
100
AcDbLine
 10
4.698241024511911
 20
1.077700670887058
 30
0.0
 11
5.087086010862229
 21
1.077700670887058
 31
0.0
  0
LINE
  5
403
330
3F5
100
AcDbEntity
  8
ADP1DETAIL
 62
     0
370
    -2
100
AcDbLine
 10
4.698241024511911
 20
-0.2922993291129421
 30
0.0
 11
5.087086010862229
 21
-0.2922993291129421
 31
0.0
  0
LINE
  5
404
330
3F5
100
AcDbEntity
  8
ADP1DETAIL
 62
     0
370
    -2
100
AcDbLine
 10
4.907086010862229
 20
1.077700670887058
 30
0.0
 11
4.907086010862229
 21
0.7885340042203913
 31
0.0
  0
LINE
  5
405
330
3F5
100
AcDbEntity
  8
ADP1DETAIL
 62
     0
370
    -2
100
AcDbLine
 10
4.907086010862229
 20
-0.2922993291129421
 30
0.0
 11
4.907086010862229
 21
-0.0031326624462753
 31
0.0
  0
LINE
  5
406
330
3F5
100
AcDbEntity
  8
ADP1DETAIL
 62
     0
370
    -2
100
AcDbLine
 10
5.032086010862229
 20
-0.4172993291129422
 30
0.0
 11
4.782086010862229
 21
-0.1672993291129421
 31
0.0
  0
LINE
  5
407
330
3F5
100
AcDbEntity
  8
ADP1DETAIL
 62
     0
370
    -2
100
AcDbLine
 10
5.032086010862229
 20
0.952700670887058
 30
0.0
 11
4.782086010862229
 21
1.202700670887058
 31
0.0
  0
MTEXT
  5
408
330
3F5
100
AcDbEntity
  8
ADP1DETAIL
 62
     0
100
AcDbMText
 10
4.907086010862229
 20
0.3927006708870588
 30
0.0
 40
0.125
 41
0.0
 71
     5
 72
     1
  1
\A1;1.3700
 11
0.0000000000000001
 21
1.0
 31
0.0
 73
     1
 44
1.0
1001
ACAD
1000
MTEXTBEGIN
1070
    73
1070
     1
1070
    44
1040
1.0
1070
    74
1070
     0
1000
MTEXTEND
  0
POINT
  5
409
330
3F5
100
AcDbEntity
  8
DEFPOINTS
 62
     0
100
AcDbPoint
 10
4.635741024511911
 20
1.077700670887058
 30
0.0
  0
POINT
  5
40A
330
3F5
100
AcDbEntity
  8
DEFPOINTS
 62
     0
100
AcDbPoint
 10
4.635741024511911
 20
-0.2922993291129421
 30
0.0
  0
POINT
  5
40B
330
3F5
100
AcDbEntity
  8
DEFPOINTS
 62
     0
100
AcDbPoint
 10
4.907086010862229
 20
-0.2922993291129421
 30
0.0
  0
ENDBLK
  5
401
330
3F5
100
AcDbEntity
  8
0
100
AcDbBlockEnd
  0
ENDSEC
  0
SECTION
  2
ENTITIES
  0
TEXT
  5
69
330
18
100
AcDbEntity
  8
ADPDIM
100
AcDbText
 10
-0.0809635984807056
 20
-1.103914201575905
 30
0.0
 40
0.09375
  1
J U L I U S  B L U M  &  C O . ,  I N C .      ( 8 0 0 )  5 2 6 - 6 2 9 3        W W W . J U L I U S B L U M . C O M        P A R T  N o .  8 0 7
 41
1.25
  7
ARIAL_WIDE
 72
     1
 11
4.745067054657083
 21
-1.010164201575905
 31
0.0
100
AcDbText
 73
     3
  0
DIMENSION
  5
1D2
330
18
100
AcDbEntity
  8
ADPDIM
 62
     3
100
AcDbDimension
  2
*D1
 10
2.377225868716251
 20
-0.4418490818429854
 30
0.0
 11
2.377225868716251
 21
0.3881509181570148
 31
0.0
 70
    32
 71
     5
 42
1.659999999999999
  3
STANDARD
100
AcDbAlignedDimension
 13
3.316421690334891
 23
1.218150918157014
 33
0.0
 14
3.316421690334891
 24
-0.4418490818429857
 34
0.0
 50
90.0
100
AcDbRotatedDimension
1001
ACAD
1000
DSTYLE
1002
{
1070
    41
1040
0.125
1070
    73
1070
     0
1070
    74
1070
     0
1070
    78
1070
     3
1070
   140
1040
0.125
1070
   141
1040
0.1875
1070
   142
1040
0.125
1070
   147
1040
0.125
1070
   171
1070
     1
1002
}
  0
SPLINE
  5
38A
330
18
100
AcDbEntity
  8
Layer 1
 62
     7
370
    18
100
AcDbSpline
210
0.0
220
0.0
230
1.0
 70
    11
 71
     3
 72
    17
 73
    13
 74
     0
 42
0.0000000001
 43
0.0000000001
 40
0.0
 40
0.0
 40
0.0
 40
0.0
 40
1.0
 40
1.0
 40
1.0
 40
2.0
 40
2.0
 40
2.0
 40
3.0
 40
3.0
 40
3.0
 40
4.0
 40
4.0
 40
4.0
 40
4.0
 10
5.146812904067997
 20
0.3881549918857945
 30
0.0
 10
5.146812904067997
 20
-0.0702464605781068
 30
0.0
 10
5.518422307109865
 20
-0.4418490819314749
 30
0.0
 10
5.976823759573766
 20
-0.4418490819314749
 30
0.0
 10
6.43521164866067
 20
-0.4418490819314749
 30
0.0
 10
6.806821051702536
 20
-0.0702464605781068
 30
0.0
 10
6.806821051702536
 20
0.3881549918857945
 30
0.0
 10
6.806821051702536
 20
0.8465496626611979
 30
0.0
 10
6.43521164866067
 20
1.218152284014564
 30
0.0
 10
5.976823759573766
 20
1.218152284014564
 30
0.0
 10
5.518422307109865
 20
1.218152284014564
 30
0.0
 10
5.146812904067997
 20
0.8465496626611979
 30
0.0
 10
5.146812904067997
 20
0.3881549918857945
 30
0.0
  0
SPLINE
  5
38B
330
18
100
AcDbEntity
  8
ADP1DETAIL
  6
AI-Linetype-5
 62
     5
370
    18
100
AcDbSpline
210
0.0
220
0.0
230
1.0
 70
    11
 71
     3
 72
    17
 73
    13
 74
     0
 42
0.0000000001
 43
0.0000000001
 40
0.0
 40
0.0
 40
0.0
 40
0.0
 40
1.0
 40
1.0
 40
1.0
 40
2.0
 40
2.0
 40
2.0
 40
3.0
 40
3.0
 40
3.0
 40
4.0
 40
4.0
 40
4.0
 40
4.0
 10
6.666819874310094
 20
0.3881549918857945
 30
0.0
 10
6.666819874310094
 20
0.0070783516980319
 30
0.0
 10
6.35788683638453
 20
-0.3018479045390312
 30
0.0
 10
5.976810196196767
 20
-0.3018479045390312
 30
0.0
 10
5.595733556009005
 20
-0.3018479045390312
 30
0.0
 10
5.286814081460441
 20
0.0070783516980319
 30
0.0
 10
5.286814081460441
 20
0.3881549918857945
 30
0.0
 10
5.286814081460441
 20
0.7692316320735571
 30
0.0
 10
5.595733556009005
 20
1.078157888310621
 30
0.0
 10
5.976810196196767
 20
1.078157888310621
 30
0.0
 10
6.35788683638453
 20
1.078157888310621
 30
0.0
 10
6.666819874310094
 20
0.7692316320735571
 30
0.0
 10
6.666819874310094
 20
0.3881549918857945
 30
0.0
  0
SPLINE
  5
38C
330
18
100
AcDbEntity
  8
ADP1DETAIL
  6
AI-Linetype-6
 62
     5
370
    18
100
AcDbSpline
210
0.0
220
0.0
230
1.0
 70
    11
 71
     3
 72
    17
 73
    13
 74
     0
 42
0.0000000001
 43
0.0000000001
 40
0.0
 40
0.0
 40
0.0
 40
0.0
 40
1.0
 40
1.0
 40
1.0
 40
2.0
 40
2.0
 40
2.0
 40
3.0
 40
3.0
 40
3.0
 40
4.0
 40
4.0
 40
4.0
 40
4.0
 10
6.541819791879484
 20
0.3881549918857945
 30
0.0
 10
6.541819791879484
 20
0.0761091589387646
 30
0.0
 10
6.288849247455297
 20
-0.1768478221084213
 30
0.0
 10
5.976810196196767
 20
-0.1768478221084213
 30
0.0
 10
5.664771144938237
 20
-0.1768478221084213
 30
0.0
 10
5.411814163891051
 20
0.0761091589387646
 30
0.0
 10
5.411814163891051
 20
0.3881549918857945
 30
0.0
 10
5.411814163891051
 20
0.7001940431443248
 30
0.0
 10
5.664771144938237
 20
0.9531510241915125
 30
0.0
 10
5.976810196196767
 20
0.9531510241915125
 30
0.0
 10
6.288849247455297
 20
0.9531510241915125
 30
0.0
 10
6.541819791879484
 20
0.7001940431443248
 30
0.0
 10
6.541819791879484
 20
0.3881549918857945
 30
0.0
  0
DIMENSION
  5
3F4
330
18
100
AcDbEntity
  8
ADP1DETAIL
 62
     3
100
AcDbDimension
  2
*D5
 10
4.907086010862229
 20
-0.2922993291129421
 30
0.0
 11
4.907086010862229
 21
0.3927006708870588
 31
0.0
 70
    32
 71
     5
 42
1.37
  3
STANDARD
100
AcDbAlignedDimension
 13
4.635741024511911
 23
1.077700670887058
 33
0.0
 14
4.635741024511911
 24
-0.2922993291129421
 34
0.0
 50
90.0
100
AcDbRotatedDimension
1001
ACAD
1000
DSTYLE
1002
{
1070
    41
1040
0.125
1070
    73
1070
     0
1070
    74
1070
     0
1070
    78
1070
     3
1070
   140
1040
0.125
1070
   141
1040
0.1875
1070
   142
1040
0.125
1070
   147
1040
0.125
1070
   171
1070
     1
1002
}
  0
POLYLINE
  5
CB7
330
18
100
AcDbEntity
  8
Layer 1
  6
AI-Linetype-1
 62
   253
370
    25
100
AcDb2dPolyline
 66
     1
 10
0.0
 20
0.0
 30
0.0
  0
VERTEX
  5
CB8
330
CB7
100
AcDbEntity
  8
Layer 1
  6
AI-Linetype-1
 62
   253
370
    25
100
AcDbVertex
100
AcDb2dVertex
 10
4.694551944560005
 20
-0.1187830494972162
 30
0.0
  0
VERTEX
  5
CB9
330
CB7
100
AcDbEntity
  8
Layer 1
  6
AI-Linetype-1
 62
   253
370
    25
100
AcDbVertex
100
AcDb2dVertex
 10
4.694551944560005
 20
0.8985515416889695
 30
0.0
  0
SEQEND
  5
CBA
330
CB7
100
AcDbEntity
  8
Layer 1
  6
AI-Linetype-1
370
    25
  0
POLYLINE
  5
CBB
330
18
100
AcDbEntity
  8
Layer 1
 62
     7
370
    25
100
AcDb2dPolyline
 66
     1
 10
0.0
 20
0.0
 30
0.0
  0
VERTEX
  5
CBC
330
CBB
100
AcDbEntity
  8
Layer 1
 62
     7
370
    25
100
AcDbVertex
100
AcDb2dVertex
 10
3.697170925997246
 20
-0.4379455165511113
 30
0.0
  0
VERTEX
  5
CBD
330
CBB
100
AcDbEntity
  8
Layer 1
 62
     7
370
    25
100
AcDbVertex
100
AcDb2dVertex
 10
3.263637286235061
 20
-0.4379455165511113
 30
0.0
  0
SEQEND
  5
CBE
330
CBB
100
AcDbEntity
  8
Layer 1
370
    25
  0
POLYLINE
  5
CBF
330
18
100
AcDbEntity
  8
Layer 1
  6
AI-Linetype-2
 62
   253
370
    25
100
AcDb2dPolyline
 66
     1
 10
0.0
 20
0.0
 30
0.0
  0
VERTEX
  5
CC0
330
CBF
100
AcDbEntity
  8
Layer 1
  6
AI-Linetype-2
 62
   253
370
    25
100
AcDbVertex
100
AcDb2dVertex
 10
4.684581922171222
 20
1.075576932434824
 30
0.0
  0
VERTEX
  5
CC1
330
CBF
100
AcDbEntity
  8
Layer 1
  6
AI-Linetype-2
 62
   253
370
    25
100
AcDbVertex
100
AcDb2dVertex
 10
4.684612400473236
 20
-0.2957857559750825
 30
0.0
  0
SEQEND
  5
CC2
330
CBF
100
AcDbEntity
  8
Layer 1
  6
AI-Linetype-2
370
    25
  0
POLYLINE
  5
CC3
330
18
100
AcDbEntity
  8
Layer 1
 62
     7
370
    25
100
AcDb2dPolyline
 66
     1
 10
0.0
 20
0.0
 30
0.0
  0
VERTEX
  5
CC4
330
CC3
100
AcDbEntity
  8
Layer 1
 62
     7
370
    25
100
AcDbVertex
100
AcDb2dVertex
 10
4.009353024594439
 20
-0.3057919904777138
 30
0.0
  0
VERTEX
  5
CC5
330
CC3
100
AcDbEntity
  8
Layer 1
 62
     7
370
    25
100
AcDbVertex
100
AcDb2dVertex
 10
4.383370906555434
 20
-0.3057919904777138
 30
0.0
  0
SEQEND
  5
CC6
330
CC3
100
AcDbEntity
  8
Layer 1
370
    25
  0
POLYLINE
  5
CC7
330
18
100
AcDbEntity
  8
Layer 1
 62
     7
370
    25
100
AcDb2dPolyline
 66
     1
 10
0.0
 20
0.0
 30
0.0
  0
VERTEX
  5
CC8
330
CC7
100
AcDbEntity
  8
Layer 1
 62
     7
370
    25
100
AcDbVertex
100
AcDb2dVertex
 10
4.009353024594439
 20
-0.305217057029258
 30
0.0
  0
VERTEX
  5
CC9
330
CC7
100
AcDbEntity
  8
Layer 1
 62
     7
370
    25
100
AcDbVertex
100
AcDb2dVertex
 10
4.383370906555434
 20
-0.305217057029258
 30
0.0
  0
SEQEND
  5
CCA
330
CC7
100
AcDbEntity
  8
Layer 1
370
    25
  0
POLYLINE
  5
CCB
330
18
100
AcDbEntity
  8
Layer 1
 62
     7
370
    25
100
AcDb2dPolyline
 66
     1
 10
0.0
 20
0.0
 30
0.0
  0
VERTEX
  5
CCC
330
CCB
100
AcDbEntity
  8
Layer 1
 62
     7
370
    25
100
AcDbVertex
100
AcDb2dVertex
 10
4.009353024594439
 20
-0.3032690472273742
 30
0.0
  0
VERTEX
  5
CCD
330
CCB
100
AcDbEntity
  8
Layer 1
 62
     7
370
    25
100
AcDbVertex
100
AcDb2dVertex
 10
4.383370906555434
 20
-0.3032690472273742
 30
0.0
  0
SEQEND
  5
CCE
330
CCB
100
AcDbEntity
  8
Layer 1
370
    25
  0
POLYLINE
  5
CCF
330
18
100
AcDbEntity
  8
Layer 1
 62
     7
370
    25
100
AcDb2dPolyline
 66
     1
 10
0.0
 20
0.0
 30
0.0
  0
VERTEX
  5
CD0
330
CCF
100
AcDbEntity
  8
Layer 1
 62
     7
370
    25
100
AcDbVertex
100
AcDb2dVertex
 10
4.009353024594439
 20
-0.2962075116955174
 30
0.0
  0
VERTEX
  5
CD1
330
CCF
100
AcDbEntity
  8
Layer 1
 62
     7
370
    25
100
AcDbVertex
100
AcDb2dVertex
 10
4.383370906555434
 20
-0.2962075116955174
 30
0.0
  0
SEQEND
  5
CD2
330
CCF
100
AcDbEntity
  8
Layer 1
370
    25
  0
POLYLINE
  5
CD3
330
18
100
AcDbEntity
  8
Layer 1
 62
     7
370
    25
100
AcDb2dPolyline
 66
     1
 10
0.0
 20
0.0
 30
0.0
  0
VERTEX
  5
CD4
330
CD3
100
AcDbEntity
  8
Layer 1
 62
     7
370
    25
100
AcDbVertex
100
AcDb2dVertex
 10
4.684612400473236
 20
-0.2957857559750825
 30
0.0
  0
VERTEX
  5
CD5
330
CD3
100
AcDbEntity
  8
Layer 1
 62
     7
370
    25
100
AcDbVertex
100
AcDb2dVertex
 10
4.383370906555434
 20
-0.2958152041660003
 30
0.0
  0
SEQEND
  5
CD6
330
CD3
100
AcDbEntity
  8
Layer 1
370
    25
  0
POLYLINE
  5
CD7
330
18
100
AcDbEntity
  8
Layer 1
 62
     7
370
    25
100
AcDb2dPolyline
 66
     1
 10
0.0
 20
0.0
 30
0.0
  0
VERTEX
  5
CD8
330
CD7
100
AcDbEntity
  8
Layer 1
 62
     7
370
    25
100
AcDbVertex
100
AcDb2dVertex
 10
4.009353024594439
 20
-0.2958152041660003
 30
0.0
  0
VERTEX
  5
CD9
330
CD7
100
AcDbEntity
  8
Layer 1
 62
     7
370
    25
100
AcDbVertex
100
AcDb2dVertex
 10
3.697170925997246
 20
-0.2958152041660003
 30
0.0
  0
SEQEND
  5
CDA
330
CD7
100
AcDbEntity
  8
Layer 1
370
    25
  0
POLYLINE
  5
CDB
330
18
100
AcDbEntity
  8
Layer 1
  6
AI-Linetype-3
 62
   253
370
    25
100
AcDb2dPolyline
 66
     1
 10
0.0
 20
0.0
 30
0.0
  0
VERTEX
  5
CDC
330
CDB
100
AcDbEntity
  8
Layer 1
  6
AI-Linetype-3
 62
   253
370
    25
100
AcDbVertex
100
AcDb2dVertex
 10
4.383370906555434
 20
-0.2944624195813614
 30
0.0
  0
VERTEX
  5
CDD
330
CDB
100
AcDbEntity
  8
Layer 1
  6
AI-Linetype-3
 62
   253
370
    25
100
AcDbVertex
100
AcDb2dVertex
 10
4.009353024594439
 20
-0.2944624195813614
 30
0.0
  0
SEQEND
  5
CDE
330
CDB
100
AcDbEntity
  8
Layer 1
  6
AI-Linetype-3
370
    25
  0
POLYLINE
  5
CDF
330
18
100
AcDbEntity
  8
Layer 1
 62
     7
370
    25
100
AcDb2dPolyline
 66
     1
 10
0.0
 20
0.0
 30
0.0
  0
VERTEX
  5
CE0
330
CDF
100
AcDbEntity
  8
Layer 1
 62
     7
370
    25
100
AcDbVertex
100
AcDb2dVertex
 10
4.009353024594439
 20
-0.2903837740586552
 30
0.0
  0
VERTEX
  5
CE1
330
CDF
100
AcDbEntity
  8
Layer 1
 62
     7
370
    25
100
AcDbVertex
100
AcDb2dVertex
 10
4.383370906555434
 20
-0.2903837740586552
 30
0.0
  0
SEQEND
  5
CE2
330
CDF
100
AcDbEntity
  8
Layer 1
370
    25
  0
POLYLINE
  5
CE3
330
18
100
AcDbEntity
  8
Layer 1
  6
AI-Linetype-4
 62
   253
370
    25
100
AcDb2dPolyline
 66
     1
 10
0.0
 20
0.0
 30
0.0
  0
VERTEX
  5
CE4
330
CE3
100
AcDbEntity
  8
Layer 1
  6
AI-Linetype-4
 62
   253
370
    25
100
AcDbVertex
100
AcDb2dVertex
 10
4.383370906555434
 20
-0.2836671985959662
 30
0.0
  0
VERTEX
  5
CE5
330
CE3
100
AcDbEntity
  8
Layer 1
  6
AI-Linetype-4
 62
   253
370
    25
100
AcDbVertex
100
AcDb2dVertex
 10
4.009353024594439
 20
-0.2836671985959662
 30
0.0
  0
SEQEND
  5
CE6
330
CE3
100
AcDbEntity
  8
Layer 1
  6
AI-Linetype-4
370
    25
  0
POLYLINE
  5
CE7
330
18
100
AcDbEntity
  8
Layer 1
 62
     7
370
    25
100
AcDb2dPolyline
 66
     1
 10
0.0
 20
0.0
 30
0.0
  0
VERTEX
  5
CE8
330
CE7
100
AcDbEntity
  8
Layer 1
 62
     7
370
    25
100
AcDbVertex
100
AcDb2dVertex
 10
4.009353024594439
 20
-0.2763756896847425
 30
0.0
  0
VERTEX
  5
CE9
330
CE7
100
AcDbEntity
  8
Layer 1
 62
     7
370
    25
100
AcDbVertex
100
AcDb2dVertex
 10
4.383370906555434
 20
-0.2763756896847425
 30
0.0
  0
SEQEND
  5
CEA
330
CE7
100
AcDbEntity
  8
Layer 1
370
    25
  0
POLYLINE
  5
CEB
330
18
100
AcDbEntity
  8
Layer 1
 62
     7
370
    25
100
AcDb2dPolyline
 66
     1
 10
0.0
 20
0.0
 30
0.0
  0
VERTEX
  5
CEC
330
CEB
100
AcDbEntity
  8
Layer 1
 62
     7
370
    25
100
AcDbVertex
100
AcDb2dVertex
 10
4.009353024594439
 20
-0.266777683056687
 30
0.0
  0
VERTEX
  5
CED
330
CEB
100
AcDbEntity
  8
Layer 1
 62
     7
370
    25
100
AcDbVertex
100
AcDb2dVertex
 10
4.383370906555434
 20
-0.266777683056687
 30
0.0
  0
SEQEND
  5
CEE
330
CEB
100
AcDbEntity
  8
Layer 1
370
    25
  0
POLYLINE
  5
CEF
330
18
100
AcDbEntity
  8
Layer 1
  6
AI-Linetype-5
 62
   253
370
    25
100
AcDb2dPolyline
 66
     1
 10
0.0
 20
0.0
 30
0.0
  0
VERTEX
  5
CF0
330
CEF
100
AcDbEntity
  8
Layer 1
  6
AI-Linetype-5
 62
   253
370
    25
100
AcDbVertex
100
AcDb2dVertex
 10
4.383370906555434
 20
-0.2622526186211074
 30
0.0
  0
VERTEX
  5
CF1
330
CEF
100
AcDbEntity
  8
Layer 1
  6
AI-Linetype-5
 62
   253
370
    25
100
AcDbVertex
100
AcDb2dVertex
 10
4.009353024594439
 20
-0.2622526186211074
 30
0.0
  0
SEQEND
  5
CF2
330
CEF
100
AcDbEntity
  8
Layer 1
  6
AI-Linetype-5
370
    25
  0
POLYLINE
  5
CF3
330
18
100
AcDbEntity
  8
Layer 1
 62
     7
370
    25
100
AcDb2dPolyline
 66
     1
 10
0.0
 20
0.0
 30
0.0
  0
VERTEX
  5
CF4
330
CF3
100
AcDbEntity
  8
Layer 1
 62
     7
370
    25
100
AcDbVertex
100
AcDb2dVertex
 10
4.009353024594439
 20
-0.2460327314512969
 30
0.0
  0
VERTEX
  5
CF5
330
CF3
100
AcDbEntity
  8
Layer 1
 62
     7
370
    25
100
AcDbVertex
100
AcDb2dVertex
 10
4.383370906555434
 20
-0.2460327314512969
 30
0.0
  0
SEQEND
  5
CF6
330
CF3
100
AcDbEntity
  8
Layer 1
370
    25
  0
POLYLINE
  5
CF7
330
18
100
AcDbEntity
  8
Layer 1
 62
     7
370
    25
100
AcDb2dPolyline
 66
     1
 10
0.0
 20
0.0
 30
0.0
  0
VERTEX
  5
CF8
330
CF7
100
AcDbEntity
  8
Layer 1
 62
     7
370
    25
100
AcDbVertex
100
AcDb2dVertex
 10
4.009353024594439
 20
-0.2328092621364179
 30
0.0
  0
VERTEX
  5
CF9
330
CF7
100
AcDbEntity
  8
Layer 1
 62
     7
370
    25
100
AcDbVertex
100
AcDb2dVertex
 10
4.383370906555434
 20
-0.2328092621364179
 30
0.0
  0
SEQEND
  5
CFA
330
CF7
100
AcDbEntity
  8
Layer 1
370
    25
  0
POLYLINE
  5
CFB
330
18
100
AcDbEntity
  8
Layer 1
  6
AI-Linetype-6
 62
   253
370
    25
100
AcDb2dPolyline
 66
     1
 10
0.0
 20
0.0
 30
0.0
  0
VERTEX
  5
CFC
330
CFB
100
AcDbEntity
  8
Layer 1
  6
AI-Linetype-6
 62
   253
370
    25
100
AcDbVertex
100
AcDb2dVertex
 10
4.383370906555434
 20
-0.2305568758030225
 30
0.0
  0
VERTEX
  5
CFD
330
CFB
100
AcDbEntity
  8
Layer 1
  6
AI-Linetype-6
 62
   253
370
    25
100
AcDbVertex
100
AcDb2dVertex
 10
4.009353024594439
 20
-0.2305568758030225
 30
0.0
  0
SEQEND
  5
CFE
330
CFB
100
AcDbEntity
  8
Layer 1
  6
AI-Linetype-6
370
    25
  0
POLYLINE
  5
CFF
330
18
100
AcDbEntity
  8
Layer 1
 62
     7
370
    25
100
AcDb2dPolyline
 66
     1
 10
0.0
 20
0.0
 30
0.0
  0
VERTEX
  5
D00
330
CFF
100
AcDbEntity
  8
Layer 1
 62
     7
370
    25
100
AcDbVertex
100
AcDb2dVertex
 10
4.009353024594439
 20
-0.2056656394456313
 30
0.0
  0
VERTEX
  5
D01
330
CFF
100
AcDbEntity
  8
Layer 1
 62
     7
370
    25
100
AcDbVertex
100
AcDb2dVertex
 10
4.383370906555434
 20
-0.2056656394456313
 30
0.0
  0
SEQEND
  5
D02
330
CFF
100
AcDbEntity
  8
Layer 1
370
    25
  0
POLYLINE
  5
D03
330
18
100
AcDbEntity
  8
Layer 1
 62
     7
370
    25
100
AcDb2dPolyline
 66
     1
 10
0.0
 20
0.0
 30
0.0
  0
VERTEX
  5
D04
330
D03
100
AcDbEntity
  8
Layer 1
 62
     7
370
    25
100
AcDbVertex
100
AcDb2dVertex
 10
4.009353024594439
 20
-0.189026389054586
 30
0.0
  0
VERTEX
  5
D05
330
D03
100
AcDbEntity
  8
Layer 1
 62
     7
370
    25
100
AcDbVertex
100
AcDb2dVertex
 10
4.383370906555434
 20
-0.189026389054586
 30
0.0
  0
SEQEND
  5
D06
330
D03
100
AcDbEntity
  8
Layer 1
370
    25
  0
POLYLINE
  5
D07
330
18
100
AcDbEntity
  8
Layer 1
 62
     7
370
    25
100
AcDb2dPolyline
 66
     1
 10
0.0
 20
0.0
 30
0.0
  0
VERTEX
  5
D08
330
D07
100
AcDbEntity
  8
Layer 1
 62
     7
370
    25
100
AcDbVertex
100
AcDb2dVertex
 10
4.383370906555434
 20
-0.3057919904777138
 30
0.0
  0
VERTEX
  5
D09
330
D07
100
AcDbEntity
  8
Layer 1
 62
     7
370
    25
100
AcDbVertex
100
AcDb2dVertex
 10
4.383370906555434
 20
1.085560482669467
 30
0.0
  0
SEQEND
  5
D0A
330
D07
100
AcDbEntity
  8
Layer 1
370
    25
  0
POLYLINE
  5
D0B
330
18
100
AcDbEntity
  8
Layer 1
 62
     7
370
    25
100
AcDb2dPolyline
 66
     1
 10
0.0
 20
0.0
 30
0.0
  0
VERTEX
  5
D0C
330
D0B
100
AcDbEntity
  8
Layer 1
 62
     7
370
    25
100
AcDbVertex
100
AcDb2dVertex
 10
4.009353024594439
 20
-0.1559102224226461
 30
0.0
  0
VERTEX
  5
D0D
330
D0B
100
AcDbEntity
  8
Layer 1
 62
     7
370
    25
100
AcDbVertex
100
AcDb2dVertex
 10
4.383370906555434
 20
-0.1559102224226461
 30
0.0
  0
SEQEND
  5
D0E
330
D0B
100
AcDbEntity
  8
Layer 1
370
    25
  0
POLYLINE
  5
D0F
330
18
100
AcDbEntity
  8
Layer 1
 62
     7
370
    25
100
AcDb2dPolyline
 66
     1
 10
0.0
 20
0.0
 30
0.0
  0
VERTEX
  5
D10
330
D0F
100
AcDbEntity
  8
Layer 1
 62
     7
370
    25
100
AcDbVertex
100
AcDb2dVertex
 10
4.383370906555434
 20
-0.1384593012807698
 30
0.0
  0
VERTEX
  5
D11
330
D0F
100
AcDbEntity
  8
Layer 1
 62
     7
370
    25
100
AcDbVertex
100
AcDb2dVertex
 10
4.009353024594439
 20
-0.1384593012807698
 30
0.0
  0
SEQEND
  5
D12
330
D0F
100
AcDbEntity
  8
Layer 1
370
    25
  0
POLYLINE
  5
D13
330
18
100
AcDbEntity
  8
Layer 1
 62
     7
370
    25
100
AcDb2dPolyline
 66
     1
 10
0.0
 20
0.0
 30
0.0
  0
VERTEX
  5
D14
330
D13
100
AcDbEntity
  8
Layer 1
 62
     7
370
    25
100
AcDbVertex
100
AcDb2dVertex
 10
4.009353024594439
 20
-0.1361054561035107
 30
0.0
  0
VERTEX
  5
D15
330
D13
100
AcDbEntity
  8
Layer 1
 62
     7
370
    25
100
AcDbVertex
100
AcDb2dVertex
 10
4.383370906555434
 20
-0.1361054561035107
 30
0.0
  0
SEQEND
  5
D16
330
D13
100
AcDbEntity
  8
Layer 1
370
    25
  0
POLYLINE
  5
D17
330
18
100
AcDbEntity
  8
ADP1DETAIL
  6
AI-Linetype-5
 62
     5
370
    25
100
AcDb2dPolyline
 66
     1
 10
0.0
 20
0.0
 30
0.0
  0
VERTEX
  5
D18
330
D17
100
AcDbEntity
  8
ADP1DETAIL
  6
AI-Linetype-5
 62
     5
370
    25
100
AcDbVertex
100
AcDb2dVertex
 10
3.697170925997246
 20
-0.1088062631855027
 30
0.0
  0
VERTEX
  5
D19
330
D17
100
AcDbEntity
  8
ADP1DETAIL
  6
AI-Linetype-5
 62
     5
370
    25
100
AcDbVertex
100
AcDb2dVertex
 10
4.684568394325363
 20
-0.1088062631855027
 30
0.0
  0
SEQEND
  5
D1A
330
D17
100
AcDbEntity
  8
ADP1DETAIL
  6
AI-Linetype-5
 62
     5
370
    25
  0
POLYLINE
  5
D1B
330
18
100
AcDbEntity
  8
Layer 1
 62
     7
370
    25
100
AcDb2dPolyline
 66
     1
 10
0.0
 20
0.0
 30
0.0
  0
VERTEX
  5
D1C
330
D1B
100
AcDbEntity
  8
Layer 1
 62
     7
370
    25
100
AcDbVertex
100
AcDb2dVertex
 10
4.009353024594439
 20
-0.0975375675954369
 30
0.0
  0
VERTEX
  5
D1D
330
D1B
100
AcDbEntity
  8
Layer 1
 62
     7
370
    25
100
AcDbVertex
100
AcDb2dVertex
 10
4.383370906555434
 20
-0.0975375675954369
 30
0.0
  0
SEQEND
  5
D1E
330
D1B
100
AcDbEntity
  8
Layer 1
370
    25
  0
POLYLINE
  5
D1F
330
18
100
AcDbEntity
  8
Layer 1
 62
     7
370
    25
100
AcDb2dPolyline
 66
     1
 10
0.0
 20
0.0
 30
0.0
  0
VERTEX
  5
D20
330
D1F
100
AcDbEntity
  8
Layer 1
 62
     7
370
    25
100
AcDbVertex
100
AcDb2dVertex
 10
4.383370906555434
 20
-0.0795117130051049
 30
0.0
  0
VERTEX
  5
D21
330
D1F
100
AcDbEntity
  8
Layer 1
 62
     7
370
    25
100
AcDbVertex
100
AcDb2dVertex
 10
4.009353024594439
 20
-0.0795117130051049
 30
0.0
  0
SEQEND
  5
D22
330
D1F
100
AcDbEntity
  8
Layer 1
370
    25
  0
POLYLINE
  5
D23
330
18
100
AcDbEntity
  8
Layer 1
 62
     7
370
    25
100
AcDb2dPolyline
 66
     1
 10
0.0
 20
0.0
 30
0.0
  0
VERTEX
  5
D24
330
D23
100
AcDbEntity
  8
Layer 1
 62
     7
370
    25
100
AcDbVertex
100
AcDb2dVertex
 10
4.009353024594439
 20
-0.0748987175715206
 30
0.0
  0
VERTEX
  5
D25
330
D23
100
AcDbEntity
  8
Layer 1
 62
     7
370
    25
100
AcDbVertex
100
AcDb2dVertex
 10
4.383370906555434
 20
-0.0748987175715206
 30
0.0
  0
SEQEND
  5
D26
330
D23
100
AcDbEntity
  8
Layer 1
370
    25
  0
POLYLINE
  5
D27
330
18
100
AcDbEntity
  8
Layer 1
 62
     7
370
    25
100
AcDb2dPolyline
 66
     1
 10
0.0
 20
0.0
 30
0.0
  0
VERTEX
  5
D28
330
D27
100
AcDbEntity
  8
Layer 1
 62
     7
370
    25
100
AcDbVertex
100
AcDb2dVertex
 10
4.009353024594439
 20
-0.031487860250417
 30
0.0
  0
VERTEX
  5
D29
330
D27
100
AcDbEntity
  8
Layer 1
 62
     7
370
    25
100
AcDbVertex
100
AcDb2dVertex
 10
4.383370906555434
 20
-0.031487860250417
 30
0.0
  0
SEQEND
  5
D2A
330
D27
100
AcDbEntity
  8
Layer 1
370
    25
  0
POLYLINE
  5
D2B
330
18
100
AcDbEntity
  8
Layer 1
 62
     7
370
    25
100
AcDb2dPolyline
 66
     1
 10
0.0
 20
0.0
 30
0.0
  0
VERTEX
  5
D2C
330
D2B
100
AcDbEntity
  8
Layer 1
 62
     7
370
    25
100
AcDbVertex
100
AcDb2dVertex
 10
4.383370906555434
 20
-0.0131576291285724
 30
0.0
  0
VERTEX
  5
D2D
330
D2B
100
AcDbEntity
  8
Layer 1
 62
     7
370
    25
100
AcDbVertex
100
AcDb2dVertex
 10
4.009353024594439
 20
-0.0131576291285724
 30
0.0
  0
SEQEND
  5
D2E
330
D2B
100
AcDbEntity
  8
Layer 1
370
    25
  0
POLYLINE
  5
D2F
330
18
100
AcDbEntity
  8
Layer 1
 62
     7
370
    25
100
AcDb2dPolyline
 66
     1
 10
0.0
 20
0.0
 30
0.0
  0
VERTEX
  5
D30
330
D2F
100
AcDbEntity
  8
Layer 1
 62
     7
370
    25
100
AcDbVertex
100
AcDb2dVertex
 10
4.009353024594439
 20
-0.0063531226678788
 30
0.0
  0
VERTEX
  5
D31
330
D2F
100
AcDbEntity
  8
Layer 1
 62
     7
370
    25
100
AcDbVertex
100
AcDb2dVertex
 10
4.383370906555434
 20
-0.0063531226678788
 30
0.0
  0
SEQEND
  5
D32
330
D2F
100
AcDbEntity
  8
Layer 1
370
    25
  0
POLYLINE
  5
D33
330
18
100
AcDbEntity
  8
Layer 1
 62
     7
370
    25
100
AcDb2dPolyline
 66
     1
 10
0.0
 20
0.0
 30
0.0
  0
VERTEX
  5
D34
330
D33
100
AcDbEntity
  8
Layer 1
 62
     7
370
    25
100
AcDbVertex
100
AcDb2dVertex
 10
4.009353024594439
 20
0.0412175472510059
 30
0.0
  0
VERTEX
  5
D35
330
D33
100
AcDbEntity
  8
Layer 1
 62
     7
370
    25
100
AcDbVertex
100
AcDb2dVertex
 10
4.383370906555434
 20
0.0412175472510059
 30
0.0
  0
SEQEND
  5
D36
330
D33
100
AcDbEntity
  8
Layer 1
370
    25
  0
POLYLINE
  5
D37
330
18
100
AcDbEntity
  8
Layer 1
 62
     7
370
    25
100
AcDb2dPolyline
 66
     1
 10
0.0
 20
0.0
 30
0.0
  0
VERTEX
  5
D38
330
D37
100
AcDbEntity
  8
Layer 1
 62
     7
370
    25
100
AcDbVertex
100
AcDb2dVertex
 10
4.383370906555434
 20
0.05954777837285
 30
0.0
  0
VERTEX
  5
D39
330
D37
100
AcDbEntity
  8
Layer 1
 62
     7
370
    25
100
AcDbVertex
100
AcDb2dVertex
 10
4.009353024594439
 20
0.05954777837285
 30
0.0
  0
SEQEND
  5
D3A
330
D37
100
AcDbEntity
  8
Layer 1
370
    25
  0
POLYLINE
  5
D3B
330
18
100
AcDbEntity
  8
Layer 1
 62
     7
370
    25
100
AcDb2dPolyline
 66
     1
 10
0.0
 20
0.0
 30
0.0
  0
VERTEX
  5
D3C
330
D3B
100
AcDbEntity
  8
Layer 1
 62
     7
370
    25
100
AcDbVertex
100
AcDb2dVertex
 10
4.009353024594439
 20
0.0684355730939386
 30
0.0
  0
VERTEX
  5
D3D
330
D3B
100
AcDbEntity
  8
Layer 1
 62
     7
370
    25
100
AcDbVertex
100
AcDb2dVertex
 10
4.383370906555434
 20
0.0684355730939386
 30
0.0
  0
SEQEND
  5
D3E
330
D3B
100
AcDbEntity
  8
Layer 1
370
    25
  0
POLYLINE
  5
D3F
330
18
100
AcDbEntity
  8
ADP1DETAIL
  6
AI-Linetype-5
 62
     5
370
    25
100
AcDb2dPolyline
 66
     1
 10
0.0
 20
0.0
 30
0.0
  0
VERTEX
  5
D40
330
D3F
100
AcDbEntity
  8
ADP1DETAIL
  6
AI-Linetype-5
 62
     5
370
    25
100
AcDbVertex
100
AcDb2dVertex
 10
3.397522376576755
 20
0.3898842460958769
 30
0.0
  0
VERTEX
  5
D41
330
D3F
100
AcDbEntity
  8
ADP1DETAIL
  6
AI-Linetype-5
 62
     5
370
    25
100
AcDbVertex
100
AcDb2dVertex
 10
3.697170925997246
 20
-0.1088062631855027
 30
0.0
  0
SEQEND
  5
D42
330
D3F
100
AcDbEntity
  8
ADP1DETAIL
  6
AI-Linetype-5
 62
     5
370
    25
  0
POLYLINE
  5
D43
330
18
100
AcDbEntity
  8
Layer 1
 62
     7
370
    25
100
AcDb2dPolyline
 66
     1
 10
0.0
 20
0.0
 30
0.0
  0
VERTEX
  5
D44
330
D43
100
AcDbEntity
  8
Layer 1
 62
     7
370
    25
100
AcDbVertex
100
AcDb2dVertex
 10
4.009353024594439
 20
0.1194152601660599
 30
0.0
  0
VERTEX
  5
D45
330
D43
100
AcDbEntity
  8
Layer 1
 62
     7
370
    25
100
AcDbVertex
100
AcDb2dVertex
 10
4.383370906555434
 20
0.1194152601660599
 30
0.0
  0
SEQEND
  5
D46
330
D43
100
AcDbEntity
  8
Layer 1
370
    25
  0
POLYLINE
  5
D47
330
18
100
AcDbEntity
  8
Layer 1
 62
     7
370
    25
100
AcDb2dPolyline
 66
     1
 10
0.0
 20
0.0
 30
0.0
  0
VERTEX
  5
D48
330
D47
100
AcDbEntity
  8
Layer 1
 62
     7
370
    25
100
AcDbVertex
100
AcDb2dVertex
 10
4.383370906555434
 20
0.1374614065251016
 30
0.0
  0
VERTEX
  5
D49
330
D47
100
AcDbEntity
  8
Layer 1
 62
     7
370
    25
100
AcDbVertex
100
AcDb2dVertex
 10
4.009353024594439
 20
0.1374614065251016
 30
0.0
  0
SEQEND
  5
D4A
330
D47
100
AcDbEntity
  8
Layer 1
370
    25
  0
POLYLINE
  5
D4B
330
18
100
AcDbEntity
  8
Layer 1
 62
     7
370
    25
100
AcDb2dPolyline
 66
     1
 10
0.0
 20
0.0
 30
0.0
  0
VERTEX
  5
D4C
330
D4B
100
AcDbEntity
  8
Layer 1
 62
     7
370
    25
100
AcDbVertex
100
AcDb2dVertex
 10
4.009353024594439
 20
0.1482904471251438
 30
0.0
  0
VERTEX
  5
D4D
330
D4B
100
AcDbEntity
  8
Layer 1
 62
     7
370
    25
100
AcDbVertex
100
AcDb2dVertex
 10
4.383370906555434
 20
0.1482904471251438
 30
0.0
  0
SEQEND
  5
D4E
330
D4B
100
AcDbEntity
  8
Layer 1
370
    25
  0
POLYLINE
  5
D4F
330
18
100
AcDbEntity
  8
Layer 1
  6
AI-Linetype-9
 62
   253
370
    25
100
AcDb2dPolyline
 66
     1
 10
0.0
 20
0.0
 30
0.0
  0
VERTEX
  5
D50
330
D4F
100
AcDbEntity
  8
Layer 1
  6
AI-Linetype-9
 62
   253
370
    25
100
AcDbVertex
100
AcDb2dVertex
 10
4.684581922171222
 20
0.8885679914543267
 30
0.0
  0
VERTEX
  5
D51
330
D4F
100
AcDbEntity
  8
Layer 1
  6
AI-Linetype-9
 62
   253
370
    25
100
AcDbVertex
100
AcDb2dVertex
 10
4.694551944560005
 20
0.8985515416889695
 30
0.0
  0
SEQEND
  5
D52
330
D4F
100
AcDbEntity
  8
Layer 1
  6
AI-Linetype-9
370
    25
  0
POLYLINE
  5
D53
330
18
100
AcDbEntity
  8
Layer 1
 62
     7
370
    25
100
AcDb2dPolyline
 66
     1
 10
0.0
 20
0.0
 30
0.0
  0
VERTEX
  5
D54
330
D53
100
AcDbEntity
  8
Layer 1
 62
     7
370
    25
100
AcDbVertex
100
AcDb2dVertex
 10
4.009353024594439
 20
0.2018742445227586
 30
0.0
  0
VERTEX
  5
D55
330
D53
100
AcDbEntity
  8
Layer 1
 62
     7
370
    25
100
AcDbVertex
100
AcDb2dVertex
 10
4.383370906555434
 20
0.2018742445227586
 30
0.0
  0
SEQEND
  5
D56
330
D53
100
AcDbEntity
  8
Layer 1
370
    25
  0
POLYLINE
  5
D57
330
18
100
AcDbEntity
  8
Layer 1
 62
     7
370
    25
100
AcDb2dPolyline
 66
     1
 10
0.0
 20
0.0
 30
0.0
  0
VERTEX
  5
D58
330
D57
100
AcDbEntity
  8
Layer 1
 62
     7
370
    25
100
AcDbVertex
100
AcDb2dVertex
 10
4.383370906555434
 20
0.2193589852792037
 30
0.0
  0
VERTEX
  5
D59
330
D57
100
AcDbEntity
  8
Layer 1
 62
     7
370
    25
100
AcDbVertex
100
AcDb2dVertex
 10
4.009353024594439
 20
0.2193589852792037
 30
0.0
  0
SEQEND
  5
D5A
330
D57
100
AcDbEntity
  8
Layer 1
370
    25
  0
POLYLINE
  5
D5B
330
18
100
AcDbEntity
  8
Layer 1
 62
     7
370
    25
100
AcDb2dPolyline
 66
     1
 10
0.0
 20
0.0
 30
0.0
  0
VERTEX
  5
D5C
330
D5B
100
AcDbEntity
  8
Layer 1
 62
     7
370
    25
100
AcDbVertex
100
AcDb2dVertex
 10
4.009353024594439
 20
0.2319669376080493
 30
0.0
  0
VERTEX
  5
D5D
330
D5B
100
AcDbEntity
  8
Layer 1
 62
     7
370
    25
100
AcDbVertex
100
AcDb2dVertex
 10
4.383370906555434
 20
0.2319669376080493
 30
0.0
  0
SEQEND
  5
D5E
330
D5B
100
AcDbEntity
  8
Layer 1
370
    25
  0
POLYLINE
  5
D5F
330
18
100
AcDbEntity
  8
Layer 1
 62
     7
370
    25
100
AcDb2dPolyline
 66
     1
 10
0.0
 20
0.0
 30
0.0
  0
VERTEX
  5
D60
330
D5F
100
AcDbEntity
  8
Layer 1
 62
     7
370
    25
100
AcDbVertex
100
AcDb2dVertex
 10
4.009353024594439
 20
-0.3057919904777138
 30
0.0
  0
VERTEX
  5
D61
330
D5F
100
AcDbEntity
  8
Layer 1
 62
     7
370
    25
100
AcDbVertex
100
AcDb2dVertex
 10
4.009353024594439
 20
1.085560482669467
 30
0.0
  0
SEQEND
  5
D62
330
D5F
100
AcDbEntity
  8
Layer 1
370
    25
  0
POLYLINE
  5
D63
330
18
100
AcDbEntity
  8
Layer 1
 62
     7
370
    25
100
AcDb2dPolyline
 66
     1
 10
0.0
 20
0.0
 30
0.0
  0
VERTEX
  5
D64
330
D63
100
AcDbEntity
  8
Layer 1
 62
     7
370
    25
100
AcDbVertex
100
AcDb2dVertex
 10
4.009353024594439
 20
0.2873025910426712
 30
0.0
  0
VERTEX
  5
D65
330
D63
100
AcDbEntity
  8
Layer 1
 62
     7
370
    25
100
AcDbVertex
100
AcDb2dVertex
 10
4.383370906555434
 20
0.2873025910426712
 30
0.0
  0
SEQEND
  5
D66
330
D63
100
AcDbEntity
  8
Layer 1
370
    25
  0
POLYLINE
  5
D67
330
18
100
AcDbEntity
  8
Layer 1
 62
     7
370
    25
100
AcDb2dPolyline
 66
     1
 10
0.0
 20
0.0
 30
0.0
  0
VERTEX
  5
D68
330
D67
100
AcDbEntity
  8
Layer 1
 62
     7
370
    25
100
AcDbVertex
100
AcDb2dVertex
 10
4.383370906555434
 20
0.3039418414337165
 30
0.0
  0
VERTEX
  5
D69
330
D67
100
AcDbEntity
  8
Layer 1
 62
     7
370
    25
100
AcDbVertex
100
AcDb2dVertex
 10
4.009353024594439
 20
0.3039418414337165
 30
0.0
  0
SEQEND
  5
D6A
330
D67
100
AcDbEntity
  8
Layer 1
370
    25
  0
POLYLINE
  5
D6B
330
18
100
AcDbEntity
  8
Layer 1
 62
     7
370
    25
100
AcDb2dPolyline
 66
     1
 10
0.0
 20
0.0
 30
0.0
  0
VERTEX
  5
D6C
330
D6B
100
AcDbEntity
  8
Layer 1
 62
     7
370
    25
100
AcDbVertex
100
AcDb2dVertex
 10
4.009353024594439
 20
0.3181257878037171
 30
0.0
  0
VERTEX
  5
D6D
330
D6B
100
AcDbEntity
  8
Layer 1
 62
     7
370
    25
100
AcDbVertex
100
AcDb2dVertex
 10
4.383370906555434
 20
0.3181257878037171
 30
0.0
  0
SEQEND
  5
D6E
330
D6B
100
AcDbEntity
  8
Layer 1
370
    25
  0
POLYLINE
  5
D6F
330
18
100
AcDbEntity
  8
Layer 1
 62
     7
370
    25
100
AcDb2dPolyline
 66
     1
 10
0.0
 20
0.0
 30
0.0
  0
VERTEX
  5
D70
330
D6F
100
AcDbEntity
  8
Layer 1
 62
     7
370
    25
100
AcDbVertex
100
AcDb2dVertex
 10
4.009353024594439
 20
0.3743542790642449
 30
0.0
  0
VERTEX
  5
D71
330
D6F
100
AcDbEntity
  8
Layer 1
 62
     7
370
    25
100
AcDbVertex
100
AcDb2dVertex
 10
4.383370906555434
 20
0.3743542790642449
 30
0.0
  0
SEQEND
  5
D72
330
D6F
100
AcDbEntity
  8
Layer 1
370
    25
  0
POLYLINE
  5
D73
330
18
100
AcDbEntity
  8
Layer 1
 62
     7
370
    25
100
AcDb2dPolyline
 66
     1
 10
0.0
 20
0.0
 30
0.0
  0
VERTEX
  5
D74
330
D73
100
AcDbEntity
  8
Layer 1
 62
     7
370
    25
100
AcDbVertex
100
AcDb2dVertex
 10
4.383370906555434
 20
0.3898842460958769
 30
0.0
  0
VERTEX
  5
D75
330
D73
100
AcDbEntity
  8
Layer 1
 62
     7
370
    25
100
AcDbVertex
100
AcDb2dVertex
 10
4.009353024594439
 20
0.3898842460958769
 30
0.0
  0
SEQEND
  5
D76
330
D73
100
AcDbEntity
  8
Layer 1
370
    25
  0
POLYLINE
  5
D77
330
18
100
AcDbEntity
  8
Layer 1
 62
     7
370
    25
100
AcDb2dPolyline
 66
     1
 10
0.0
 20
0.0
 30
0.0
  0
VERTEX
  5
D78
330
D77
100
AcDbEntity
  8
Layer 1
 62
     7
370
    25
100
AcDbVertex
100
AcDb2dVertex
 10
4.009353024594439
 20
0.4054142131275085
 30
0.0
  0
VERTEX
  5
D79
330
D77
100
AcDbEntity
  8
Layer 1
 62
     7
370
    25
100
AcDbVertex
100
AcDb2dVertex
 10
4.383370906555434
 20
0.4054142131275085
 30
0.0
  0
SEQEND
  5
D7A
330
D77
100
AcDbEntity
  8
Layer 1
370
    25
  0
POLYLINE
  5
D7B
330
18
100
AcDbEntity
  8
Layer 1
 62
     7
370
    25
100
AcDb2dPolyline
 66
     1
 10
0.0
 20
0.0
 30
0.0
  0
VERTEX
  5
D7C
330
D7B
100
AcDbEntity
  8
Layer 1
 62
     7
370
    25
100
AcDbVertex
100
AcDb2dVertex
 10
4.009353024594439
 20
0.4616427043880363
 30
0.0
  0
VERTEX
  5
D7D
330
D7B
100
AcDbEntity
  8
Layer 1
 62
     7
370
    25
100
AcDbVertex
100
AcDb2dVertex
 10
4.383370906555434
 20
0.4616427043880363
 30
0.0
  0
SEQEND
  5
D7E
330
D7B
100
AcDbEntity
  8
Layer 1
370
    25
  0
POLYLINE
  5
D7F
330
18
100
AcDbEntity
  8
Layer 1
 62
     7
370
    25
100
AcDb2dPolyline
 66
     1
 10
0.0
 20
0.0
 30
0.0
  0
VERTEX
  5
D80
330
D7F
100
AcDbEntity
  8
Layer 1
 62
     7
370
    25
100
AcDbVertex
100
AcDb2dVertex
 10
4.383370906555434
 20
0.4758266507579583
 30
0.0
  0
VERTEX
  5
D81
330
D7F
100
AcDbEntity
  8
Layer 1
 62
     7
370
    25
100
AcDbVertex
100
AcDb2dVertex
 10
4.009353024594439
 20
0.4758266507579583
 30
0.0
  0
SEQEND
  5
D82
330
D7F
100
AcDbEntity
  8
Layer 1
370
    25
  0
POLYLINE
  5
D83
330
18
100
AcDbEntity
  8
Layer 1
 62
     7
370
    25
100
AcDb2dPolyline
 66
     1
 10
0.0
 20
0.0
 30
0.0
  0
VERTEX
  5
D84
330
D83
100
AcDbEntity
  8
Layer 1
 62
     7
370
    25
100
AcDbVertex
100
AcDb2dVertex
 10
4.009353024594439
 20
0.4924591372261529
 30
0.0
  0
VERTEX
  5
D85
330
D83
100
AcDbEntity
  8
Layer 1
 62
     7
370
    25
100
AcDbVertex
100
AcDb2dVertex
 10
4.383370906555434
 20
0.4924591372261529
 30
0.0
  0
SEQEND
  5
D86
330
D83
100
AcDbEntity
  8
Layer 1
370
    25
  0
POLYLINE
  5
D87
330
18
100
AcDbEntity
  8
Layer 1
 62
     7
370
    25
100
AcDb2dPolyline
 66
     1
 10
0.0
 20
0.0
 30
0.0
  0
VERTEX
  5
D88
330
D87
100
AcDbEntity
  8
Layer 1
 62
     7
370
    25
100
AcDbVertex
100
AcDb2dVertex
 10
4.009353024594439
 20
0.5478015545837041
 30
0.0
  0
VERTEX
  5
D89
330
D87
100
AcDbEntity
  8
Layer 1
 62
     7
370
    25
100
AcDbVertex
100
AcDb2dVertex
 10
4.383370906555434
 20
0.5478015545837041
 30
0.0
  0
SEQEND
  5
D8A
330
D87
100
AcDbEntity
  8
Layer 1
370
    25
  0
POLYLINE
  5
D8B
330
18
100
AcDbEntity
  8
Layer 1
 62
     7
370
    25
100
AcDb2dPolyline
 66
     1
 10
0.0
 20
0.0
 30
0.0
  0
VERTEX
  5
D8C
330
D8B
100
AcDbEntity
  8
Layer 1
 62
     7
370
    25
100
AcDbVertex
100
AcDb2dVertex
 10
4.383370906555434
 20
0.5604095069125501
 30
0.0
  0
VERTEX
  5
D8D
330
D8B
100
AcDbEntity
  8
Layer 1
 62
     7
370
    25
100
AcDbVertex
100
AcDb2dVertex
 10
4.009353024594439
 20
0.5604095069125501
 30
0.0
  0
SEQEND
  5
D8E
330
D8B
100
AcDbEntity
  8
Layer 1
370
    25
  0
POLYLINE
  5
D8F
330
18
100
AcDbEntity
  8
Layer 1
  6
AI-Linetype-10
 62
   253
370
    25
100
AcDb2dPolyline
 66
     1
 10
0.0
 20
0.0
 30
0.0
  0
VERTEX
  5
D90
330
D8F
100
AcDbEntity
  8
Layer 1
  6
AI-Linetype-10
 62
   253
370
    25
100
AcDbVertex
100
AcDb2dVertex
 10
3.697170925997246
 20
0.8885679914543267
 30
0.0
  0
VERTEX
  5
D91
330
D8F
100
AcDbEntity
  8
Layer 1
  6
AI-Linetype-10
 62
   253
370
    25
100
AcDbVertex
100
AcDb2dVertex
 10
3.697170925997246
 20
-0.1088062631855027
 30
0.0
  0
SEQEND
  5
D92
330
D8F
100
AcDbEntity
  8
Layer 1
  6
AI-Linetype-10
370
    25
  0
POLYLINE
  5
D93
330
18
100
AcDbEntity
  8
Layer 1
 62
     7
370
    25
100
AcDb2dPolyline
 66
     1
 10
0.0
 20
0.0
 30
0.0
  0
VERTEX
  5
D94
330
D93
100
AcDbEntity
  8
Layer 1
 62
     7
370
    25
100
AcDbVertex
100
AcDb2dVertex
 10
4.009353024594439
 20
0.5778942476689948
 30
0.0
  0
VERTEX
  5
D95
330
D93
100
AcDbEntity
  8
Layer 1
 62
     7
370
    25
100
AcDbVertex
100
AcDb2dVertex
 10
4.383370906555434
 20
0.5778942476689948
 30
0.0
  0
SEQEND
  5
D96
330
D93
100
AcDbEntity
  8
Layer 1
370
    25
  0
POLYLINE
  5
D97
330
18
100
AcDbEntity
  8
Layer 1
 62
     7
370
    25
100
AcDb2dPolyline
 66
     1
 10
0.0
 20
0.0
 30
0.0
  0
VERTEX
  5
D98
330
D97
100
AcDbEntity
  8
Layer 1
 62
     7
370
    25
100
AcDbVertex
100
AcDb2dVertex
 10
4.009353024594439
 20
0.6314712811436803
 30
0.0
  0
VERTEX
  5
D99
330
D97
100
AcDbEntity
  8
Layer 1
 62
     7
370
    25
100
AcDbVertex
100
AcDb2dVertex
 10
4.383370906555434
 20
0.6314712811436803
 30
0.0
  0
SEQEND
  5
D9A
330
D97
100
AcDbEntity
  8
Layer 1
370
    25
  0
POLYLINE
  5
D9B
330
18
100
AcDbEntity
  8
Layer 1
 62
     7
370
    25
100
AcDb2dPolyline
 66
     1
 10
0.0
 20
0.0
 30
0.0
  0
VERTEX
  5
D9C
330
D9B
100
AcDbEntity
  8
Layer 1
 62
     7
370
    25
100
AcDbVertex
100
AcDb2dVertex
 10
4.383370906555434
 20
0.6423070856665732
 30
0.0
  0
VERTEX
  5
D9D
330
D9B
100
AcDbEntity
  8
Layer 1
 62
     7
370
    25
100
AcDbVertex
100
AcDb2dVertex
 10
4.009353024594439
 20
0.6423070856665732
 30
0.0
  0
SEQEND
  5
D9E
330
D9B
100
AcDbEntity
  8
Layer 1
370
    25
  0
POLYLINE
  5
D9F
330
18
100
AcDbEntity
  8
Layer 1
 62
     7
370
    25
100
AcDb2dPolyline
 66
     1
 10
0.0
 20
0.0
 30
0.0
  0
VERTEX
  5
DA0
330
D9F
100
AcDbEntity
  8
Layer 1
 62
     7
370
    25
100
AcDbVertex
100
AcDb2dVertex
 10
4.009353024594439
 20
0.6603532320256936
 30
0.0
  0
VERTEX
  5
DA1
330
D9F
100
AcDbEntity
  8
Layer 1
 62
     7
370
    25
100
AcDbVertex
100
AcDb2dVertex
 10
4.383370906555434
 20
0.6603532320256936
 30
0.0
  0
SEQEND
  5
DA2
330
D9F
100
AcDbEntity
  8
Layer 1
370
    25
  0
POLYLINE
  5
DA3
330
18
100
AcDbEntity
  8
Layer 1
 62
     7
370
    25
100
AcDb2dPolyline
 66
     1
 10
0.0
 20
0.0
 30
0.0
  0
VERTEX
  5
DA4
330
DA3
100
AcDbEntity
  8
Layer 1
 62
     7
370
    25
100
AcDbVertex
100
AcDb2dVertex
 10
4.009353024594439
 20
0.7113329190978153
 30
0.0
  0
VERTEX
  5
DA5
330
DA3
100
AcDbEntity
  8
Layer 1
 62
     7
370
    25
100
AcDbVertex
100
AcDb2dVertex
 10
4.383370906555434
 20
0.7113329190978153
 30
0.0
  0
SEQEND
  5
DA6
330
DA3
100
AcDbEntity
  8
Layer 1
370
    25
  0
POLYLINE
  5
DA7
330
18
100
AcDbEntity
  8
Layer 1
 62
     7
370
    25
100
AcDb2dPolyline
 66
     1
 10
0.0
 20
0.0
 30
0.0
  0
VERTEX
  5
DA8
330
DA7
100
AcDbEntity
  8
Layer 1
 62
     7
370
    25
100
AcDbVertex
100
AcDb2dVertex
 10
4.383370906555434
 20
0.7202207138189034
 30
0.0
  0
VERTEX
  5
DA9
330
DA7
100
AcDbEntity
  8
Layer 1
 62
     7
370
    25
100
AcDbVertex
100
AcDb2dVertex
 10
4.009353024594439
 20
0.7202207138189034
 30
0.0
  0
SEQEND
  5
DAA
330
DA7
100
AcDbEntity
  8
Layer 1
370
    25
  0
POLYLINE
  5
DAB
330
18
100
AcDbEntity
  8
Layer 1
  6
AI-Linetype-11
 62
   253
370
    25
100
AcDb2dPolyline
 66
     1
 10
0.0
 20
0.0
 30
0.0
  0
VERTEX
  5
DAC
330
DAB
100
AcDbEntity
  8
Layer 1
  6
AI-Linetype-11
 62
   253
370
    25
100
AcDbVertex
100
AcDb2dVertex
 10
4.684581922171222
 20
-0.1088062631855027
 30
0.0
  0
VERTEX
  5
DAD
330
DAB
100
AcDbEntity
  8
Layer 1
  6
AI-Linetype-11
 62
   253
370
    25
100
AcDbVertex
100
AcDb2dVertex
 10
4.694551944560005
 20
-0.1187830494972162
 30
0.0
  0
SEQEND
  5
DAE
330
DAB
100
AcDbEntity
  8
Layer 1
  6
AI-Linetype-11
370
    25
  0
POLYLINE
  5
DAF
330
18
100
AcDbEntity
  8
Layer 1
 62
     7
370
    25
100
AcDb2dPolyline
 66
     1
 10
0.0
 20
0.0
 30
0.0
  0
VERTEX
  5
DB0
330
DAF
100
AcDbEntity
  8
Layer 1
 62
     7
370
    25
100
AcDbVertex
100
AcDb2dVertex
 10
4.009353024594439
 20
0.7385577088636773
 30
0.0
  0
VERTEX
  5
DB1
330
DAF
100
AcDbEntity
  8
Layer 1
 62
     7
370
    25
100
AcDbVertex
100
AcDb2dVertex
 10
4.383370906555434
 20
0.7385577088636773
 30
0.0
  0
SEQEND
  5
DB2
330
DAF
100
AcDbEntity
  8
Layer 1
370
    25
  0
POLYLINE
  5
DB3
330
18
100
AcDbEntity
  8
Layer 1
 62
     7
370
    25
100
AcDb2dPolyline
 66
     1
 10
0.0
 20
0.0
 30
0.0
  0
VERTEX
  5
DB4
330
DB3
100
AcDbEntity
  8
Layer 1
 62
     7
370
    25
100
AcDbVertex
100
AcDb2dVertex
 10
4.009353024594439
 20
0.7861216148595536
 30
0.0
  0
VERTEX
  5
DB5
330
DB3
100
AcDbEntity
  8
Layer 1
 62
     7
370
    25
100
AcDbVertex
100
AcDb2dVertex
 10
4.383370906555434
 20
0.7861216148595536
 30
0.0
  0
SEQEND
  5
DB6
330
DB3
100
AcDbEntity
  8
Layer 1
370
    25
  0
POLYLINE
  5
DB7
330
18
100
AcDbEntity
  8
Layer 1
 62
     7
370
    25
100
AcDb2dPolyline
 66
     1
 10
0.0
 20
0.0
 30
0.0
  0
VERTEX
  5
DB8
330
DB7
100
AcDbEntity
  8
Layer 1
 62
     7
370
    25
100
AcDbVertex
100
AcDb2dVertex
 10
4.383370906555434
 20
0.7929261213203263
 30
0.0
  0
VERTEX
  5
DB9
330
DB7
100
AcDbEntity
  8
Layer 1
 62
     7
370
    25
100
AcDbVertex
100
AcDb2dVertex
 10
4.009353024594439
 20
0.7929261213203263
 30
0.0
  0
SEQEND
  5
DBA
330
DB7
100
AcDbEntity
  8
Layer 1
370
    25
  0
POLYLINE
  5
DBB
330
18
100
AcDbEntity
  8
ADP1DETAIL
  6
AI-Linetype-5
 62
     5
370
    25
100
AcDb2dPolyline
 66
     1
 10
0.0
 20
0.0
 30
0.0
  0
VERTEX
  5
DBC
330
DBB
100
AcDbEntity
  8
ADP1DETAIL
  6
AI-Linetype-5
 62
     5
370
    25
100
AcDbVertex
100
AcDb2dVertex
 10
3.397522376576755
 20
0.3898842460958769
 30
0.0
  0
VERTEX
  5
DBD
330
DBB
100
AcDbEntity
  8
ADP1DETAIL
  6
AI-Linetype-5
 62
     5
370
    25
100
AcDbVertex
100
AcDb2dVertex
 10
3.697170925997246
 20
0.8885679914543267
 30
0.0
  0
SEQEND
  5
DBE
330
DBB
100
AcDbEntity
  8
ADP1DETAIL
  6
AI-Linetype-5
 62
     5
370
    25
  0
POLYLINE
  5
DBF
330
18
100
AcDbEntity
  8
Layer 1
 62
     7
370
    25
100
AcDb2dPolyline
 66
     1
 10
0.0
 20
0.0
 30
0.0
  0
VERTEX
  5
DC0
330
DBF
100
AcDbEntity
  8
Layer 1
 62
     7
370
    25
100
AcDbVertex
100
AcDb2dVertex
 10
4.009353024594439
 20
0.8112563524421702
 30
0.0
  0
VERTEX
  5
DC1
330
DBF
100
AcDbEntity
  8
Layer 1
 62
     7
370
    25
100
AcDbVertex
100
AcDb2dVertex
 10
4.383370906555434
 20
0.8112563524421702
 30
0.0
  0
SEQEND
  5
DC2
330
DBF
100
AcDbEntity
  8
Layer 1
370
    25
  0
POLYLINE
  5
DC3
330
18
100
AcDbEntity
  8
Layer 1
 62
     7
370
    25
100
AcDb2dPolyline
 66
     1
 10
0.0
 20
0.0
 30
0.0
  0
VERTEX
  5
DC4
330
DC3
100
AcDbEntity
  8
Layer 1
 62
     7
370
    25
100
AcDbVertex
100
AcDb2dVertex
 10
4.009353024594439
 20
0.854667209763274
 30
0.0
  0
VERTEX
  5
DC5
330
DC3
100
AcDbEntity
  8
Layer 1
 62
     7
370
    25
100
AcDbVertex
100
AcDb2dVertex
 10
4.383370906555434
 20
0.854667209763274
 30
0.0
  0
SEQEND
  5
DC6
330
DC3
100
AcDbEntity
  8
Layer 1
370
    25
  0
POLYLINE
  5
DC7
330
18
100
AcDbEntity
  8
Layer 1
 62
     7
370
    25
100
AcDb2dPolyline
 66
     1
 10
0.0
 20
0.0
 30
0.0
  0
VERTEX
  5
DC8
330
DC7
100
AcDbEntity
  8
Layer 1
 62
     7
370
    25
100
AcDbVertex
100
AcDb2dVertex
 10
4.383370906555434
 20
0.8592802051968586
 30
0.0
  0
VERTEX
  5
DC9
330
DC7
100
AcDbEntity
  8
Layer 1
 62
     7
370
    25
100
AcDbVertex
100
AcDb2dVertex
 10
4.009353024594439
 20
0.8592802051968586
 30
0.0
  0
SEQEND
  5
DCA
330
DC7
100
AcDbEntity
  8
Layer 1
370
    25
  0
POLYLINE
  5
DCB
330
18
100
AcDbEntity
  8
Layer 1
 62
     7
370
    25
100
AcDb2dPolyline
 66
     1
 10
0.0
 20
0.0
 30
0.0
  0
VERTEX
  5
DCC
330
DCB
100
AcDbEntity
  8
Layer 1
 62
     7
370
    25
100
AcDbVertex
100
AcDb2dVertex
 10
4.009353024594439
 20
0.87731282371012
 30
0.0
  0
VERTEX
  5
DCD
330
DCB
100
AcDbEntity
  8
Layer 1
 62
     7
370
    25
100
AcDbVertex
100
AcDb2dVertex
 10
4.383370906555434
 20
0.87731282371012
 30
0.0
  0
SEQEND
  5
DCE
330
DCB
100
AcDbEntity
  8
Layer 1
370
    25
  0
POLYLINE
  5
DCF
330
18
100
AcDbEntity
  8
ADP1DETAIL
  6
AI-Linetype-5
 62
     5
370
    25
100
AcDb2dPolyline
 66
     1
 10
0.0
 20
0.0
 30
0.0
  0
VERTEX
  5
DD0
330
DCF
100
AcDbEntity
  8
ADP1DETAIL
  6
AI-Linetype-5
 62
     5
370
    25
100
AcDbVertex
100
AcDb2dVertex
 10
3.697170925997246
 20
0.8885679914543267
 30
0.0
  0
VERTEX
  5
DD1
330
DCF
100
AcDbEntity
  8
ADP1DETAIL
  6
AI-Linetype-5
 62
     5
370
    25
100
AcDbVertex
100
AcDb2dVertex
 10
4.684568394325363
 20
0.8885679914543267
 30
0.0
  0
SEQEND
  5
DD2
330
DCF
100
AcDbEntity
  8
ADP1DETAIL
  6
AI-Linetype-5
 62
     5
370
    25
  0
POLYLINE
  5
DD3
330
18
100
AcDbEntity
  8
Layer 1
 62
     7
370
    25
100
AcDb2dPolyline
 66
     1
 10
0.0
 20
0.0
 30
0.0
  0
VERTEX
  5
DD4
330
DD3
100
AcDbEntity
  8
Layer 1
 62
     7
370
    25
100
AcDbVertex
100
AcDb2dVertex
 10
4.009353024594439
 20
0.9158807122181933
 30
0.0
  0
VERTEX
  5
DD5
330
DD3
100
AcDbEntity
  8
Layer 1
 62
     7
370
    25
100
AcDbVertex
100
AcDb2dVertex
 10
4.383370906555434
 20
0.9158807122181933
 30
0.0
  0
SEQEND
  5
DD6
330
DD3
100
AcDbEntity
  8
Layer 1
370
    25
  0
POLYLINE
  5
DD7
330
18
100
AcDbEntity
  8
Layer 1
 62
     7
370
    25
100
AcDb2dPolyline
 66
     1
 10
0.0
 20
0.0
 30
0.0
  0
VERTEX
  5
DD8
330
DD7
100
AcDbEntity
  8
Layer 1
 62
     7
370
    25
100
AcDbVertex
100
AcDb2dVertex
 10
4.383370906555434
 20
0.9182210295495938
 30
0.0
  0
VERTEX
  5
DD9
330
DD7
100
AcDbEntity
  8
Layer 1
 62
     7
370
    25
100
AcDbVertex
100
AcDb2dVertex
 10
4.009353024594439
 20
0.9182210295495938
 30
0.0
  0
SEQEND
  5
DDA
330
DD7
100
AcDbEntity
  8
Layer 1
370
    25
  0
POLYLINE
  5
DDB
330
18
100
AcDbEntity
  8
Layer 1
 62
     7
370
    25
100
AcDb2dPolyline
 66
     1
 10
0.0
 20
0.0
 30
0.0
  0
VERTEX
  5
DDC
330
DDB
100
AcDbEntity
  8
Layer 1
 62
     7
370
    25
100
AcDbVertex
100
AcDb2dVertex
 10
4.009353024594439
 20
0.9356719506914696
 30
0.0
  0
VERTEX
  5
DDD
330
DDB
100
AcDbEntity
  8
Layer 1
 62
     7
370
    25
100
AcDbVertex
100
AcDb2dVertex
 10
4.383370906555434
 20
0.9356719506914696
 30
0.0
  0
SEQEND
  5
DDE
330
DDB
100
AcDbEntity
  8
Layer 1
370
    25
  0
POLYLINE
  5
DDF
330
18
100
AcDbEntity
  8
Layer 1
 62
     7
370
    25
100
AcDb2dPolyline
 66
     1
 10
0.0
 20
0.0
 30
0.0
  0
VERTEX
  5
DE0
330
DDF
100
AcDbEntity
  8
Layer 1
 62
     7
370
    25
100
AcDbVertex
100
AcDb2dVertex
 10
3.263637286235061
 20
1.217714008742864
 30
0.0
  0
VERTEX
  5
DE1
330
DDF
100
AcDbEntity
  8
Layer 1
 62
     7
370
    25
100
AcDbVertex
100
AcDb2dVertex
 10
3.263637286235061
 20
-0.4379455165511113
 30
0.0
  0
SEQEND
  5
DE2
330
DDF
100
AcDbEntity
  8
Layer 1
370
    25
  0
POLYLINE
  5
DE3
330
18
100
AcDbEntity
  8
Layer 1
 62
     7
370
    25
100
AcDb2dPolyline
 66
     1
 10
0.0
 20
0.0
 30
0.0
  0
VERTEX
  5
DE4
330
DE3
100
AcDbEntity
  8
Layer 1
 62
     7
370
    25
100
AcDbVertex
100
AcDb2dVertex
 10
4.009353024594439
 20
0.9687881173234099
 30
0.0
  0
VERTEX
  5
DE5
330
DE3
100
AcDbEntity
  8
Layer 1
 62
     7
370
    25
100
AcDbVertex
100
AcDb2dVertex
 10
4.383370906555434
 20
0.9687881173234099
 30
0.0
  0
SEQEND
  5
DE6
330
DE3
100
AcDbEntity
  8
Layer 1
370
    25
  0
POLYLINE
  5
DE7
330
18
100
AcDbEntity
  8
Layer 1
 62
     7
370
    25
100
AcDb2dPolyline
 66
     1
 10
0.0
 20
0.0
 30
0.0
  0
VERTEX
  5
DE8
330
DE7
100
AcDbEntity
  8
Layer 1
 62
     7
370
    25
100
AcDbVertex
100
AcDb2dVertex
 10
4.009353024594439
 20
0.9854408955603144
 30
0.0
  0
VERTEX
  5
DE9
330
DE7
100
AcDbEntity
  8
Layer 1
 62
     7
370
    25
100
AcDbVertex
100
AcDb2dVertex
 10
4.383370906555434
 20
0.9854408955603144
 30
0.0
  0
SEQEND
  5
DEA
330
DE7
100
AcDbEntity
  8
Layer 1
370
    25
  0
POLYLINE
  5
DEB
330
18
100
AcDbEntity
  8
Layer 1
  6
AI-Linetype-14
 62
   253
370
    25
100
AcDb2dPolyline
 66
     1
 10
0.0
 20
0.0
 30
0.0
  0
VERTEX
  5
DEC
330
DEB
100
AcDbEntity
  8
Layer 1
  6
AI-Linetype-14
 62
   253
370
    25
100
AcDbVertex
100
AcDb2dVertex
 10
4.383370906555434
 20
1.010318604071846
 30
0.0
  0
VERTEX
  5
DED
330
DEB
100
AcDbEntity
  8
Layer 1
  6
AI-Linetype-14
 62
   253
370
    25
100
AcDbVertex
100
AcDb2dVertex
 10
4.009353024594439
 20
1.010318604071846
 30
0.0
  0
SEQEND
  5
DEE
330
DEB
100
AcDbEntity
  8
Layer 1
  6
AI-Linetype-14
370
    25
  0
POLYLINE
  5
DEF
330
18
100
AcDbEntity
  8
Layer 1
 62
     7
370
    25
100
AcDb2dPolyline
 66
     1
 10
0.0
 20
0.0
 30
0.0
  0
VERTEX
  5
DF0
330
DEF
100
AcDbEntity
  8
Layer 1
 62
     7
370
    25
100
AcDbVertex
100
AcDb2dVertex
 10
4.009353024594439
 20
1.012577754328171
 30
0.0
  0
VERTEX
  5
DF1
330
DEF
100
AcDbEntity
  8
Layer 1
 62
     7
370
    25
100
AcDbVertex
100
AcDb2dVertex
 10
4.383370906555434
 20
1.012577754328171
 30
0.0
  0
SEQEND
  5
DF2
330
DEF
100
AcDbEntity
  8
Layer 1
370
    25
  0
POLYLINE
  5
DF3
330
18
100
AcDbEntity
  8
Layer 1
 62
     7
370
    25
100
AcDb2dPolyline
 66
     1
 10
0.0
 20
0.0
 30
0.0
  0
VERTEX
  5
DF4
330
DF3
100
AcDbEntity
  8
Layer 1
 62
     7
370
    25
100
AcDbVertex
100
AcDb2dVertex
 10
4.009353024594439
 20
1.02580798756598
 30
0.0
  0
VERTEX
  5
DF5
330
DF3
100
AcDbEntity
  8
Layer 1
 62
     7
370
    25
100
AcDbVertex
100
AcDb2dVertex
 10
4.383370906555434
 20
1.02580798756598
 30
0.0
  0
SEQEND
  5
DF6
330
DF3
100
AcDbEntity
  8
Layer 1
370
    25
  0
POLYLINE
  5
DF7
330
18
100
AcDbEntity
  8
Layer 1
  6
AI-Linetype-15
 62
   253
370
    25
100
AcDb2dPolyline
 66
     1
 10
0.0
 20
0.0
 30
0.0
  0
VERTEX
  5
DF8
330
DF7
100
AcDbEntity
  8
Layer 1
  6
AI-Linetype-15
 62
   253
370
    25
100
AcDbVertex
100
AcDb2dVertex
 10
4.383370906555434
 20
1.04202787473579
 30
0.0
  0
VERTEX
  5
DF9
330
DF7
100
AcDbEntity
  8
Layer 1
  6
AI-Linetype-15
 62
   253
370
    25
100
AcDbVertex
100
AcDb2dVertex
 10
4.009353024594439
 20
1.04202787473579
 30
0.0
  0
SEQEND
  5
DFA
330
DF7
100
AcDbEntity
  8
Layer 1
  6
AI-Linetype-15
370
    25
  0
POLYLINE
  5
DFB
330
18
100
AcDbEntity
  8
Layer 1
 62
     7
370
    25
100
AcDb2dPolyline
 66
     1
 10
0.0
 20
0.0
 30
0.0
  0
VERTEX
  5
DFC
330
DFB
100
AcDbEntity
  8
Layer 1
 62
     7
370
    25
100
AcDbVertex
100
AcDb2dVertex
 10
4.009353024594439
 20
1.04654617524844
 30
0.0
  0
VERTEX
  5
DFD
330
DFB
100
AcDbEntity
  8
Layer 1
 62
     7
370
    25
100
AcDbVertex
100
AcDb2dVertex
 10
4.383370906555434
 20
1.04654617524844
 30
0.0
  0
SEQEND
  5
DFE
330
DFB
100
AcDbEntity
  8
Layer 1
370
    25
  0
POLYLINE
  5
DFF
330
18
100
AcDbEntity
  8
Layer 1
 62
     7
370
    25
100
AcDb2dPolyline
 66
     1
 10
0.0
 20
0.0
 30
0.0
  0
VERTEX
  5
E00
330
DFF
100
AcDbEntity
  8
Layer 1
 62
     7
370
    25
100
AcDbVertex
100
AcDb2dVertex
 10
4.009353024594439
 20
1.056137417953566
 30
0.0
  0
VERTEX
  5
E01
330
DFF
100
AcDbEntity
  8
Layer 1
 62
     7
370
    25
100
AcDbVertex
100
AcDb2dVertex
 10
4.383370906555434
 20
1.056137417953566
 30
0.0
  0
SEQEND
  5
E02
330
DFF
100
AcDbEntity
  8
Layer 1
370
    25
  0
POLYLINE
  5
E03
330
18
100
AcDbEntity
  8
Layer 1
  6
AI-Linetype-16
 62
   253
370
    25
100
AcDb2dPolyline
 66
     1
 10
0.0
 20
0.0
 30
0.0
  0
VERTEX
  5
E04
330
E03
100
AcDbEntity
  8
Layer 1
  6
AI-Linetype-16
 62
   253
370
    25
100
AcDbVertex
100
AcDb2dVertex
 10
4.383370906555434
 20
1.06344245471057
 30
0.0
  0
VERTEX
  5
E05
330
E03
100
AcDbEntity
  8
Layer 1
  6
AI-Linetype-16
 62
   253
370
    25
100
AcDbVertex
100
AcDb2dVertex
 10
4.009353024594439
 20
1.06344245471057
 30
0.0
  0
SEQEND
  5
E06
330
E03
100
AcDbEntity
  8
Layer 1
  6
AI-Linetype-16
370
    25
  0
POLYLINE
  5
E07
330
18
100
AcDbEntity
  8
Layer 1
 62
     7
370
    25
100
AcDb2dPolyline
 66
     1
 10
0.0
 20
0.0
 30
0.0
  0
VERTEX
  5
E08
330
E07
100
AcDbEntity
  8
Layer 1
 62
     7
370
    25
100
AcDbVertex
100
AcDb2dVertex
 10
4.009353024594439
 20
1.070152266250409
 30
0.0
  0
VERTEX
  5
E09
330
E07
100
AcDbEntity
  8
Layer 1
 62
     7
370
    25
100
AcDbVertex
100
AcDb2dVertex
 10
4.383370906555434
 20
1.070152266250409
 30
0.0
  0
SEQEND
  5
E0A
330
E07
100
AcDbEntity
  8
Layer 1
370
    25
  0
POLYLINE
  5
E0B
330
18
100
AcDbEntity
  8
Layer 1
  6
AI-Linetype-17
 62
   253
370
    25
100
AcDb2dPolyline
 66
     1
 10
0.0
 20
0.0
 30
0.0
  0
VERTEX
  5
E0C
330
E0B
100
AcDbEntity
  8
Layer 1
  6
AI-Linetype-17
 62
   253
370
    25
100
AcDbVertex
100
AcDb2dVertex
 10
4.383370906555434
 20
1.074224147850185
 30
0.0
  0
VERTEX
  5
E0D
330
E0B
100
AcDbEntity
  8
Layer 1
  6
AI-Linetype-17
 62
   253
370
    25
100
AcDbVertex
100
AcDb2dVertex
 10
4.009353024594439
 20
1.074224147850185
 30
0.0
  0
SEQEND
  5
E0E
330
E0B
100
AcDbEntity
  8
Layer 1
  6
AI-Linetype-17
370
    25
  0
POLYLINE
  5
E0F
330
18
100
AcDbEntity
  8
Layer 1
 62
     7
370
    25
100
AcDb2dPolyline
 66
     1
 10
0.0
 20
0.0
 30
0.0
  0
VERTEX
  5
E10
330
E0F
100
AcDbEntity
  8
Layer 1
 62
     7
370
    25
100
AcDbVertex
100
AcDb2dVertex
 10
4.684619763192479
 20
1.075543907578543
 30
0.0
  0
VERTEX
  5
E11
330
E0F
100
AcDbEntity
  8
Layer 1
 62
     7
370
    25
100
AcDbVertex
100
AcDb2dVertex
 10
4.383370906555434
 20
1.075576932434824
 30
0.0
  0
SEQEND
  5
E12
330
E0F
100
AcDbEntity
  8
Layer 1
370
    25
  0
POLYLINE
  5
E13
330
18
100
AcDbEntity
  8
Layer 1
 62
     7
370
    25
100
AcDb2dPolyline
 66
     1
 10
0.0
 20
0.0
 30
0.0
  0
VERTEX
  5
E14
330
E13
100
AcDbEntity
  8
Layer 1
 62
     7
370
    25
100
AcDbVertex
100
AcDb2dVertex
 10
4.009353024594439
 20
1.075576932434824
 30
0.0
  0
VERTEX
  5
E15
330
E13
100
AcDbEntity
  8
Layer 1
 62
     7
370
    25
100
AcDbVertex
100
AcDb2dVertex
 10
3.697170925997246
 20
1.075576932434824
 30
0.0
  0
SEQEND
  5
E16
330
E13
100
AcDbEntity
  8
Layer 1
370
    25
  0
POLYLINE
  5
E17
330
18
100
AcDbEntity
  8
Layer 1
 62
     7
370
    25
100
AcDb2dPolyline
 66
     1
 10
0.0
 20
0.0
 30
0.0
  0
VERTEX
  5
E18
330
E17
100
AcDbEntity
  8
Layer 1
 62
     7
370
    25
100
AcDbVertex
100
AcDb2dVertex
 10
4.009353024594439
 20
1.075969239964341
 30
0.0
  0
VERTEX
  5
E19
330
E17
100
AcDbEntity
  8
Layer 1
 62
     7
370
    25
100
AcDbVertex
100
AcDb2dVertex
 10
4.383370906555434
 20
1.075969239964341
 30
0.0
  0
SEQEND
  5
E1A
330
E17
100
AcDbEntity
  8
Layer 1
370
    25
  0
POLYLINE
  5
E1B
330
18
100
AcDbEntity
  8
Layer 1
 62
     7
370
    25
100
AcDb2dPolyline
 66
     1
 10
0.0
 20
0.0
 30
0.0
  0
VERTEX
  5
E1C
330
E1B
100
AcDbEntity
  8
Layer 1
 62
     7
370
    25
100
AcDbVertex
100
AcDb2dVertex
 10
4.009353024594439
 20
1.083030775496198
 30
0.0
  0
VERTEX
  5
E1D
330
E1B
100
AcDbEntity
  8
Layer 1
 62
     7
370
    25
100
AcDbVertex
100
AcDb2dVertex
 10
4.383370906555434
 20
1.083030775496198
 30
0.0
  0
SEQEND
  5
E1E
330
E1B
100
AcDbEntity
  8
Layer 1
370
    25
  0
POLYLINE
  5
E1F
330
18
100
AcDbEntity
  8
Layer 1
 62
     7
370
    25
100
AcDb2dPolyline
 66
     1
 10
0.0
 20
0.0
 30
0.0
  0
VERTEX
  5
E20
330
E1F
100
AcDbEntity
  8
Layer 1
 62
     7
370
    25
100
AcDbVertex
100
AcDb2dVertex
 10
4.009353024594439
 20
1.08499231314394
 30
0.0
  0
VERTEX
  5
E21
330
E1F
100
AcDbEntity
  8
Layer 1
 62
     7
370
    25
100
AcDbVertex
100
AcDb2dVertex
 10
4.383370906555434
 20
1.08499231314394
 30
0.0
  0
SEQEND
  5
E22
330
E1F
100
AcDbEntity
  8
Layer 1
370
    25
  0
POLYLINE
  5
E23
330
18
100
AcDbEntity
  8
Layer 1
 62
     7
370
    25
100
AcDb2dPolyline
 66
     1
 10
0.0
 20
0.0
 30
0.0
  0
VERTEX
  5
E24
330
E23
100
AcDbEntity
  8
Layer 1
 62
     7
370
    25
100
AcDbVertex
100
AcDb2dVertex
 10
4.009353024594439
 20
1.085560482669467
 30
0.0
  0
VERTEX
  5
E25
330
E23
100
AcDbEntity
  8
Layer 1
 62
     7
370
    25
100
AcDbVertex
100
AcDb2dVertex
 10
4.383370906555434
 20
1.085560482669467
 30
0.0
  0
SEQEND
  5
E26
330
E23
100
AcDbEntity
  8
Layer 1
370
    25
  0
POLYLINE
  5
E27
330
18
100
AcDbEntity
  8
Layer 1
 62
     7
370
    25
100
AcDb2dPolyline
 66
     1
 10
0.0
 20
0.0
 30
0.0
  0
VERTEX
  5
E28
330
E27
100
AcDbEntity
  8
Layer 1
 62
     7
370
    25
100
AcDbVertex
100
AcDb2dVertex
 10
3.149516378674924
 20
1.067744309689792
 30
0.0
  0
VERTEX
  5
E29
330
E27
100
AcDbEntity
  8
Layer 1
 62
     7
370
    25
100
AcDbVertex
100
AcDb2dVertex
 10
3.149516378674924
 20
-0.2879825814209682
 30
0.0
  0
SEQEND
  5
E2A
330
E27
100
AcDbEntity
  8
Layer 1
370
    25
  0
POLYLINE
  5
E2B
330
18
100
AcDbEntity
  8
Layer 1
 62
     7
370
    25
100
AcDb2dPolyline
 66
     1
 10
0.0
 20
0.0
 30
0.0
  0
VERTEX
  5
E2C
330
E2B
100
AcDbEntity
  8
Layer 1
 62
     7
370
    25
100
AcDbVertex
100
AcDb2dVertex
 10
3.697170925997246
 20
1.217714008742864
 30
0.0
  0
VERTEX
  5
E2D
330
E2B
100
AcDbEntity
  8
Layer 1
 62
     7
370
    25
100
AcDbVertex
100
AcDb2dVertex
 10
3.263637286235061
 20
1.217714008742864
 30
0.0
  0
SEQEND
  5
E2E
330
E2B
100
AcDbEntity
  8
Layer 1
370
    25
  0
SPLINE
  5
E2F
330
18
100
AcDbEntity
  8
Layer 1
 62
     7
370
    25
100
AcDbSpline
210
0.0
220
0.0
230
1.0
 70
     8
 71
     3
 72
     8
 73
     4
 74
     0
 42
0.0000000001
 43
0.0000000001
 40
0.0
 40
0.0
 40
0.0
 40
0.0
 40
1.0
 40
1.0
 40
1.0
 40
1.0
 10
3.149516378674766
 20
1.06774430968987
 30
0.0
 10
2.882327895362683
 20
0.6553276372937247
 30
0.0
 10
2.882327895362683
 20
0.1244340909750208
 30
0.0
 10
3.149516378674766
 20
-0.2879825814208896
 30
0.0
  0
SPLINE
  5
E30
330
18
100
AcDbEntity
  8
Layer 1
 62
     7
370
    25
100
AcDbSpline
210
0.0
220
0.0
230
1.0
 70
     8
 71
     3
 72
     8
 73
     4
 74
     0
 42
0.0000000001
 43
0.0000000001
 40
0.0
 40
0.0
 40
0.0
 40
0.0
 40
1.0
 40
1.0
 40
1.0
 40
1.0
 10
3.263637286234982
 20
-0.4379455165510327
 30
0.0
 10
3.263637286234982
 20
-0.3679862617563865
 30
0.0
 10
3.216945926296144
 20
-0.3066171890743248
 30
0.0
 10
3.149523142597696
 20
-0.2879758174979599
 30
0.0
  0
SPLINE
  5
E31
330
18
100
AcDbEntity
  8
Layer 1
 62
     7
370
    25
100
AcDbSpline
210
0.0
220
0.0
230
1.0
 70
     8
 71
     3
 72
     8
 73
     4
 74
     0
 42
0.0000000001
 43
0.0000000001
 40
0.0
 40
0.0
 40
0.0
 40
0.0
 40
1.0
 40
1.0
 40
1.0
 40
1.0
 10
3.149516378674766
 20
1.06774430968987
 30
0.0
 10
3.216952690219073
 20
1.086385681266156
 30
0.0
 10
3.263637286234982
 20
1.147747990025367
 30
0.0
 10
3.263637286234982
 20
1.217714008742864
 30
0.0
  0
POLYLINE
  5
E32
330
18
100
AcDbEntity
  8
Layer 1
 62
     7
370
    25
100
AcDb2dPolyline
 66
     1
 10
0.0
 20
0.0
 30
0.0
  0
VERTEX
  5
E33
330
E32
100
AcDbEntity
  8
Layer 1
 62
     7
370
    25
100
AcDbVertex
100
AcDb2dVertex
 10
4.694589785581262
 20
1.065567121266829
 30
0.0
  0
VERTEX
  5
E34
330
E32
100
AcDbEntity
  8
Layer 1
 62
     7
370
    25
100
AcDbVertex
100
AcDb2dVertex
 10
4.694552222040989
 20
-0.285832447539518
 30
0.0
  0
SEQEND
  5
E35
330
E32
100
AcDbEntity
  8
Layer 1
370
    25
  0
POLYLINE
  5
E36
330
18
100
AcDbEntity
  8
Layer 1
 62
     7
370
    25
100
AcDb2dPolyline
 66
     1
 10
0.0
 20
0.0
 30
0.0
  0
VERTEX
  5
E37
330
E36
100
AcDbEntity
  8
Layer 1
 62
     7
370
    25
100
AcDbVertex
100
AcDb2dVertex
 10
3.263637286235061
 20
-0.4379455165511113
 30
0.0
  0
VERTEX
  5
E38
330
E36
100
AcDbEntity
  8
Layer 1
 62
     7
370
    25
100
AcDbVertex
100
AcDb2dVertex
 10
3.697170925997246
 20
-0.4379455165511113
 30
0.0
  0
SEQEND
  5
E39
330
E36
100
AcDbEntity
  8
Layer 1
370
    25
  0
POLYLINE
  5
E3A
330
18
100
AcDbEntity
  8
Layer 1
 62
     7
370
    25
100
AcDb2dPolyline
 66
     1
 10
0.0
 20
0.0
 30
0.0
  0
VERTEX
  5
E3B
330
E3A
100
AcDbEntity
  8
Layer 1
 62
     7
370
    25
100
AcDbVertex
100
AcDb2dVertex
 10
3.697170925997246
 20
-0.2958152041660003
 30
0.0
  0
VERTEX
  5
E3C
330
E3A
100
AcDbEntity
  8
Layer 1
 62
     7
370
    25
100
AcDbVertex
100
AcDb2dVertex
 10
4.009353024594439
 20
-0.2958152041660003
 30
0.0
  0
SEQEND
  5
E3D
330
E3A
100
AcDbEntity
  8
Layer 1
370
    25
  0
POLYLINE
  5
E3E
330
18
100
AcDbEntity
  8
Layer 1
 62
     7
370
    25
100
AcDb2dPolyline
 66
     1
 10
0.0
 20
0.0
 30
0.0
  0
VERTEX
  5
E3F
330
E3E
100
AcDbEntity
  8
Layer 1
 62
     7
370
    25
100
AcDbVertex
100
AcDb2dVertex
 10
4.383370906555434
 20
-0.2958152041660003
 30
0.0
  0
VERTEX
  5
E40
330
E3E
100
AcDbEntity
  8
Layer 1
 62
     7
370
    25
100
AcDbVertex
100
AcDb2dVertex
 10
4.684612400473236
 20
-0.2957857559750825
 30
0.0
  0
SEQEND
  5
E41
330
E3E
100
AcDbEntity
  8
Layer 1
370
    25
  0
POLYLINE
  5
E42
330
18
100
AcDbEntity
  8
Layer 1
 62
     7
370
    25
100
AcDb2dPolyline
 66
     1
 10
0.0
 20
0.0
 30
0.0
  0
VERTEX
  5
E43
330
E42
100
AcDbEntity
  8
Layer 1
 62
     7
370
    25
100
AcDbVertex
100
AcDb2dVertex
 10
3.697170925997246
 20
1.217714008742864
 30
0.0
  0
VERTEX
  5
E44
330
E42
100
AcDbEntity
  8
Layer 1
 62
     7
370
    25
100
AcDbVertex
100
AcDb2dVertex
 10
3.697170925997246
 20
-0.4379455165511113
 30
0.0
  0
SEQEND
  5
E45
330
E42
100
AcDbEntity
  8
Layer 1
370
    25
  0
POLYLINE
  5
E46
330
18
100
AcDbEntity
  8
Layer 1
 62
     7
370
    25
100
AcDb2dPolyline
 66
     1
 10
0.0
 20
0.0
 30
0.0
  0
VERTEX
  5
E47
330
E46
100
AcDbEntity
  8
Layer 1
 62
     7
370
    25
100
AcDbVertex
100
AcDb2dVertex
 10
3.697170925997246
 20
1.075576932434824
 30
0.0
  0
VERTEX
  5
E48
330
E46
100
AcDbEntity
  8
Layer 1
 62
     7
370
    25
100
AcDbVertex
100
AcDb2dVertex
 10
4.009353024594439
 20
1.075576932434824
 30
0.0
  0
SEQEND
  5
E49
330
E46
100
AcDbEntity
  8
Layer 1
370
    25
  0
POLYLINE
  5
E4A
330
18
100
AcDbEntity
  8
Layer 1
 62
     7
370
    25
100
AcDb2dPolyline
 66
     1
 10
0.0
 20
0.0
 30
0.0
  0
VERTEX
  5
E4B
330
E4A
100
AcDbEntity
  8
Layer 1
 62
     7
370
    25
100
AcDbVertex
100
AcDb2dVertex
 10
4.383370906555434
 20
1.075576932434824
 30
0.0
  0
VERTEX
  5
E4C
330
E4A
100
AcDbEntity
  8
Layer 1
 62
     7
370
    25
100
AcDbVertex
100
AcDb2dVertex
 10
4.684619763192479
 20
1.075543907578543
 30
0.0
  0
SEQEND
  5
E4D
330
E4A
100
AcDbEntity
  8
Layer 1
370
    25
  0
POLYLINE
  5
E4E
330
18
100
AcDbEntity
  8
Layer 1
 62
     7
370
    25
100
AcDb2dPolyline
 66
     1
 10
0.0
 20
0.0
 30
0.0
  0
VERTEX
  5
E4F
330
E4E
100
AcDbEntity
  8
Layer 1
 62
     7
370
    25
100
AcDbVertex
100
AcDb2dVertex
 10
3.263637286235061
 20
1.217714008742864
 30
0.0
  0
VERTEX
  5
E50
330
E4E
100
AcDbEntity
  8
Layer 1
 62
     7
370
    25
100
AcDbVertex
100
AcDb2dVertex
 10
3.697170925997246
 20
1.217714008742864
 30
0.0
  0
SEQEND
  5
E51
330
E4E
100
AcDbEntity
  8
Layer 1
370
    25
  0
POLYLINE
  5
E52
330
18
100
AcDbEntity
  8
Layer 1
  6
AI-Linetype-11
 62
   253
370
    25
100
AcDb2dPolyline
 66
     1
 10
0.0
 20
0.0
 30
0.0
  0
VERTEX
  5
E53
330
E52
100
AcDbEntity
  8
Layer 1
  6
AI-Linetype-11
 62
   253
370
    25
100
AcDbVertex
100
AcDb2dVertex
 10
4.684619763192479
 20
1.075543907578543
 30
0.0
  0
VERTEX
  5
E54
330
E52
100
AcDbEntity
  8
Layer 1
  6
AI-Linetype-11
 62
   253
370
    25
100
AcDbVertex
100
AcDb2dVertex
 10
4.694589785581262
 20
1.065567121266829
 30
0.0
  0
SEQEND
  5
E55
330
E52
100
AcDbEntity
  8
Layer 1
  6
AI-Linetype-11
370
    25
  0
POLYLINE
  5
E56
330
18
100
AcDbEntity
  8
Layer 1
  6
AI-Linetype-9
 62
   253
370
    25
100
AcDb2dPolyline
 66
     1
 10
0.0
 20
0.0
 30
0.0
  0
VERTEX
  5
E57
330
E56
100
AcDbEntity
  8
Layer 1
  6
AI-Linetype-9
 62
   253
370
    25
100
AcDbVertex
100
AcDb2dVertex
 10
4.684612400473236
 20
-0.2957857559750825
 30
0.0
  0
VERTEX
  5
E58
330
E56
100
AcDbEntity
  8
Layer 1
  6
AI-Linetype-9
 62
   253
370
    25
100
AcDbVertex
100
AcDb2dVertex
 10
4.694552222040989
 20
-0.285832447539518
 30
0.0
  0
SEQEND
  5
E59
330
E56
100
AcDbEntity
  8
Layer 1
  6
AI-Linetype-9
370
    25
  0
ENDSEC
  0
SECTION
  2
OBJECTS
  0
DICTIONARY
  5
C
330
0
100
AcDbDictionary
281
     1
  3
ACAD_COLOR
350
1BE
  3
ACAD_GROUP
350
D
  3
ACAD_LAYOUT
350
62
  3
ACAD_MATERIAL
350
1A9
  3
ACAD_MLINESTYLE
350
E
  3
ACAD_PLOTSETTINGS
350
63
  3
ACAD_PLOTSTYLENAME
350
60
  3
ACAD_TABLESTYLE
350
1BF
  3
ACAD_VISUALSTYLE
350
1AD
  3
AcDbVariableDictionary
350
C3
  3
DWGPROPS
350
E72
  0
DICTIONARY
  5
1F1
330
8
100
AcDbDictionary
280
     1
281
     1
  0
DICTIONARY
  5
BD
330
18
100
AcDbDictionary
280
     1
281
     1
  3
ACAD_LAYOUTSELFREF
360
1A3
  0
DICTIONARY
  5
BB
330
15
100
AcDbDictionary
280
     1
281
     1
  3
ACAD_LAYOUTSELFREF
360
1A2
  0
DICTIONARY
  5
3C8
330
20E
100
AcDbDictionary
280
     1
281
     1
  0
DICTIONARY
  5
1BE
102
{ACAD_REACTORS
330
C
102
}
330
C
100
AcDbDictionary
281
     1
  0
DICTIONARY
  5
D
102
{ACAD_REACTORS
330
C
102
}
330
C
100
AcDbDictionary
281
     1
  0
DICTIONARY
  5
62
102
{ACAD_REACTORS
330
C
102
}
330
C
100
AcDbDictionary
281
     1
  3
Layout1
350
65
  3
Model
350
64
  0
DICTIONARY
  5
1A9
102
{ACAD_REACTORS
330
C
102
}
330
C
100
AcDbDictionary
281
     1
  3
ByBlock
350
1AB
  3
ByLayer
350
1AA
  3
Global
350
1AC
  0
DICTIONARY
  5
E
102
{ACAD_REACTORS
330
C
102
}
330
C
100
AcDbDictionary
281
     1
  3
STANDARD
350
1B
  0
DICTIONARY
  5
63
102
{ACAD_REACTORS
330
C
102
}
330
C
100
AcDbDictionary
281
     1
  0
ACDBDICTIONARYWDFLT
  5
60
102
{ACAD_REACTORS
330
C
102
}
330
C
100
AcDbDictionary
281
     1
  3
Normal
350
61
100
AcDbDictionaryWithDefault
340
61
  0
DICTIONARY
  5
1BF
102
{ACAD_REACTORS
330
C
102
}
330
C
100
AcDbDictionary
281
     1
  3
Standard
350
1C0
  0
DICTIONARY
  5
1AD
102
{ACAD_REACTORS
330
C
102
}
330
C
100
AcDbDictionary
281
     1
  3
2dWireframe
350
1B3
  3
3D Hidden
350
1B5
  3
3dWireframe
350
1B4
  3
Basic
350
1B2
  3
Brighten
350
1B9
  3
ColorChange
350
1BD
  3
Conceptual
350
1B6
  3
Dim
350
1B8
  3
Facepattern
350
1BC
  3
Flat
350
1AE
  3
FlatWithEdges
350
1AF
  3
Gouraud
350
1B0
  3
GouraudWithEdges
350
1B1
  3
Linepattern
350
1BB
  3
Realistic
350
1B7
  3
Thicken
350
1BA
  0
DICTIONARY
  5
C3
102
{ACAD_REACTORS
330
C
102
}
330
C
100
AcDbDictionary
281
     1
  3
CTABLESTYLE
350
207
  3
DIMASSOC
350
C4
  3
INDEXCTL
350
209
  3
SORTENTS
350
208
  0
XRECORD
  5
E72
102
{ACAD_REACTORS
330
C
102
}
330
C
100
AcDbXrecord
280
     1
  1
DWGPROPS COOKIE
  2

  3

  4

  6

  7

  8
John
  9

300
=
301
=
302
=
303
=
304
=
305
=
306
=
307
=
308
=
309
=
 40
0.0375124421296296
 41
2450350.157799769
 42
2455238.879058484
  1

 90
        0
  0
XRECORD
  5
1A3
102
{ACAD_REACTORS
330
BD
102
}
330
BD
100
AcDbXrecord
280
     1
340
18
  0
XRECORD
  5
1A2
102
{ACAD_REACTORS
330
BB
102
}
330
BB
100
AcDbXrecord
280
     1
340
15
  0
LAYOUT
  5
65
102
{ACAD_XDICTIONARY
360
E75
102
}
102
{ACAD_REACTORS
330
62
102
}
330
62
100
AcDbPlotSettings
  1

  2
Fax
  4

  6

 40
0.0
 41
0.0
 42
0.0
 43
0.0
 44
0.0
 45
0.0
 46
0.0
 47
0.0
 48
0.0
 49
0.0
140
0.0
141
0.0
142
1.0
143
1.0
 70
   688
 72
     0
 73
     0
 74
     5
  7
Default R14 pen assignments.ctb
 75
    16
147
1.0
148
0.0
149
0.0
100
AcDbLayout
  1
Layout1
 70
     1
 71
     1
 10
0.0
 20
0.0
 11
12.0
 21
9.0
 12
0.0
 22
0.0
 32
0.0
 14
1.000000000000000E+20
 24
1.000000000000000E+20
 34
1.000000000000000E+20
 15
-1.000000000000000E+20
 25
-1.000000000000000E+20
 35
-1.000000000000000E+20
146
0.0
 13
0.0
 23
0.0
 33
0.0
 16
1.0
 26
0.0
 36
0.0
 17
0.0
 27
1.0
 37
0.0
 76
     0
330
15
  0
LAYOUT
  5
64
102
{ACAD_XDICTIONARY
360
E73
102
}
102
{ACAD_REACTORS
330
62
102
}
330
62
100
AcDbPlotSettings
  1

  2
Fax
  4

  6

 40
0.0
 41
0.0
 42
0.0
 43
0.0
 44
0.0
 45
0.0
 46
0.0
 47
0.0
 48
0.0
 49
0.0
140
0.0
141
0.0
142
1.0
143
1.0
 70
  1712
 72
     0
 73
     0
 74
     0
  7
Default R14 pen assignments.ctb
 75
     0
147
1.0
148
0.0
149
0.0
100
AcDbLayout
  1
Model
 70
     1
 71
     0
 10
0.0
 20
0.0
 11
12.0
 21
9.0
 12
0.0
 22
0.0
 32
0.0
 14
0.0
 24
0.0
 34
0.0
 15
0.0
 25
0.0
 35
0.0
146
0.0
 13
0.0
 23
0.0
 33
0.0
 16
1.0
 26
0.0
 36
0.0
 17
0.0
 27
1.0
 37
0.0
 76
     0
330
18
331
17D
  0
MATERIAL
  5
1AB
102
{ACAD_XDICTIONARY
360
E79
102
}
102
{ACAD_REACTORS
330
1A9
102
}
330
1A9
100
AcDbMaterial
  1
ByBlock
  0
MATERIAL
  5
1AA
102
{ACAD_XDICTIONARY
360
E77
102
}
102
{ACAD_REACTORS
330
1A9
102
}
330
1A9
100
AcDbMaterial
  1
ByLayer
  0
MATERIAL
  5
1AC
102
{ACAD_XDICTIONARY
360
E7B
102
}
102
{ACAD_REACTORS
330
1A9
102
}
330
1A9
100
AcDbMaterial
  1
Global
  0
MLINESTYLE
  5
1B
102
{ACAD_REACTORS
330
E
102
}
330
E
100
AcDbMlineStyle
  2
STANDARD
 70
     0
  3

 62
     0
 51
90.0
 52
90.0
 71
     2
 49
0.5
 62
   256
  6
BYLAYER
 49
-0.5
 62
   256
  6
BYLAYER
  0
ACDBPLACEHOLDER
  5
61
102
{ACAD_REACTORS
330
60
102
}
330
60
  0
TABLESTYLE
  5
1C0
102
{ACAD_XDICTIONARY
360
E7D
102
}
102
{ACAD_REACTORS
330
1BF
102
}
330
1BF
100
AcDbTableStyle
  3
Standard
 70
     0
 71
     0
 40
0.06
 41
0.06
280
     0
281
     0
  7
STANDARD
140
0.18
170
     2
 62
     0
 63
     7
283
     0
274
    -2
284
     1
 64
     0
275
    -2
285
     1
 65
     0
276
    -2
286
     1
 66
     0
277
    -2
287
     1
 67
     0
278
    -2
288
     1
 68
     0
279
    -2
289
     1
 69
     0
  7
STANDARD
140
0.25
170
     5
 62
     0
 63
     7
283
     0
274
    -2
284
     1
 64
     0
275
    -2
285
     1
 65
     0
276
    -2
286
     1
 66
     0
277
    -2
287
     1
 67
     0
278
    -2
288
     1
 68
     0
279
    -2
289
     1
 69
     0
  7
STANDARD
140
0.18
170
     5
 62
     0
 63
     7
283
     0
274
    -2
284
     1
 64
     0
275
    -2
285
     1
 65
     0
276
    -2
286
     1
 66
     0
277
    -2
287
     1
 67
     0
278
    -2
288
     1
 68
     0
279
    -2
289
     1
 69
     0
  0
VISUALSTYLE
  5
1B3
102
{ACAD_REACTORS
330
1AD
102
}
330
1AD
100
AcDbVisualStyle
  2
2dWireframe
 70
     4
 71
     0
 72
     2
 73
     0
 90
        0
 40
-0.6
 41
-30.0
 62
     5
 63
     7
 74
     1
 91
        4
 64
     7
 65
   257
 75
     1
175
     1
 42
1.0
 92
        0
 66
   257
 43
1.0
 76
     1
 77
     6
 78
     2
 67
     7
 79
     5
170
     0
171
     0
290
     0
174
     0
 93
        1
 44
0.0
173
     0
291
     0
 45
0.0
1001
ACAD
1000
AcDbSavedByObjectVersion
1070
     0
  0
VISUALSTYLE
  5
1B5
102
{ACAD_REACTORS
330
1AD
102
}
330
1AD
100
AcDbVisualStyle
  2
3D Hidden
 70
     6
 71
     1
 72
     2
 73
     2
 90
        0
 40
-0.6
 41
-30.0
 62
     5
 63
     7
 74
     2
 91
        2
 64
     7
 65
   257
 75
     2
175
     1
 42
40.0
 92
        0
 66
   257
 43
1.0
 76
     1
 77
     6
 78
     2
 67
     7
 79
     3
170
     0
171
     0
290
     0
174
     0
 93
        1
 44
0.0
173
     0
291
     0
 45
0.0
1001
ACAD
1000
AcDbSavedByObjectVersion
1070
     0
  0
VISUALSTYLE
  5
1B4
102
{ACAD_REACTORS
330
1AD
102
}
330
1AD
100
AcDbVisualStyle
  2
3dWireframe
 70
     5
 71
     0
 72
     2
 73
     0
 90
        0
 40
-0.6
 41
-30.0
 62
     5
 63
     7
 74
     1
 91
        4
 64
     7
 65
   257
 75
     1
175
     1
 42
1.0
 92
        0
 66
   257
 43
1.0
 76
     1
 77
     6
 78
     2
 67
     7
 79
     5
170
     0
171
     0
290
     0
174
     0
 93
        1
 44
0.0
173
     0
291
     0
 45
0.0
1001
ACAD
1000
AcDbSavedByObjectVersion
1070
     0
  0
VISUALSTYLE
  5
1B2
102
{ACAD_REACTORS
330
1AD
102
}
330
1AD
100
AcDbVisualStyle
  2
Basic
 70
     7
 71
     1
 72
     0
 73
     1
 90
        0
 40
-0.6
 41
-30.0
 62
     5
 63
     7
 74
     0
 91
        4
 64
     7
 65
   257
 75
     1
175
     1
 42
1.0
 92
        8
 66
     7
 43
1.0
 76
     1
 77
     6
 78
     2
 67
     7
 79
     5
170
     0
171
     0
290
     0
174
     0
 93
        1
 44
0.0
173
     0
291
     1
 45
0.0
1001
ACAD
1000
AcDbSavedByObjectVersion
1070
     0
  0
VISUALSTYLE
  5
1B9
102
{ACAD_REACTORS
330
1AD
102
}
330
1AD
100
AcDbVisualStyle
  2
Brighten
 70
    12
 71
     2
 72
     2
 73
     0
 90
        0
 40
-0.6
 41
-30.0
 62
     5
 63
     7
 74
     1
 91
        4
 64
     7
 65
   257
 75
     1
175
     1
 42
1.0
 92
        8
 66
     7
 43
1.0
 76
     1
 77
     6
 78
     2
 67
     7
 79
     5
170
     0
171
     0
290
     0
174
     0
 93
        1
 44
50.0
173
     0
291
     1
 45
0.0
1001
ACAD
1000
AcDbSavedByObjectVersion
1070
     0
  0
VISUALSTYLE
  5
1BD
102
{ACAD_REACTORS
330
1AD
102
}
330
1AD
100
AcDbVisualStyle
  2
ColorChange
 70
    16
 71
     2
 72
     2
 73
     3
 90
        0
 40
-0.6
 41
-30.0
 62
     5
 63
     8
 74
     1
 91
        4
 64
     7
 65
   257
 75
     1
175
     1
 42
1.0
 92
        8
 66
     8
 43
1.0
 76
     1
 77
     6
 78
     2
 67
     7
 79
     5
170
     0
171
     0
290
     0
174
     0
 93
        1
 44
0.0
173
     0
291
     1
 45
0.0
1001
ACAD
1000
AcDbSavedByObjectVersion
1070
     0
  0
VISUALSTYLE
  5
1B6
102
{ACAD_REACTORS
330
1AD
102
}
330
1AD
100
AcDbVisualStyle
  2
Conceptual
 70
     9
 71
     3
 72
     2
 73
     0
 90
        0
 40
-0.6
 41
-30.0
 62
     5
 63
     7
 74
     2
 91
        2
 64
     7
 65
   257
 75
     1
175
     1
 42
40.0
 92
        8
 66
     7
 43
1.0
 76
     1
 77
     6
 78
     2
 67
     7
 79
     3
170
     0
171
     0
290
     0
174
     0
 93
        1
 44
0.0
173
     0
291
     0
 45
0.0
1001
ACAD
1000
AcDbSavedByObjectVersion
1070
     0
  0
VISUALSTYLE
  5
1B8
102
{ACAD_REACTORS
330
1AD
102
}
330
1AD
100
AcDbVisualStyle
  2
Dim
 70
    11
 71
     2
 72
     2
 73
     0
 90
        0
 40
-0.6
 41
-30.0
 62
     5
 63
     7
 74
     1
 91
        4
 64
     7
 65
   257
 75
     1
175
     1
 42
1.0
 92
        8
 66
     7
 43
1.0
 76
     1
 77
     6
 78
     2
 67
     7
 79
     5
170
     0
171
     0
290
     0
174
     0
 93
        1
 44
-50.0
173
     0
291
     1
 45
0.0
1001
ACAD
1000
AcDbSavedByObjectVersion
1070
     0
  0
VISUALSTYLE
  5
1BC
102
{ACAD_REACTORS
330
1AD
102
}
330
1AD
100
AcDbVisualStyle
  2
Facepattern
 70
    15
 71
     2
 72
     2
 73
     0
 90
        0
 40
-0.6
 41
-30.0
 62
     5
 63
     7
 74
     1
 91
        4
 64
     7
 65
   257
 75
     1
175
     1
 42
1.0
 92
        8
 66
     7
 43
1.0
 76
     1
 77
     6
 78
     2
 67
     7
 79
     5
170
     0
171
     0
290
     0
174
     0
 93
        1
 44
0.0
173
     0
291
     1
 45
0.0
1001
ACAD
1000
AcDbSavedByObjectVersion
1070
     0
  0
VISUALSTYLE
  5
1AE
102
{ACAD_REACTORS
330
1AD
102
}
330
1AD
100
AcDbVisualStyle
  2
Flat
 70
     0
 71
     2
 72
     1
 73
     1
 90
        2
 40
-0.6
 41
30.0
 62
     5
 63
     7
 74
     0
 91
        4
 64
     7
 65
   257
 75
     1
175
     1
 42
1.0
 92
        8
 66
     7
 43
1.0
 76
     1
 77
     6
 78
     2
 67
     7
 79
     5
170
     0
171
     0
290
     0
174
     0
 93
       13
 44
0.0
173
     0
291
     1
 45
0.0
1001
ACAD
1000
AcDbSavedByObjectVersion
1070
     0
  0
VISUALSTYLE
  5
1AF
102
{ACAD_REACTORS
330
1AD
102
}
330
1AD
100
AcDbVisualStyle
  2
FlatWithEdges
 70
     1
 71
     2
 72
     1
 73
     1
 90
        2
 40
-0.6
 41
30.0
 62
     5
 63
     7
 74
     1
 91
        4
 64
     7
 65
   257
 75
     1
175
     1
 42
1.0
 92
        0
 66
   257
 43
1.0
 76
     1
 77
     6
 78
     2
 67
     7
 79
     5
170
     0
171
     0
290
     0
174
     0
 93
       13
 44
0.0
173
     0
291
     1
 45
0.0
1001
ACAD
1000
AcDbSavedByObjectVersion
1070
     0
  0
VISUALSTYLE
  5
1B0
102
{ACAD_REACTORS
330
1AD
102
}
330
1AD
100
AcDbVisualStyle
  2
Gouraud
 70
     2
 71
     2
 72
     2
 73
     1
 90
        2
 40
-0.6
 41
30.0
 62
     5
 63
     7
 74
     0
 91
        4
 64
     7
 65
   257
 75
     1
175
     1
 42
1.0
 92
        0
 66
     7
 43
1.0
 76
     1
 77
     6
 78
     2
 67
     7
 79
     5
170
     0
171
     0
290
     0
174
     0
 93
       13
 44
0.0
173
     0
291
     1
 45
0.0
1001
ACAD
1000
AcDbSavedByObjectVersion
1070
     0
  0
VISUALSTYLE
  5
1B1
102
{ACAD_REACTORS
330
1AD
102
}
330
1AD
100
AcDbVisualStyle
  2
GouraudWithEdges
 70
     3
 71
     2
 72
     2
 73
     1
 90
        2
 40
-0.6
 41
30.0
 62
     5
 63
     7
 74
     1
 91
        4
 64
     7
 65
   257
 75
     1
175
     1
 42
1.0
 92
        0
 66
   257
 43
1.0
 76
     1
 77
     6
 78
     2
 67
     7
 79
     5
170
     0
171
     0
290
     0
174
     0
 93
       13
 44
0.0
173
     0
291
     1
 45
0.0
1001
ACAD
1000
AcDbSavedByObjectVersion
1070
     0
  0
VISUALSTYLE
  5
1BB
102
{ACAD_REACTORS
330
1AD
102
}
330
1AD
100
AcDbVisualStyle
  2
Linepattern
 70
    14
 71
     2
 72
     2
 73
     0
 90
        0
 40
-0.6
 41
-30.0
 62
     5
 63
     7
 74
     1
 91
        4
 64
     7
 65
   257
 75
     7
175
     7
 42
1.0
 92
        8
 66
     7
 43
1.0
 76
     1
 77
     6
 78
     2
 67
     7
 79
     5
170
     0
171
     0
290
     0
174
     0
 93
        1
 44
0.0
173
     0
291
     1
 45
0.0
1001
ACAD
1000
AcDbSavedByObjectVersion
1070
     0
  0
VISUALSTYLE
  5
1B7
102
{ACAD_REACTORS
330
1AD
102
}
330
1AD
100
AcDbVisualStyle
  2
Realistic
 70
     8
 71
     2
 72
     2
 73
     0
 90
        0
 40
-0.6
 41
-30.0
 62
     5
 63
     7
 74
     1
 91
        0
 64
     7
 65
   257
 75
     1
175
     1
 42
1.0
 92
        8
 66
     8
 43
1.0
 76
     1
 77
     6
 78
     2
 67
     7
 79
     5
170
     0
171
     0
290
     0
174
     0
 93
       13
 44
0.0
173
     0
291
     0
 45
0.0
1001
ACAD
1000
AcDbSavedByObjectVersion
1070
     0
  0
VISUALSTYLE
  5
1BA
102
{ACAD_REACTORS
330
1AD
102
}
330
1AD
100
AcDbVisualStyle
  2
Thicken
 70
    13
 71
     2
 72
     2
 73
     0
 90
        0
 40
-0.6
 41
-30.0
 62
     5
 63
     7
 74
     1
 91
        4
 64
     7
 65
   257
 75
     1
175
     1
 42
1.0
 92
       12
 66
     7
 43
1.0
 76
     1
 77
     6
 78
     2
 67
     7
 79
     5
170
     0
171
     0
290
     0
174
     0
 93
        1
 44
0.0
173
     0
291
     1
 45
0.0
1001
ACAD
1000
AcDbSavedByObjectVersion
1070
     0
  0
DICTIONARYVAR
  5
207
102
{ACAD_REACTORS
330
C3
102
}
330
C3
100
DictionaryVariables
280
     0
  1
STANDARD
  0
DICTIONARYVAR
  5
C4
102
{ACAD_REACTORS
330
C3
102
}
330
C3
100
DictionaryVariables
280
     0
  1
1
  0
DICTIONARYVAR
  5
209
102
{ACAD_REACTORS
330
C3
102
}
330
C3
100
DictionaryVariables
280
     0
  1
0
  0
DICTIONARYVAR
  5
208
102
{ACAD_REACTORS
330
C3
102
}
330
C3
100
DictionaryVariables
280
     0
  1
127
  0
DICTIONARY
  5
E75
330
65
100
AcDbDictionary
280
     1
281
     1
  3
ACAD_XREC_ROUNDTRIP
360
E76
  0
DICTIONARY
  5
E73
330
64
100
AcDbDictionary
280
     1
281
     1
  3
ACAD_XREC_ROUNDTRIP
360
E74
  0
DICTIONARY
  5
E79
330
1AB
100
AcDbDictionary
280
     1
281
     1
  3
ACAD_XREC_ROUNDTRIP
360
E7A
  0
DICTIONARY
  5
E77
330
1AA
100
AcDbDictionary
280
     1
281
     1
  3
ACAD_XREC_ROUNDTRIP
360
E78
  0
DICTIONARY
  5
E7B
330
1AC
100
AcDbDictionary
280
     1
281
     1
  3
ACAD_XREC_ROUNDTRIP
360
E7C
  0
DICTIONARY
  5
E7D
330
1C0
100
AcDbDictionary
280
     1
281
     1
  3
ACAD_XREC_ROUNDTRIP
360
E7E
  0
XRECORD
  5
E76
102
{ACAD_REACTORS
330
E75
102
}
330
E75
100
AcDbXrecord
280
     1
102
SHADEPLOT
 70
     0
102
SHADEPLOTRESLEVEL
 70
     2
102
SHADEPLOTCUSTOMDPI
 70
   300
  0
XRECORD
  5
E74
102
{ACAD_REACTORS
330
E73
102
}
330
E73
100
AcDbXrecord
280
     1
102
SHADEPLOT
 70
     0
102
SHADEPLOTRESLEVEL
 70
     2
102
SHADEPLOTCUSTOMDPI
 70
   300
  0
XRECORD
  5
E7A
102
{ACAD_REACTORS
330
E79
102
}
330
E79
100
AcDbXrecord
280
     1
102
MATERIAL
148
0.0
149
0.0
149
0.0
 93
        0
 94
       63
282
     0
 72
     1
 77
     1
171
     1
175
     1
179
     1
273
     0
  0
XRECORD
  5
E78
102
{ACAD_REACTORS
330
E77
102
}
330
E77
100
AcDbXrecord
280
     1
102
MATERIAL
148
0.0
149
0.0
149
0.0
 93
        0
 94
       63
282
     0
 72
     1
 77
     1
171
     1
175
     1
179
     1
273
     0
  0
XRECORD
  5
E7C
102
{ACAD_REACTORS
330
E7B
102
}
330
E7B
100
AcDbXrecord
280
     1
102
MATERIAL
148
0.0
149
0.0
149
0.0
 93
        0
 94
       63
282
     0
 72
     1
 77
     1
171
     1
175
     1
179
     1
273
     0
  0
XRECORD
  5
E7E
102
{ACAD_REACTORS
330
E7D
102
}
330
E7D
100
AcDbXrecord
280
     1
102
ACAD_ROUNDTRIP_PRE2007_TABLESTYLE
 90
      512
 91
        0
  1

 92
      512
 93
        0
  2

 94
      512
 95
        0
  3

  0
ENDSEC
  0
EOF
