  0
SECTION
  2
HEADER
  9
$ACADVER
  1
AC1014
  9
$ACADMAINTVER
 70
     9
  9
$DWGCODEPAGE
  3
ANSI_1252
  9
$INSBASE
 10
-2.10162074065521
 20
-14.6737653366961
 30
0.0
  9
$EXTMIN
 10
-5.507078136965387
 20
-15.75676452458612
 30
0.0
  9
$EXTMAX
 10
7.362336938068719
 20
-12.31122802593415
 30
0.0
  9
$LIMMIN
 10
0.0
 20
0.0
  9
$LIMMAX
 10
36.0
 20
36.0
  9
$ORTHOMODE
 70
     1
  9
$REGENMODE
 70
     1
  9
$FILLMODE
 70
     1
  9
$QTEXTMODE
 70
     0
  9
$MIRRTEXT
 70
     1
  9
$DRAGMODE
 70
     0
  9
$LTSCALE
 40
1.0
  9
$OSMODE
 70
    37
  9
$ATTMODE
 70
     1
  9
$TEXTSIZE
 40
0.2
  9
$TRACEWID
 40
0.05
  9
$TEXTSTYLE
  7
STANDARD
  9
$CLAYER
  8
ADP2DETAIL
  9
$CELTYPE
  6
BYLAYER
  9
$CECOLOR
 62
   256
  9
$CELTSCALE
 40
1.0
  9
$DELOBJ
 70
     1
  9
$DISPSILH
 70
     0
  9
$DIMSCALE
 40
1.0
  9
$DIMASZ
 40
0.125
  9
$DIMEXO
 40
0.0625
  9
$DIMDLI
 40
0.38
  9
$DIMRND
 40
0.0
  9
$DIMDLE
 40
0.0
  9
$DIMEXE
 40
0.18
  9
$DIMTP
 40
0.0
  9
$DIMTM
 40
0.0
  9
$DIMTXT
 40
0.125
  9
$DIMCEN
 40
0.1875
  9
$DIMTSZ
 40
0.125
  9
$DIMTOL
 70
     0
  9
$DIMLIM
 70
     0
  9
$DIMTIH
 70
     0
  9
$DIMTOH
 70
     0
  9
$DIMSE1
 70
     0
  9
$DIMSE2
 70
     0
  9
$DIMTAD
 70
     0
  9
$DIMZIN
 70
     3
  9
$DIMBLK
  1

  9
$DIMASO
 70
     1
  9
$DIMSHO
 70
     1
  9
$DIMPOST
  1

  9
$DIMAPOST
  1

  9
$DIMALT
 70
     0
  9
$DIMALTD
 70
     1
  9
$DIMALTF
 40
25.4
  9
$DIMLFAC
 40
1.0
  9
$DIMTOFL
 70
     0
  9
$DIMTVP
 40
0.0
  9
$DIMTIX
 70
     0
  9
$DIMSOXD
 70
     0
  9
$DIMSAH
 70
     0
  9
$DIMBLK1
  1

  9
$DIMBLK2
  1

  9
$DIMSTYLE
  2
STANDARD
  9
$DIMCLRD
 70
     0
  9
$DIMCLRE
 70
     0
  9
$DIMCLRT
 70
     0
  9
$DIMTFAC
 40
1.0
  9
$DIMGAP
 40
0.125
  9
$DIMJUST
 70
     0
  9
$DIMSD1
 70
     0
  9
$DIMSD2
 70
     0
  9
$DIMTOLJ
 70
     1
  9
$DIMTZIN
 70
     0
  9
$DIMALTZ
 70
     0
  9
$DIMALTTZ
 70
     0
  9
$DIMFIT
 70
     3
  9
$DIMUPT
 70
     0
  9
$DIMUNIT
 70
     2
  9
$DIMDEC
 70
     4
  9
$DIMTDEC
 70
     4
  9
$DIMALTU
 70
     2
  9
$DIMALTTD
 70
     2
  9
$DIMTXSTY
  7
STANDARD
  9
$DIMAUNIT
 70
     0
  9
$LUNITS
 70
     5
  9
$LUPREC
 70
     4
  9
$SKETCHINC
 40
0.1
  9
$FILLETRAD
 40
0.062
  9
$AUNITS
 70
     0
  9
$AUPREC
 70
     0
  9
$MENU
  1
acad
  9
$ELEVATION
 40
0.0
  9
$PELEVATION
 40
0.0
  9
$THICKNESS
 40
0.0
  9
$LIMCHECK
 70
     0
  9
$BLIPMODE
 70
     0
  9
$CHAMFERA
 40
0.0
  9
$CHAMFERB
 40
0.0
  9
$CHAMFERC
 40
0.0
  9
$CHAMFERD
 40
0.0
  9
$SKPOLY
 70
     0
  9
$TDCREATE
 40
2450386.503435567
  9
$TDUPDATE
 40
2452297.076200810
  9
$TDINDWG
 40
0.0705533796
  9
$TDUSRTIMER
 40
0.0705533796
  9
$USRTIMER
 70
     1
  9
$ANGBASE
 50
0.0
  9
$ANGDIR
 70
     0
  9
$PDMODE
 70
     0
  9
$PDSIZE
 40
0.0
  9
$PLINEWID
 40
0.0
  9
$COORDS
 70
     2
  9
$SPLFRAME
 70
     0
  9
$SPLINETYPE
 70
     6
  9
$SPLINESEGS
 70
     8
  9
$ATTDIA
 70
     0
  9
$ATTREQ
 70
     1
  9
$HANDLING
 70
 22529
  9
$HANDSEED
  5
24D
  9
$SURFTAB1
 70
     6
  9
$SURFTAB2
 70
     6
  9
$SURFTYPE
 70
     6
  9
$SURFU
 70
     6
  9
$SURFV
 70
     6
  9
$UCSNAME
  2

  9
$UCSORG
 10
0.0
 20
0.0
 30
0.0
  9
$UCSXDIR
 10
1.0
 20
0.0
 30
0.0
  9
$UCSYDIR
 10
0.0
 20
1.0
 30
0.0
  9
$PUCSNAME
  2

  9
$PUCSORG
 10
0.0
 20
0.0
 30
0.0
  9
$PUCSXDIR
 10
1.0
 20
0.0
 30
0.0
  9
$PUCSYDIR
 10
0.0
 20
1.0
 30
0.0
  9
$USERI1
 70
     0
  9
$USERI2
 70
     0
  9
$USERI3
 70
     0
  9
$USERI4
 70
     0
  9
$USERI5
 70
     0
  9
$USERR1
 40
0.0
  9
$USERR2
 40
0.0
  9
$USERR3
 40
0.0
  9
$USERR4
 40
0.0
  9
$USERR5
 40
0.0
  9
$WORLDVIEW
 70
     1
  9
$SHADEDGE
 70
     3
  9
$SHADEDIF
 70
    70
  9
$TILEMODE
 70
     1
  9
$MAXACTVP
 70
    15
  9
$PINSBASE
 10
4.403525741743744E+99
 20
7.061986388769092E+99
 30
0.0
  9
$PLIMCHECK
 70
     0
  9
$PEXTMIN
 10
1.000000000000000E+20
 20
1.000000000000000E+20
 30
1.000000000000000E+20
  9
$PEXTMAX
 10
-1.000000000000000E+20
 20
-1.000000000000000E+20
 30
-1.000000000000000E+20
  9
$PLIMMIN
 10
0.0
 20
0.0
  9
$PLIMMAX
 10
12.0
 20
9.0
  9
$UNITMODE
 70
     0
  9
$VISRETAIN
 70
     0
  9
$PLINEGEN
 70
     0
  9
$PSLTSCALE
 70
     1
  9
$TREEDEPTH
 70
  3020
  9
$PICKSTYLE
 70
     1
  9
$CMLSTYLE
  2
STANDARD
  9
$CMLJUST
 70
     0
  9
$CMLSCALE
 40
1.0
  9
$PROXYGRAPHICS
 70
     1
  9
$MEASUREMENT
 70
     0
  0
ENDSEC
  0
SECTION
  2
CLASSES
  0
CLASS
  1
ACDBDICTIONARYWDFLT
  2
AcDbDictionaryWithDefault
  3
AutoCAD 2000
 90
        0
280
     0
281
     0
  0
CLASS
  1
ACDBPLACEHOLDER
  2
AcDbPlaceHolder
  3
AutoCAD 2000
 90
        0
280
     0
281
     0
  0
CLASS
  1
LAYOUT
  2
AcDbLayout
  3
AutoCAD 2000
 90
        0
280
     0
281
     0
  0
CLASS
  1
DICTIONARYVAR
  2
AcDbDictionaryVar
  3
AutoCAD 2000
 90
        0
280
     0
281
     0
  0
CLASS
  1
LONG_TRANSACTION
  2
AcDbLongTransaction
  3
AutoCAD 2000
 90
        0
280
     0
281
     0
  0
CLASS
  1
LWPOLYLINE
  2
AcDbPolyline
  3
AutoCAD 2000
 90
        0
280
     0
281
     1
  0
CLASS
  1
HATCH
  2
AcDbHatch
  3
AutoCAD 2000
 90
        0
280
     0
281
     1
  0
CLASS
  1
XRECORD
  2
AcDbXrecord
  3
AutoCAD 2000
 90
        0
280
     0
281
     0
  0
CLASS
  1
LONG_TRANSACTION
  2
AcDbLongTransaction
  3
AutoCAD 2000
 90
        0
280
     0
281
     0
  0
CLASS
  1
LWPOLYLINE
  2
AcDbPolyline
  3
AutoCAD 2000
 90
        0
280
     0
281
     1
  0
CLASS
  1
HATCH
  2
AcDbHatch
  3
AutoCAD 2000
 90
        0
280
     0
281
     1
  0
CLASS
  1
XRECORD
  2
AcDbXrecord
  3
AutoCAD 2000
 90
        0
280
     0
281
     0
  0
CLASS
  1
LONG_TRANSACTION
  2
AcDbLongTransaction
  3
AutoCAD 2000
 90
        0
280
     0
281
     0
  0
CLASS
  1
LWPOLYLINE
  2
AcDbPolyline
  3
AutoCAD 2000
 90
        0
280
     0
281
     1
  0
CLASS
  1
HATCH
  2
AcDbHatch
  3
AutoCAD 2000
 90
        0
280
     0
281
     1
  0
CLASS
  1
XRECORD
  2
AcDbXrecord
  3
AutoCAD 2000
 90
        0
280
     0
281
     0
  0
CLASS
  1
LONG_TRANSACTION
  2
AcDbLongTransaction
  3
AutoCAD 2000
 90
        0
280
     0
281
     0
  0
CLASS
  1
LWPOLYLINE
  2
AcDbPolyline
  3
AutoCAD 2000
 90
        0
280
     0
281
     1
  0
CLASS
  1
HATCH
  2
AcDbHatch
  3
AutoCAD 2000
 90
        0
280
     0
281
     1
  0
CLASS
  1
XRECORD
  2
AcDbXrecord
  3
AutoCAD 2000
 90
        0
280
     0
281
     0
  0
CLASS
  1
LONG_TRANSACTION
  2
AcDbLongTransaction
  3
AutoCAD 2000
 90
        0
280
     0
281
     0
  0
CLASS
  1
LWPOLYLINE
  2
AcDbPolyline
  3
AutoCAD 2000
 90
        0
280
     0
281
     1
  0
CLASS
  1
HATCH
  2
AcDbHatch
  3
AutoCAD 2000
 90
        0
280
     0
281
     1
  0
CLASS
  1
XRECORD
  2
AcDbXrecord
  3
AutoCAD 2000
 90
        0
280
     0
281
     0
  0
ENDSEC
  0
SECTION
  2
TABLES
  0
TABLE
  2
VPORT
  5
13
330
0
100
AcDbSymbolTable
 70
     2
  0
VPORT
  5
22A
330
13
100
AcDbSymbolTableRecord
100
AcDbViewportTableRecord
  2
*ACTIVE
 70
     0
 10
0.0
 20
0.0
 11
1.0
 21
1.0
 12
0.9373712030035843
 22
-14.03473228411144
 13
0.0
 23
0.0
 14
0.5740882589684922
 24
0.5740882589684922
 15
0.5
 25
0.5
 16
0.0
 26
0.0
 36
1.0
 17
0.0
 27
0.0
 37
0.0
 40
8.249403121753632
 41
1.570528967254408
 42
50.0
 43
0.0
 44
0.0
 50
0.0
 51
0.0
 71
     0
 72
   100
 73
     1
 74
     0
 75
     0
 76
     0
 77
     0
 78
     0
  0
ENDTAB
  0
TABLE
  2
LTYPE
  5
F
330
0
100
AcDbSymbolTable
 70
     2
  0
LTYPE
  5
10
330
F
100
AcDbSymbolTableRecord
100
AcDbLinetypeTableRecord
  2
BYBLOCK
 70
     0
  3

 72
    65
 73
     0
 40
0.0
  0
LTYPE
  5
6
330
F
100
AcDbSymbolTableRecord
100
AcDbLinetypeTableRecord
  2
BYLAYER
 70
     0
  3

 72
    65
 73
     0
 40
0.0
  0
LTYPE
  5
5
330
F
100
AcDbSymbolTableRecord
100
AcDbLinetypeTableRecord
  2
CONTINUOUS
 70
     0
  3
Solid line
 72
    65
 73
     0
 40
0.0
  0
LTYPE
  5
9A
330
F
100
AcDbSymbolTableRecord
100
AcDbLinetypeTableRecord
  2
HIDDEN2
 70
     0
  3
_ _ _ _ _ _ _ _ _ _ _ _ _ _ _ _ _ _ _ _ _ _ _ _
 72
    65
 73
     2
 40
0.1875
 49
0.125
 74
     0
 49
-0.0625
 74
     0
  0
ENDTAB
  0
TABLE
  2
LAYER
  5
B
330
0
100
AcDbSymbolTable
 70
     5
  0
LAYER
  5
C
330
B
100
AcDbSymbolTableRecord
100
AcDbLayerTableRecord
  2
0
 70
     0
 62
     7
  6
CONTINUOUS
  0
LAYER
  5
1F
330
B
100
AcDbSymbolTableRecord
100
AcDbLayerTableRecord
  2
ADP1DETAIL
 70
     0
 62
     7
  6
CONTINUOUS
  0
LAYER
  5
30
330
B
100
AcDbSymbolTableRecord
100
AcDbLayerTableRecord
  2
DEFPOINTS
 70
     0
 62
     7
  6
CONTINUOUS
  0
LAYER
  5
4
330
B
100
AcDbSymbolTableRecord
100
AcDbLayerTableRecord
  2
ADP2DETAIL
 70
     0
 62
     5
  6
CONTINUOUS
  0
LAYER
  5
26
330
B
100
AcDbSymbolTableRecord
100
AcDbLayerTableRecord
  2
ADPDIM
 70
     0
 62
     3
  6
CONTINUOUS
  0
ENDTAB
  0
TABLE
  2
STYLE
  5
D
330
0
100
AcDbSymbolTable
 70
     2
  0
STYLE
  5
E
330
D
100
AcDbSymbolTableRecord
100
AcDbTextStyleTableRecord
  2
STANDARD
 70
     0
 40
0.0
 41
1.0
 50
0.0
 71
     0
 42
0.2
  3
txt
  4

  0
STYLE
  5
E6
330
D
100
AcDbSymbolTableRecord
100
AcDbTextStyleTableRecord
  2
ARIAL_WIDE
 70
     0
 40
0.0
 41
1.25
 50
0.0
 71
     0
 42
0.2
  3
ARIAL.TTF
  4

1001
ACAD
1000
Arial
1071
       34
  0
ENDTAB
  0
TABLE
  2
VIEW
  5
11
330
0
100
AcDbSymbolTable
 70
     0
  0
ENDTAB
  0
TABLE
  2
UCS
  5
12
330
0
100
AcDbSymbolTable
 70
     0
  0
ENDTAB
  0
TABLE
  2
APPID
  5
15
330
0
100
AcDbSymbolTable
 70
     1
  0
APPID
  5
16
330
15
100
AcDbSymbolTableRecord
100
AcDbRegAppTableRecord
  2
ACAD
 70
     0
  0
ENDTAB
  0
TABLE
  2
DIMSTYLE
  5
17
330
0
100
AcDbSymbolTable
 70
     1
  0
DIMSTYLE
105
1D
330
17
100
AcDbSymbolTableRecord
100
AcDbDimStyleTableRecord
  2
STANDARD
 70
     0
  3

  4

  5

  6

  7

 40
1.0
 41
0.18
 42
0.0625
 43
0.38
 44
0.18
 45
0.0
 46
0.0
 47
0.0
 48
0.0
140
0.18
141
0.09
142
0.0
143
25.4
144
1.0
145
0.0
146
1.0
147
0.09
 71
     0
 72
     0
 73
     1
 74
     1
 75
     0
 76
     0
 77
     0
 78
     0
170
     0
171
     2
172
     0
173
     0
174
     0
175
     0
176
     0
177
     0
178
     0
270
     2
271
     4
272
     4
273
     2
274
     2
340
E
275
     0
280
     0
281
     0
282
     0
283
     1
284
     0
285
     0
286
     0
287
     3
288
     0
  0
ENDTAB
  0
TABLE
  2
BLOCK_RECORD
  5
1
330
0
100
AcDbSymbolTable
 70
     6
  0
BLOCK_RECORD
  5
2
102
{ACAD_XDICTIONARY
360
139
102
}
330
1
100
AcDbSymbolTableRecord
100
AcDbBlockTableRecord
  2
*MODEL_SPACE
  0
BLOCK_RECORD
  5
8
102
{ACAD_XDICTIONARY
360
13B
102
}
330
1
100
AcDbSymbolTableRecord
100
AcDbBlockTableRecord
  2
*PAPER_SPACE
  0
BLOCK_RECORD
  5
46
330
1
100
AcDbSymbolTableRecord
100
AcDbBlockTableRecord
  2
STUD
  0
BLOCK_RECORD
  5
87
330
1
100
AcDbSymbolTableRecord
100
AcDbBlockTableRecord
  2
*D1
  0
BLOCK_RECORD
  5
27
330
1
100
AcDbSymbolTableRecord
100
AcDbBlockTableRecord
  2
*D2
  0
BLOCK_RECORD
  5
A9
330
1
100
AcDbSymbolTableRecord
100
AcDbBlockTableRecord
  2
*D3
  0
BLOCK_RECORD
  5
B7
330
1
100
AcDbSymbolTableRecord
100
AcDbBlockTableRecord
  2
*D4
  0
BLOCK_RECORD
  5
36
330
1
100
AcDbSymbolTableRecord
100
AcDbBlockTableRecord
  2
*D5
  0
ENDTAB
  0
ENDSEC
  0
SECTION
  2
BLOCKS
  0
BLOCK
  5
3
330
2
100
AcDbEntity
  8
0
100
AcDbBlockBegin
  2
*MODEL_SPACE
 70
     0
 10
0.0
 20
0.0
 30
0.0
  3
*MODEL_SPACE
  1

  0
ENDBLK
  5
7
330
2
100
AcDbEntity
  8
0
100
AcDbBlockEnd
  0
BLOCK
  5
9
330
8
100
AcDbEntity
 67
     1
  8
0
100
AcDbBlockBegin
  2
*PAPER_SPACE
 70
     0
 10
0.0
 20
0.0
 30
0.0
  3
*PAPER_SPACE
  1

  0
ENDBLK
  5
A
330
8
100
AcDbEntity
 67
     1
  8
0
100
AcDbBlockEnd
  0
BLOCK
  5
7A
330
46
100
AcDbEntity
  8
0
100
AcDbBlockBegin
  2
STUD
 70
     0
 10
0.0
 20
0.0
 30
0.0
  3
STUD
  1

  0
LINE
  5
47
330
46
100
AcDbEntity
  8
0
100
AcDbLine
 10
-0.2106546533272015
 20
0.4345838899572075
 30
0.0
 11
-0.2416546533272015
 21
0.4965838899572073
 31
0.0
  0
LINE
  5
48
330
46
100
AcDbEntity
  8
0
100
AcDbLine
 10
-0.2128857855944517
 20
-0.0034161100427927
 30
0.0
 11
-0.2438857855944517
 21
0.0585838899572071
 31
0.0
  0
LINE
  5
49
330
46
100
AcDbEntity
  8
0
100
AcDbLine
 10
-0.6191843435445581
 20
0.4965838899572073
 30
0.0
 11
-0.6191843435445581
 21
0.0575739754449174
 31
0.0
  0
LINE
  5
4A
330
46
100
AcDbEntity
  8
0
100
AcDbLine
 10
-0.274160893627193
 20
0.4345838899572075
 30
0.0
 11
-0.2438857855944517
 21
0.0585838899572071
 31
0.0
  0
LINE
  5
4B
330
46
100
AcDbEntity
  8
0
100
AcDbLine
 10
-0.3376671339271846
 20
0.4345838899572075
 30
0.0
 11
-0.3073920258944432
 21
0.0585838899572071
 31
0.0
  0
LINE
  5
4C
330
46
100
AcDbEntity
  8
0
100
AcDbLine
 10
-0.401173374227176
 20
0.4345838899572075
 30
0.0
 11
-0.3708982661944346
 21
0.0585838899572071
 31
0.0
  0
LINE
  5
4D
330
46
100
AcDbEntity
  8
0
100
AcDbLine
 10
-0.4646796613424146
 20
0.4345838899572075
 30
0.0
 11
-0.4344045533096732
 21
0.0585838899572071
 31
0.0
  0
LINE
  5
4E
330
46
100
AcDbEntity
  8
0
100
AcDbLine
 10
-0.5224125985578164
 20
0.4345838899572075
 30
0.0
 11
-0.492137490525075
 21
0.0585838899572071
 31
0.0
  0
LINE
  5
4F
330
46
100
AcDbEntity
  8
0
100
AcDbLine
 10
-0.585918838857808
 20
0.4345838899572075
 30
0.0
 11
-0.5556437308250666
 21
0.0585838899572071
 31
0.0
  0
LINE
  5
50
330
46
100
AcDbEntity
  8
0
100
AcDbLine
 10
-0.4654045533096733
 20
-0.0034161100427927
 30
0.0
 11
-0.492137490525075
 21
0.0585838899572071
 31
0.0
  0
LINE
  5
51
330
46
100
AcDbEntity
  8
0
100
AcDbLine
 10
-0.6191843435445581
 20
0.0575739754449174
 30
0.0
 11
-0.5866437308250667
 21
-0.0034161100427927
 31
0.0
  0
LINE
  5
52
330
46
100
AcDbEntity
  8
0
100
AcDbLine
 10
-0.5246437308250666
 20
-0.0034161100427927
 30
0.0
 11
-0.5556437308250666
 21
0.0585838899572071
 31
0.0
  0
LINE
  5
53
330
46
100
AcDbEntity
  8
0
100
AcDbLine
 10
-0.5556437308250666
 20
0.0585838899572071
 30
0.0
 11
-0.5866437308250667
 21
-0.0034161100427927
 31
0.0
  0
LINE
  5
54
330
46
100
AcDbEntity
  8
0
100
AcDbLine
 10
-0.492137490525075
 20
0.0585838899572071
 30
0.0
 11
-0.5231374905250751
 21
-0.0034161100427927
 31
0.0
  0
LINE
  5
55
330
46
100
AcDbEntity
  8
0
100
AcDbLine
 10
-0.3398982661944347
 20
-0.0034161100427927
 30
0.0
 11
-0.3708982661944346
 21
0.0585838899572071
 31
0.0
  0
LINE
  5
56
330
46
100
AcDbEntity
  8
0
100
AcDbLine
 10
-0.4034045533096732
 20
-0.0034161100427927
 30
0.0
 11
-0.4344045533096732
 21
0.0585838899572071
 31
0.0
  0
LINE
  5
57
330
46
100
AcDbEntity
  8
0
100
AcDbLine
 10
-0.4344045533096732
 20
0.0585838899572071
 30
0.0
 11
-0.4654045533096733
 21
-0.0034161100427927
 31
0.0
  0
LINE
  5
58
330
46
100
AcDbEntity
  8
0
100
AcDbLine
 10
-0.3708982661944346
 20
0.0585838899572071
 30
0.0
 11
-0.4018982661944348
 21
-0.0034161100427927
 31
0.0
  0
LINE
  5
59
330
46
100
AcDbEntity
  8
0
100
AcDbLine
 10
-0.2763920258944432
 20
-0.0034161100427927
 30
0.0
 11
-0.3073920258944432
 21
0.0585838899572071
 31
0.0
  0
LINE
  5
5A
330
46
100
AcDbEntity
  8
0
100
AcDbLine
 10
-0.3073920258944432
 20
0.0585838899572071
 30
0.0
 11
-0.3383920258944432
 21
-0.0034161100427927
 31
0.0
  0
LINE
  5
5B
330
46
100
AcDbEntity
  8
0
100
AcDbLine
 10
-0.2438857855944517
 20
0.0585838899572071
 30
0.0
 11
-0.2748857855944518
 21
-0.0034161100427927
 31
0.0
  0
LINE
  5
5C
330
46
100
AcDbEntity
  8
0
100
AcDbLine
 10
-0.4646796613424146
 20
0.4345838899572075
 30
0.0
 11
-0.4956796613424145
 21
0.4965838899572073
 31
0.0
  0
LINE
  5
5D
330
46
100
AcDbEntity
  8
0
100
AcDbLine
 10
-0.585918838857808
 20
0.4345838899572075
 30
0.0
 11
-0.616918838857808
 21
0.4965838899572073
 31
0.0
  0
LINE
  5
5E
330
46
100
AcDbEntity
  8
0
100
AcDbLine
 10
-0.5224125985578164
 20
0.4345838899572075
 30
0.0
 11
-0.5534125985578165
 21
0.4965838899572073
 31
0.0
  0
LINE
  5
5F
330
46
100
AcDbEntity
  8
0
100
AcDbLine
 10
-0.4956796613424145
 20
0.4965838899572073
 30
0.0
 11
-0.5224125985578164
 21
0.4345838899572075
 31
0.0
  0
LINE
  5
60
330
46
100
AcDbEntity
  8
0
100
AcDbLine
 10
-0.5549188388578079
 20
0.4965838899572073
 30
0.0
 11
-0.585918838857808
 21
0.4345838899572075
 31
0.0
  0
LINE
  5
61
330
46
100
AcDbEntity
  8
0
100
AcDbLine
 10
-0.3376671339271846
 20
0.4345838899572075
 30
0.0
 11
-0.3686671339271845
 21
0.4965838899572073
 31
0.0
  0
LINE
  5
62
330
46
100
AcDbEntity
  8
0
100
AcDbLine
 10
-0.401173374227176
 20
0.4345838899572075
 30
0.0
 11
-0.432173374227176
 21
0.4965838899572073
 31
0.0
  0
LINE
  5
63
330
46
100
AcDbEntity
  8
0
100
AcDbLine
 10
-0.3701733742271759
 20
0.4965838899572073
 30
0.0
 11
-0.401173374227176
 21
0.4345838899572075
 31
0.0
  0
LINE
  5
64
330
46
100
AcDbEntity
  8
0
100
AcDbLine
 10
-0.4336796613424145
 20
0.4965838899572073
 30
0.0
 11
-0.4646796613424146
 21
0.4345838899572075
 31
0.0
  0
LINE
  5
65
330
46
100
AcDbEntity
  8
0
100
AcDbLine
 10
-0.274160893627193
 20
0.4345838899572075
 30
0.0
 11
-0.305160893627193
 21
0.4965838899572073
 31
0.0
  0
LINE
  5
66
330
46
100
AcDbEntity
  8
0
100
AcDbLine
 10
-0.243160893627193
 20
0.4965838899572073
 30
0.0
 11
-0.274160893627193
 21
0.4345838899572075
 31
0.0
  0
LINE
  5
67
330
46
100
AcDbEntity
  8
0
100
AcDbLine
 10
-0.3066671339271845
 20
0.4965838899572073
 30
0.0
 11
-0.3376671339271846
 21
0.4345838899572075
 31
0.0
  0
LINE
  5
68
330
46
100
AcDbEntity
  8
0
100
AcDbLine
 10
-0.0251843435445581
 20
0.4345838899572075
 30
0.0
 11
0.0050907644881833
 21
0.0585838899572071
 31
0.0
  0
LINE
  5
69
330
46
100
AcDbEntity
  8
0
100
AcDbLine
 10
-0.0871843435445581
 20
0.4345838899572075
 30
0.0
 11
-0.0569092355118167
 21
0.0585838899572071
 31
0.0
  0
LINE
  5
6A
330
46
100
AcDbEntity
  8
0
100
AcDbLine
 10
-0.1491843435445581
 20
0.4345838899572075
 30
0.0
 11
-0.1189092355118167
 21
0.0585838899572071
 31
0.0
  0
LINE
  5
6B
330
46
100
AcDbEntity
  8
0
100
AcDbLine
 10
-0.2106546533272015
 20
0.4345838899572075
 30
0.0
 11
-0.1803795452944603
 21
0.0585838899572071
 31
0.0
  0
LINE
  5
6C
330
46
100
AcDbEntity
  8
0
100
AcDbLine
 10
-0.0879092355118168
 20
-0.0034161100427927
 30
0.0
 11
-0.1189092355118167
 21
0.0585838899572071
 31
0.0
  0
LINE
  5
6D
330
46
100
AcDbEntity
  8
0
100
AcDbLine
 10
-0.1493795452944602
 20
-0.0034161100427927
 30
0.0
 11
-0.1803795452944603
 21
0.0585838899572071
 31
0.0
  0
LINE
  5
6E
330
46
100
AcDbEntity
  8
0
100
AcDbLine
 10
-0.1803795452944603
 20
0.0585838899572071
 30
0.0
 11
-0.2113795452944602
 21
-0.0034161100427927
 31
0.0
  0
LINE
  5
6F
330
46
100
AcDbEntity
  8
0
100
AcDbLine
 10
-0.1189092355118167
 20
0.0585838899572071
 30
0.0
 11
-0.1499092355118167
 21
-0.0034161100427927
 31
0.0
  0
LINE
  5
70
330
46
100
AcDbEntity
  8
0
100
AcDbLine
 10
-0.0569092355118167
 20
0.0585838899572071
 30
0.0
 11
-0.0879092355118168
 21
-0.0034161100427927
 31
0.0
  0
LINE
  5
71
330
46
100
AcDbEntity
  8
0
100
AcDbLine
 10
-0.0259092355118167
 20
-0.0034161100427927
 30
0.0
 11
-0.0569092355118167
 21
0.0585838899572071
 31
0.0
  0
LINE
  5
72
330
46
100
AcDbEntity
  8
0
100
AcDbLine
 10
0.0050907644881833
 20
0.0585838899572071
 30
0.0
 11
-0.0259092355118167
 21
-0.0034161100427927
 31
0.0
  0
LINE
  5
73
330
46
100
AcDbEntity
  8
0
100
AcDbLine
 10
-0.0871843435445581
 20
0.4345838899572075
 30
0.0
 11
-0.118184343544558
 21
0.4965838899572073
 31
0.0
  0
LINE
  5
74
330
46
100
AcDbEntity
  8
0
100
AcDbLine
 10
-0.1491843435445581
 20
0.4345838899572075
 30
0.0
 11
-0.180184343544558
 21
0.4965838899572073
 31
0.0
  0
LINE
  5
75
330
46
100
AcDbEntity
  8
0
100
AcDbLine
 10
-0.118184343544558
 20
0.4965838899572073
 30
0.0
 11
-0.1491843435445581
 21
0.4345838899572075
 31
0.0
  0
LINE
  5
76
330
46
100
AcDbEntity
  8
0
100
AcDbLine
 10
-0.1796546533272015
 20
0.4965838899572073
 30
0.0
 11
-0.2106546533272015
 21
0.4345838899572075
 31
0.0
  0
LINE
  5
77
330
46
100
AcDbEntity
  8
0
100
AcDbLine
 10
0.005815656455442
 20
0.4965838899572073
 30
0.0
 11
-0.0251843435445581
 21
0.4345838899572075
 31
0.0
  0
LINE
  5
78
330
46
100
AcDbEntity
  8
0
100
AcDbLine
 10
-0.0251843435445581
 20
0.4345838899572075
 30
0.0
 11
-0.0561843435445581
 21
0.4965838899572073
 31
0.0
  0
LINE
  5
79
330
46
100
AcDbEntity
  8
0
100
AcDbLine
 10
-0.0561843435445581
 20
0.4965838899572073
 30
0.0
 11
-0.0871843435445581
 21
0.4345838899572075
 31
0.0
  0
ENDBLK
  5
7B
330
46
100
AcDbEntity
  8
0
100
AcDbBlockEnd
  0
BLOCK
  5
92
330
87
100
AcDbEntity
  8
0
100
AcDbBlockBegin
  2
*D1
 70
     1
 10
0.0
 20
0.0
 30
0.0
  3
*D1
  1

  0
LINE
  5
88
330
87
100
AcDbEntity
  8
0
  6
BYBLOCK
 62
     0
100
AcDbLine
 10
-0.2266207406552101
 20
-14.70826214930769
 30
0.0
 11
-0.2266207406552101
 21
-15.06568565977858
 31
0.0
  0
LINE
  5
89
330
87
100
AcDbEntity
  8
0
  6
BYBLOCK
 62
     0
100
AcDbLine
 10
0.5233792593447899
 20
-14.70826214930769
 30
0.0
 11
0.5233792593447899
 21
-15.06568565977858
 31
0.0
  0
LINE
  5
8A
330
87
100
AcDbEntity
  8
0
  6
BYBLOCK
 62
     0
100
AcDbLine
 10
-0.2266207406552101
 20
-14.88568565977858
 30
0.0
 11
-0.4766207406552101
 21
-14.88568565977858
 31
0.0
  0
LINE
  5
8B
330
87
100
AcDbEntity
  8
0
  6
BYBLOCK
 62
     0
100
AcDbLine
 10
0.5233792593447899
 20
-14.88568565977858
 30
0.0
 11
0.7733792593447899
 21
-14.88568565977858
 31
0.0
  0
LINE
  5
8C
330
87
100
AcDbEntity
  8
0
  6
BYBLOCK
 62
     0
100
AcDbLine
 10
-0.3516207406552101
 20
-15.01068565977858
 30
0.0
 11
-0.1016207406552101
 21
-14.76068565977858
 31
0.0
  0
LINE
  5
8D
330
87
100
AcDbEntity
  8
0
  6
BYBLOCK
 62
     0
100
AcDbLine
 10
0.3983792593447899
 20
-15.01068565977858
 30
0.0
 11
0.6483792593447899
 21
-14.76068565977858
 31
0.0
  0
TEXT
  5
8E
330
87
100
AcDbEntity
  8
0
  6
BYBLOCK
 62
     0
100
AcDbText
 10
0.8983792593447898
 20
-14.94818565977858
 30
0.0
 40
0.125
  1
3/4
 72
     1
 11
1.065045926011456
 21
-14.88568565977858
 31
0.0
100
AcDbText
 73
     2
  0
POINT
  5
8F
330
87
100
AcDbEntity
  8
DEFPOINTS
  6
BYBLOCK
 62
     0
100
AcDbPoint
 10
-0.2266207406552101
 20
-14.64576214930769
 30
0.0
  0
POINT
  5
90
330
87
100
AcDbEntity
  8
DEFPOINTS
  6
BYBLOCK
 62
     0
100
AcDbPoint
 10
0.5233792593447899
 20
-14.64576214930769
 30
0.0
  0
POINT
  5
91
330
87
100
AcDbEntity
  8
DEFPOINTS
  6
BYBLOCK
 62
     0
100
AcDbPoint
 10
0.5233792593447899
 20
-14.88568565977858
 30
0.0
  0
ENDBLK
  5
93
330
87
100
AcDbEntity
  8
0
100
AcDbBlockEnd
  0
BLOCK
  5
33
330
27
100
AcDbEntity
  8
0
100
AcDbBlockBegin
  2
*D2
 70
     1
 10
0.0
 20
0.0
 30
0.0
  3
*D2
  1

  0
LINE
  5
28
330
27
100
AcDbEntity
  8
0
  6
BYBLOCK
 62
     0
100
AcDbLine
 10
-2.10162074065521
 20
-13.7362653366961
 30
0.0
 11
-2.10162074065521
 21
-12.64318565977858
 31
0.0
  0
LINE
  5
29
330
27
100
AcDbEntity
  8
0
  6
BYBLOCK
 62
     0
100
AcDbLine
 10
0.1483792593447899
 20
-13.07318565977858
 30
0.0
 11
0.1483792593447899
 21
-12.64318565977858
 31
0.0
  0
LINE
  5
2A
330
27
100
AcDbEntity
  8
0
  6
BYBLOCK
 62
     0
100
AcDbLine
 10
-2.10162074065521
 20
-12.82318565977858
 30
0.0
 11
-1.372454073988543
 21
-12.82318565977858
 31
0.0
  0
LINE
  5
2B
330
27
100
AcDbEntity
  8
0
  6
BYBLOCK
 62
     0
100
AcDbLine
 10
0.1483792593447899
 20
-12.82318565977858
 30
0.0
 11
-0.5807874073218768
 21
-12.82318565977858
 31
0.0
  0
LINE
  5
2C
330
27
100
AcDbEntity
  8
0
  6
BYBLOCK
 62
     0
100
AcDbLine
 10
-2.22662074065521
 20
-12.94818565977858
 30
0.0
 11
-1.97662074065521
 21
-12.69818565977858
 31
0.0
  0
LINE
  5
2D
330
27
100
AcDbEntity
  8
0
  6
BYBLOCK
 62
     0
100
AcDbLine
 10
0.0233792593447899
 20
-12.94818565977858
 30
0.0
 11
0.2733792593447899
 21
-12.69818565977858
 31
0.0
  0
TEXT
  5
2E
330
27
100
AcDbEntity
  8
0
  6
BYBLOCK
 62
     0
100
AcDbText
 10
-1.247454073988543
 20
-12.88568565977858
 30
0.0
 40
0.125
  1
2 1/4
 72
     1
 11
-0.9766207406552101
 21
-12.82318565977858
 31
0.0
100
AcDbText
 73
     2
  0
POINT
  5
2F
330
27
100
AcDbEntity
  8
DEFPOINTS
  6
BYBLOCK
 62
     0
100
AcDbPoint
 10
-2.10162074065521
 20
-13.7987653366961
 30
0.0
  0
POINT
  5
31
330
27
100
AcDbEntity
  8
DEFPOINTS
  6
BYBLOCK
 62
     0
100
AcDbPoint
 10
0.1483792593447899
 20
-13.13568565977858
 30
0.0
  0
POINT
  5
32
330
27
100
AcDbEntity
  8
DEFPOINTS
  6
BYBLOCK
 62
     0
100
AcDbPoint
 10
0.1483792593447899
 20
-12.82318565977858
 30
0.0
  0
ENDBLK
  5
34
330
27
100
AcDbEntity
  8
0
100
AcDbBlockEnd
  0
BLOCK
  5
B4
330
A9
100
AcDbEntity
  8
0
100
AcDbBlockBegin
  2
*D3
 70
     1
 10
0.0
 20
0.0
 30
0.0
  3
*D3
  1

  0
LINE
  5
AA
330
A9
100
AcDbEntity
  8
0
  6
BYBLOCK
 62
     0
100
AcDbLine
 10
2.666402147962202
 20
-12.92872802593415
 30
0.0
 11
2.666402147962202
 21
-12.68622802593415
 31
0.0
  0
LINE
  5
AB
330
A9
100
AcDbEntity
  8
0
  6
BYBLOCK
 62
     0
100
AcDbLine
 10
4.291402147962202
 20
-12.92872802593415
 30
0.0
 11
4.291402147962202
 21
-12.68622802593415
 31
0.0
  0
LINE
  5
AC
330
A9
100
AcDbEntity
  8
0
  6
BYBLOCK
 62
     0
100
AcDbLine
 10
2.666402147962202
 20
-12.86622802593415
 30
0.0
 11
3.083068814628868
 21
-12.86622802593415
 31
0.0
  0
LINE
  5
AD
330
A9
100
AcDbEntity
  8
0
  6
BYBLOCK
 62
     0
100
AcDbLine
 10
4.291402147962202
 20
-12.86622802593415
 30
0.0
 11
3.874735481295535
 21
-12.86622802593415
 31
0.0
  0
LINE
  5
AE
330
A9
100
AcDbEntity
  8
0
  6
BYBLOCK
 62
     0
100
AcDbLine
 10
2.541402147962202
 20
-12.99122802593415
 30
0.0
 11
2.791402147962202
 21
-12.74122802593415
 31
0.0
  0
LINE
  5
AF
330
A9
100
AcDbEntity
  8
0
  6
BYBLOCK
 62
     0
100
AcDbLine
 10
4.166402147962202
 20
-12.99122802593415
 30
0.0
 11
4.416402147962202
 21
-12.74122802593415
 31
0.0
  0
TEXT
  5
B0
330
A9
100
AcDbEntity
  8
0
  6
BYBLOCK
 62
     0
100
AcDbText
 10
3.208068814628868
 20
-12.92872802593415
 30
0.0
 40
0.125
  1
1 5/8
 72
     1
 11
3.478902147962202
 21
-12.86622802593415
 31
0.0
100
AcDbText
 73
     2
  0
POINT
  5
B1
330
A9
100
AcDbEntity
  8
DEFPOINTS
  6
BYBLOCK
 62
     0
100
AcDbPoint
 10
2.666402147962202
 20
-12.99122802593415
 30
0.0
  0
POINT
  5
B2
330
A9
100
AcDbEntity
  8
DEFPOINTS
  6
BYBLOCK
 62
     0
100
AcDbPoint
 10
4.291402147962202
 20
-12.99122802593415
 30
0.0
  0
POINT
  5
B3
330
A9
100
AcDbEntity
  8
DEFPOINTS
  6
BYBLOCK
 62
     0
100
AcDbPoint
 10
4.291402147962202
 20
-12.86622802593415
 30
0.0
  0
ENDBLK
  5
B5
330
A9
100
AcDbEntity
  8
0
100
AcDbBlockEnd
  0
BLOCK
  5
C2
330
B7
100
AcDbEntity
  8
0
100
AcDbBlockBegin
  2
*D4
 70
     1
 10
0.0
 20
0.0
 30
0.0
  3
*D4
  1

  0
LINE
  5
B8
330
B7
100
AcDbEntity
  8
0
  6
BYBLOCK
 62
     0
100
AcDbLine
 10
2.260402147962202
 20
-13.05372802593415
 30
0.0
 11
2.260402147962202
 21
-12.31122802593415
 31
0.0
  0
LINE
  5
B9
330
B7
100
AcDbEntity
  8
0
  6
BYBLOCK
 62
     0
100
AcDbLine
 10
4.760402147962201
 20
-13.05372802593415
 30
0.0
 11
4.760402147962201
 21
-12.31122802593415
 31
0.0
  0
LINE
  5
BA
330
B7
100
AcDbEntity
  8
0
  6
BYBLOCK
 62
     0
100
AcDbLine
 10
2.260402147962202
 20
-12.49122802593415
 30
0.0
 11
3.114568814628868
 21
-12.49122802593415
 31
0.0
  0
LINE
  5
BB
330
B7
100
AcDbEntity
  8
0
  6
BYBLOCK
 62
     0
100
AcDbLine
 10
4.760402147962201
 20
-12.49122802593415
 30
0.0
 11
3.906235481295535
 21
-12.49122802593415
 31
0.0
  0
LINE
  5
BC
330
B7
100
AcDbEntity
  8
0
  6
BYBLOCK
 62
     0
100
AcDbLine
 10
2.135402147962202
 20
-12.61622802593415
 30
0.0
 11
2.385402147962202
 21
-12.36622802593415
 31
0.0
  0
LINE
  5
BD
330
B7
100
AcDbEntity
  8
0
  6
BYBLOCK
 62
     0
100
AcDbLine
 10
4.635402147962201
 20
-12.61622802593415
 30
0.0
 11
4.885402147962201
 21
-12.36622802593415
 31
0.0
  0
TEXT
  5
BE
330
B7
100
AcDbEntity
  8
0
  6
BYBLOCK
 62
     0
100
AcDbText
 10
3.239568814628868
 20
-12.55372802593415
 30
0.0
 40
0.125
  1
2 1/2
 72
     1
 11
3.510402147962201
 21
-12.49122802593415
 31
0.0
100
AcDbText
 73
     2
  0
POINT
  5
BF
330
B7
100
AcDbEntity
  8
DEFPOINTS
  6
BYBLOCK
 62
     0
100
AcDbPoint
 10
2.260402147962202
 20
-13.11622802593415
 30
0.0
  0
POINT
  5
C0
330
B7
100
AcDbEntity
  8
DEFPOINTS
  6
BYBLOCK
 62
     0
100
AcDbPoint
 10
4.760402147962201
 20
-13.11622802593415
 30
0.0
  0
POINT
  5
C1
330
B7
100
AcDbEntity
  8
DEFPOINTS
  6
BYBLOCK
 62
     0
100
AcDbPoint
 10
4.760402147962201
 20
-12.49122802593415
 30
0.0
  0
ENDBLK
  5
C3
330
B7
100
AcDbEntity
  8
0
100
AcDbBlockEnd
  0
BLOCK
  5
41
330
36
100
AcDbEntity
  8
0
100
AcDbBlockBegin
  2
*D5
 70
     1
 10
0.0
 20
0.0
 30
0.0
  3
*D5
  1

  0
LINE
  5
37
330
36
100
AcDbEntity
  8
0
  6
BYBLOCK
 62
     0
100
AcDbLine
 10
2.197902147962202
 20
-13.17277342756227
 30
0.0
 11
1.705402147962202
 21
-13.17277342756227
 31
0.0
  0
LINE
  5
38
330
36
100
AcDbEntity
  8
0
  6
BYBLOCK
 62
     0
100
AcDbLine
 10
3.388371562154525
 20
-14.23527342756227
 30
0.0
 11
1.705402147962202
 21
-14.23527342756227
 31
0.0
  0
LINE
  5
39
330
36
100
AcDbEntity
  8
0
  6
BYBLOCK
 62
     0
100
AcDbLine
 10
1.885402147962201
 20
-13.17277342756227
 30
0.0
 11
1.885402147962201
 21
-12.92277342756227
 31
0.0
  0
LINE
  5
3A
330
36
100
AcDbEntity
  8
0
  6
BYBLOCK
 62
     0
100
AcDbLine
 10
1.885402147962201
 20
-14.23527342756227
 30
0.0
 11
1.885402147962201
 21
-14.48527342756227
 31
0.0
  0
LINE
  5
3B
330
36
100
AcDbEntity
  8
0
  6
BYBLOCK
 62
     0
100
AcDbLine
 10
2.010402147962202
 20
-13.29777342756227
 30
0.0
 11
1.760402147962202
 21
-13.04777342756227
 31
0.0
  0
LINE
  5
3C
330
36
100
AcDbEntity
  8
0
  6
BYBLOCK
 62
     0
100
AcDbLine
 10
2.010402147962202
 20
-14.36027342756227
 30
0.0
 11
1.760402147962202
 21
-14.11027342756227
 31
0.0
  0
TEXT
  5
3D
330
36
100
AcDbEntity
  8
0
  6
BYBLOCK
 62
     0
100
AcDbText
 10
1.947902147962201
 20
-15.1936067608956
 30
0.0
 40
0.125
  1
1 1/16
 50
90.0
 72
     1
 11
1.885402147962201
 21
-14.90194009422893
 31
0.0
100
AcDbText
 73
     2
  0
POINT
  5
3E
330
36
100
AcDbEntity
  8
DEFPOINTS
  6
BYBLOCK
 62
     0
100
AcDbPoint
 10
2.260402147962202
 20
-13.17277342756227
 30
0.0
  0
POINT
  5
3F
330
36
100
AcDbEntity
  8
DEFPOINTS
  6
BYBLOCK
 62
     0
100
AcDbPoint
 10
3.450871562154525
 20
-14.23527342756227
 30
0.0
  0
POINT
  5
40
330
36
100
AcDbEntity
  8
DEFPOINTS
  6
BYBLOCK
 62
     0
100
AcDbPoint
 10
1.885402147962201
 20
-14.23527342756227
 30
0.0
  0
ENDBLK
  5
42
330
36
100
AcDbEntity
  8
0
100
AcDbBlockEnd
  0
ENDSEC
  0
SECTION
  2
ENTITIES
  0
LINE
  5
1E
330
2
100
AcDbEntity
  8
ADP1DETAIL
100
AcDbLine
 10
3.885402147962201
 20
-13.48577342756227
 30
0.0
 11
3.885402147962201
 21
-14.23527342756227
 31
0.0
  0
LINE
  5
20
330
2
100
AcDbEntity
  8
ADP1DETAIL
100
AcDbLine
 10
3.322902147962202
 20
-13.98881658708616
 30
0.0
 11
3.322902147962202
 21
-13.03426908830261
 31
0.0
  0
LINE
  5
21
330
2
100
AcDbEntity
  8
ADP1DETAIL
100
AcDbLine
 10
3.135402147962202
 20
-14.23527342756227
 30
0.0
 11
3.135402147962202
 21
-13.48577342756227
 31
0.0
  0
LINE
  5
22
330
2
100
AcDbEntity
  8
ADP1DETAIL
100
AcDbLine
 10
3.69675688080793
 20
-13.98881658708616
 30
0.0
 11
3.69675688080793
 21
-13.03426908830261
 31
0.0
  0
LINE
  5
23
330
2
100
AcDbEntity
  8
ADP1DETAIL
100
AcDbLine
 10
-0.2266207406552101
 20
-13.05372802593415
 30
0.0
 11
-0.2266207406552101
 21
-14.64576214930769
 31
0.0
  0
LINE
  5
24
330
2
100
AcDbEntity
  8
ADP1DETAIL
100
AcDbLine
 10
0.5233792593447899
 20
-14.64576214930769
 30
0.0
 11
0.5233792593447899
 21
-13.05372802593415
 31
0.0
  0
DIMENSION
  5
25
330
2
100
AcDbEntity
  8
ADPDIM
100
AcDbDimension
  2
*D2
 10
0.1483792593447899
 20
-12.82318565977858
 30
0.0
 11
-0.9766207406552101
 21
-12.82318565977858
 31
0.0
100
AcDbAlignedDimension
 13
-2.10162074065521
 23
-13.7987653366961
 33
0.0
 14
0.1483792593447899
 24
-13.13568565977858
 34
0.0
100
AcDbRotatedDimension
  0
DIMENSION
  5
35
330
2
100
AcDbEntity
  8
ADPDIM
100
AcDbDimension
  2
*D5
 10
1.885402147962201
 20
-14.23527342756227
 30
0.0
 11
1.885402147962201
 21
-14.90194009422893
 31
0.0
100
AcDbAlignedDimension
 13
2.260402147962202
 23
-13.17277342756227
 33
0.0
 14
3.450871562154525
 24
-14.23527342756227
 34
0.0
 50
90.0
100
AcDbRotatedDimension
  0
LINE
  5
43
330
2
100
AcDbEntity
  8
ADP1DETAIL
100
AcDbLine
 10
-1.97662074065521
 20
-13.8612653366961
 30
0.0
 11
-0.7266207406552101
 21
-13.9862653366961
 31
0.0
  0
LINE
  5
44
330
2
100
AcDbEntity
  8
ADP1DETAIL
100
AcDbLine
 10
-0.7266207406552101
 20
-14.4862653366961
 30
0.0
 11
-1.97662074065521
 21
-14.6112653366961
 31
0.0
  0
INSERT
  5
45
330
2
100
AcDbEntity
  8
ADP1DETAIL
100
AcDbBlockReference
  2
STUD
 10
-2.107436397110651
 20
-14.48284922665331
 30
0.0
  0
LINE
  5
7C
330
2
100
AcDbEntity
  8
ADP1DETAIL
100
AcDbLine
 10
-1.976720334608577
 20
-13.83276779390853
 30
0.0
 11
-1.97662074065521
 21
-14.2362653366961
 31
0.0
  0
LINE
  5
7D
330
2
100
AcDbEntity
  8
ADP1DETAIL
100
AcDbLine
 10
-1.976720334608577
 20
-14.63976287948368
 30
0.0
 11
-1.97662074065521
 21
-14.2362653366961
 31
0.0
  0
LINE
  5
7E
330
2
100
AcDbEntity
  8
ADP1DETAIL
100
AcDbLine
 10
-2.10162074065521
 20
-14.2362653366961
 30
0.0
 11
-2.10162074065521
 21
-13.7987653366961
 31
0.0
  0
LINE
  5
7F
330
2
100
AcDbEntity
  8
ADP1DETAIL
100
AcDbLine
 10
-2.10162074065521
 20
-14.2362653366961
 30
0.0
 11
-2.10162074065521
 21
-14.6737653366961
 31
0.0
  0
LINE
  5
80
330
2
100
AcDbEntity
  8
ADP1DETAIL
100
AcDbLine
 10
-2.10162074065521
 20
-13.7987653366961
 30
0.0
 11
-1.976720334608577
 21
-13.83276779390853
 31
0.0
  0
LINE
  5
81
330
2
100
AcDbEntity
  8
ADP1DETAIL
100
AcDbLine
 10
-2.10162074065521
 20
-14.6737653366961
 30
0.0
 11
-1.976720334608577
 21
-14.63976287948368
 31
0.0
  0
CIRCLE
  5
82
330
2
100
AcDbEntity
  8
ADP1DETAIL
100
AcDbCircle
 10
3.51090214796219
 20
-14.2384408046613
 30
0.0
 40
0.2859512779740925
  0
CIRCLE
  5
83
330
2
100
AcDbEntity
  8
ADP1DETAIL
100
AcDbCircle
 10
3.51090214796219
 20
-14.2384408046613
 30
0.0
 40
0.3125
  0
ARC
  5
84
330
2
100
AcDbEntity
  8
ADP1DETAIL
100
AcDbCircle
 10
3.51090214796219
 20
-14.23527342756227
 30
0.0
 40
0.3745
100
AcDbArc
 50
270.0
 51
0.0
  0
LINE
  5
85
330
2
100
AcDbEntity
  8
ADP1DETAIL
100
AcDbLine
 10
-0.2266207406552101
 20
-14.64576214930769
 30
0.0
 11
0.5233792593447899
 21
-14.64576214930769
 31
0.0
  0
DIMENSION
  5
86
330
2
100
AcDbEntity
  8
ADPDIM
100
AcDbDimension
  2
*D1
 10
0.5233792593447899
 20
-14.88568565977858
 30
0.0
 11
1.065045926011456
 21
-14.88568565977858
 31
0.0
100
AcDbAlignedDimension
 13
-0.2266207406552101
 23
-14.64576214930769
 33
0.0
 14
0.5233792593447899
 24
-14.64576214930769
 34
0.0
100
AcDbRotatedDimension
  0
LINE
  5
94
330
2
100
AcDbEntity
  8
ADP1DETAIL
100
AcDbLine
 10
-0.7266207406552101
 20
-13.9862653366961
 30
0.0
 11
-0.2266207406552101
 21
-13.9237653366961
 31
0.0
  0
LINE
  5
95
330
2
100
AcDbEntity
  8
ADP1DETAIL
100
AcDbLine
 10
-0.2266207406552101
 20
-14.5487653366961
 30
0.0
 11
-0.7266207406552101
 21
-14.4862653366961
 31
0.0
  0
LINE
  5
96
330
2
100
AcDbEntity
  8
ADP1DETAIL
100
AcDbLine
 10
-0.7306585077934709
 20
-14.48543252013464
 30
0.0
 11
-0.7306585077934709
 21
-13.98709815325757
 31
0.0
  0
LINE
  5
97
330
2
100
AcDbEntity
  8
ADP1DETAIL
100
AcDbLine
 10
-0.2266207406552101
 20
-13.9237653366961
 30
0.0
 11
-0.2266207406552101
 21
-14.5487653366961
 31
0.0
  0
LINE
  5
98
330
2
100
AcDbEntity
  8
ADP1DETAIL
100
AcDbLine
 10
-0.2266207406552101
 20
-14.4237653366961
 30
0.0
 11
-0.2266207406552101
 21
-14.0487653366961
 31
0.0
  0
ARC
  5
99
330
2
100
AcDbEntity
  8
ADP2DETAIL
  6
HIDDEN2
100
AcDbCircle
 10
1.344839717522547
 20
-14.2362653366961
 30
0.0
 40
0.75
100
AcDbArc
 50
180.0
 51
201.7802251253252
  0
ARC
  5
9B
330
2
100
AcDbEntity
  8
ADP2DETAIL
  6
HIDDEN2
100
AcDbCircle
 10
1.344839717522547
 20
-14.2362653366961
 30
0.0
 40
0.75
100
AcDbArc
 50
158.2197748746747
 51
180.0
  0
LINE
  5
9C
330
2
100
AcDbEntity
  8
ADP2DETAIL
100
AcDbLine
 10
0.6483792593447899
 20
-14.51455085589326
 30
0.0
 11
0.6483792593447899
 21
-14.2362653366961
 31
0.0
  0
LINE
  5
9D
330
2
100
AcDbEntity
  8
ADP1DETAIL
100
AcDbLine
 10
0.6483792593447899
 20
-13.95797981749895
 30
0.0
 11
0.6483792593447899
 21
-14.2362653366961
 31
0.0
  0
LINE
  5
9E
330
2
100
AcDbEntity
  8
ADP1DETAIL
100
AcDbLine
 10
0.6441199876309232
 20
-13.95611771733392
 30
0.0
 11
0.6441199876309232
 21
-13.95611771733392
 31
0.0
  0
LINE
  5
9F
330
2
100
AcDbEntity
  8
ADP1DETAIL
100
AcDbLine
 10
0.5233792593447899
 20
-14.0487653366961
 30
0.0
 11
0.5233792593447899
 21
-13.9237653366961
 31
0.0
  0
LINE
  5
A0
330
2
100
AcDbEntity
  8
ADP1DETAIL
100
AcDbLine
 10
0.5233792593447899
 20
-13.9237653366961
 30
0.0
 11
0.6441199876309232
 21
-13.95611771733392
 31
0.0
  0
LINE
  5
A1
330
2
100
AcDbEntity
  8
ADP1DETAIL
100
AcDbLine
 10
0.6441199876309232
 20
-14.51641295605829
 30
0.0
 11
0.6441199876309232
 21
-14.51641295605829
 31
0.0
  0
LINE
  5
A2
330
2
100
AcDbEntity
  8
ADP1DETAIL
100
AcDbLine
 10
0.5233792593447899
 20
-14.4237653366961
 30
0.0
 11
0.5233792593447899
 21
-14.5487653366961
 31
0.0
  0
LINE
  5
A3
330
2
100
AcDbEntity
  8
ADP1DETAIL
100
AcDbLine
 10
0.5233792593447899
 20
-14.5487653366961
 30
0.0
 11
0.6441199876309232
 21
-14.51641295605829
 31
0.0
  0
LINE
  5
A4
330
2
100
AcDbEntity
  8
ADP1DETAIL
100
AcDbLine
 10
0.5233792593447899
 20
-14.0487653366961
 30
0.0
 11
0.5233792593447899
 21
-14.4237653366961
 31
0.0
  0
ARC
  5
A5
330
2
100
AcDbEntity
  8
ADP1DETAIL
100
AcDbCircle
 10
3.509902147962199
 20
-14.23527342756227
 30
0.0
 40
0.3745
100
AcDbArc
 50
180.0
 51
270.0
  0
LINE
  5
A6
330
2
100
AcDbEntity
  8
ADP1DETAIL
100
AcDbLine
 10
3.51090214796219
 20
-14.60977342756227
 30
0.0
 11
3.509902147962199
 21
-14.60977342756227
 31
0.0
  0
LINE
  5
A7
330
2
100
AcDbEntity
  8
ADP1DETAIL
100
AcDbLine
 10
3.32175688080793
 20
-13.03474615507034
 30
0.0
 11
3.69675688080793
 21
-13.03474615507034
 31
0.0
  0
DIMENSION
  5
A8
330
2
100
AcDbEntity
  8
ADPDIM
100
AcDbDimension
  2
*D3
 10
4.291402147962202
 20
-12.86622802593415
 30
0.0
 11
3.478902147962202
 21
-12.86622802593415
 31
0.0
100
AcDbAlignedDimension
 13
2.666402147962202
 23
-12.99122802593415
 33
0.0
 14
4.291402147962202
 24
-12.99122802593415
 34
0.0
100
AcDbRotatedDimension
  0
DIMENSION
  5
B6
330
2
100
AcDbEntity
  8
ADPDIM
100
AcDbDimension
  2
*D4
 10
4.760402147962201
 20
-12.49122802593415
 30
0.0
 11
3.510402147962201
 21
-12.49122802593415
 31
0.0
100
AcDbAlignedDimension
 13
2.260402147962202
 23
-13.11622802593415
 33
0.0
 14
4.760402147962201
 24
-13.11622802593415
 34
0.0
100
AcDbRotatedDimension
  0
LINE
  5
C4
330
2
100
AcDbEntity
  8
ADP2DETAIL
  6
HIDDEN2
100
AcDbLine
 10
3.32175688080793
 20
-13.15379155669845
 30
0.0
 11
3.69675688080793
 21
-13.15379155669845
 31
0.0
  0
LINE
  5
C5
330
2
100
AcDbEntity
  8
ADP1DETAIL
100
AcDbLine
 10
-0.2266207406552101
 20
-13.33276214930769
 30
0.0
 11
0.5233792593447899
 21
-13.33276214930769
 31
0.0
  0
ARC
  5
C6
330
2
100
AcDbEntity
  8
ADP1DETAIL
100
AcDbCircle
 10
0.1483792593447899
 20
-12.33576214930769
 30
0.0
 40
0.8100000000000001
100
AcDbArc
 50
242.4215320218769
 51
297.5784679781231
  0
LINE
  5
C7
330
2
100
AcDbEntity
  8
ADP2DETAIL
  6
HIDDEN2
100
AcDbLine
 10
0.0543792593447887
 20
-13.27076214930769
 30
0.0
 11
-0.0076207406552107
 21
-13.33276214930769
 31
0.0
  0
LINE
  5
C8
330
2
100
AcDbEntity
  8
ADP2DETAIL
  6
HIDDEN2
100
AcDbLine
 10
0.0543792593447887
 20
-13.14576214930769
 30
0.0
 11
0.0543792593447887
 21
-13.27076214930769
 31
0.0
  0
LINE
  5
C9
330
2
100
AcDbEntity
  8
ADP2DETAIL
  6
HIDDEN2
100
AcDbLine
 10
0.2423792593447893
 20
-13.27076214930769
 30
0.0
 11
0.3043792593447905
 21
-13.33276214930769
 31
0.0
  0
LINE
  5
CA
330
2
100
AcDbEntity
  8
ADP2DETAIL
  6
HIDDEN2
100
AcDbLine
 10
0.2423792593447893
 20
-13.14576214930769
 30
0.0
 11
0.2423792593447893
 21
-13.27076214930769
 31
0.0
  0
LINE
  5
CB
330
2
100
AcDbEntity
  8
ADP1DETAIL
100
AcDbLine
 10
3.010402147962202
 20
-13.36077342756227
 30
0.0
 11
2.260402147962202
 21
-13.36077342756227
 31
0.0
  0
LINE
  5
CC
330
2
100
AcDbEntity
  8
ADP1DETAIL
100
AcDbLine
 10
2.260402147962202
 20
-13.05372802593415
 30
0.0
 11
3.326929093224953
 21
-13.05372802593415
 31
0.0
  0
LINE
  5
CD
330
2
100
AcDbEntity
  8
ADP2DETAIL
  6
HIDDEN2
100
AcDbLine
 10
2.260402147962202
 20
-13.17277342756227
 30
0.0
 11
3.261517791541257
 21
-13.17277342756227
 31
0.0
  0
LINE
  5
CE
330
2
100
AcDbEntity
  8
ADP1DETAIL
100
AcDbLine
 10
2.260402147962202
 20
-13.36077342756227
 30
0.0
 11
2.260402147962202
 21
-13.05372802593415
 31
0.0
  0
ARC
  5
CF
330
2
100
AcDbEntity
  8
ADP1DETAIL
100
AcDbCircle
 10
3.010402147962202
 20
-13.48577342756227
 30
0.0
 40
0.125
100
AcDbArc
 50
0.0
 51
90.0
  0
LINE
  5
D0
330
2
100
AcDbEntity
  8
ADP2DETAIL
  6
HIDDEN2
100
AcDbLine
 10
2.773879259344788
 20
-13.1737653366961
 30
0.0
 11
2.773879259344788
 21
-13.2987653366961
 31
0.0
  0
LINE
  5
D1
330
2
100
AcDbEntity
  8
ADP2DETAIL
  6
HIDDEN2
100
AcDbLine
 10
2.773879259344788
 20
-13.2987653366961
 30
0.0
 11
2.835879259344789
 21
-13.3607653366961
 31
0.0
  0
LINE
  5
D2
330
2
100
AcDbEntity
  8
ADP2DETAIL
  6
HIDDEN2
100
AcDbLine
 10
2.585879259344789
 20
-13.1737653366961
 30
0.0
 11
2.585879259344789
 21
-13.2987653366961
 31
0.0
  0
LINE
  5
D3
330
2
100
AcDbEntity
  8
ADP2DETAIL
  6
HIDDEN2
100
AcDbLine
 10
2.585879259344789
 20
-13.2987653366961
 30
0.0
 11
2.523879259344788
 21
-13.3607653366961
 31
0.0
  0
LINE
  5
D4
330
2
100
AcDbEntity
  8
ADP1DETAIL
100
AcDbLine
 10
4.760402147962203
 20
-13.36077342756227
 30
0.0
 11
4.010402147962201
 21
-13.36077342756227
 31
0.0
  0
LINE
  5
D5
330
2
100
AcDbEntity
  8
ADP1DETAIL
100
AcDbLine
 10
3.69387520269945
 20
-13.05372802593415
 30
0.0
 11
4.760402147962201
 21
-13.05372802593415
 31
0.0
  0
LINE
  5
D6
330
2
100
AcDbEntity
  8
ADP2DETAIL
  6
HIDDEN2
100
AcDbLine
 10
4.760402147962203
 20
-13.17277342756227
 30
0.0
 11
3.785584308465919
 21
-13.17168673715714
 31
0.0
  0
LINE
  5
D7
330
2
100
AcDbEntity
  8
ADP2DETAIL
  6
HIDDEN2
100
AcDbLine
 10
4.210879259344789
 20
-13.2987653366961
 30
0.0
 11
4.148879259344788
 21
-13.3607653366961
 31
0.0
  0
ARC
  5
D8
330
2
100
AcDbEntity
  8
ADP1DETAIL
100
AcDbCircle
 10
4.010402147962201
 20
-13.48577342756227
 30
0.0
 40
0.125
100
AcDbArc
 50
90.0
 51
180.0
  0
LINE
  5
D9
330
2
100
AcDbEntity
  8
ADP2DETAIL
  6
HIDDEN2
100
AcDbLine
 10
4.210879259344789
 20
-13.1737653366961
 30
0.0
 11
4.210879259344789
 21
-13.2987653366961
 31
0.0
  0
LINE
  5
DA
330
2
100
AcDbEntity
  8
ADP2DETAIL
  6
HIDDEN2
100
AcDbLine
 10
4.398879259344788
 20
-13.1737653366961
 30
0.0
 11
4.398879259344788
 21
-13.2987653366961
 31
0.0
  0
LINE
  5
DB
330
2
100
AcDbEntity
  8
ADP2DETAIL
  6
HIDDEN2
100
AcDbLine
 10
4.398879259344788
 20
-13.2987653366961
 30
0.0
 11
4.460879259344789
 21
-13.3607653366961
 31
0.0
  0
LINE
  5
DC
330
2
100
AcDbEntity
  8
ADP1DETAIL
100
AcDbLine
 10
4.760402147962203
 20
-13.05372802593415
 30
0.0
 11
4.760402147962203
 21
-13.36077342756227
 31
0.0
  0
TEXT
  5
E7
330
2
100
AcDbEntity
  8
ADPDIM
100
AcDbText
 10
-5.507078136965387
 20
-15.7197590675602
 30
0.0
 40
0.125
  1
J U L I U S  B L U M  &  C O . ,  I N C .      ( 8 0 0 )  5 2 6 - 6 2 9 3        W W W . J U L I U S B L U M . C O M        P A R T  N o .  8 0 2
 41
1.25
  7
ARIAL_WIDE
 72
     1
 11
0.927629400551666
 21
-15.5947590675602
 31
0.0
100
AcDbText
 73
     3
  0
ENDSEC
  0
SECTION
  2
OBJECTS
  0
DICTIONARY
  5
1B
330
0
100
AcDbDictionary
  3
ACAD_GROUP
350
19
  3
ACAD_LAYOUT
350
E0
  3
ACAD_MLINESTYLE
350
1A
  3
ACAD_PLOTSETTINGS
350
E1
  3
ACAD_PLOTSTYLENAME
350
DE
  3
ACDBHEADERROUNDTRIPXREC
350
22B
  3
ACDBVARIABLEDICTIONARY
350
141
  0
DICTIONARY
  5
139
330
2
100
AcDbDictionary
280
     1
  3
ACAD_LAYOUTSELFREF
360
24B
  0
DICTIONARY
  5
13B
330
8
100
AcDbDictionary
280
     1
  3
ACAD_LAYOUTSELFREF
360
24C
  0
DICTIONARY
  5
19
102
{ACAD_REACTORS
330
1B
102
}
330
1B
100
AcDbDictionary
  0
DICTIONARY
  5
E0
102
{ACAD_REACTORS
330
1B
102
}
330
1B
100
AcDbDictionary
  0
DICTIONARY
  5
1A
102
{ACAD_REACTORS
330
1B
102
}
330
1B
100
AcDbDictionary
  3
STANDARD
350
1C
  0
DICTIONARY
  5
E1
102
{ACAD_REACTORS
330
1B
102
}
330
1B
100
AcDbDictionary
  0
ACDBDICTIONARYWDFLT
  5
DE
102
{ACAD_REACTORS
330
1B
102
}
330
1B
100
AcDbDictionary
281
     1
  3
Normal
350
DF
100
AcDbDictionaryWithDefault
340
DF
  0
DICTIONARY
  5
22B
102
{ACAD_REACTORS
330
1B
102
}
330
1B
100
AcDbDictionary
  3
CEPSNTYPE
350
235
  3
FINGERPRINTGUID
350
236
  3
HYPERLINKBASE
350
22E
  3
INSUNITS
350
234
  3
LAYOUTDICT
350
230
  3
LWETCUNION
350
233
  3
PLOTSETDICT
350
231
  3
PLOTSTYLNAMDICT
350
232
  3
PSVPSCALE
350
238
  3
PUCSBASE
350
23B
  3
PUCSORGBACK
350
241
  3
PUCSORGBOTTOM
350
23D
  3
PUCSORGFRONT
350
240
  3
PUCSORGLEFT
350
23E
  3
PUCSORGRIGHT
350
23F
  3
PUCSORGTOP
350
23C
  3
PUCSORTHOREF
350
239
  3
PUCSORTHOVIEW
350
23A
  3
STYLESHEET
350
22F
  3
TSTACKALIGN
350
22C
  3
TSTACKSIZE
350
22D
  3
UCSBASE
350
244
  3
UCSORGBACK
350
24A
  3
UCSORGBOTTOM
350
246
  3
UCSORGFRONT
350
249
  3
UCSORGLEFT
350
247
  3
UCSORGRIGHT
350
248
  3
UCSORGTOP
350
245
  3
UCSORTHOREF
350
242
  3
UCSORTHOVIEW
350
243
  3
VERSIONGUID
350
237
  0
DICTIONARY
  5
141
102
{ACAD_REACTORS
330
1B
102
}
330
1B
100
AcDbDictionary
  3
DIMASSOC
350
142
  0
XRECORD
  5
24B
102
{ACAD_REACTORS
330
139
102
}
330
139
100
AcDbXrecord
340
2
  0
XRECORD
  5
24C
102
{ACAD_REACTORS
330
13B
102
}
330
13B
100
AcDbXrecord
340
8
  0
MLINESTYLE
  5
1C
102
{ACAD_REACTORS
330
1A
102
}
330
1A
100
AcDbMlineStyle
  2
STANDARD
 70
     0
  3

 62
     0
 51
90.0
 52
90.0
 71
     2
 49
0.5
 62
   256
  6
BYLAYER
 49
-0.5
 62
   256
  6
BYLAYER
  0
ACDBPLACEHOLDER
  5
DF
102
{ACAD_REACTORS
330
DE
102
}
330
DE
100
AcDbPlaceHolder
280
     0
  0
XRECORD
  5
235
102
{ACAD_REACTORS
330
22B
102
}
330
22B
100
AcDbXrecord
 90
        0
  0
XRECORD
  5
236
102
{ACAD_REACTORS
330
22B
102
}
330
22B
100
AcDbXrecord
  1
{30C5529B-49E7-47EB-9A61-ADF0D2942CC9}
  0
XRECORD
  5
22E
102
{ACAD_REACTORS
330
22B
102
}
330
22B
100
AcDbXrecord
  1

  0
XRECORD
  5
234
102
{ACAD_REACTORS
330
22B
102
}
330
22B
100
AcDbXrecord
 90
        0
  0
XRECORD
  5
230
102
{ACAD_REACTORS
330
22B
102
}
330
22B
100
AcDbXrecord
340
E0
  0
XRECORD
  5
233
102
{ACAD_REACTORS
330
22B
102
}
330
22B
100
AcDbXrecord
 90
    14877
  0
XRECORD
  5
231
102
{ACAD_REACTORS
330
22B
102
}
330
22B
100
AcDbXrecord
340
E1
  0
XRECORD
  5
232
102
{ACAD_REACTORS
330
22B
102
}
330
22B
100
AcDbXrecord
340
DE
  0
XRECORD
  5
238
102
{ACAD_REACTORS
330
22B
102
}
330
22B
100
AcDbXrecord
 40
0.0
  0
XRECORD
  5
23B
102
{ACAD_REACTORS
330
22B
102
}
330
22B
100
AcDbXrecord
340
0
  0
XRECORD
  5
241
102
{ACAD_REACTORS
330
22B
102
}
330
22B
100
AcDbXrecord
 10
0.0
 20
0.0
 30
0.0
  0
XRECORD
  5
23D
102
{ACAD_REACTORS
330
22B
102
}
330
22B
100
AcDbXrecord
 10
0.0
 20
0.0
 30
0.0
  0
XRECORD
  5
240
102
{ACAD_REACTORS
330
22B
102
}
330
22B
100
AcDbXrecord
 10
0.0
 20
0.0
 30
0.0
  0
XRECORD
  5
23E
102
{ACAD_REACTORS
330
22B
102
}
330
22B
100
AcDbXrecord
 10
0.0
 20
0.0
 30
0.0
  0
XRECORD
  5
23F
102
{ACAD_REACTORS
330
22B
102
}
330
22B
100
AcDbXrecord
 10
0.0
 20
0.0
 30
0.0
  0
XRECORD
  5
23C
102
{ACAD_REACTORS
330
22B
102
}
330
22B
100
AcDbXrecord
 10
0.0
 20
0.0
 30
0.0
  0
XRECORD
  5
239
102
{ACAD_REACTORS
330
22B
102
}
330
22B
100
AcDbXrecord
340
0
  0
XRECORD
  5
23A
102
{ACAD_REACTORS
330
22B
102
}
330
22B
100
AcDbXrecord
 70
     0
  0
XRECORD
  5
22F
102
{ACAD_REACTORS
330
22B
102
}
330
22B
100
AcDbXrecord
  1

  0
XRECORD
  5
22C
102
{ACAD_REACTORS
330
22B
102
}
330
22B
100
AcDbXrecord
 90
        1
  0
XRECORD
  5
22D
102
{ACAD_REACTORS
330
22B
102
}
330
22B
100
AcDbXrecord
 90
       70
  0
XRECORD
  5
244
102
{ACAD_REACTORS
330
22B
102
}
330
22B
100
AcDbXrecord
340
0
  0
XRECORD
  5
24A
102
{ACAD_REACTORS
330
22B
102
}
330
22B
100
AcDbXrecord
 10
0.0
 20
0.0
 30
0.0
  0
XRECORD
  5
246
102
{ACAD_REACTORS
330
22B
102
}
330
22B
100
AcDbXrecord
 10
0.0
 20
0.0
 30
0.0
  0
XRECORD
  5
249
102
{ACAD_REACTORS
330
22B
102
}
330
22B
100
AcDbXrecord
 10
0.0
 20
0.0
 30
0.0
  0
XRECORD
  5
247
102
{ACAD_REACTORS
330
22B
102
}
330
22B
100
AcDbXrecord
 10
0.0
 20
0.0
 30
0.0
  0
XRECORD
  5
248
102
{ACAD_REACTORS
330
22B
102
}
330
22B
100
AcDbXrecord
 10
0.0
 20
0.0
 30
0.0
  0
XRECORD
  5
245
102
{ACAD_REACTORS
330
22B
102
}
330
22B
100
AcDbXrecord
 10
0.0
 20
0.0
 30
0.0
  0
XRECORD
  5
242
102
{ACAD_REACTORS
330
22B
102
}
330
22B
100
AcDbXrecord
340
0
  0
XRECORD
  5
243
102
{ACAD_REACTORS
330
22B
102
}
330
22B
100
AcDbXrecord
 70
     0
  0
XRECORD
  5
237
102
{ACAD_REACTORS
330
22B
102
}
330
22B
100
AcDbXrecord
  1
{15168206-D45D-4EEB-BEBE-F8A6A7E78ED1}
  0
DICTIONARYVAR
  5
142
102
{ACAD_REACTORS
330
141
102
}
330
141
100
DictionaryVariables
280
     0
  1
1
  0
ENDSEC
  0
EOF
