  0
SECTION
  2
HEADER
  9
$ACADVER
  1
AC1014
  9
$ACADMAINTVER
 70
     9
  9
$DWGCODEPAGE
  3
ANSI_1252
  9
$INSBASE
 10
15.82776138412896
 20
-0.8776291763079401
 30
0.0
  9
$EXTMIN
 10
10.62152020467538
 20
-1.677457751126152
 30
0.0
  9
$EXTMAX
 10
20.27358151095096
 20
2.691816592551738
 30
0.0
  9
$LIMMIN
 10
0.0
 20
0.0
  9
$LIMMAX
 10
36.0
 20
36.0
  9
$ORTHOMODE
 70
     1
  9
$REGENMODE
 70
     1
  9
$FILLMODE
 70
     1
  9
$QTEXTMODE
 70
     0
  9
$MIRRTEXT
 70
     1
  9
$DRAGMODE
 70
     0
  9
$LTSCALE
 40
1.0
  9
$OSMODE
 70
    37
  9
$ATTMODE
 70
     1
  9
$TEXTSIZE
 40
0.2
  9
$TRACEWID
 40
0.05
  9
$TEXTSTYLE
  7
STANDARD
  9
$CLAYER
  8
ADP1DETAIL
  9
$CELTYPE
  6
BYLAYER
  9
$CECOLOR
 62
   256
  9
$CELTSCALE
 40
1.0
  9
$DELOBJ
 70
     1
  9
$DISPSILH
 70
     0
  9
$DIMSCALE
 40
1.0
  9
$DIMASZ
 40
0.125
  9
$DIMEXO
 40
0.0625
  9
$DIMDLI
 40
0.38
  9
$DIMRND
 40
0.0
  9
$DIMDLE
 40
0.0
  9
$DIMEXE
 40
0.18
  9
$DIMTP
 40
0.0
  9
$DIMTM
 40
0.0
  9
$DIMTXT
 40
0.125
  9
$DIMCEN
 40
0.1875
  9
$DIMTSZ
 40
0.125
  9
$DIMTOL
 70
     0
  9
$DIMLIM
 70
     0
  9
$DIMTIH
 70
     0
  9
$DIMTOH
 70
     0
  9
$DIMSE1
 70
     0
  9
$DIMSE2
 70
     0
  9
$DIMTAD
 70
     0
  9
$DIMZIN
 70
     3
  9
$DIMBLK
  1

  9
$DIMASO
 70
     1
  9
$DIMSHO
 70
     1
  9
$DIMPOST
  1

  9
$DIMAPOST
  1

  9
$DIMALT
 70
     0
  9
$DIMALTD
 70
     1
  9
$DIMALTF
 40
25.4
  9
$DIMLFAC
 40
1.0
  9
$DIMTOFL
 70
     0
  9
$DIMTVP
 40
0.0
  9
$DIMTIX
 70
     0
  9
$DIMSOXD
 70
     0
  9
$DIMSAH
 70
     0
  9
$DIMBLK1
  1

  9
$DIMBLK2
  1

  9
$DIMSTYLE
  2
STANDARD
  9
$DIMCLRD
 70
     0
  9
$DIMCLRE
 70
     0
  9
$DIMCLRT
 70
     0
  9
$DIMTFAC
 40
1.0
  9
$DIMGAP
 40
0.125
  9
$DIMJUST
 70
     0
  9
$DIMSD1
 70
     0
  9
$DIMSD2
 70
     0
  9
$DIMTOLJ
 70
     1
  9
$DIMTZIN
 70
     0
  9
$DIMALTZ
 70
     0
  9
$DIMALTTZ
 70
     0
  9
$DIMFIT
 70
     3
  9
$DIMUPT
 70
     0
  9
$DIMUNIT
 70
     2
  9
$DIMDEC
 70
     4
  9
$DIMTDEC
 70
     4
  9
$DIMALTU
 70
     2
  9
$DIMALTTD
 70
     2
  9
$DIMTXSTY
  7
STANDARD
  9
$DIMAUNIT
 70
     0
  9
$LUNITS
 70
     5
  9
$LUPREC
 70
     4
  9
$SKETCHINC
 40
0.1
  9
$FILLETRAD
 40
0.0
  9
$AUNITS
 70
     0
  9
$AUPREC
 70
     0
  9
$MENU
  1
acad
  9
$ELEVATION
 40
0.0
  9
$PELEVATION
 40
0.0
  9
$THICKNESS
 40
0.0
  9
$LIMCHECK
 70
     0
  9
$BLIPMODE
 70
     0
  9
$CHAMFERA
 40
0.0
  9
$CHAMFERB
 40
0.0
  9
$CHAMFERC
 40
0.0
  9
$CHAMFERD
 40
0.0
  9
$SKPOLY
 70
     0
  9
$TDCREATE
 40
2450375.390700810
  9
$TDUPDATE
 40
2452297.075797696
  9
$TDINDWG
 40
0.0096298611
  9
$TDUSRTIMER
 40
0.0096298611
  9
$USRTIMER
 70
     1
  9
$ANGBASE
 50
0.0
  9
$ANGDIR
 70
     0
  9
$PDMODE
 70
     0
  9
$PDSIZE
 40
0.0
  9
$PLINEWID
 40
0.0
  9
$COORDS
 70
     2
  9
$SPLFRAME
 70
     0
  9
$SPLINETYPE
 70
     6
  9
$SPLINESEGS
 70
     8
  9
$ATTDIA
 70
     0
  9
$ATTREQ
 70
     1
  9
$HANDLING
 70
 22529
  9
$HANDSEED
  5
279
  9
$SURFTAB1
 70
     6
  9
$SURFTAB2
 70
     6
  9
$SURFTYPE
 70
     6
  9
$SURFU
 70
     6
  9
$SURFV
 70
     6
  9
$UCSNAME
  2

  9
$UCSORG
 10
0.0
 20
0.0
 30
0.0
  9
$UCSXDIR
 10
1.0
 20
0.0
 30
0.0
  9
$UCSYDIR
 10
0.0
 20
1.0
 30
0.0
  9
$PUCSNAME
  2

  9
$PUCSORG
 10
0.0
 20
0.0
 30
0.0
  9
$PUCSXDIR
 10
1.0
 20
0.0
 30
0.0
  9
$PUCSYDIR
 10
0.0
 20
1.0
 30
0.0
  9
$USERI1
 70
     0
  9
$USERI2
 70
     0
  9
$USERI3
 70
     0
  9
$USERI4
 70
     0
  9
$USERI5
 70
     0
  9
$USERR1
 40
0.0
  9
$USERR2
 40
0.0
  9
$USERR3
 40
0.0
  9
$USERR4
 40
0.0
  9
$USERR5
 40
0.0
  9
$WORLDVIEW
 70
     1
  9
$SHADEDGE
 70
     3
  9
$SHADEDIF
 70
    70
  9
$TILEMODE
 70
     1
  9
$MAXACTVP
 70
    15
  9
$PINSBASE
 10
6.111119585016845E+90
 20
8.346071047958366E+93
 30
0.0
  9
$PLIMCHECK
 70
     0
  9
$PEXTMIN
 10
1.000000000000000E+20
 20
1.000000000000000E+20
 30
1.000000000000000E+20
  9
$PEXTMAX
 10
-1.000000000000000E+20
 20
-1.000000000000000E+20
 30
-1.000000000000000E+20
  9
$PLIMMIN
 10
0.0
 20
0.0
  9
$PLIMMAX
 10
12.0
 20
9.0
  9
$UNITMODE
 70
     0
  9
$VISRETAIN
 70
     0
  9
$PLINEGEN
 70
     0
  9
$PSLTSCALE
 70
     1
  9
$TREEDEPTH
 70
  3020
  9
$PICKSTYLE
 70
     1
  9
$CMLSTYLE
  2
STANDARD
  9
$CMLJUST
 70
     0
  9
$CMLSCALE
 40
1.0
  9
$PROXYGRAPHICS
 70
     1
  9
$MEASUREMENT
 70
     0
  0
ENDSEC
  0
SECTION
  2
CLASSES
  0
CLASS
  1
ACDBDICTIONARYWDFLT
  2
AcDbDictionaryWithDefault
  3
AutoCAD 2000
 90
        0
280
     0
281
     0
  0
CLASS
  1
ACDBPLACEHOLDER
  2
AcDbPlaceHolder
  3
AutoCAD 2000
 90
        0
280
     0
281
     0
  0
CLASS
  1
LAYOUT
  2
AcDbLayout
  3
AutoCAD 2000
 90
        0
280
     0
281
     0
  0
CLASS
  1
DICTIONARYVAR
  2
AcDbDictionaryVar
  3
AutoCAD 2000
 90
        0
280
     0
281
     0
  0
CLASS
  1
LONG_TRANSACTION
  2
AcDbLongTransaction
  3
AutoCAD 2000
 90
        0
280
     0
281
     0
  0
CLASS
  1
LWPOLYLINE
  2
AcDbPolyline
  3
AutoCAD 2000
 90
        0
280
     0
281
     1
  0
CLASS
  1
HATCH
  2
AcDbHatch
  3
AutoCAD 2000
 90
        0
280
     0
281
     1
  0
CLASS
  1
XRECORD
  2
AcDbXrecord
  3
AutoCAD 2000
 90
        0
280
     0
281
     0
  0
CLASS
  1
LONG_TRANSACTION
  2
AcDbLongTransaction
  3
AutoCAD 2000
 90
        0
280
     0
281
     0
  0
CLASS
  1
LWPOLYLINE
  2
AcDbPolyline
  3
AutoCAD 2000
 90
        0
280
     0
281
     1
  0
CLASS
  1
HATCH
  2
AcDbHatch
  3
AutoCAD 2000
 90
        0
280
     0
281
     1
  0
CLASS
  1
XRECORD
  2
AcDbXrecord
  3
AutoCAD 2000
 90
        0
280
     0
281
     0
  0
CLASS
  1
LONG_TRANSACTION
  2
AcDbLongTransaction
  3
AutoCAD 2000
 90
        0
280
     0
281
     0
  0
CLASS
  1
LWPOLYLINE
  2
AcDbPolyline
  3
AutoCAD 2000
 90
        0
280
     0
281
     1
  0
CLASS
  1
HATCH
  2
AcDbHatch
  3
AutoCAD 2000
 90
        0
280
     0
281
     1
  0
CLASS
  1
XRECORD
  2
AcDbXrecord
  3
AutoCAD 2000
 90
        0
280
     0
281
     0
  0
CLASS
  1
LONG_TRANSACTION
  2
AcDbLongTransaction
  3
AutoCAD 2000
 90
        0
280
     0
281
     0
  0
CLASS
  1
LWPOLYLINE
  2
AcDbPolyline
  3
AutoCAD 2000
 90
        0
280
     0
281
     1
  0
CLASS
  1
HATCH
  2
AcDbHatch
  3
AutoCAD 2000
 90
        0
280
     0
281
     1
  0
CLASS
  1
XRECORD
  2
AcDbXrecord
  3
AutoCAD 2000
 90
        0
280
     0
281
     0
  0
CLASS
  1
LONG_TRANSACTION
  2
AcDbLongTransaction
  3
AutoCAD 2000
 90
        0
280
     0
281
     0
  0
CLASS
  1
LWPOLYLINE
  2
AcDbPolyline
  3
AutoCAD 2000
 90
        0
280
     0
281
     1
  0
CLASS
  1
HATCH
  2
AcDbHatch
  3
AutoCAD 2000
 90
        0
280
     0
281
     1
  0
CLASS
  1
XRECORD
  2
AcDbXrecord
  3
AutoCAD 2000
 90
        0
280
     0
281
     0
  0
ENDSEC
  0
SECTION
  2
TABLES
  0
TABLE
  2
VPORT
  5
8
330
0
100
AcDbSymbolTable
 70
     2
  0
VPORT
  5
256
330
8
100
AcDbSymbolTableRecord
100
AcDbViewportTableRecord
  2
*ACTIVE
 70
     0
 10
0.0
 20
0.0
 11
1.0
 21
1.0
 12
15.45484381269812
 22
0.5070999966253487
 13
0.0
 23
0.0
 14
0.5740882589684922
 24
0.5740882589684922
 15
0.5
 25
0.5
 16
0.0
 26
0.0
 36
1.0
 17
0.0
 27
0.0
 37
0.0
 40
6.186633538997261
 41
1.570528967254408
 42
50.0
 43
0.0
 44
0.0
 50
0.0
 51
0.0
 71
     0
 72
   100
 73
     1
 74
     0
 75
     0
 76
     0
 77
     0
 78
     0
  0
ENDTAB
  0
TABLE
  2
LTYPE
  5
5
330
0
100
AcDbSymbolTable
 70
     2
  0
LTYPE
  5
12
330
5
100
AcDbSymbolTableRecord
100
AcDbLinetypeTableRecord
  2
BYBLOCK
 70
     0
  3

 72
    65
 73
     0
 40
0.0
  0
LTYPE
  5
13
330
5
100
AcDbSymbolTableRecord
100
AcDbLinetypeTableRecord
  2
BYLAYER
 70
     0
  3

 72
    65
 73
     0
 40
0.0
  0
LTYPE
  5
14
330
5
100
AcDbSymbolTableRecord
100
AcDbLinetypeTableRecord
  2
CONTINUOUS
 70
     0
  3
Solid line
 72
    65
 73
     0
 40
0.0
  0
LTYPE
  5
8D
330
5
100
AcDbSymbolTableRecord
100
AcDbLinetypeTableRecord
  2
HIDDEN2
 70
     0
  3
_ _ _ _ _ _ _ _ _ _ _ _ _ _ _ _ _ _ _ _ _ _ _ _
 72
    65
 73
     2
 40
0.1875
 49
0.125
 74
     0
 49
-0.0625
 74
     0
  0
ENDTAB
  0
TABLE
  2
LAYER
  5
2
330
0
100
AcDbSymbolTable
 70
     5
  0
LAYER
  5
F
330
2
100
AcDbSymbolTableRecord
100
AcDbLayerTableRecord
  2
0
 70
     0
 62
     7
  6
CONTINUOUS
  0
LAYER
  5
91
330
2
100
AcDbSymbolTableRecord
100
AcDbLayerTableRecord
  2
ADP1DETAIL
 70
     0
 62
     7
  6
CONTINUOUS
  0
LAYER
  5
93
330
2
100
AcDbSymbolTableRecord
100
AcDbLayerTableRecord
  2
DEFPOINTS
 70
     0
 62
     7
  6
CONTINUOUS
  0
LAYER
  5
94
330
2
100
AcDbSymbolTableRecord
100
AcDbLayerTableRecord
  2
ADPDIM
 70
     0
 62
     3
  6
CONTINUOUS
  0
LAYER
  5
95
330
2
100
AcDbSymbolTableRecord
100
AcDbLayerTableRecord
  2
ADP2DETAIL
 70
     0
 62
     5
  6
CONTINUOUS
  0
ENDTAB
  0
TABLE
  2
STYLE
  5
3
330
0
100
AcDbSymbolTable
 70
     2
  0
STYLE
  5
10
330
3
100
AcDbSymbolTableRecord
100
AcDbTextStyleTableRecord
  2
STANDARD
 70
     0
 40
0.0
 41
1.0
 50
0.0
 71
     0
 42
0.2
  3
txt
  4

  0
STYLE
  5
112
330
3
100
AcDbSymbolTableRecord
100
AcDbTextStyleTableRecord
  2
ARIAL_WIDE
 70
     0
 40
0.0
 41
1.25
 50
0.0
 71
     0
 42
0.2
  3
ARIAL.TTF
  4

1001
ACAD
1000
Arial
1071
       34
  0
ENDTAB
  0
TABLE
  2
VIEW
  5
6
330
0
100
AcDbSymbolTable
 70
     0
  0
ENDTAB
  0
TABLE
  2
UCS
  5
7
330
0
100
AcDbSymbolTable
 70
     0
  0
ENDTAB
  0
TABLE
  2
APPID
  5
9
330
0
100
AcDbSymbolTable
 70
     1
  0
APPID
  5
11
330
9
100
AcDbSymbolTableRecord
100
AcDbRegAppTableRecord
  2
ACAD
 70
     0
  0
ENDTAB
  0
TABLE
  2
DIMSTYLE
  5
A
330
0
100
AcDbSymbolTable
 70
     1
  0
DIMSTYLE
105
106
330
A
100
AcDbSymbolTableRecord
100
AcDbDimStyleTableRecord
  2
STANDARD
 70
     0
  3

  4

  5

  6

  7

 40
1.0
 41
0.18
 42
0.0625
 43
0.38
 44
0.18
 45
0.0
 46
0.0
 47
0.0
 48
0.0
140
0.18
141
0.09
142
0.0
143
25.4
144
1.0
145
0.0
146
1.0
147
0.09
 71
     0
 72
     0
 73
     1
 74
     1
 75
     0
 76
     0
 77
     0
 78
     0
170
     0
171
     2
172
     0
173
     0
174
     0
175
     0
176
     0
177
     0
178
     0
270
     2
271
     4
272
     4
273
     2
274
     2
340
10
275
     0
280
     0
281
     0
282
     0
283
     1
284
     0
285
     0
286
     0
287
     3
288
     0
  0
ENDTAB
  0
TABLE
  2
BLOCK_RECORD
  5
1
330
0
100
AcDbSymbolTable
 70
     3
  0
BLOCK_RECORD
  5
18
102
{ACAD_XDICTIONARY
360
167
102
}
330
1
100
AcDbSymbolTableRecord
100
AcDbBlockTableRecord
  2
*MODEL_SPACE
  0
BLOCK_RECORD
  5
15
102
{ACAD_XDICTIONARY
360
165
102
}
330
1
100
AcDbSymbolTableRecord
100
AcDbBlockTableRecord
  2
*PAPER_SPACE
  0
BLOCK_RECORD
  5
86
330
1
100
AcDbSymbolTableRecord
100
AcDbBlockTableRecord
  2
*D0
  0
BLOCK_RECORD
  5
89
330
1
100
AcDbSymbolTableRecord
100
AcDbBlockTableRecord
  2
*D1
  0
BLOCK_RECORD
  5
8B
330
1
100
AcDbSymbolTableRecord
100
AcDbBlockTableRecord
  2
*D2
  0
ENDTAB
  0
ENDSEC
  0
SECTION
  2
BLOCKS
  0
BLOCK
  5
98
330
18
100
AcDbEntity
  8
0
100
AcDbBlockBegin
  2
*MODEL_SPACE
 70
     0
 10
0.0
 20
0.0
 30
0.0
  3
*MODEL_SPACE
  1

  0
ENDBLK
  5
99
330
18
100
AcDbEntity
  8
0
100
AcDbBlockEnd
  0
BLOCK
  5
96
330
15
100
AcDbEntity
 67
     1
  8
0
100
AcDbBlockBegin
  2
*PAPER_SPACE
 70
     0
 10
0.0
 20
0.0
 30
0.0
  3
*PAPER_SPACE
  1

  0
ENDBLK
  5
97
330
15
100
AcDbEntity
 67
     1
  8
0
100
AcDbBlockEnd
  0
BLOCK
  5
9B
330
86
100
AcDbEntity
  8
0
100
AcDbBlockBegin
  2
*D0
 70
     1
 10
0.0
 20
0.0
 30
0.0
  3
*D0
  1

  0
LINE
  5
9C
330
86
100
AcDbEntity
  8
0
  6
BYBLOCK
 62
     0
100
AcDbLine
 10
12.01745791753293
 20
0.2684952903935085
 30
0.0
 11
12.01745791753293
 21
0.5500908776424718
 31
0.0
  0
LINE
  5
9D
330
86
100
AcDbEntity
  8
0
  6
BYBLOCK
 62
     0
100
AcDbLine
 10
12.51745791753293
 20
0.2684952903935085
 30
0.0
 11
12.51745791753293
 21
0.5500908776424718
 31
0.0
  0
LINE
  5
9E
330
86
100
AcDbEntity
  8
0
  6
BYBLOCK
 62
     0
100
AcDbLine
 10
12.01745791753293
 20
0.3700908776424718
 30
0.0
 11
11.76745791753293
 21
0.3700908776424718
 31
0.0
  0
LINE
  5
9F
330
86
100
AcDbEntity
  8
0
  6
BYBLOCK
 62
     0
100
AcDbLine
 10
12.51745791753293
 20
0.3700908776424718
 30
0.0
 11
12.76745791753294
 21
0.3700908776424718
 31
0.0
  0
LINE
  5
A0
330
86
100
AcDbEntity
  8
0
  6
BYBLOCK
 62
     0
100
AcDbLine
 10
11.89245791753293
 20
0.2450908776424718
 30
0.0
 11
12.14245791753294
 21
0.4950908776424719
 31
0.0
  0
LINE
  5
A1
330
86
100
AcDbEntity
  8
0
  6
BYBLOCK
 62
     0
100
AcDbLine
 10
12.39245791753293
 20
0.2450908776424718
 30
0.0
 11
12.64245791753293
 21
0.4950908776424719
 31
0.0
  0
TEXT
  5
A2
330
86
100
AcDbEntity
  8
0
  6
BYBLOCK
 62
     0
100
AcDbText
 10
12.89245791753294
 20
0.3075908776424718
 30
0.0
 40
0.125
  1
1/2
 72
     1
 11
13.03829125086627
 21
0.3700908776424718
 31
0.0
100
AcDbText
 73
     2
  0
POINT
  5
A3
330
86
100
AcDbEntity
  8
DEFPOINTS
  6
BYBLOCK
 62
     0
100
AcDbPoint
 10
12.01745791753293
 20
0.2059952903935085
 30
0.0
  0
POINT
  5
A4
330
86
100
AcDbEntity
  8
DEFPOINTS
  6
BYBLOCK
 62
     0
100
AcDbPoint
 10
12.51745791753293
 20
0.2059952903935085
 30
0.0
  0
POINT
  5
A5
330
86
100
AcDbEntity
  8
DEFPOINTS
  6
BYBLOCK
 62
     0
100
AcDbPoint
 10
12.51745791753293
 20
0.3700908776424718
 30
0.0
  0
ENDBLK
  5
A6
330
86
100
AcDbEntity
  8
0
100
AcDbBlockEnd
  0
BLOCK
  5
A7
330
89
100
AcDbEntity
  8
0
100
AcDbBlockBegin
  2
*D1
 70
     1
 10
0.0
 20
0.0
 30
0.0
  3
*D1
  1

  0
LINE
  5
A8
330
89
100
AcDbEntity
  8
0
  6
BYBLOCK
 62
     0
100
AcDbLine
 10
15.89026138412896
 20
-0.8776291763079401
 30
0.0
 11
16.71339592268446
 21
-0.8776291763079401
 31
0.0
  0
LINE
  5
A9
330
89
100
AcDbEntity
  8
0
  6
BYBLOCK
 62
     0
100
AcDbLine
 10
15.89026138412896
 20
0.8708971394815335
 30
0.0
 11
16.71339592268446
 21
0.8708971394815335
 31
0.0
  0
LINE
  5
AA
330
89
100
AcDbEntity
  8
0
  6
BYBLOCK
 62
     0
100
AcDbLine
 10
16.53339592268446
 20
-0.8776291763079401
 30
0.0
 11
16.53339592268446
 21
-0.3991993517465366
 31
0.0
  0
LINE
  5
AB
330
89
100
AcDbEntity
  8
0
  6
BYBLOCK
 62
     0
100
AcDbLine
 10
16.53339592268446
 20
0.8708971394815335
 30
0.0
 11
16.53339592268446
 21
0.39246731492013
 31
0.0
  0
LINE
  5
AC
330
89
100
AcDbEntity
  8
0
  6
BYBLOCK
 62
     0
100
AcDbLine
 10
16.65839592268446
 20
-1.00262917630794
 30
0.0
 11
16.40839592268446
 21
-0.7526291763079401
 31
0.0
  0
LINE
  5
AD
330
89
100
AcDbEntity
  8
0
  6
BYBLOCK
 62
     0
100
AcDbLine
 10
16.65839592268446
 20
0.7458971394815336
 30
0.0
 11
16.40839592268446
 21
0.9958971394815335
 31
0.0
  0
TEXT
  5
AE
330
89
100
AcDbEntity
  8
0
  6
BYBLOCK
 62
     0
100
AcDbText
 10
16.59589592268446
 20
-0.2741993517465366
 30
0.0
 40
0.125
  1
1 3/4
 50
90.0
 72
     1
 11
16.53339592268446
 21
-0.0033660184132033
 31
0.0
100
AcDbText
 73
     2
  0
POINT
  5
AF
330
89
100
AcDbEntity
  8
DEFPOINTS
  6
BYBLOCK
 62
     0
100
AcDbPoint
 10
15.82776138412896
 20
-0.8776291763079401
 30
0.0
  0
POINT
  5
B0
330
89
100
AcDbEntity
  8
DEFPOINTS
  6
BYBLOCK
 62
     0
100
AcDbPoint
 10
15.82776138412896
 20
0.8708971394815335
 30
0.0
  0
POINT
  5
B1
330
89
100
AcDbEntity
  8
DEFPOINTS
  6
BYBLOCK
 62
     0
100
AcDbPoint
 10
16.53339592268446
 20
0.8708971394815335
 30
0.0
  0
ENDBLK
  5
B2
330
89
100
AcDbEntity
  8
0
100
AcDbBlockEnd
  0
BLOCK
  5
B3
330
8B
100
AcDbEntity
  8
0
100
AcDbBlockBegin
  2
*D2
 70
     1
 10
0.0
 20
0.0
 30
0.0
  3
*D2
  1

  0
LINE
  5
B4
330
8B
100
AcDbEntity
  8
0
  6
BYBLOCK
 62
     0
100
AcDbLine
 10
14.76449822623423
 20
-0.1907607552553326
 30
0.0
 11
14.76449822623423
 21
-1.310368439730537
 31
0.0
  0
LINE
  5
B5
330
8B
100
AcDbEntity
  8
0
  6
BYBLOCK
 62
     0
100
AcDbLine
 10
16.13060348939212
 20
-0.1907607552553326
 30
0.0
 11
16.13060348939212
 21
-1.310368439730537
 31
0.0
  0
LINE
  5
B6
330
8B
100
AcDbEntity
  8
0
  6
BYBLOCK
 62
     0
100
AcDbLine
 10
14.76449822623423
 20
-1.130368439730537
 30
0.0
 11
15.05171752447984
 21
-1.130368439730537
 31
0.0
  0
LINE
  5
B7
330
8B
100
AcDbEntity
  8
0
  6
BYBLOCK
 62
     0
100
AcDbLine
 10
16.13060348939212
 20
-1.130368439730537
 30
0.0
 11
15.84338419114651
 21
-1.130368439730537
 31
0.0
  0
LINE
  5
B8
330
8B
100
AcDbEntity
  8
0
  6
BYBLOCK
 62
     0
100
AcDbLine
 10
14.63949822623423
 20
-1.255368439730537
 30
0.0
 11
14.88949822623423
 21
-1.005368439730537
 31
0.0
  0
LINE
  5
B9
330
8B
100
AcDbEntity
  8
0
  6
BYBLOCK
 62
     0
100
AcDbLine
 10
16.00560348939212
 20
-1.255368439730537
 30
0.0
 11
16.25560348939212
 21
-1.005368439730537
 31
0.0
  0
TEXT
  5
BA
330
8B
100
AcDbEntity
  8
0
  6
BYBLOCK
 62
     0
100
AcDbText
 10
15.17671752447984
 20
-1.192868439730537
 30
0.0
 40
0.125
  1
1 3/8
 72
     1
 11
15.44755085781318
 21
-1.130368439730537
 31
0.0
100
AcDbText
 73
     2
  0
POINT
  5
BB
330
8B
100
AcDbEntity
  8
DEFPOINTS
  6
BYBLOCK
 62
     0
100
AcDbPoint
 10
14.76449822623423
 20
-0.1282607552553326
 30
0.0
  0
POINT
  5
BC
330
8B
100
AcDbEntity
  8
DEFPOINTS
  6
BYBLOCK
 62
     0
100
AcDbPoint
 10
16.13060348939212
 20
-0.1282607552553326
 30
0.0
  0
POINT
  5
BD
330
8B
100
AcDbEntity
  8
DEFPOINTS
  6
BYBLOCK
 62
     0
100
AcDbPoint
 10
16.13060348939212
 20
-1.130368439730537
 30
0.0
  0
ENDBLK
  5
BE
330
8B
100
AcDbEntity
  8
0
100
AcDbBlockEnd
  0
ENDSEC
  0
SECTION
  2
ENTITIES
  0
DIMENSION
  5
BF
330
18
100
AcDbEntity
  8
ADPDIM
100
AcDbDimension
  2
*D2
 10
16.13060348939212
 20
-1.130368439730537
 30
0.0
 11
15.44755085781318
 21
-1.130368439730537
 31
0.0
100
AcDbAlignedDimension
 13
14.76449822623423
 23
-0.1282607552553326
 33
0.0
 14
16.13060348939212
 24
-0.1282607552553326
 34
0.0
100
AcDbRotatedDimension
  0
DIMENSION
  5
C0
330
18
100
AcDbEntity
  8
ADPDIM
100
AcDbDimension
  2
*D0
 10
15.69776138412896
 20
1.030571674098917
 30
0.0
 11
16.2185947174623
 21
1.030571674098917
 31
0.0
 12
3.180303466596027
 22
0.6604807964564454
 32
0.0
100
AcDbAlignedDimension
 13
15.19776138412896
 23
0.8664760868499538
 33
0.0
 14
15.69776138412896
 24
0.8664760868499538
 34
0.0
100
AcDbRotatedDimension
  0
LWPOLYLINE
  5
C1
330
18
100
AcDbEntity
  8
ADP1DETAIL
100
AcDbPolyline
 90
        4
 70
     1
 43
0.0
 10
14.76228208948169
 20
1.320858003257202
 10
14.7622820894817
 20
2.691816592551738
 10
16.13324067877623
 20
2.691816592551738
 10
16.13324067877623
 20
1.320858003257202
  0
LWPOLYLINE
  5
C7
330
18
100
AcDbEntity
  8
ADP1DETAIL
100
AcDbPolyline
 90
        4
 70
     1
 43
0.0
 10
14.91560447052202
 20
1.474180384297524
 10
14.91560447052202
 20
2.538494211511415
 10
15.97991829773591
 20
2.538494211511415
 10
15.97991829773591
 20
1.474180384297524
  0
LWPOLYLINE
  5
CD
330
18
100
AcDbEntity
  8
ADP1DETAIL
100
AcDbPolyline
 90
        4
 70
     1
 43
0.0
 10
15.06726541991588
 20
1.625841333691394
 10
15.06726541991589
 20
2.386833262117546
 10
15.82825734834204
 20
2.386833262117546
 10
15.82825734834204
 20
1.625841333691394
  0
LINE
  5
D3
330
18
100
AcDbEntity
  8
0
 62
     7
100
AcDbLine
 10
14.91923506833949
 20
-0.6941554920974135
 30
0.0
 11
15.97586664728686
 21
-0.6941554920974135
 31
0.0
  0
LINE
  5
D4
330
18
100
AcDbEntity
  8
0
 62
     7
100
AcDbLine
 10
15.97586664728686
 20
-0.7361554920974142
 30
0.0
 11
14.91923506833949
 21
-0.7361554920974142
 31
0.0
  0
LINE
  5
D5
330
18
100
AcDbEntity
  8
0
 62
     7
100
AcDbLine
 10
14.76228769991844
 20
-0.1282607552553096
 30
0.0
 11
16.13060348939212
 21
-0.1282607552553096
 31
0.0
  0
LINE
  5
D6
330
18
100
AcDbEntity
  8
0
 62
     7
100
AcDbLine
 10
16.13060348939212
 20
0.1215287184289021
 30
0.0
 11
14.76228769991844
 21
0.1215287184289021
 31
0.0
  0
LINE
  5
D7
330
18
100
AcDbEntity
  8
0
 62
     7
100
AcDbLine
 10
14.91923506833949
 20
0.6874234552710078
 30
0.0
 11
15.97586664728686
 21
0.6874234552710078
 31
0.0
  0
LINE
  5
D8
330
18
100
AcDbEntity
  8
0
 62
     7
100
AcDbLine
 10
15.97586664728686
 20
0.7294234552710077
 30
0.0
 11
14.91923506833949
 21
0.7294234552710077
 31
0.0
  0
LINE
  5
D9
330
18
100
AcDbEntity
  8
0
 62
     7
100
AcDbLine
 10
15.82776138412896
 20
-0.8776291763079401
 30
0.0
 11
15.06734033149738
 21
-0.8776291763079401
 31
0.0
  0
LINE
  5
DA
330
18
100
AcDbEntity
  8
0
 62
     7
100
AcDbLine
 10
15.82776138412896
 20
0.8708971394815335
 30
0.0
 11
15.06734033149738
 21
0.8708971394815335
 31
0.0
  0
LWPOLYLINE
  5
DB
330
18
100
AcDbEntity
  8
0
 62
     7
100
AcDbPolyline
 90
        3
 70
     0
 43
0.0
 10
14.91923506833949
 20
-0.6941554920974366
 42
0.5221296552223719
 10
15.00323506833949
 20
-0.2896291763079631
 42
0.1211424944266074
 10
14.76449822623423
 20
-0.1282607552553326
 42
1.434564987979898
  0
LINE
  5
E0
330
18
100
AcDbEntity
  8
0
 62
     7
100
AcDbLine
 10
14.91923506833949
 20
-0.7361554920974142
 30
0.0
 11
14.91923506833949
 21
-0.6941554920974135
 31
0.0
  0
LINE
  5
E1
330
18
100
AcDbEntity
  8
0
 62
     7
100
AcDbLine
 10
14.91923506833949
 20
-0.7361554920974142
 30
0.0
 11
14.91923506833949
 21
-0.6941554920974135
 31
0.0
  0
LINE
  5
E2
330
18
100
AcDbEntity
  8
0
 62
     7
100
AcDbLine
 10
15.06734033149738
 20
-0.8776291763079401
 30
0.0
 11
14.91923506833949
 21
-0.7361554920974142
 31
0.0
  0
LWPOLYLINE
  5
E3
330
18
100
AcDbEntity
  8
0
 62
     7
100
AcDbPolyline
 90
        3
 70
     0
 43
0.0
 10
14.91923506833949
 20
0.6874234552709848
 42
-0.5221296552223719
 10
15.00323506833949
 20
0.2828971394815113
 42
-0.1211424944266074
 10
14.76449822623423
 20
0.1215287184288808
 42
-1.434564987979898
  0
LINE
  5
E8
330
18
100
AcDbEntity
  8
0
 62
     7
100
AcDbLine
 10
14.76228769991844
 20
0.1215287184289021
 30
0.0
 11
14.76228769991844
 21
-0.1282607552553096
 31
0.0
  0
LINE
  5
E9
330
18
100
AcDbEntity
  8
0
 62
     7
100
AcDbLine
 10
14.91923506833949
 20
0.7294234552710077
 30
0.0
 11
14.91923506833949
 21
0.6874234552710078
 31
0.0
  0
LINE
  5
EA
330
18
100
AcDbEntity
  8
0
 62
     7
100
AcDbLine
 10
14.91923506833949
 20
0.7294234552710077
 30
0.0
 11
14.91923506833949
 21
0.6874234552710078
 31
0.0
  0
LINE
  5
EB
330
18
100
AcDbEntity
  8
0
 62
     7
100
AcDbLine
 10
15.06734033149738
 20
0.8708971394815335
 30
0.0
 11
14.91923506833949
 21
0.7294234552710077
 31
0.0
  0
DIMENSION
  5
EC
330
18
100
AcDbEntity
  8
ADPDIM
100
AcDbDimension
  2
*D1
 10
16.53339592268446
 20
0.8708971394815335
 30
0.0
 11
16.53339592268446
 21
-0.0033660184132033
 31
0.0
100
AcDbAlignedDimension
 13
15.82776138412896
 23
-0.8776291763079401
 33
0.0
 14
15.82776138412896
 24
0.8708971394815335
 34
0.0
 50
90.0
100
AcDbRotatedDimension
  0
LINE
  5
ED
330
18
100
AcDbEntity
  8
ADP2DETAIL
  6
HIDDEN2
100
AcDbLine
 10
15.19776138412896
 20
0.8664760868499538
 30
0.0
 11
15.19776138412896
 21
-0.8687870710447823
 31
0.0
  0
LINE
  5
EE
330
18
100
AcDbEntity
  8
ADP2DETAIL
  6
HIDDEN2
100
AcDbLine
 10
15.69512980518159
 20
-0.8687870710447823
 30
0.0
 11
15.69512980518159
 21
0.8664760868499538
 31
0.0
  0
LWPOLYLINE
  5
EF
330
18
100
AcDbEntity
  8
0
 62
     7
100
AcDbPolyline
 90
        3
 70
     0
 43
0.0
 10
15.97586664728686
 20
-0.6941554920974366
 42
-0.5221296552223719
 10
15.89186664728686
 20
-0.2896291763079631
 42
-0.1211424944266074
 10
16.13060348939212
 20
-0.1282607552553326
 42
-1.434564987979898
  0
LINE
  5
F4
330
18
100
AcDbEntity
  8
0
 62
     7
100
AcDbLine
 10
15.97586664728686
 20
-0.7361554920974142
 30
0.0
 11
15.82776138412896
 21
-0.8776291763079401
 31
0.0
  0
LINE
  5
F5
330
18
100
AcDbEntity
  8
0
 62
     7
100
AcDbLine
 10
15.97586664728686
 20
-0.6941554920974135
 30
0.0
 11
15.97586664728686
 21
-0.7361554920974142
 31
0.0
  0
LINE
  5
F6
330
18
100
AcDbEntity
  8
0
 62
     7
100
AcDbLine
 10
15.97586664728686
 20
-0.6941554920974135
 30
0.0
 11
15.97586664728686
 21
-0.7361554920974142
 31
0.0
  0
LINE
  5
F7
330
18
100
AcDbEntity
  8
0
 62
     7
100
AcDbLine
 10
15.97586664728686
 20
0.7294234552710077
 30
0.0
 11
15.82776138412896
 21
0.8708971394815335
 31
0.0
  0
LWPOLYLINE
  5
F8
330
18
100
AcDbEntity
  8
0
 62
     7
100
AcDbPolyline
 90
        3
 70
     0
 43
0.0
 10
15.97586664728686
 20
0.6874234552709848
 42
0.5221296552223719
 10
15.89186664728686
 20
0.2828971394815113
 42
0.1211424944266074
 10
16.13060348939212
 20
0.1215287184288808
 42
1.434564987979898
  0
LINE
  5
FD
330
18
100
AcDbEntity
  8
0
 62
     7
100
AcDbLine
 10
16.13060348939212
 20
-0.1282607552553096
 30
0.0
 11
16.13060348939212
 21
0.1215287184289021
 31
0.0
  0
LINE
  5
FE
330
18
100
AcDbEntity
  8
0
 62
     7
100
AcDbLine
 10
15.97586664728686
 20
0.6874234552710078
 30
0.0
 11
15.97586664728686
 21
0.7294234552710077
 31
0.0
  0
LINE
  5
FF
330
18
100
AcDbEntity
  8
0
 62
     7
100
AcDbLine
 10
15.97586664728686
 20
0.6874234552710078
 30
0.0
 11
15.97586664728686
 21
0.7294234552710077
 31
0.0
  0
LWPOLYLINE
  5
100
330
18
100
AcDbEntity
  8
ADP1DETAIL
100
AcDbPolyline
 90
        4
 70
     1
 43
0.0
 10
15.19776138412896
 20
1.75633729790447
 10
15.19776138412896
 20
2.25633729790447
 10
15.69776138412896
 20
2.25633729790447
 10
15.69776138412896
 20
1.75633729790447
  0
TEXT
  5
113
330
18
100
AcDbEntity
  8
ADPDIM
100
AcDbText
 10
10.62152020467538
 20
-1.649703658356711
 30
0.0
 40
0.09375
  1
J U L I U S  B L U M  &  C O . ,  I N C .      ( 8 0 0 )  5 2 6 - 6 2 9 3        W W W . J U L I U S B L U M . C O M        P A R T  N o .  7 6 5
 41
1.25
  7
ARIAL_WIDE
 72
     1
 11
15.44755085781317
 21
-1.555953658356711
 31
0.0
100
AcDbText
 73
     3
  0
ENDSEC
  0
SECTION
  2
OBJECTS
  0
DICTIONARY
  5
C
330
0
100
AcDbDictionary
  3
ACAD_GROUP
350
D
  3
ACAD_LAYOUT
350
10C
  3
ACAD_MLINESTYLE
350
E
  3
ACAD_PLOTSETTINGS
350
10D
  3
ACAD_PLOTSTYLENAME
350
10A
  3
ACDBHEADERROUNDTRIPXREC
350
257
  3
ACDBVARIABLEDICTIONARY
350
16D
  0
DICTIONARY
  5
167
330
18
100
AcDbDictionary
280
     1
  3
ACAD_LAYOUTSELFREF
360
278
  0
DICTIONARY
  5
165
330
15
100
AcDbDictionary
280
     1
  3
ACAD_LAYOUTSELFREF
360
277
  0
DICTIONARY
  5
D
102
{ACAD_REACTORS
330
C
102
}
330
C
100
AcDbDictionary
  0
DICTIONARY
  5
10C
102
{ACAD_REACTORS
330
C
102
}
330
C
100
AcDbDictionary
  0
DICTIONARY
  5
E
102
{ACAD_REACTORS
330
C
102
}
330
C
100
AcDbDictionary
  3
STANDARD
350
1B
  0
DICTIONARY
  5
10D
102
{ACAD_REACTORS
330
C
102
}
330
C
100
AcDbDictionary
  0
ACDBDICTIONARYWDFLT
  5
10A
102
{ACAD_REACTORS
330
C
102
}
330
C
100
AcDbDictionary
281
     1
  3
Normal
350
10B
100
AcDbDictionaryWithDefault
340
10B
  0
DICTIONARY
  5
257
102
{ACAD_REACTORS
330
C
102
}
330
C
100
AcDbDictionary
  3
CEPSNTYPE
350
261
  3
FINGERPRINTGUID
350
262
  3
HYPERLINKBASE
350
25A
  3
INSUNITS
350
260
  3
LAYOUTDICT
350
25C
  3
LWETCUNION
350
25F
  3
PLOTSETDICT
350
25D
  3
PLOTSTYLNAMDICT
350
25E
  3
PSVPSCALE
350
264
  3
PUCSBASE
350
267
  3
PUCSORGBACK
350
26D
  3
PUCSORGBOTTOM
350
269
  3
PUCSORGFRONT
350
26C
  3
PUCSORGLEFT
350
26A
  3
PUCSORGRIGHT
350
26B
  3
PUCSORGTOP
350
268
  3
PUCSORTHOREF
350
265
  3
PUCSORTHOVIEW
350
266
  3
STYLESHEET
350
25B
  3
TSTACKALIGN
350
258
  3
TSTACKSIZE
350
259
  3
UCSBASE
350
270
  3
UCSORGBACK
350
276
  3
UCSORGBOTTOM
350
272
  3
UCSORGFRONT
350
275
  3
UCSORGLEFT
350
273
  3
UCSORGRIGHT
350
274
  3
UCSORGTOP
350
271
  3
UCSORTHOREF
350
26E
  3
UCSORTHOVIEW
350
26F
  3
VERSIONGUID
350
263
  0
DICTIONARY
  5
16D
102
{ACAD_REACTORS
330
C
102
}
330
C
100
AcDbDictionary
  3
DIMASSOC
350
16E
  0
XRECORD
  5
278
102
{ACAD_REACTORS
330
167
102
}
330
167
100
AcDbXrecord
340
18
  0
XRECORD
  5
277
102
{ACAD_REACTORS
330
165
102
}
330
165
100
AcDbXrecord
340
15
  0
MLINESTYLE
  5
1B
102
{ACAD_REACTORS
330
E
102
}
330
E
100
AcDbMlineStyle
  2
STANDARD
 70
     0
  3

 62
     0
 51
90.0
 52
90.0
 71
     2
 49
0.5
 62
   256
  6
BYLAYER
 49
-0.5
 62
   256
  6
BYLAYER
  0
ACDBPLACEHOLDER
  5
10B
102
{ACAD_REACTORS
330
10A
102
}
330
10A
100
AcDbPlaceHolder
280
     0
  0
XRECORD
  5
261
102
{ACAD_REACTORS
330
257
102
}
330
257
100
AcDbXrecord
 90
        0
  0
XRECORD
  5
262
102
{ACAD_REACTORS
330
257
102
}
330
257
100
AcDbXrecord
  1
{55230CEF-E3F4-46E6-9563-8887ECA797B4}
  0
XRECORD
  5
25A
102
{ACAD_REACTORS
330
257
102
}
330
257
100
AcDbXrecord
  1

  0
XRECORD
  5
260
102
{ACAD_REACTORS
330
257
102
}
330
257
100
AcDbXrecord
 90
        0
  0
XRECORD
  5
25C
102
{ACAD_REACTORS
330
257
102
}
330
257
100
AcDbXrecord
340
10C
  0
XRECORD
  5
25F
102
{ACAD_REACTORS
330
257
102
}
330
257
100
AcDbXrecord
 90
    14877
  0
XRECORD
  5
25D
102
{ACAD_REACTORS
330
257
102
}
330
257
100
AcDbXrecord
340
10D
  0
XRECORD
  5
25E
102
{ACAD_REACTORS
330
257
102
}
330
257
100
AcDbXrecord
340
10A
  0
XRECORD
  5
264
102
{ACAD_REACTORS
330
257
102
}
330
257
100
AcDbXrecord
 40
0.0
  0
XRECORD
  5
267
102
{ACAD_REACTORS
330
257
102
}
330
257
100
AcDbXrecord
340
0
  0
XRECORD
  5
26D
102
{ACAD_REACTORS
330
257
102
}
330
257
100
AcDbXrecord
 10
0.0
 20
0.0
 30
0.0
  0
XRECORD
  5
269
102
{ACAD_REACTORS
330
257
102
}
330
257
100
AcDbXrecord
 10
0.0
 20
0.0
 30
0.0
  0
XRECORD
  5
26C
102
{ACAD_REACTORS
330
257
102
}
330
257
100
AcDbXrecord
 10
0.0
 20
0.0
 30
0.0
  0
XRECORD
  5
26A
102
{ACAD_REACTORS
330
257
102
}
330
257
100
AcDbXrecord
 10
0.0
 20
0.0
 30
0.0
  0
XRECORD
  5
26B
102
{ACAD_REACTORS
330
257
102
}
330
257
100
AcDbXrecord
 10
0.0
 20
0.0
 30
0.0
  0
XRECORD
  5
268
102
{ACAD_REACTORS
330
257
102
}
330
257
100
AcDbXrecord
 10
0.0
 20
0.0
 30
0.0
  0
XRECORD
  5
265
102
{ACAD_REACTORS
330
257
102
}
330
257
100
AcDbXrecord
340
0
  0
XRECORD
  5
266
102
{ACAD_REACTORS
330
257
102
}
330
257
100
AcDbXrecord
 70
     0
  0
XRECORD
  5
25B
102
{ACAD_REACTORS
330
257
102
}
330
257
100
AcDbXrecord
  1

  0
XRECORD
  5
258
102
{ACAD_REACTORS
330
257
102
}
330
257
100
AcDbXrecord
 90
        1
  0
XRECORD
  5
259
102
{ACAD_REACTORS
330
257
102
}
330
257
100
AcDbXrecord
 90
       70
  0
XRECORD
  5
270
102
{ACAD_REACTORS
330
257
102
}
330
257
100
AcDbXrecord
340
0
  0
XRECORD
  5
276
102
{ACAD_REACTORS
330
257
102
}
330
257
100
AcDbXrecord
 10
0.0
 20
0.0
 30
0.0
  0
XRECORD
  5
272
102
{ACAD_REACTORS
330
257
102
}
330
257
100
AcDbXrecord
 10
0.0
 20
0.0
 30
0.0
  0
XRECORD
  5
275
102
{ACAD_REACTORS
330
257
102
}
330
257
100
AcDbXrecord
 10
0.0
 20
0.0
 30
0.0
  0
XRECORD
  5
273
102
{ACAD_REACTORS
330
257
102
}
330
257
100
AcDbXrecord
 10
0.0
 20
0.0
 30
0.0
  0
XRECORD
  5
274
102
{ACAD_REACTORS
330
257
102
}
330
257
100
AcDbXrecord
 10
0.0
 20
0.0
 30
0.0
  0
XRECORD
  5
271
102
{ACAD_REACTORS
330
257
102
}
330
257
100
AcDbXrecord
 10
0.0
 20
0.0
 30
0.0
  0
XRECORD
  5
26E
102
{ACAD_REACTORS
330
257
102
}
330
257
100
AcDbXrecord
340
0
  0
XRECORD
  5
26F
102
{ACAD_REACTORS
330
257
102
}
330
257
100
AcDbXrecord
 70
     0
  0
XRECORD
  5
263
102
{ACAD_REACTORS
330
257
102
}
330
257
100
AcDbXrecord
  1
{CF2CBA72-B8E9-463B-A7F1-692BC36F0633}
  0
DICTIONARYVAR
  5
16E
102
{ACAD_REACTORS
330
16D
102
}
330
16D
100
DictionaryVariables
280
     0
  1
1
  0
ENDSEC
  0
EOF
