  0
SECTION
  2
HEADER
  9
$ACADVER
  1
AC1014
  9
$ACADMAINTVER
 70
     9
  9
$DWGCODEPAGE
  3
ANSI_1252
  9
$INSBASE
 10
10.32058923397251
 20
7.512834951199642
 30
0.0
  9
$EXTMIN
 10
5.809857804343552
 20
3.710515900533776
 30
0.0
  9
$EXTMAX
 10
18.86131585345678
 20
9.412834951199641
 30
0.0
  9
$LIMMIN
 10
0.0
 20
0.0
  9
$LIMMAX
 10
36.0
 20
36.0
  9
$ORTHOMODE
 70
     1
  9
$REGENMODE
 70
     1
  9
$FILLMODE
 70
     1
  9
$QTEXTMODE
 70
     0
  9
$MIRRTEXT
 70
     1
  9
$DRAGMODE
 70
     0
  9
$LTSCALE
 40
1.0
  9
$OSMODE
 70
    37
  9
$ATTMODE
 70
     1
  9
$TEXTSIZE
 40
0.2
  9
$TRACEWID
 40
0.05
  9
$TEXTSTYLE
  7
STANDARD
  9
$CLAYER
  8
ADP1DETAIL
  9
$CELTYPE
  6
BYLAYER
  9
$CECOLOR
 62
   256
  9
$CELTSCALE
 40
1.0
  9
$DELOBJ
 70
     1
  9
$DISPSILH
 70
     0
  9
$DIMSCALE
 40
1.0
  9
$DIMASZ
 40
0.125
  9
$DIMEXO
 40
0.0625
  9
$DIMDLI
 40
0.38
  9
$DIMRND
 40
0.0
  9
$DIMDLE
 40
0.0
  9
$DIMEXE
 40
0.18
  9
$DIMTP
 40
0.0
  9
$DIMTM
 40
0.0
  9
$DIMTXT
 40
0.125
  9
$DIMCEN
 40
0.1875
  9
$DIMTSZ
 40
0.125
  9
$DIMTOL
 70
     0
  9
$DIMLIM
 70
     0
  9
$DIMTIH
 70
     0
  9
$DIMTOH
 70
     0
  9
$DIMSE1
 70
     0
  9
$DIMSE2
 70
     0
  9
$DIMTAD
 70
     0
  9
$DIMZIN
 70
     3
  9
$DIMBLK
  1

  9
$DIMASO
 70
     1
  9
$DIMSHO
 70
     1
  9
$DIMPOST
  1

  9
$DIMAPOST
  1

  9
$DIMALT
 70
     0
  9
$DIMALTD
 70
     1
  9
$DIMALTF
 40
25.4
  9
$DIMLFAC
 40
1.0
  9
$DIMTOFL
 70
     0
  9
$DIMTVP
 40
0.0
  9
$DIMTIX
 70
     0
  9
$DIMSOXD
 70
     0
  9
$DIMSAH
 70
     0
  9
$DIMBLK1
  1

  9
$DIMBLK2
  1

  9
$DIMSTYLE
  2
STANDARD
  9
$DIMCLRD
 70
     0
  9
$DIMCLRE
 70
     0
  9
$DIMCLRT
 70
     0
  9
$DIMTFAC
 40
1.0
  9
$DIMGAP
 40
0.125
  9
$DIMJUST
 70
     0
  9
$DIMSD1
 70
     0
  9
$DIMSD2
 70
     0
  9
$DIMTOLJ
 70
     1
  9
$DIMTZIN
 70
     0
  9
$DIMALTZ
 70
     0
  9
$DIMALTTZ
 70
     0
  9
$DIMFIT
 70
     3
  9
$DIMUPT
 70
     0
  9
$DIMUNIT
 70
     2
  9
$DIMDEC
 70
     4
  9
$DIMTDEC
 70
     4
  9
$DIMALTU
 70
     2
  9
$DIMALTTD
 70
     2
  9
$DIMTXSTY
  7
STANDARD
  9
$DIMAUNIT
 70
     0
  9
$LUNITS
 70
     5
  9
$LUPREC
 70
     4
  9
$SKETCHINC
 40
0.1
  9
$FILLETRAD
 40
0.062
  9
$AUNITS
 70
     0
  9
$AUPREC
 70
     0
  9
$MENU
  1
acad
  9
$ELEVATION
 40
0.0
  9
$PELEVATION
 40
0.0
  9
$THICKNESS
 40
0.0
  9
$LIMCHECK
 70
     0
  9
$BLIPMODE
 70
     0
  9
$CHAMFERA
 40
0.0
  9
$CHAMFERB
 40
0.0
  9
$CHAMFERC
 40
0.0
  9
$CHAMFERD
 40
0.0
  9
$SKPOLY
 70
     0
  9
$TDCREATE
 40
2450225.645145440
  9
$TDUPDATE
 40
2452297.102765116
  9
$TDINDWG
 40
0.0645076620
  9
$TDUSRTIMER
 40
0.0645076620
  9
$USRTIMER
 70
     1
  9
$ANGBASE
 50
0.0
  9
$ANGDIR
 70
     0
  9
$PDMODE
 70
     0
  9
$PDSIZE
 40
0.0
  9
$PLINEWID
 40
0.0
  9
$COORDS
 70
     2
  9
$SPLFRAME
 70
     0
  9
$SPLINETYPE
 70
     6
  9
$SPLINESEGS
 70
     8
  9
$ATTDIA
 70
     0
  9
$ATTREQ
 70
     1
  9
$HANDLING
 70
 22529
  9
$HANDSEED
  5
5D9
  9
$SURFTAB1
 70
     6
  9
$SURFTAB2
 70
     6
  9
$SURFTYPE
 70
     6
  9
$SURFU
 70
     6
  9
$SURFV
 70
     6
  9
$UCSNAME
  2

  9
$UCSORG
 10
0.0
 20
0.0
 30
0.0
  9
$UCSXDIR
 10
1.0
 20
0.0
 30
0.0
  9
$UCSYDIR
 10
0.0
 20
1.0
 30
0.0
  9
$PUCSNAME
  2

  9
$PUCSORG
 10
0.0
 20
0.0
 30
0.0
  9
$PUCSXDIR
 10
1.0
 20
0.0
 30
0.0
  9
$PUCSYDIR
 10
0.0
 20
1.0
 30
0.0
  9
$USERI1
 70
     0
  9
$USERI2
 70
     0
  9
$USERI3
 70
     0
  9
$USERI4
 70
     0
  9
$USERI5
 70
     0
  9
$USERR1
 40
0.0
  9
$USERR2
 40
0.0
  9
$USERR3
 40
0.0
  9
$USERR4
 40
0.0
  9
$USERR5
 40
0.0
  9
$WORLDVIEW
 70
     1
  9
$SHADEDGE
 70
     3
  9
$SHADEDIF
 70
    70
  9
$TILEMODE
 70
     1
  9
$MAXACTVP
 70
    15
  9
$PINSBASE
 10
0.0008545056916773
 20
1.250276130627782
 30
0.0
  9
$PLIMCHECK
 70
     0
  9
$PEXTMIN
 10
1.000000000000000E+20
 20
1.000000000000000E+20
 30
1.000000000000000E+20
  9
$PEXTMAX
 10
-1.000000000000000E+20
 20
-1.000000000000000E+20
 30
-1.000000000000000E+20
  9
$PLIMMIN
 10
0.0
 20
0.0
  9
$PLIMMAX
 10
12.0
 20
9.0
  9
$UNITMODE
 70
     0
  9
$VISRETAIN
 70
     0
  9
$PLINEGEN
 70
     0
  9
$PSLTSCALE
 70
     1
  9
$TREEDEPTH
 70
  3020
  9
$PICKSTYLE
 70
     1
  9
$CMLSTYLE
  2
STANDARD
  9
$CMLJUST
 70
     0
  9
$CMLSCALE
 40
1.0
  9
$PROXYGRAPHICS
 70
     1
  9
$MEASUREMENT
 70
     0
  0
ENDSEC
  0
SECTION
  2
CLASSES
  0
CLASS
  1
ACDBDICTIONARYWDFLT
  2
AcDbDictionaryWithDefault
  3
AutoCAD 2000
 90
        0
280
     0
281
     0
  0
CLASS
  1
ACDBPLACEHOLDER
  2
AcDbPlaceHolder
  3
AutoCAD 2000
 90
        0
280
     0
281
     0
  0
CLASS
  1
LAYOUT
  2
AcDbLayout
  3
AutoCAD 2000
 90
        0
280
     0
281
     0
  0
CLASS
  1
DICTIONARYVAR
  2
AcDbDictionaryVar
  3
AutoCAD 2000
 90
        0
280
     0
281
     0
  0
CLASS
  1
LONG_TRANSACTION
  2
AcDbLongTransaction
  3
AutoCAD 2000
 90
        0
280
     0
281
     0
  0
CLASS
  1
LWPOLYLINE
  2
AcDbPolyline
  3
AutoCAD 2000
 90
        0
280
     0
281
     1
  0
CLASS
  1
HATCH
  2
AcDbHatch
  3
AutoCAD 2000
 90
        0
280
     0
281
     1
  0
CLASS
  1
XRECORD
  2
AcDbXrecord
  3
AutoCAD 2000
 90
        0
280
     0
281
     0
  0
CLASS
  1
LONG_TRANSACTION
  2
AcDbLongTransaction
  3
AutoCAD 2000
 90
        0
280
     0
281
     0
  0
CLASS
  1
LWPOLYLINE
  2
AcDbPolyline
  3
AutoCAD 2000
 90
        0
280
     0
281
     1
  0
CLASS
  1
HATCH
  2
AcDbHatch
  3
AutoCAD 2000
 90
        0
280
     0
281
     1
  0
CLASS
  1
XRECORD
  2
AcDbXrecord
  3
AutoCAD 2000
 90
        0
280
     0
281
     0
  0
CLASS
  1
LONG_TRANSACTION
  2
AcDbLongTransaction
  3
AutoCAD 2000
 90
        0
280
     0
281
     0
  0
CLASS
  1
LWPOLYLINE
  2
AcDbPolyline
  3
AutoCAD 2000
 90
        0
280
     0
281
     1
  0
CLASS
  1
HATCH
  2
AcDbHatch
  3
AutoCAD 2000
 90
        0
280
     0
281
     1
  0
CLASS
  1
XRECORD
  2
AcDbXrecord
  3
AutoCAD 2000
 90
        0
280
     0
281
     0
  0
CLASS
  1
LONG_TRANSACTION
  2
AcDbLongTransaction
  3
AutoCAD 2000
 90
        0
280
     0
281
     0
  0
CLASS
  1
LWPOLYLINE
  2
AcDbPolyline
  3
AutoCAD 2000
 90
        0
280
     0
281
     1
  0
CLASS
  1
HATCH
  2
AcDbHatch
  3
AutoCAD 2000
 90
        0
280
     0
281
     1
  0
CLASS
  1
XRECORD
  2
AcDbXrecord
  3
AutoCAD 2000
 90
        0
280
     0
281
     0
  0
CLASS
  1
LONG_TRANSACTION
  2
AcDbLongTransaction
  3
AutoCAD 2000
 90
        0
280
     0
281
     0
  0
CLASS
  1
LWPOLYLINE
  2
AcDbPolyline
  3
AutoCAD 2000
 90
        0
280
     0
281
     1
  0
CLASS
  1
HATCH
  2
AcDbHatch
  3
AutoCAD 2000
 90
        0
280
     0
281
     1
  0
CLASS
  1
XRECORD
  2
AcDbXrecord
  3
AutoCAD 2000
 90
        0
280
     0
281
     0
  0
ENDSEC
  0
SECTION
  2
TABLES
  0
TABLE
  2
VPORT
  5
8
330
0
100
AcDbSymbolTable
 70
     2
  0
VPORT
  5
5B6
330
8
100
AcDbSymbolTableRecord
100
AcDbViewportTableRecord
  2
*ACTIVE
 70
     0
 10
0.0
 20
0.0
 11
1.0
 21
1.0
 12
12.34571065263519
 22
6.561859201362661
 13
0.0
 23
0.0
 14
0.5740882589684922
 24
0.5740882589684922
 15
0.5
 25
0.5
 16
0.0
 26
0.0
 36
1.0
 17
0.0
 27
0.0
 37
0.0
 40
8.365595802020571
 41
1.570528967254408
 42
50.0
 43
0.0
 44
0.0
 50
0.0
 51
0.0
 71
     0
 72
   100
 73
     1
 74
     0
 75
     0
 76
     0
 77
     0
 78
     0
  0
ENDTAB
  0
TABLE
  2
LTYPE
  5
5
330
0
100
AcDbSymbolTable
 70
     3
  0
LTYPE
  5
12
330
5
100
AcDbSymbolTableRecord
100
AcDbLinetypeTableRecord
  2
BYBLOCK
 70
     0
  3

 72
    65
 73
     0
 40
0.0
  0
LTYPE
  5
13
330
5
100
AcDbSymbolTableRecord
100
AcDbLinetypeTableRecord
  2
BYLAYER
 70
     0
  3

 72
    65
 73
     0
 40
0.0
  0
LTYPE
  5
14
330
5
100
AcDbSymbolTableRecord
100
AcDbLinetypeTableRecord
  2
CONTINUOUS
 70
     0
  3
Solid line
 72
    65
 73
     0
 40
0.0
  0
LTYPE
  5
1E
330
5
100
AcDbSymbolTableRecord
100
AcDbLinetypeTableRecord
  2
CENTER2
 70
     0
  3
___ _ ___ _ ___ _ ___ _ ___ _ ___ _ ___ _ ___ _
 72
    65
 73
     4
 40
1.125
 49
0.75
 74
     0
 49
-0.125
 74
     0
 49
0.125
 74
     0
 49
-0.125
 74
     0
  0
LTYPE
  5
1F
330
5
100
AcDbSymbolTableRecord
100
AcDbLinetypeTableRecord
  2
HIDDEN2
 70
     0
  3
_ _ _ _ _ _ _ _ _ _ _ _ _ _ _ _ _ _ _ _ _ _ _ _
 72
    65
 73
     2
 40
0.1875
 49
0.125
 74
     0
 49
-0.0625
 74
     0
  0
ENDTAB
  0
TABLE
  2
LAYER
  5
2
330
0
100
AcDbSymbolTable
 70
     6
  0
LAYER
  5
F
330
2
100
AcDbSymbolTableRecord
100
AcDbLayerTableRecord
  2
0
 70
     0
 62
     7
  6
CONTINUOUS
  0
LAYER
  5
21
330
2
100
AcDbSymbolTableRecord
100
AcDbLayerTableRecord
  2
ADP2DETAIL
 70
     0
 62
     5
  6
CONTINUOUS
  0
LAYER
  5
22
330
2
100
AcDbSymbolTableRecord
100
AcDbLayerTableRecord
  2
ADPDIM
 70
     0
 62
     3
  6
CONTINUOUS
  0
LAYER
  5
23
330
2
100
AcDbSymbolTableRecord
100
AcDbLayerTableRecord
  2
ADP1DETAIL
 70
     0
 62
     7
  6
CONTINUOUS
  0
LAYER
  5
24
330
2
100
AcDbSymbolTableRecord
100
AcDbLayerTableRecord
  2
ADP3DETAIL
 70
     0
 62
     1
  6
CONTINUOUS
  0
LAYER
  5
25
330
2
100
AcDbSymbolTableRecord
100
AcDbLayerTableRecord
  2
DEFPOINTS
 70
     0
 62
     7
  6
CONTINUOUS
  0
ENDTAB
  0
TABLE
  2
STYLE
  5
3
330
0
100
AcDbSymbolTable
 70
     2
  0
STYLE
  5
10
330
3
100
AcDbSymbolTableRecord
100
AcDbTextStyleTableRecord
  2
STANDARD
 70
     0
 40
0.0
 41
1.0
 50
0.0
 71
     0
 42
0.2
  3
txt
  4

  0
STYLE
  5
472
330
3
100
AcDbSymbolTableRecord
100
AcDbTextStyleTableRecord
  2
ARIAL_WIDE
 70
     0
 40
0.0
 41
1.25
 50
0.0
 71
     0
 42
0.2
  3
ARIAL.TTF
  4

1001
ACAD
1000
Arial
1071
       34
  0
ENDTAB
  0
TABLE
  2
VIEW
  5
6
330
0
100
AcDbSymbolTable
 70
     0
  0
ENDTAB
  0
TABLE
  2
UCS
  5
7
330
0
100
AcDbSymbolTable
 70
     0
  0
ENDTAB
  0
TABLE
  2
APPID
  5
9
330
0
100
AcDbSymbolTable
 70
     1
  0
APPID
  5
11
330
9
100
AcDbSymbolTableRecord
100
AcDbRegAppTableRecord
  2
ACAD
 70
     0
  0
ENDTAB
  0
TABLE
  2
DIMSTYLE
  5
A
330
0
100
AcDbSymbolTable
 70
     1
  0
DIMSTYLE
105
466
330
A
100
AcDbSymbolTableRecord
100
AcDbDimStyleTableRecord
  2
STANDARD
 70
     0
  3

  4

  5

  6

  7

 40
1.0
 41
0.18
 42
0.0625
 43
0.38
 44
0.18
 45
0.0
 46
0.0
 47
0.0
 48
0.0
140
0.18
141
0.09
142
0.0
143
25.4
144
1.0
145
0.0
146
1.0
147
0.09
 71
     0
 72
     0
 73
     1
 74
     1
 75
     0
 76
     0
 77
     0
 78
     0
170
     0
171
     2
172
     0
173
     0
174
     0
175
     0
176
     0
177
     0
178
     0
270
     2
271
     4
272
     4
273
     2
274
     2
340
10
275
     0
280
     0
281
     0
282
     0
283
     1
284
     0
285
     0
286
     0
287
     3
288
     0
  0
ENDTAB
  0
TABLE
  2
BLOCK_RECORD
  5
1
330
0
100
AcDbSymbolTable
 70
     2
  0
BLOCK_RECORD
  5
18
102
{ACAD_XDICTIONARY
360
4C7
102
}
330
1
100
AcDbSymbolTableRecord
100
AcDbBlockTableRecord
  2
*MODEL_SPACE
  0
BLOCK_RECORD
  5
15
102
{ACAD_XDICTIONARY
360
4C5
102
}
330
1
100
AcDbSymbolTableRecord
100
AcDbBlockTableRecord
  2
*PAPER_SPACE
  0
BLOCK_RECORD
  5
1C
330
1
100
AcDbSymbolTableRecord
100
AcDbBlockTableRecord
  2
7563X
  0
BLOCK_RECORD
  5
1D
330
1
100
AcDbSymbolTableRecord
100
AcDbBlockTableRecord
  2
*D1
  0
ENDTAB
  0
ENDSEC
  0
SECTION
  2
BLOCKS
  0
BLOCK
  5
28
330
18
100
AcDbEntity
  8
0
100
AcDbBlockBegin
  2
*MODEL_SPACE
 70
     0
 10
0.0
 20
0.0
 30
0.0
  3
*MODEL_SPACE
  1

  0
ENDBLK
  5
29
330
18
100
AcDbEntity
  8
0
100
AcDbBlockEnd
  0
BLOCK
  5
26
330
15
100
AcDbEntity
 67
     1
  8
0
100
AcDbBlockBegin
  2
*PAPER_SPACE
 70
     0
 10
0.0
 20
0.0
 30
0.0
  3
*PAPER_SPACE
  1

  0
ENDBLK
  5
27
330
15
100
AcDbEntity
 67
     1
  8
0
100
AcDbBlockEnd
  0
BLOCK
  5
2A
330
1C
100
AcDbEntity
  8
0
100
AcDbBlockBegin
  2
7563X
 70
     0
 10
0.0
 20
0.0
 30
0.0
  3
7563X
  1

  0
LWPOLYLINE
  5
2B
330
1C
100
AcDbEntity
  8
ADP1DETAIL
100
AcDbPolyline
 90
        2
 70
     0
 43
0.0
 10
0.0326847208574117
 20
1.348869351229881
 10
0.000883702999869
 20
1.357638764105193
  0
ARC
  5
2F
330
1C
100
AcDbEntity
  8
ADP1DETAIL
100
AcDbCircle
 10
0.0439823850294818
 20
0.0429920769056391
 30
0.0
 40
0.06
100
AcDbArc
 50
237.6255770379718
 51
332.1988658577537
  0
ARC
  5
30
330
1C
100
AcDbEntity
  8
ADP1DETAIL
100
AcDbCircle
 10
0.4469083825861864
 20
0.6535287717494045
 30
0.0
 40
0.6725
100
AcDbArc
 50
303.5041945653643
 51
236.5846691687321
  0
LWPOLYLINE
  5
31
330
1C
100
AcDbEntity
  8
ADP1DETAIL
100
AcDbPolyline
 90
        2
 70
     0
 43
0.0
 10
-0.3407354192958767
 20
0.6549708475839125
 10
-0.3642304625509425
 20
0.6318150646907343
  0
LWPOLYLINE
  5
35
330
1C
100
AcDbEntity
  8
ADP1DETAIL
100
AcDbPolyline
 90
        2
 70
     0
 43
0.0
 10
-0.3314580961701488
 20
0.4455011451716469
 10
-0.3024220234182176
 20
0.4298450339655369
  0
LWPOLYLINE
  5
39
330
1C
100
AcDbEntity
  8
ADP1DETAIL
100
AcDbPolyline
 90
        2
 70
     0
 43
0.0
 10
-0.3140715474848346
 20
0.4739626932727457
 10
-0.3315931877735947
 20
0.4460127476458804
  0
LWPOLYLINE
  5
3D
330
1C
100
AcDbEntity
  8
ADP1DETAIL
100
AcDbPolyline
 90
        2
 70
     0
 43
0.0
 10
-0.343690574759921
 20
0.4911533767711745
 10
-0.3156139483549918
 20
0.4738354557449198
  0
LWPOLYLINE
  5
41
330
1C
100
AcDbEntity
  8
ADP1DETAIL
100
AcDbPolyline
 90
        2
 70
     0
 43
0.0
 10
-0.3380330791743864
 20
0.6092132897602287
 10
-0.3601419835002435
 20
0.5847305675165009
  0
LWPOLYLINE
  5
45
330
1C
100
AcDbEntity
  8
ADP1DETAIL
100
AcDbPolyline
 90
        2
 70
     0
 43
0.0
 10
-0.3246785495183255
 20
0.5185558345388812
 10
-0.3437956907714206
 20
0.4916719685731641
  0
LWPOLYLINE
  5
49
330
1C
100
AcDbEntity
  8
ADP1DETAIL
100
AcDbPolyline
 90
        2
 70
     0
 43
0.0
 10
-0.3532479167362341
 20
0.5374396273950262
 10
-0.3262257390946157
 20
0.5185184949115205
  0
LWPOLYLINE
  5
4D
330
1C
100
AcDbEntity
  8
ADP1DETAIL
100
AcDbPolyline
 90
        2
 70
     0
 43
0.0
 10
-0.3326747456136596
 20
0.5636902735862975
 10
-0.3533227014764781
 20
0.5379634537742693
  0
LWPOLYLINE
  5
51
330
1C
100
AcDbEntity
  8
ADP1DETAIL
100
AcDbPolyline
 90
        2
 70
     0
 43
0.0
 10
-0.3326747456136596
 20
0.5636902735862948
 10
-0.3533227014764773
 20
0.5379634537742671
  0
LWPOLYLINE
  5
55
330
1C
100
AcDbEntity
  8
ADP1DETAIL
100
AcDbPolyline
 90
        2
 70
     0
 43
0.0
 10
-0.353247916736235
 20
0.5374396273950235
 10
-0.3262257390946148
 20
0.5185184949115183
  0
LWPOLYLINE
  5
59
330
1C
100
AcDbEntity
  8
ADP1DETAIL
100
AcDbPolyline
 90
        2
 70
     0
 43
0.0
 10
-0.3532479167362332
 20
0.5374396273950244
 10
-0.3262257390946148
 20
0.5185184949115201
  0
LWPOLYLINE
  5
5D
330
1C
100
AcDbEntity
  8
ADP1DETAIL
100
AcDbPolyline
 90
        2
 70
     0
 43
0.0
 10
-0.3326747456136596
 20
0.5636902735862983
 10
-0.3533227014764781
 20
0.5379634537742706
  0
LWPOLYLINE
  5
61
330
1C
100
AcDbEntity
  8
ADP1DETAIL
100
AcDbPolyline
 90
        2
 70
     0
 43
0.0
 10
-0.3532479167362341
 20
0.5374396273950275
 10
-0.3262257390946157
 20
0.5185184949115214
  0
LWPOLYLINE
  5
65
330
1C
100
AcDbEntity
  8
ADP1DETAIL
100
AcDbPolyline
 90
        2
 70
     0
 43
0.0
 10
-0.3600977830791443
 20
0.5842032790226588
 10
-0.3342214886963069
 20
0.563742958204883
  0
LWPOLYLINE
  5
69
330
1C
100
AcDbEntity
  8
ADP1DETAIL
100
AcDbPolyline
 90
        2
 70
     0
 43
0.0
 10
-0.3642169960092199
 20
0.6312860982596469
 10
-0.3395741420744081
 20
0.6093558203566869
  0
LWPOLYLINE
  5
6D
330
1C
100
AcDbEntity
  8
ADP1DETAIL
100
AcDbPolyline
 90
        2
 70
     0
 43
0.0
 10
-0.0753565502841296
 20
0.0561176617152359
 10
-0.042494091739159
 20
0.0589927542935098
  0
LWPOLYLINE
  5
71
330
1C
100
AcDbEntity
  8
ADP1DETAIL
100
AcDbPolyline
 90
        2
 70
     0
 43
0.0
 10
-0.0764701769863594
 20
0.089451002847893
 10
-0.0757505478250273
 20
0.0564708652977921
  0
LWPOLYLINE
  5
75
330
1C
100
AcDbEntity
  8
ADP1DETAIL
100
AcDbPolyline
 90
        2
 70
     0
 43
0.0
 10
-0.0764701769863576
 20
0.0894510028478921
 10
-0.0757505478250256
 20
0.0564708652977912
  0
LWPOLYLINE
  5
79
330
1C
100
AcDbEntity
  8
ADP1DETAIL
100
AcDbPolyline
 90
        2
 70
     0
 43
0.0
 10
-0.0753565502841287
 20
0.0561176617152346
 10
-0.0424940917391572
 20
0.0589927542935089
  0
LWPOLYLINE
  5
7D
330
1C
100
AcDbEntity
  8
ADP1DETAIL
100
AcDbPolyline
 90
        2
 70
     0
 43
0.0
 10
-0.0753565502841278
 20
0.0561176617152359
 10
-0.0424940917391581
 20
0.0589927542935098
  0
LWPOLYLINE
  5
81
330
1C
100
AcDbEntity
  8
ADP1DETAIL
100
AcDbPolyline
 90
        2
 70
     0
 43
0.0
 10
-0.0764701769863603
 20
0.0894510028478943
 10
-0.0757505478250282
 20
0.0564708652977934
  0
LWPOLYLINE
  5
85
330
1C
100
AcDbEntity
  8
ADP1DETAIL
100
AcDbPolyline
 90
        2
 70
     0
 43
0.0
 10
-0.0753565502841305
 20
0.0561176617152373
 10
-0.0424940917391599
 20
0.0589927542935112
  0
LWPOLYLINE
  5
89
330
1C
100
AcDbEntity
  8
ADP1DETAIL
100
AcDbPolyline
 90
        2
 70
     0
 43
0.0
 10
-0.1106629481821635
 20
0.087537687971305
 10
-0.0776889159498024
 20
0.0884971343183057
  0
LWPOLYLINE
  5
8D
330
1C
100
AcDbEntity
  8
ADP1DETAIL
100
AcDbPolyline
 90
        2
 70
     0
 43
0.0
 10
-0.1098365293870955
 20
0.120879386000547
 10
-0.1110357421797019
 20
0.0879132029089078
  0
LWPOLYLINE
  5
91
330
1C
100
AcDbEntity
  8
ADP1DETAIL
100
AcDbPolyline
 90
        2
 70
     0
 43
0.0
 10
-0.041332877211608
 20
0.0600158723970323
 10
-0.0386968410936257
 20
0.0271333747343223
  0
LWPOLYLINE
  5
95
330
1C
100
AcDbEntity
  8
ADP1DETAIL
100
AcDbPolyline
 90
        2
 70
     0
 43
0.0
 10
-0.03828297317233
 20
0.0268036776359328
 10
-0.0056432844721002
 20
0.0315846880422837
  0
LWPOLYLINE
  5
99
330
1C
100
AcDbEntity
  8
ADP1DETAIL
100
AcDbPolyline
 90
        2
 70
     0
 43
0.0
 10
-0.0045435235628268
 20
0.0326735938119374
 10
0.0
 20
0.0
  0
LINE
  5
9D
330
1C
100
AcDbEntity
  8
ADP1DETAIL
100
AcDbLine
 10
0.0
 20
0.0
 30
0.0
 11
0.0118553951910734
 21
-0.0076819452745944
 31
0.0
  0
LWPOLYLINE
  5
9E
330
1C
100
AcDbEntity
  8
ADP1DETAIL
100
AcDbPolyline
 90
        2
 70
     0
 43
0.0
 10
-0.3165918718023652
 20
0.4006374052973021
 10
-0.2866946015824707
 20
0.386696079235834
  0
LWPOLYLINE
  5
A2
330
1C
100
AcDbEntity
  8
ADP1DETAIL
100
AcDbPolyline
 90
        2
 70
     0
 43
0.0
 10
-0.1413190332391601
 20
0.1541946781548225
 10
-0.1444330302292167
 20
0.1213539966500279
  0
LWPOLYLINE
  5
A6
330
1C
100
AcDbEntity
  8
ADP1DETAIL
100
AcDbPolyline
 90
        2
 70
     0
 43
0.0
 10
-0.175502727447987
 20
0.1562638388790942
 10
-0.1426402689030164
 20
0.1533887463008168
  0
LWPOLYLINE
  5
AA
330
1C
100
AcDbEntity
  8
ADP1DETAIL
100
AcDbPolyline
 90
        2
 70
     0
 43
0.0
 10
-0.1708111617150685
 20
0.1892841509077785
 10
-0.1758294061224745
 20
0.1566800934605688
  0
LWPOLYLINE
  5
AE
330
1C
100
AcDbEntity
  8
ADP1DETAIL
100
AcDbPolyline
 90
        2
 70
     0
 43
0.0
 10
-0.2048167115272887
 20
0.1933374159908934
 10
-0.1721770228270607
 20
0.1885564055845381
  0
LWPOLYLINE
  5
B2
330
1C
100
AcDbEntity
  8
ADP1DETAIL
100
AcDbPolyline
 90
        2
 70
     0
 43
0.0
 10
-0.198213122787573
 20
0.2260290725909289
 10
-0.2051186344617415
 20
0.1937719610111341
  0
LWPOLYLINE
  5
B6
330
1C
100
AcDbEntity
  8
ADP1DETAIL
100
AcDbPolyline
 90
        2
 70
     0
 43
0.0
 10
-0.231925464186828
 20
0.2320527270668768
 10
-0.1996189877060503
 20
0.2253819762582676
  0
LWPOLYLINE
  5
BA
330
1C
100
AcDbEntity
  8
ADP1DETAIL
100
AcDbPolyline
 90
        2
 70
     0
 43
0.0
 10
-0.2234321968942909
 20
0.2643051100206302
 10
-0.2322016097696036
 20
0.2325040921630879
  0
LWPOLYLINE
  5
BE
330
1C
100
AcDbEntity
  8
ADP1DETAIL
100
AcDbPolyline
 90
        2
 70
     0
 43
0.0
 10
-0.2567372579886733
 20
0.2722787717494066
 10
-0.2248733086173855
 20
0.263740852247702
  0
LWPOLYLINE
  5
C2
330
1C
100
AcDbEntity
  8
ADP1DETAIL
100
AcDbPolyline
 90
        2
 70
     0
 43
0.0
 10
-0.246383050671354
 20
0.3039827492022122
 10
-0.2569866918305346
 20
0.2727454296449774
  0
LWPOLYLINE
  5
C6
330
1C
100
AcDbEntity
  8
ADP1DETAIL
100
AcDbPolyline
 90
        2
 70
     0
 43
0.0
 10
-0.2463830506713505
 20
0.3039827492022096
 10
-0.2569866918305301
 20
0.2727454296449756
  0
LWPOLYLINE
  5
CA
330
1C
100
AcDbEntity
  8
ADP1DETAIL
100
AcDbPolyline
 90
        2
 70
     0
 43
0.0
 10
-0.2567372579886706
 20
0.2722787717494044
 10
-0.224873308617382
 20
0.2637408522476998
  0
LWPOLYLINE
  5
CE
330
1C
100
AcDbEntity
  8
ADP1DETAIL
100
AcDbPolyline
 90
        2
 70
     0
 43
0.0
 10
-0.2567372579886689
 20
0.2722787717494053
 10
-0.2248733086173829
 20
0.2637408522477016
  0
LWPOLYLINE
  5
D2
330
1C
100
AcDbEntity
  8
ADP1DETAIL
100
AcDbPolyline
 90
        2
 70
     0
 43
0.0
 10
-0.2463830506713522
 20
0.3039827492022131
 10
-0.2569866918305319
 20
0.2727454296449787
  0
LWPOLYLINE
  5
D6
330
1C
100
AcDbEntity
  8
ADP1DETAIL
100
AcDbPolyline
 90
        2
 70
     0
 43
0.0
 10
-0.2567372579886715
 20
0.2722787717494079
 10
-0.2248733086173837
 20
0.2637408522477029
  0
LWPOLYLINE
  5
DA
330
1C
100
AcDbEntity
  8
ADP1DETAIL
100
AcDbPolyline
 90
        2
 70
     0
 43
0.0
 10
-0.2791681376765878
 20
0.3138794378365319
 10
-0.2478545329331672
 20
0.3035032392587111
  0
LWPOLYLINE
  5
DE
330
1C
100
AcDbEntity
  8
ADP1DETAIL
100
AcDbPolyline
 90
        2
 70
     0
 43
0.0
 10
-0.2669880256945012
 20
0.3449277335643468
 10
-0.2793900157723685
 20
0.3143598095088618
  0
LWPOLYLINE
  5
E2
330
1C
100
AcDbEntity
  8
ADP1DETAIL
100
AcDbPolyline
 90
        2
 70
     0
 43
0.0
 10
-0.2991422042540375
 20
0.3567139618425932
 10
-0.2684848994648465
 20
0.3445345939601352
  0
LWPOLYLINE
  5
E6
330
1C
100
AcDbEntity
  8
ADP1DETAIL
100
AcDbPolyline
 90
        2
 70
     0
 43
0.0
 10
-0.2851774012506079
 20
0.3870015182407802
 10
-0.2993357758384967
 20
0.3572064218659996
  0
LWPOLYLINE
  5
EA
330
1C
100
AcDbEntity
  8
ADP1DETAIL
100
AcDbPolyline
 90
        2
 70
     0
 43
0.0
 10
-0.1440827011919188
 20
0.1209574409810616
 10
-0.1111086689595577
 20
0.1199979946340566
  0
LWPOLYLINE
  5
EE
330
1C
100
AcDbEntity
  8
ADP1DETAIL
100
AcDbPolyline
 90
        2
 70
     0
 43
0.0
 10
-0.3008896302505013
 20
0.4300617388623107
 10
-0.3167564818905335
 20
0.401140287342952
  0
LWPOLYLINE
  5
F2
330
1C
100
AcDbEntity
  8
ADP1DETAIL
100
AcDbPolyline
 90
        2
 70
     0
 43
0.0
 10
-0.3144026078637525
 20
0.8818593160715677
 10
-0.3435517662832241
 20
0.8664147732686888
  0
LWPOLYLINE
  5
F6
330
1C
100
AcDbEntity
  8
ADP1DETAIL
100
AcDbPolyline
 90
        2
 70
     0
 43
0.0
 10
-0.3012919704496815
 20
0.9257816102593345
 10
-0.3312898334054557
 20
0.9120580700076352
  0
LWPOLYLINE
  5
FA
330
1C
100
AcDbEntity
  8
ADP1DETAIL
100
AcDbPolyline
 90
        2
 70
     0
 43
0.0
 10
-0.331458096170147
 20
0.9115563983271687
 10
-0.3158019849640405
 20
0.8825203255752347
  0
LWPOLYLINE
  5
FE
330
1C
100
AcDbEntity
  8
ADP1DETAIL
100
AcDbPolyline
 90
        2
 70
     0
 43
0.0
 10
-0.3655916174138154
 20
0.6785287717494084
 10
-0.3422655875442304
 20
0.6552027418798217
  0
LWPOLYLINE
  5
102
330
1C
100
AcDbEntity
  8
ADP1DETAIL
100
AcDbPolyline
 90
        2
 70
     0
 43
0.0
 10
-0.3407726221145637
 20
0.700808117965887
 10
-0.3655743045096447
 20
0.6790576262627795
  0
LWPOLYLINE
  5
106
330
1C
100
AcDbEntity
  8
ADP1DETAIL
100
AcDbPolyline
 90
        2
 70
     0
 43
0.0
 10
-0.364216996009219
 20
0.7257714452391692
 10
-0.3422867181062639
 20
0.7011285913043542
  0
LWPOLYLINE
  5
10A
330
1C
100
AcDbEntity
  8
ADP1DETAIL
100
AcDbPolyline
 90
        2
 70
     0
 43
0.0
 10
-0.3381445617478871
 20
0.7465700020926251
 10
-0.3641689622405453
 20
0.7262983983585554
  0
LWPOLYLINE
  5
10E
330
1C
100
AcDbEntity
  8
ADP1DETAIL
100
AcDbPolyline
 90
        2
 70
     0
 43
0.0
 10
-0.3600977830791434
 20
0.7728542644761573
 10
-0.3396374622613711
 20
0.7469779700933175
  0
LWPOLYLINE
  5
112
330
1C
100
AcDbEntity
  8
ADP1DETAIL
100
AcDbPolyline
 90
        2
 70
     0
 43
0.0
 10
-0.3328601307202339
 20
0.7921016562338266
 10
-0.3600191909770318
 20
0.7733775331590057
  0
LWPOLYLINE
  5
116
330
1C
100
AcDbEntity
  8
ADP1DETAIL
100
AcDbPolyline
 90
        2
 70
     0
 43
0.0
 10
-0.3532479167362341
 20
0.8196179161037889
 10
-0.334326784252732
 20
0.7925957384621678
  0
LWPOLYLINE
  5
11A
330
1C
100
AcDbEntity
  8
ADP1DETAIL
100
AcDbPolyline
 90
        2
 70
     0
 43
0.0
 10
-0.3249372098734549
 20
0.8372490156845815
 10
-0.353139032231482
 20
0.8201357297745131
  0
LWPOLYLINE
  5
11E
330
1C
100
AcDbEntity
  8
ADP1DETAIL
100
AcDbPolyline
 90
        2
 70
     0
 43
0.0
 10
-0.324937209873454
 20
0.8372490156845778
 10
-0.3531390322314802
 20
0.8201357297745095
  0
LWPOLYLINE
  5
122
330
1C
100
AcDbEntity
  8
ADP1DETAIL
100
AcDbPolyline
 90
        2
 70
     0
 43
0.0
 10
-0.3532479167362332
 20
0.8196179161037855
 10
-0.3343267842527293
 20
0.7925957384621646
  0
LWPOLYLINE
  5
126
330
1C
100
AcDbEntity
  8
ADP1DETAIL
100
AcDbPolyline
 90
        2
 70
     0
 43
0.0
 10
-0.3532479167362315
 20
0.8196179161037854
 10
-0.3343267842527293
 20
0.7925957384621661
  0
LWPOLYLINE
  5
12A
330
1C
100
AcDbEntity
  8
ADP1DETAIL
100
AcDbPolyline
 90
        2
 70
     0
 43
0.0
 10
-0.3249372098734531
 20
0.8372490156845813
 10
-0.3531390322314793
 20
0.8201357297745131
  0
LWPOLYLINE
  5
12E
330
1C
100
AcDbEntity
  8
ADP1DETAIL
100
AcDbPolyline
 90
        2
 70
     0
 43
0.0
 10
-0.3532479167362315
 20
0.8196179161037889
 10
-0.3343267842527293
 20
0.7925957384621678
  0
LWPOLYLINE
  5
132
330
1C
100
AcDbEntity
  8
ADP1DETAIL
100
AcDbPolyline
 90
        2
 70
     0
 43
0.0
 10
-0.3436905747599193
 20
0.8659041667276405
 10
-0.3263726537336682
 20
0.8378275403227091
  0
LWPOLYLINE
  5
136
330
1C
100
AcDbEntity
  8
ADP1DETAIL
100
AcDbPolyline
 90
        2
 70
     0
 43
0.0
 10
-0.1106629481821573
 20
1.269519855527508
 10
-0.1116223945291619
 20
1.236545823295147
  0
LWPOLYLINE
  5
13A
330
1C
100
AcDbEntity
  8
ADP1DETAIL
100
AcDbPolyline
 90
        2
 70
     0
 43
0.0
 10
-0.0774257110083951
 20
1.266756187574748
 10
-0.1102663925131893
 20
1.269870184564805
  0
LWPOLYLINE
  5
13E
330
1C
100
AcDbEntity
  8
ADP1DETAIL
100
AcDbPolyline
 90
        2
 70
     0
 43
0.0
 10
-0.0753565502841243
 20
1.300939881783576
 10
-0.0782316428624022
 20
1.268077423238605
  0
LWPOLYLINE
  5
142
330
1C
100
AcDbEntity
  8
ADP1DETAIL
100
AcDbPolyline
 90
        2
 70
     0
 43
0.0
 10
-0.04233623825544
 20
1.296248316050657
 10
-0.0749402957026488
 20
1.301266560458063
  0
LWPOLYLINE
  5
146
330
1C
100
AcDbEntity
  8
ADP1DETAIL
100
AcDbPolyline
 90
        2
 70
     0
 43
0.0
 10
-0.0423362382554426
 20
1.296248316050656
 10
-0.0749402957026524
 20
1.301266560458062
  0
LWPOLYLINE
  5
14A
330
1C
100
AcDbEntity
  8
ADP1DETAIL
100
AcDbPolyline
 90
        2
 70
     0
 43
0.0
 10
-0.0753565502841278
 20
1.300939881783574
 10
-0.0782316428624048
 20
1.268077423238604
  0
LWPOLYLINE
  5
14E
330
1C
100
AcDbEntity
  8
ADP1DETAIL
100
AcDbPolyline
 90
        2
 70
     0
 43
0.0
 10
-0.0753565502841269
 20
1.300939881783574
 10
-0.078231642862403
 20
1.268077423238604
  0
LWPOLYLINE
  5
152
330
1C
100
AcDbEntity
  8
ADP1DETAIL
100
AcDbPolyline
 90
        2
 70
     0
 43
0.0
 10
-0.04233623825544
 20
1.296248316050658
 10
-0.0749402957026497
 20
1.301266560458064
  0
LWPOLYLINE
  5
156
330
1C
100
AcDbEntity
  8
ADP1DETAIL
100
AcDbPolyline
 90
        2
 70
     0
 43
0.0
 10
-0.0753565502841243
 20
1.300939881783576
 10
-0.0782316428624022
 20
1.268077423238606
  0
LWPOLYLINE
  5
15A
330
1C
100
AcDbEntity
  8
ADP1DETAIL
100
AcDbPolyline
 90
        2
 70
     0
 43
0.0
 10
-0.0382829731723247
 20
1.330253865862879
 10
-0.0430639835786799
 20
1.29761417716265
  0
LWPOLYLINE
  5
15E
330
1C
100
AcDbEntity
  8
ADP1DETAIL
100
AcDbPolyline
 90
        2
 70
     0
 43
0.0
 10
-0.0055913165722892
 20
1.323650277123163
 10
-0.0378484281520839
 20
1.33055578879733
  0
LWPOLYLINE
  5
162
330
1C
100
AcDbEntity
  8
ADP1DETAIL
100
AcDbPolyline
 90
        2
 70
     0
 43
0.0
 10
0.0004323379036597
 20
1.357362618522417
 10
-0.0062384129049509
 20
1.32505614204164
  0
LWPOLYLINE
  5
166
330
1C
100
AcDbEntity
  8
ADP1DETAIL
100
AcDbPolyline
 90
        2
 70
     0
 43
0.0
 10
-0.1421693863153237
 20
1.201907331321949
 10
-0.1751495238654241
 20
1.201187702160617
  0
LWPOLYLINE
  5
16A
330
1C
100
AcDbEntity
  8
ADP1DETAIL
100
AcDbPolyline
 90
        2
 70
     0
 43
0.0
 10
-0.1440827011919126
 20
1.236100102517752
 10
-0.1431232548449124
 20
1.20312607028539
  0
LWPOLYLINE
  5
16E
330
1C
100
AcDbEntity
  8
ADP1DETAIL
100
AcDbPolyline
 90
        2
 70
     0
 43
0.0
 10
-0.1716045167661848
 20
1.166770031547198
 10
-0.2044870144288948
 20
1.164133995429216
  0
LWPOLYLINE
  5
172
330
1C
100
AcDbEntity
  8
ADP1DETAIL
100
AcDbPolyline
 90
        2
 70
     0
 43
0.0
 10
-0.1755027274479808
 20
1.20079370461972
 10
-0.1726276348697073
 20
1.167931246074749
  0
LWPOLYLINE
  5
176
330
1C
100
AcDbEntity
  8
ADP1DETAIL
100
AcDbPolyline
 90
        2
 70
     0
 43
0.0
 10
-0.110741003162671
 20
1.235273683722684
 10
-0.1437071862543107
 20
1.236472896515291
  0
LWPOLYLINE
  5
17A
330
1C
100
AcDbEntity
  8
ADP1DETAIL
100
AcDbPolyline
 90
        2
 70
     0
 43
0.0
 10
-0.3165918718023626
 20
0.9564201382015138
 10
-0.3026505457408977
 20
0.9265228679816173
  0
LWPOLYLINE
  5
17E
330
1C
100
AcDbEntity
  8
ADP1DETAIL
100
AcDbPolyline
 90
        2
 70
     0
 43
0.0
 10
-0.2856496598781737
 20
0.9688672791076243
 10
-0.3163947240976075
 20
0.9569111775232322
  0
LWPOLYLINE
  5
182
330
1C
100
AcDbEntity
  8
ADP1DETAIL
100
AcDbPolyline
 90
        2
 70
     0
 43
0.0
 10
-0.2991422042540339
 20
1.000343581656221
 10
-0.2869628363715817
 20
0.9696862768670301
  0
LWPOLYLINE
  5
186
330
1C
100
AcDbEntity
  8
ADP1DETAIL
100
AcDbPolyline
 90
        2
 70
     0
 43
0.0
 10
-0.2675286047767482
 20
1.0109705343515
 10
-0.2989168386946437
 20
1.000822327097562
  0
LWPOLYLINE
  5
18A
330
1C
100
AcDbEntity
  8
ADP1DETAIL
100
AcDbPolyline
 90
        2
 70
     0
 43
0.0
 10
-0.2791681376765851
 20
1.043178105662282
 10
-0.2687919390987679
 20
1.01186450091886
  0
LWPOLYLINE
  5
18E
330
1C
100
AcDbEntity
  8
ADP1DETAIL
100
AcDbPolyline
 90
        2
 70
     0
 43
0.0
 10
-0.246990121059782
 20
1.051948911902691
 10
-0.2789153168282725
 20
1.043642937300215
  0
LWPOLYLINE
  5
192
330
1C
100
AcDbEntity
  8
ADP1DETAIL
100
AcDbPolyline
 90
        2
 70
     0
 43
0.0
 10
-0.2567372579886689
 20
1.084778771749407
 10
-0.2481993384869678
 20
1.052914822378118
  0
LWPOLYLINE
  5
196
330
1C
100
AcDbEntity
  8
ADP1DETAIL
100
AcDbPolyline
 90
        2
 70
     0
 43
0.0
 10
-0.2241037044548708
 20
1.091663753902961
 10
-0.2564578373171589
 20
1.085228116740807
  0
LWPOLYLINE
  5
19A
330
1C
100
AcDbEntity
  8
ADP1DETAIL
100
AcDbPolyline
 90
        2
 70
     0
 43
0.0
 10
-0.2241037044548726
 20
1.091663753902958
 10
-0.2564578373171598
 20
1.085228116740804
  0
LWPOLYLINE
  5
19E
330
1C
100
AcDbEntity
  8
ADP1DETAIL
100
AcDbPolyline
 90
        2
 70
     0
 43
0.0
 10
-0.2567372579886697
 20
1.084778771749404
 10
-0.2481993384869687
 20
1.052914822378115
  0
LWPOLYLINE
  5
1A2
330
1C
100
AcDbEntity
  8
ADP1DETAIL
100
AcDbPolyline
 90
        2
 70
     0
 43
0.0
 10
-0.2567372579886697
 20
1.084778771749404
 10
-0.248199338486967
 20
1.052914822378116
  0
LWPOLYLINE
  5
1A6
330
1C
100
AcDbEntity
  8
ADP1DETAIL
100
AcDbPolyline
 90
        2
 70
     0
 43
0.0
 10
-0.2241037044548708
 20
1.091663753902961
 10
-0.256457837317158
 20
1.085228116740807
  0
LWPOLYLINE
  5
1AA
330
1C
100
AcDbEntity
  8
ADP1DETAIL
100
AcDbPolyline
 90
        2
 70
     0
 43
0.0
 10
-0.256737257988668
 20
1.084778771749407
 10
-0.2481993384869678
 20
1.052914822378118
  0
LWPOLYLINE
  5
1AE
330
1C
100
AcDbEntity
  8
ADP1DETAIL
100
AcDbPolyline
 90
        2
 70
     0
 43
0.0
 10
-0.2319254641868218
 20
1.125004816431936
 10
-0.2252547133782157
 20
1.092698339951158
  0
LWPOLYLINE
  5
1B2
330
1C
100
AcDbEntity
  8
ADP1DETAIL
100
AcDbPolyline
 90
        2
 70
     0
 43
0.0
 10
-0.1989467953512793
 20
1.129980677898417
 10
-0.2316203891632167
 20
1.12543715433559
  0
LWPOLYLINE
  5
1B6
330
1C
100
AcDbEntity
  8
ADP1DETAIL
100
AcDbPolyline
 90
        2
 70
     0
 43
0.0
 10
-0.2048167115272843
 20
1.16372012750792
 10
-0.2000357011209335
 20
1.13108043880769
  0
LWPOLYLINE
  5
1BA
330
1C
100
AcDbEntity
  8
ADP1DETAIL
100
AcDbPolyline
 90
        2
 70
     0
 43
0.0
 10
0.8203285227394747
 20
1.372427275395371
 10
0.8120225481369987
 20
1.404352471163861
  0
LWPOLYLINE
  5
1BE
330
1C
100
AcDbEntity
  8
ADP1DETAIL
100
AcDbPolyline
 90
        2
 70
     0
 43
0.0
 10
0.082259048673313
 20
1.404605292012178
 10
0.0718828500954922
 20
1.373291687268757
  0
ARC
  5
1C2
330
1C
100
AcDbEntity
  8
ADP1DETAIL
100
AcDbCircle
 10
0.0435176267529283
 20
0.0421106266896785
 30
0.0
 40
0.06
100
AcDbArc
 50
332.1988658577534
 51
56.58466916873241
  0
LINE
  5
1C3
330
1C
100
AcDbEntity
  8
ADP1DETAIL
100
AcDbLine
 10
0.096591931341556
 20
0.0141263776836107
 30
0.0
 11
0.0970566896181096
 21
0.0150078278995713
 31
0.0
  0
LWPOLYLINE
  5
1C4
330
1C
100
AcDbEntity
  8
ADP1DETAIL
100
AcDbPolyline
 90
        2
 70
     0
 43
0.0
 10
0.040658382586189
 20
1.382174412324263
 10
0.0321204630844845
 20
1.350310462952975
  0
LWPOLYLINE
  5
1C8
330
1C
100
AcDbEntity
  8
ADP1DETAIL
100
AcDbPolyline
 90
        2
 70
     0
 43
0.0
 10
0.0723623600389942
 20
1.371820205006943
 10
0.0411250404817603
 20
1.382423846166123
  0
LWPOLYLINE
  5
1CC
330
1C
100
AcDbEntity
  8
ADP1DETAIL
100
AcDbPolyline
 90
        2
 70
     0
 43
0.0
 10
1.258033761181591
 20
0.6312860982596389
 10
1.236103483278634
 20
0.6559289521944541
  0
LWPOLYLINE
  5
1D0
330
1C
100
AcDbEntity
  8
ADP1DETAIL
100
AcDbPolyline
 90
        2
 70
     0
 43
0.0
 10
1.065421281938558
 20
0.1902875119516087
 10
1.098303779601266
 20
0.1929235480695914
  0
LWPOLYLINE
  5
1D4
330
1C
100
AcDbEntity
  8
ADP1DETAIL
100
AcDbPolyline
 90
        2
 70
     0
 43
0.0
 10
1.037899466364285
 20
0.1209574409810559
 10
1.036940020017285
 20
0.153931473213416
  0
LWPOLYLINE
  5
1D8
330
1C
100
AcDbEntity
  8
ADP1DETAIL
100
AcDbPolyline
 90
        2
 70
     0
 43
0.0
 10
1.004557768335043
 20
0.1217838597761229
 10
1.037523951426683
 20
0.1205846469835161
  0
LWPOLYLINE
  5
1DC
330
1C
100
AcDbEntity
  8
ADP1DETAIL
100
AcDbPolyline
 90
        2
 70
     0
 43
0.0
 10
1.004479713354529
 20
0.0875376879712993
 10
1.005439159701534
 20
0.1205117202036603
  0
LWPOLYLINE
  5
1E0
330
1C
100
AcDbEntity
  8
ADP1DETAIL
100
AcDbPolyline
 90
        2
 70
     0
 43
0.0
 10
0.9712424761807678
 20
0.0903013559240593
 10
1.004083157685561
 20
0.0871873589340022
  0
LWPOLYLINE
  5
1E4
330
1C
100
AcDbEntity
  8
ADP1DETAIL
100
AcDbPolyline
 90
        2
 70
     0
 43
0.0
 10
0.9691733154564978
 20
0.056117661715231
 10
0.9720484080347748
 20
0.0889801202602017
  0
LWPOLYLINE
  5
1E8
330
1C
100
AcDbEntity
  8
ADP1DETAIL
100
AcDbPolyline
 90
        2
 70
     0
 43
0.0
 10
0.9691733154564978
 20
0.0561176617152337
 10
0.9720484080347748
 20
0.0889801202602048
  0
LWPOLYLINE
  5
1EC
330
1C
100
AcDbEntity
  8
ADP1DETAIL
100
AcDbPolyline
 90
        2
 70
     0
 43
0.0
 10
0.9691733154564978
 20
0.0561176617152346
 10
0.9720484080347731
 20
0.0889801202602034
  0
LWPOLYLINE
  5
1F0
330
1C
100
AcDbEntity
  8
ADP1DETAIL
100
AcDbPolyline
 90
        2
 70
     0
 43
0.0
 10
0.9691733154564943
 20
0.0561176617152319
 10
0.9720484080347731
 20
0.0889801202602025
  0
LWPOLYLINE
  5
1F4
330
1C
100
AcDbEntity
  8
ADP1DETAIL
100
AcDbPolyline
 90
        2
 70
     0
 43
0.0
 10
1.069319492620353
 20
0.1562638388790876
 10
1.066444400042078
 20
0.1891262974240586
  0
LWPOLYLINE
  5
1F8
330
1C
100
AcDbEntity
  8
ADP1DETAIL
100
AcDbPolyline
 90
        2
 70
     0
 43
0.0
 10
1.035986151487696
 20
0.1551502121768573
 10
1.068966289037797
 20
0.1558698413381898
  0
LWPOLYLINE
  5
1FC
330
1C
100
AcDbEntity
  8
ADP1DETAIL
100
AcDbPolyline
 90
        2
 70
     0
 43
0.0
 10
0.93615300342781
 20
0.0608092274481504
 10
0.9687570608750206
 20
0.0557909830407444
  0
LWPOLYLINE
  5
200
330
1C
100
AcDbEntity
  8
ADP1DETAIL
100
AcDbPolyline
 90
        2
 70
     0
 43
0.0
 10
0.9361530034278136
 20
0.0608092274481527
 10
0.9687570608750224
 20
0.0557909830407466
  0
LWPOLYLINE
  5
204
330
1C
100
AcDbEntity
  8
ADP1DETAIL
100
AcDbPolyline
 90
        2
 70
     0
 43
0.0
 10
0.9361530034278118
 20
0.0608092274481496
 10
0.9687570608750224
 20
0.0557909830407435
  0
LINE
  5
208
330
1C
100
AcDbEntity
  8
ADPDIM
100
AcDbLine
 10
0.7982148215709808
 20
0.014672895687228
 30
0.0
 11
0.7977584887816765
 21
0.0155352174952053
 31
0.0
  0
ARC
  5
209
330
1C
100
AcDbEntity
  8
ADP1DETAIL
100
AcDbCircle
 10
0.851246940850622
 20
0.0427370066603188
 30
0.0
 40
0.06
100
AcDbArc
 50
123.5041945653647
 51
207.8873825072968
  0
ARC
  5
20A
330
1C
100
AcDbEntity
  8
ADP1DETAIL
100
AcDbCircle
 10
0.8507906080613167
 20
0.0435993284682961
 30
0.0
 40
0.06
100
AcDbArc
 50
207.8873825072969
 51
302.4606713270785
  0
LWPOLYLINE
  5
20B
330
1C
100
AcDbEntity
  8
ADP1DETAIL
100
AcDbPolyline
 90
        2
 70
     0
 43
0.0
 10
0.8933844272687112
 20
-0.0003050750236091
 10
0.9000551780773209
 20
0.0320014014571681
  0
LWPOLYLINE
  5
20F
330
1C
100
AcDbEntity
  8
ADP1DETAIL
100
AcDbPolyline
 90
        2
 70
     0
 43
0.0
 10
0.8994080817446592
 20
0.0334072663756455
 10
0.9316651933244548
 20
0.0265017547014774
  0
LINE
  5
213
330
1C
100
AcDbEntity
  8
ADP1DETAIL
100
AcDbLine
 10
0.8829938419862441
 20
-0.0070262749826893
 30
0.0
 11
0.8933844272687112
 21
-0.0003050750236091
 31
0.0
  0
LWPOLYLINE
  5
214
330
1C
100
AcDbEntity
  8
ADP1DETAIL
100
AcDbPolyline
 90
        2
 70
     0
 43
0.0
 10
0.9320997383446956
 20
0.0268036776359284
 10
0.9368807487510508
 20
0.0594433663361582
  0
LWPOLYLINE
  5
218
330
1C
100
AcDbEntity
  8
ADP1DETAIL
100
AcDbPolyline
 90
        2
 70
     0
 43
0.0
 10
1.253914548251513
 20
0.5842032790226504
 10
1.233454227433741
 20
0.6100795734054905
  0
LWPOLYLINE
  5
21C
330
1C
100
AcDbEntity
  8
ADP1DETAIL
100
AcDbPolyline
 90
        2
 70
     0
 43
0.0
 10
1.226676895892603
 20
0.5649558872649814
 10
1.253835956149401
 20
0.5836800103398026
  0
LWPOLYLINE
  5
220
330
1C
100
AcDbEntity
  8
ADP1DETAIL
100
AcDbPolyline
 90
        2
 70
     0
 43
0.0
 10
1.247064681908605
 20
0.5374396273950191
 10
1.228143549425102
 20
0.5644618050366402
  0
LWPOLYLINE
  5
224
330
1C
100
AcDbEntity
  8
ADP1DETAIL
100
AcDbPolyline
 90
        2
 70
     0
 43
0.0
 10
1.218753975045826
 20
0.5198085278142269
 10
1.246955797403852
 20
0.5369218137242951
  0
LWPOLYLINE
  5
228
330
1C
100
AcDbEntity
  8
ADP1DETAIL
100
AcDbPolyline
 90
        2
 70
     0
 43
0.0
 10
1.218753975045824
 20
0.5198085278142304
 10
1.246955797403851
 20
0.5369218137242986
  0
LWPOLYLINE
  5
22C
330
1C
100
AcDbEntity
  8
ADP1DETAIL
100
AcDbPolyline
 90
        2
 70
     0
 43
0.0
 10
1.247064681908605
 20
0.5374396273950226
 10
1.228143549425102
 20
0.5644618050366437
  0
LWPOLYLINE
  5
230
330
1C
100
AcDbEntity
  8
ADP1DETAIL
100
AcDbPolyline
 90
        2
 70
     0
 43
0.0
 10
1.247064681908604
 20
0.5374396273950231
 10
1.228143549425102
 20
0.5644618050366419
  0
LWPOLYLINE
  5
234
330
1C
100
AcDbEntity
  8
ADP1DETAIL
100
AcDbPolyline
 90
        2
 70
     0
 43
0.0
 10
1.218753975045824
 20
0.5198085278142269
 10
1.246955797403851
 20
0.5369218137242951
  0
LWPOLYLINE
  5
238
330
1C
100
AcDbEntity
  8
ADP1DETAIL
100
AcDbPolyline
 90
        2
 70
     0
 43
0.0
 10
1.247064681908604
 20
0.5374396273950195
 10
1.228143549425102
 20
0.5644618050366406
  0
LWPOLYLINE
  5
23C
330
1C
100
AcDbEntity
  8
ADP1DETAIL
100
AcDbPolyline
 90
        2
 70
     0
 43
0.0
 10
1.237507339932291
 20
0.4911533767711678
 10
1.22018941890604
 20
0.5192300031760993
  0
LWPOLYLINE
  5
240
330
1C
100
AcDbEntity
  8
ADP1DETAIL
100
AcDbPolyline
 90
        2
 70
     0
 43
0.0
 10
1.208219373036124
 20
0.4751982274272409
 10
1.237368531455595
 20
0.4906427702301195
  0
LWPOLYLINE
  5
244
330
1C
100
AcDbEntity
  8
ADP1DETAIL
100
AcDbPolyline
 90
        2
 70
     0
 43
0.0
 10
1.195108735622053
 20
0.431275933239474
 10
1.225106598577827
 20
0.4449994734911731
  0
LWPOLYLINE
  5
248
330
1C
100
AcDbEntity
  8
ADP1DETAIL
100
AcDbPolyline
 90
        2
 70
     0
 43
0.0
 10
1.225274861342517
 20
0.4455011451716398
 10
1.209618750136412
 20
0.4745372179235737
  0
LWPOLYLINE
  5
24C
330
1C
100
AcDbEntity
  8
ADP1DETAIL
100
AcDbPolyline
 90
        2
 70
     0
 43
0.0
 10
1.231961326920258
 20
0.6104875414061826
 10
1.257985727412915
 20
0.6307591451402526
  0
LWPOLYLINE
  5
250
330
1C
100
AcDbEntity
  8
ADP1DETAIL
100
AcDbPolyline
 90
        2
 70
     0
 43
0.0
 10
1.179466425050545
 20
0.3881902643911839
 10
1.21021148926998
 20
0.400146365975576
  0
LWPOLYLINE
  5
254
330
1C
100
AcDbEntity
  8
ADP1DETAIL
100
AcDbPolyline
 90
        2
 70
     0
 43
0.0
 10
1.192958969426406
 20
0.3567139618425865
 10
1.180779601543953
 20
0.3873712666317783
  0
LWPOLYLINE
  5
258
330
1C
100
AcDbEntity
  8
ADP1DETAIL
100
AcDbPolyline
 90
        2
 70
     0
 43
0.0
 10
1.16134536994912
 20
0.3460870091473081
 10
1.192733603867015
 20
0.3562352164012457
  0
LWPOLYLINE
  5
25C
330
1C
100
AcDbEntity
  8
ADP1DETAIL
100
AcDbPolyline
 90
        2
 70
     0
 43
0.0
 10
1.172984902848956
 20
0.3138794378365257
 10
1.162608704271139
 20
0.3451930425799476
  0
LWPOLYLINE
  5
260
330
1C
100
AcDbEntity
  8
ADP1DETAIL
100
AcDbPolyline
 90
        2
 70
     0
 43
0.0
 10
1.140806886232153
 20
0.3051086315961178
 10
1.172732082000644
 20
0.313414606198593
  0
LWPOLYLINE
  5
264
330
1C
100
AcDbEntity
  8
ADP1DETAIL
100
AcDbPolyline
 90
        2
 70
     0
 43
0.0
 10
1.15055402316104
 20
0.2722787717494008
 10
1.14201610365934
 20
0.3041427211206895
  0
LWPOLYLINE
  5
268
330
1C
100
AcDbEntity
  8
ADP1DETAIL
100
AcDbPolyline
 90
        2
 70
     0
 43
0.0
 10
1.117920469627241
 20
0.2653937895958474
 10
1.150274602489529
 20
0.2718294267580004
  0
LWPOLYLINE
  5
26C
330
1C
100
AcDbEntity
  8
ADP1DETAIL
100
AcDbPolyline
 90
        2
 70
     0
 43
0.0
 10
1.117920469627243
 20
0.26539378959585
 10
1.150274602489531
 20
0.271829426758003
  0
LWPOLYLINE
  5
270
330
1C
100
AcDbEntity
  8
ADP1DETAIL
100
AcDbPolyline
 90
        2
 70
     0
 43
0.0
 10
1.150554023161042
 20
0.2722787717494031
 10
1.14201610365934
 20
0.3041427211206922
  0
LWPOLYLINE
  5
274
330
1C
100
AcDbEntity
  8
ADP1DETAIL
100
AcDbPolyline
 90
        2
 70
     0
 43
0.0
 10
1.15055402316104
 20
0.272278771749404
 10
1.14201610365934
 20
0.3041427211206908
  0
LWPOLYLINE
  5
278
330
1C
100
AcDbEntity
  8
ADP1DETAIL
100
AcDbPolyline
 90
        2
 70
     0
 43
0.0
 10
1.117920469627241
 20
0.2653937895958469
 10
1.150274602489529
 20
0.2718294267580004
  0
LWPOLYLINE
  5
27C
330
1C
100
AcDbEntity
  8
ADP1DETAIL
100
AcDbPolyline
 90
        2
 70
     0
 43
0.0
 10
1.15055402316104
 20
0.2722787717494004
 10
1.142016103659338
 20
0.3041427211206895
  0
LWPOLYLINE
  5
280
330
1C
100
AcDbEntity
  8
ADP1DETAIL
100
AcDbPolyline
 90
        2
 70
     0
 43
0.0
 10
1.125742229359193
 20
0.2320527270668706
 10
1.119071478550589
 20
0.2643592035476483
  0
LWPOLYLINE
  5
284
330
1C
100
AcDbEntity
  8
ADP1DETAIL
100
AcDbPolyline
 90
        2
 70
     0
 43
0.0
 10
1.092763560523652
 20
0.2270768656003899
 10
1.125437154335589
 20
0.2316203891632167
  0
LWPOLYLINE
  5
288
330
1C
100
AcDbEntity
  8
ADP1DETAIL
100
AcDbPolyline
 90
        2
 70
     0
 43
0.0
 10
1.098633476699655
 20
0.1933374159908872
 10
1.093852466293306
 20
0.225977104691117
  0
LWPOLYLINE
  5
28C
330
1C
100
AcDbEntity
  8
ADP1DETAIL
100
AcDbPolyline
 90
        2
 70
     0
 43
0.0
 10
1.210408636974735
 20
0.4006374052972946
 10
1.19646731091327
 20
0.4305346755171909
  0
LWPOLYLINE
  5
290
330
1C
100
AcDbEntity
  8
ADP1DETAIL
100
AcDbPolyline
 90
        2
 70
     0
 43
0.0
 10
1.09863347669966
 20
1.163720127507913
 10
1.065993787999433
 20
1.168501137914268
  0
LWPOLYLINE
  5
294
330
1C
100
AcDbEntity
  8
ADP1DETAIL
100
AcDbPolyline
 90
        2
 70
     0
 43
0.0
 10
0.9691733154565032
 20
1.30093988178357
 10
0.9363108569115325
 20
1.298064789205297
  0
LWPOLYLINE
  5
298
330
1C
100
AcDbEntity
  8
ADP1DETAIL
100
AcDbPolyline
 90
        2
 70
     0
 43
0.0
 10
0.9702869421587347
 20
1.267606540650914
 10
0.9695673129974018
 20
1.300586678201014
  0
LWPOLYLINE
  5
29C
330
1C
100
AcDbEntity
  8
ADP1DETAIL
100
AcDbPolyline
 90
        2
 70
     0
 43
0.0
 10
0.9702869421587312
 20
1.267606540650914
 10
0.9695673129973982
 20
1.300586678201015
  0
LWPOLYLINE
  5
2A0
330
1C
100
AcDbEntity
  8
ADP1DETAIL
100
AcDbPolyline
 90
        2
 70
     0
 43
0.0
 10
0.9691733154565014
 20
1.300939881783572
 10
0.936310856911529
 20
1.298064789205298
  0
LWPOLYLINE
  5
2A4
330
1C
100
AcDbEntity
  8
ADP1DETAIL
100
AcDbPolyline
 90
        2
 70
     0
 43
0.0
 10
0.9691733154564996
 20
1.300939881783571
 10
0.9363108569115308
 20
1.298064789205297
  0
LWPOLYLINE
  5
2A8
330
1C
100
AcDbEntity
  8
ADP1DETAIL
100
AcDbPolyline
 90
        2
 70
     0
 43
0.0
 10
0.970286942158733
 20
1.267606540650912
 10
0.9695673129974018
 20
1.300586678201013
  0
LWPOLYLINE
  5
2AC
330
1C
100
AcDbEntity
  8
ADP1DETAIL
100
AcDbPolyline
 90
        2
 70
     0
 43
0.0
 10
0.9691733154565032
 20
1.300939881783569
 10
0.9363108569115325
 20
1.298064789205296
  0
LWPOLYLINE
  5
2B0
330
1C
100
AcDbEntity
  8
ADP1DETAIL
100
AcDbPolyline
 90
        2
 70
     0
 43
0.0
 10
1.004479713354536
 20
1.269519855527502
 10
0.9715056811221742
 20
1.268560409180501
  0
LWPOLYLINE
  5
2B4
330
1C
100
AcDbEntity
  8
ADP1DETAIL
100
AcDbPolyline
 90
        2
 70
     0
 43
0.0
 10
1.003653294559468
 20
1.236178157498259
 10
1.004852507352074
 20
1.269144340589899
  0
LWPOLYLINE
  5
2B8
330
1C
100
AcDbEntity
  8
ADP1DETAIL
100
AcDbPolyline
 90
        2
 70
     0
 43
0.0
 10
1.037899466364292
 20
1.236100102517745
 10
1.00492543413193
 20
1.23705954886475
  0
LWPOLYLINE
  5
2BC
330
1C
100
AcDbEntity
  8
ADP1DETAIL
100
AcDbPolyline
 90
        2
 70
     0
 43
0.0
 10
1.035135798411531
 20
1.202862865343985
 10
1.03824979540159
 20
1.235703546848779
  0
LWPOLYLINE
  5
2C0
330
1C
100
AcDbEntity
  8
ADP1DETAIL
100
AcDbPolyline
 90
        2
 70
     0
 43
0.0
 10
1.069319492620358
 20
1.200793704619713
 10
1.036457034075388
 20
1.20366879719799
  0
LWPOLYLINE
  5
2C4
330
1C
100
AcDbEntity
  8
ADP1DETAIL
100
AcDbPolyline
 90
        2
 70
     0
 43
0.0
 10
1.064627926887441
 20
1.167773392591028
 10
1.069646171294847
 20
1.200377450038238
  0
LWPOLYLINE
  5
2C8
330
1C
100
AcDbEntity
  8
ADP1DETAIL
100
AcDbPolyline
 90
        2
 70
     0
 43
0.0
 10
0.8531583825861916
 20
1.382174412324257
 10
0.821294433214903
 20
1.373636492822557
  0
LWPOLYLINE
  5
2CC
330
1C
100
AcDbEntity
  8
ADP1DETAIL
100
AcDbPolyline
 90
        2
 70
     0
 43
0.0
 10
0.8600433647397442
 20
1.349540858790459
 10
0.8536077275775912
 20
1.381894991652746
  0
LWPOLYLINE
  5
2D0
330
1C
100
AcDbEntity
  8
ADP1DETAIL
100
AcDbPolyline
 90
        2
 70
     0
 43
0.0
 10
0.8933844272687201
 20
1.357362618522411
 10
0.8610779507879424
 20
1.350691867713806
  0
LWPOLYLINE
  5
2D4
330
1C
100
AcDbEntity
  8
ADP1DETAIL
100
AcDbPolyline
 90
        2
 70
     0
 43
0.0
 10
0.8983602887352013
 20
1.324383949686869
 10
0.8938167651723745
 20
1.357057543498807
  0
LWPOLYLINE
  5
2D8
330
1C
100
AcDbEntity
  8
ADP1DETAIL
100
AcDbPolyline
 90
        2
 70
     0
 43
0.0
 10
0.9320997383447044
 20
1.330253865862874
 10
0.8994600496444737
 20
1.325472855456523
  0
LWPOLYLINE
  5
2DC
330
1C
100
AcDbEntity
  8
ADP1DETAIL
100
AcDbPolyline
 90
        2
 70
     0
 43
0.0
 10
0.9351496423839815
 20
1.297041671101774
 10
0.9325136062659993
 20
1.329924168764484
  0
LWPOLYLINE
  5
2E0
330
1C
100
AcDbEntity
  8
ADP1DETAIL
100
AcDbPolyline
 90
        2
 70
     0
 43
0.0
 10
1.178994166422979
 20
0.9700560252580272
 10
1.193152541010869
 20
0.9998511216328076
  0
LWPOLYLINE
  5
2E4
330
1C
100
AcDbEntity
  8
ADP1DETAIL
100
AcDbPolyline
 90
        2
 70
     0
 43
0.0
 10
1.210408636974738
 20
0.9564201382015056
 10
1.180511366754844
 20
0.9703614642629743
  0
LWPOLYLINE
  5
2E8
330
1C
100
AcDbEntity
  8
ADP1DETAIL
100
AcDbPolyline
 90
        2
 70
     0
 43
0.0
 10
1.194706395422873
 20
0.9269958046364967
 10
1.210573247062905
 20
0.955917256155855
  0
LWPOLYLINE
  5
2EC
330
1C
100
AcDbEntity
  8
ADP1DETAIL
100
AcDbPolyline
 90
        2
 70
     0
 43
0.0
 10
1.225274861342521
 20
0.9115563983271607
 10
1.196238788590589
 20
0.9272125095332706
  0
LWPOLYLINE
  5
2F0
330
1C
100
AcDbEntity
  8
ADP1DETAIL
100
AcDbPolyline
 90
        2
 70
     0
 43
0.0
 10
1.207888312657207
 20
0.8830948502260618
 10
1.225409952945966
 20
0.9110447958529267
  0
LWPOLYLINE
  5
2F4
330
1C
100
AcDbEntity
  8
ADP1DETAIL
100
AcDbPolyline
 90
        2
 70
     0
 43
0.0
 10
1.237507339932294
 20
0.8659041667276328
 10
1.209430713527364
 20
0.8832220877538869
  0
LWPOLYLINE
  5
2F8
330
1C
100
AcDbEntity
  8
ADP1DETAIL
100
AcDbPolyline
 90
        2
 70
     0
 43
0.0
 10
1.218495314690697
 20
0.8385017089599264
 10
1.237612455943793
 20
0.8653855749256432
  0
LWPOLYLINE
  5
2FC
330
1C
100
AcDbEntity
  8
ADP1DETAIL
100
AcDbPolyline
 90
        2
 70
     0
 43
0.0
 10
1.247064681908605
 20
0.8196179161037806
 10
1.220042504266988
 20
0.8385390485872864
  0
LWPOLYLINE
  5
300
330
1C
100
AcDbEntity
  8
ADP1DETAIL
100
AcDbPolyline
 90
        2
 70
     0
 43
0.0
 10
1.226491510786031
 20
0.7933672699125101
 10
1.24713946664885
 20
0.8190940897245377
  0
LWPOLYLINE
  5
304
330
1C
100
AcDbEntity
  8
ADP1DETAIL
100
AcDbPolyline
 90
        2
 70
     0
 43
0.0
 10
1.226491510786029
 20
0.7933672699125135
 10
1.247139466648848
 20
0.8190940897245411
  0
LWPOLYLINE
  5
308
330
1C
100
AcDbEntity
  8
ADP1DETAIL
100
AcDbPolyline
 90
        2
 70
     0
 43
0.0
 10
1.247064681908605
 20
0.8196179161037841
 10
1.220042504266986
 20
0.8385390485872898
  0
LWPOLYLINE
  5
30C
330
1C
100
AcDbEntity
  8
ADP1DETAIL
100
AcDbPolyline
 90
        2
 70
     0
 43
0.0
 10
1.247064681908604
 20
0.8196179161037839
 10
1.220042504266986
 20
0.838539048587288
  0
LWPOLYLINE
  5
310
330
1C
100
AcDbEntity
  8
ADP1DETAIL
100
AcDbPolyline
 90
        2
 70
     0
 43
0.0
 10
1.226491510786031
 20
0.7933672699125101
 10
1.247139466648848
 20
0.8190940897245377
  0
LWPOLYLINE
  5
314
330
1C
100
AcDbEntity
  8
ADP1DETAIL
100
AcDbPolyline
 90
        2
 70
     0
 43
0.0
 10
1.247064681908605
 20
0.8196179161037806
 10
1.220042504266986
 20
0.8385390485872862
  0
LWPOLYLINE
  5
318
330
1C
100
AcDbEntity
  8
ADP1DETAIL
100
AcDbPolyline
 90
        2
 70
     0
 43
0.0
 10
1.253914548251515
 20
0.7728542644761493
 10
1.228038253868676
 20
0.7933145852939252
  0
LWPOLYLINE
  5
31C
330
1C
100
AcDbEntity
  8
ADP1DETAIL
100
AcDbPolyline
 90
        2
 70
     0
 43
0.0
 10
1.231849844346756
 20
0.7478442537385794
 10
1.253958748672612
 20
0.7723269759823071
  0
LWPOLYLINE
  5
320
330
1C
100
AcDbEntity
  8
ADP1DETAIL
100
AcDbPolyline
 90
        2
 70
     0
 43
0.0
 10
1.258033761181591
 20
0.7257714452391613
 10
1.233390907246779
 20
0.7477017231421217
  0
LWPOLYLINE
  5
324
330
1C
100
AcDbEntity
  8
ADP1DETAIL
100
AcDbPolyline
 90
        2
 70
     0
 43
0.0
 10
1.234552184468247
 20
0.7020866959148958
 10
1.258047227723313
 20
0.7252424788080737
  0
LWPOLYLINE
  5
328
330
1C
100
AcDbEntity
  8
ADP1DETAIL
100
AcDbPolyline
 90
        2
 70
     0
 43
0.0
 10
1.259408382586185
 20
0.6785287717493996
 10
1.236082352716602
 20
0.7018548016189863
  0
LWPOLYLINE
  5
32C
330
1C
100
AcDbEntity
  8
ADP1DETAIL
100
AcDbPolyline
 90
        2
 70
     0
 43
0.0
 10
1.234589387286934
 20
0.656249425532921
 10
1.259391069682015
 20
0.6779999172360285
  0
LWPOLYLINE
  5
330
330
1C
100
AcDbEntity
  8
ADP1DETAIL
100
AcDbPolyline
 90
        2
 70
     0
 43
0.0
 10
1.1257422293592
 20
1.125004816431929
 10
1.093435752878422
 20
1.131675567240539
  0
LWPOLYLINE
  5
334
330
1C
100
AcDbEntity
  8
ADP1DETAIL
100
AcDbPolyline
 90
        2
 70
     0
 43
0.0
 10
1.117248962066662
 20
1.092752433478176
 10
1.126018374941974
 20
1.124553451335719
  0
LWPOLYLINE
  5
338
330
1C
100
AcDbEntity
  8
ADP1DETAIL
100
AcDbPolyline
 90
        2
 70
     0
 43
0.0
 10
1.150554023161046
 20
1.0847787717494
 10
1.118690073789757
 20
1.093316691251105
  0
LWPOLYLINE
  5
33C
330
1C
100
AcDbEntity
  8
ADP1DETAIL
100
AcDbPolyline
 90
        2
 70
     0
 43
0.0
 10
1.140199815843725
 20
1.053074794296594
 10
1.150803457002906
 20
1.084312113853829
  0
LWPOLYLINE
  5
340
330
1C
100
AcDbEntity
  8
ADP1DETAIL
100
AcDbPolyline
 90
        2
 70
     0
 43
0.0
 10
1.140199815843724
 20
1.053074794296598
 10
1.150803457002904
 20
1.084312113853832
  0
LWPOLYLINE
  5
344
330
1C
100
AcDbEntity
  8
ADP1DETAIL
100
AcDbPolyline
 90
        2
 70
     0
 43
0.0
 10
1.150554023161042
 20
1.084778771749403
 10
1.118690073789755
 20
1.093316691251108
  0
LWPOLYLINE
  5
348
330
1C
100
AcDbEntity
  8
ADP1DETAIL
100
AcDbPolyline
 90
        2
 70
     0
 43
0.0
 10
1.150554023161042
 20
1.084778771749403
 10
1.118690073789755
 20
1.093316691251105
  0
LWPOLYLINE
  5
34C
330
1C
100
AcDbEntity
  8
ADP1DETAIL
100
AcDbPolyline
 90
        2
 70
     0
 43
0.0
 10
1.140199815843725
 20
1.053074794296595
 10
1.150803457002906
 20
1.084312113853829
  0
LWPOLYLINE
  5
350
330
1C
100
AcDbEntity
  8
ADP1DETAIL
100
AcDbPolyline
 90
        2
 70
     0
 43
0.0
 10
1.150554023161044
 20
1.084778771749399
 10
1.118690073789757
 20
1.093316691251105
  0
LWPOLYLINE
  5
354
330
1C
100
AcDbEntity
  8
ADP1DETAIL
100
AcDbPolyline
 90
        2
 70
     0
 43
0.0
 10
1.172984902848959
 20
1.043178105662275
 10
1.141671298105539
 20
1.053554304240096
  0
LWPOLYLINE
  5
358
330
1C
100
AcDbEntity
  8
ADP1DETAIL
100
AcDbPolyline
 90
        2
 70
     0
 43
0.0
 10
1.160804790866874
 20
1.012129809934461
 10
1.173206780944742
 20
1.042697733989946
  0
LWPOLYLINE
  5
35C
330
1C
100
AcDbEntity
  8
ADP1DETAIL
100
AcDbPolyline
 90
        2
 70
     0
 43
0.0
 10
1.19295896942641
 20
1.000343581656214
 10
1.162301664637219
 20
1.012522949538672
  0
LWPOLYLINE
  5
360
330
1C
100
AcDbEntity
  8
ADP1DETAIL
100
AcDbPolyline
 90
        2
 70
     0
 43
0.0
 10
1.092029887959945
 20
1.131028470907878
 10
1.098935399634113
 20
1.163285582487673
  0
LWPOLYLINE
  5
364
330
1C
100
AcDbEntity
  8
ADP1DETAIL
100
AcDbPolyline
 90
        2
 70
     0
 43
0.0
 10
0.7372468899444052
 20
1.411086814213765
 10
0.7252907883600131
 20
1.441831878433199
  0
LWPOLYLINE
  5
368
330
1C
100
AcDbEntity
  8
ADP1DETAIL
100
AcDbPolyline
 90
        2
 70
     0
 43
0.0
 10
0.7372468899444078
 20
1.411086814213764
 10
0.7252907883600166
 20
1.441831878433198
  0
LWPOLYLINE
  5
36C
330
1C
100
AcDbEntity
  8
ADP1DETAIL
100
AcDbPolyline
 90
        2
 70
     0
 43
0.0
 10
0.7372468899444061
 20
1.411086814213764
 10
0.725290788360014
 20
1.441831878433199
  0
LWPOLYLINE
  5
370
330
1C
100
AcDbEntity
  8
ADP1DETAIL
100
AcDbPolyline
 90
        2
 70
     0
 43
0.0
 10
0.3996657090964275
 20
1.489654150344809
 10
0.377735431193468
 20
1.465011296409997
  0
LWPOLYLINE
  5
374
330
1C
100
AcDbEntity
  8
ADP1DETAIL
100
AcDbPolyline
 90
        2
 70
     0
 43
0.0
 10
0.2595329876079573
 20
1.469127729095511
 10
0.2422150665817018
 20
1.441051102690582
  0
LWPOLYLINE
  5
378
330
1C
100
AcDbEntity
  8
ADP1DETAIL
100
AcDbPolyline
 90
        2
 70
     0
 43
0.0
 10
0.2869354453756632
 20
1.450115703853915
 10
0.2600515794099456
 20
1.46923284510701
  0
LWPOLYLINE
  5
37C
330
1C
100
AcDbEntity
  8
ADP1DETAIL
100
AcDbPolyline
 90
        2
 70
     0
 43
0.0
 10
0.305819238231809
 20
1.478685071071823
 10
0.2868981057483033
 20
1.451662893430204
  0
LWPOLYLINE
  5
380
330
1C
100
AcDbEntity
  8
ADP1DETAIL
100
AcDbPolyline
 90
        2
 70
     0
 43
0.0
 10
0.3320698844230794
 20
1.458111899949249
 10
0.3063430646110516
 20
1.478759855812066
  0
LWPOLYLINE
  5
384
330
1C
100
AcDbEntity
  8
ADP1DETAIL
100
AcDbPolyline
 90
        2
 70
     0
 43
0.0
 10
0.3525828898594394
 20
1.485534937414732
 10
0.3321225690416636
 20
1.459658643031895
  0
LWPOLYLINE
  5
388
330
1C
100
AcDbEntity
  8
ADP1DETAIL
100
AcDbPolyline
 90
        2
 70
     0
 43
0.0
 10
0.3775929005970093
 20
1.463470233509975
 10
0.3531101783532815
 20
1.485579137835832
  0
LWPOLYLINE
  5
38C
330
1C
100
AcDbEntity
  8
ADP1DETAIL
100
AcDbPolyline
 90
        2
 70
     0
 43
0.0
 10
0.1690170161340827
 20
1.442029026137957
 10
0.1550756900726142
 20
1.412131755918062
  0
LWPOLYLINE
  5
390
330
1C
100
AcDbEntity
  8
ADP1DETAIL
100
AcDbPolyline
 90
        2
 70
     0
 43
0.0
 10
0.1984413496990918
 20
1.426326784586092
 10
0.1695198981797326
 20
1.442193636226125
  0
LWPOLYLINE
  5
394
330
1C
100
AcDbEntity
  8
ADP1DETAIL
100
AcDbPolyline
 90
        2
 70
     0
 43
0.0
 10
0.1984413496990891
 20
1.42632678458609
 10
0.1695198981797308
 20
1.442193636226122
  0
LWPOLYLINE
  5
398
330
1C
100
AcDbEntity
  8
ADP1DETAIL
100
AcDbPolyline
 90
        2
 70
     0
 43
0.0
 10
0.16901701613408
 20
1.442029026137954
 10
0.1550756900726125
 20
1.412131755918059
  0
LWPOLYLINE
  5
39C
330
1C
100
AcDbEntity
  8
ADP1DETAIL
100
AcDbPolyline
 90
        2
 70
     0
 43
0.0
 10
0.1690170161340809
 20
1.442029026137953
 10
0.1550756900726142
 20
1.412131755918059
  0
LWPOLYLINE
  5
3A0
330
1C
100
AcDbEntity
  8
ADP1DETAIL
100
AcDbPolyline
 90
        2
 70
     0
 43
0.0
 10
0.1984413496990926
 20
1.426326784586091
 10
0.1695198981797334
 20
1.442193636226123
  0
LWPOLYLINE
  5
3A4
330
1C
100
AcDbEntity
  8
ADP1DETAIL
100
AcDbPolyline
 90
        2
 70
     0
 43
0.0
 10
0.1690170161340836
 20
1.442029026137955
 10
0.1550756900726151
 20
1.412131755918061
  0
LWPOLYLINE
  5
3A8
330
1C
100
AcDbEntity
  8
ADP1DETAIL
100
AcDbPolyline
 90
        2
 70
     0
 43
0.0
 10
0.2138807560084288
 20
1.456895250505739
 10
0.1982246448023188
 20
1.427859177753807
  0
LWPOLYLINE
  5
3AC
330
1C
100
AcDbEntity
  8
ADP1DETAIL
100
AcDbPolyline
 90
        2
 70
     0
 43
0.0
 10
0.1133073444011279
 20
1.392425180030091
 10
0.082739420345642
 20
1.404827170107959
  0
LWPOLYLINE
  5
3B0
330
1C
100
AcDbEntity
  8
ADP1DETAIL
100
AcDbPolyline
 90
        2
 70
     0
 43
0.0
 10
0.1250935726793738
 20
1.424579358589629
 10
0.1129142047969163
 20
1.393922053800438
  0
LWPOLYLINE
  5
3B4
330
1C
100
AcDbEntity
  8
ADP1DETAIL
100
AcDbPolyline
 90
        2
 70
     0
 43
0.0
 10
0.1553811290775613
 20
1.410614555586198
 10
0.1255860327027811
 20
1.424772930174087
  0
LWPOLYLINE
  5
3B8
330
1C
100
AcDbEntity
  8
ADP1DETAIL
100
AcDbPolyline
 90
        2
 70
     0
 43
0.0
 10
0.2423423041095276
 20
1.439508701820424
 10
0.2143923584826624
 20
1.457030342109185
  0
LWPOLYLINE
  5
3BC
330
1C
100
AcDbEntity
  8
ADP1DETAIL
100
AcDbPolyline
 90
        2
 70
     0
 43
0.0
 10
0.7247997490382945
 20
1.442029026137953
 10
0.6949024788183973
 20
1.428087700076488
  0
LWPOLYLINE
  5
3C0
330
1C
100
AcDbEntity
  8
ADP1DETAIL
100
AcDbPolyline
 90
        2
 70
     0
 43
0.0
 10
0.7247997490382945
 20
1.442029026137953
 10
0.6949024788183991
 20
1.428087700076487
  0
LWPOLYLINE
  5
3C4
330
1C
100
AcDbEntity
  8
ADP1DETAIL
100
AcDbPolyline
 90
        2
 70
     0
 43
0.0
 10
0.7247997490382972
 20
1.442029026137952
 10
0.6949024788184018
 20
1.428087700076488
  0
LWPOLYLINE
  5
3C8
330
1C
100
AcDbEntity
  8
ADP1DETAIL
100
AcDbPolyline
 90
        2
 70
     0
 43
0.0
 10
0.7247997490382954
 20
1.442029026137954
 10
0.6949024788183991
 20
1.428087700076489
  0
LWPOLYLINE
  5
3CC
330
1C
100
AcDbEntity
  8
ADP1DETAIL
100
AcDbPolyline
 90
        2
 70
     0
 43
0.0
 10
0.6941612210961159
 20
1.426729124785271
 10
0.6804376808444168
 20
1.456726987741046
  0
LWPOLYLINE
  5
3D0
330
1C
100
AcDbEntity
  8
ADP1DETAIL
100
AcDbPolyline
 90
        2
 70
     0
 43
0.0
 10
0.6502389269083491
 20
1.439839762199343
 10
0.6347943841054704
 20
1.468988920618815
  0
LWPOLYLINE
  5
3D4
330
1C
100
AcDbEntity
  8
ADP1DETAIL
100
AcDbPolyline
 90
        2
 70
     0
 43
0.0
 10
0.6799360091639502
 20
1.456895250505738
 10
0.6508999364120163
 20
1.441239139299631
  0
LWPOLYLINE
  5
3D8
330
1C
100
AcDbEntity
  8
ADP1DETAIL
100
AcDbPolyline
 90
        2
 70
     0
 43
0.0
 10
0.6342837775644217
 20
1.469127729095509
 10
0.6062071511594907
 20
1.451809808069258
  0
LWPOLYLINE
  5
3DC
330
1C
100
AcDbEntity
  8
ADP1DETAIL
100
AcDbPolyline
 90
        2
 70
     0
 43
0.0
 10
0.6056286265213631
 20
1.450374364209043
 10
0.5885153406112949
 20
1.47857618656707
  0
LWPOLYLINE
  5
3E0
330
1C
100
AcDbEntity
  8
ADP1DETAIL
100
AcDbPolyline
 90
        2
 70
     0
 43
0.0
 10
0.4233504584206936
 20
1.466172573631464
 10
0.4001946755275157
 20
1.489667616886531
  0
LWPOLYLINE
  5
3E4
330
1C
100
AcDbEntity
  8
ADP1DETAIL
100
AcDbPolyline
 90
        2
 70
     0
 43
0.0
 10
0.4469083825861891
 20
1.491028771749404
 10
0.4235823527166023
 20
1.46770274187982
  0
LWPOLYLINE
  5
3E8
330
1C
100
AcDbEntity
  8
ADP1DETAIL
100
AcDbPolyline
 90
        2
 70
     0
 43
0.0
 10
0.4691877288026687
 20
1.466209776450152
 10
0.4474372370995603
 20
1.491011458845234
  0
LWPOLYLINE
  5
3EC
330
1C
100
AcDbEntity
  8
ADP1DETAIL
100
AcDbPolyline
 90
        2
 70
     0
 43
0.0
 10
0.5604812670706086
 20
1.458297285055822
 10
0.5417571439957874
 20
1.48545634531262
  0
LWPOLYLINE
  5
3F0
330
1C
100
AcDbEntity
  8
ADP1DETAIL
100
AcDbPolyline
 90
        2
 70
     0
 43
0.0
 10
0.5412338753129396
 20
1.485534937414731
 10
0.5153575809300995
 20
1.465074616596959
  0
LWPOLYLINE
  5
3F4
330
1C
100
AcDbEntity
  8
ADP1DETAIL
100
AcDbPolyline
 90
        2
 70
     0
 43
0.0
 10
0.5149496129294074
 20
1.463581716083475
 10
0.4946780091953374
 20
1.489606116576133
  0
LWPOLYLINE
  5
3F8
330
1C
100
AcDbEntity
  8
ADP1DETAIL
100
AcDbPolyline
 90
        2
 70
     0
 43
0.0
 10
0.4941510560759515
 20
1.489654150344808
 10
0.4695082021411361
 20
1.467723872441851
  0
LWPOLYLINE
  5
3FC
330
1C
100
AcDbEntity
  8
ADP1DETAIL
100
AcDbPolyline
 90
        2
 70
     0
 43
0.0
 10
0.44690838258619
 20
1.491028771749403
 10
0.4235823527166032
 20
1.46770274187982
  0
LWPOLYLINE
  5
400
330
1C
100
AcDbEntity
  8
ADP1DETAIL
100
AcDbPolyline
 90
        2
 70
     0
 43
0.0
 10
0.4691877288026687
 20
1.466209776450152
 10
0.4474372370995612
 20
1.491011458845233
  0
LWPOLYLINE
  5
404
330
1C
100
AcDbEntity
  8
ADP1DETAIL
100
AcDbPolyline
 90
        2
 70
     0
 43
0.0
 10
0.4469083825861864
 20
1.491028771749403
 10
0.4235823527166014
 20
1.467702741879819
  0
LWPOLYLINE
  5
408
330
1C
100
AcDbEntity
  8
ADP1DETAIL
100
AcDbPolyline
 90
        2
 70
     0
 43
0.0
 10
0.4469083825861864
 20
1.491028771749404
 10
0.4235823527165996
 20
1.467702741879819
  0
LWPOLYLINE
  5
40C
330
1C
100
AcDbEntity
  8
ADP1DETAIL
100
AcDbPolyline
 90
        2
 70
     0
 43
0.0
 10
0.4691877288026652
 20
1.466209776450152
 10
0.4474372370995577
 20
1.491011458845233
  0
LWPOLYLINE
  5
410
330
1C
100
AcDbEntity
  8
ADP1DETAIL
100
AcDbPolyline
 90
        2
 70
     0
 43
0.0
 10
0.5879975269405709
 20
1.478685071071822
 10
0.5609753492989498
 20
1.45976393858832
  0
LWPOLYLINE
  5
414
330
1C
100
AcDbEntity
  8
ADP1DETAIL
100
AcDbPolyline
 90
        2
 70
     0
 43
0.0
 10
0.7687231924930061
 20
1.424579358589623
 10
0.7380658877038142
 20
1.41239999070717
  0
LWPOLYLINE
  5
418
330
1C
100
AcDbEntity
  8
ADP1DETAIL
100
AcDbPolyline
 90
        2
 70
     0
 43
0.0
 10
0.7793501451882845
 20
1.392965759112337
 10
0.7692019379343469
 20
1.424353993030233
  0
LWPOLYLINE
  5
41C
330
1C
100
AcDbEntity
  8
ADP1DETAIL
100
AcDbPolyline
 90
        2
 70
     0
 43
0.0
 10
0.8115577164990668
 20
1.404605292012173
 10
0.7802441117556445
 20
1.394229093434356
  0
ENDBLK
  5
420
330
1C
100
AcDbEntity
  8
0
100
AcDbBlockEnd
  0
BLOCK
  5
421
330
1D
100
AcDbEntity
  8
0
100
AcDbBlockBegin
  2
*D1
 70
     1
 10
0.0
 20
0.0
 30
0.0
  3
*D1
  1

  0
LINE
  5
422
330
1D
100
AcDbEntity
  8
0
  6
BYBLOCK
 62
     0
100
AcDbLine
 10
11.37058923397251
 20
5.019461164992875
 30
0.0
 11
11.37058923397251
 21
4.537445909242546
 31
0.0
  0
LINE
  5
423
330
1D
100
AcDbEntity
  8
0
  6
BYBLOCK
 62
     0
100
AcDbLine
 10
9.370589233972514
 20
5.019461164992875
 30
0.0
 11
9.370589233972514
 21
4.537445909242546
 31
0.0
  0
LINE
  5
424
330
1D
100
AcDbEntity
  8
0
  6
BYBLOCK
 62
     0
100
AcDbLine
 10
11.37058923397251
 20
4.717445909242545
 30
0.0
 11
10.53725590063917
 21
4.717445909242545
 31
0.0
  0
LINE
  5
425
330
1D
100
AcDbEntity
  8
0
  6
BYBLOCK
 62
     0
100
AcDbLine
 10
9.370589233972514
 20
4.717445909242545
 30
0.0
 11
10.20392256730584
 21
4.717445909242545
 31
0.0
  0
LINE
  5
426
330
1D
100
AcDbEntity
  8
0
  6
BYBLOCK
 62
     0
100
AcDbLine
 10
11.24558923397251
 20
4.592445909242545
 30
0.0
 11
11.49558923397251
 21
4.842445909242545
 31
0.0
  0
LINE
  5
427
330
1D
100
AcDbEntity
  8
0
  6
BYBLOCK
 62
     0
100
AcDbLine
 10
9.245589233972514
 20
4.592445909242545
 30
0.0
 11
9.495589233972514
 21
4.842445909242545
 31
0.0
  0
TEXT
  5
428
330
1D
100
AcDbEntity
  8
0
  6
BYBLOCK
 62
     0
100
AcDbText
 10
10.32892256730584
 20
4.654945909242545
 30
0.0
 40
0.125
  1
2
 72
     1
 11
10.37058923397251
 21
4.717445909242545
 31
0.0
100
AcDbText
 73
     2
  0
POINT
  5
429
330
1D
100
AcDbEntity
  8
DEFPOINTS
  6
BYBLOCK
 62
     0
100
AcDbPoint
 10
11.37058923397251
 20
5.081961164992875
 30
0.0
  0
POINT
  5
42A
330
1D
100
AcDbEntity
  8
DEFPOINTS
  6
BYBLOCK
 62
     0
100
AcDbPoint
 10
9.370589233972514
 20
5.081961164992875
 30
0.0
  0
POINT
  5
42B
330
1D
100
AcDbEntity
  8
DEFPOINTS
  6
BYBLOCK
 62
     0
100
AcDbPoint
 10
9.370589233972514
 20
4.717445909242545
 30
0.0
  0
ENDBLK
  5
42C
330
1D
100
AcDbEntity
  8
0
100
AcDbBlockEnd
  0
ENDSEC
  0
SECTION
  2
ENTITIES
  0
LINE
  5
42D
330
18
100
AcDbEntity
  8
ADP1DETAIL
100
AcDbLine
 10
10.05577570494228
 20
6.717147635962639
 30
0.0
 11
10.32058923397251
 21
6.981961164992876
 31
0.0
  0
LINE
  5
42E
330
18
100
AcDbEntity
  8
ADP1DETAIL
100
AcDbLine
 10
13.88888578480353
 20
6.779461164992875
 30
0.0
 11
13.88888578480353
 21
5.387058122932273
 31
0.0
  0
LINE
  5
42F
330
18
100
AcDbEntity
  8
ADP1DETAIL
100
AcDbLine
 10
13.82638578480353
 20
6.841961164992875
 30
0.0
 11
13.82638578480353
 21
5.324558122932273
 31
0.0
  0
CIRCLE
  5
430
330
18
100
AcDbEntity
  8
ADP1DETAIL
100
AcDbCircle
 10
15.61869288569436
 20
6.023260937985918
 30
0.0
 40
0.95
  0
CIRCLE
  5
431
330
18
100
AcDbEntity
  8
ADP1DETAIL
100
AcDbCircle
 10
15.61869288569436
 20
6.023260937985918
 30
0.0
 40
0.8099999999999997
  0
INSERT
  5
432
330
18
100
AcDbEntity
  8
ADP1DETAIL
100
AcDbBlockReference
  2
7563X
 10
15.18068160842659
 20
5.356621039229547
 30
0.0
 41
0.9778427162884097
 42
0.9778427162884097
 43
0.9778427162884097
  0
LINE
  5
433
330
18
100
AcDbEntity
  8
ADP1DETAIL
100
AcDbLine
 10
11.37058923397251
 20
5.081961164992875
 30
0.0
 11
11.37058923397251
 21
6.981961164992875
 31
0.0
  0
LINE
  5
434
330
18
100
AcDbEntity
  8
ADP2DETAIL
  6
HIDDEN2
100
AcDbLine
 10
10.69508923397251
 20
5.324558122932273
 30
0.0
 11
10.69508923397251
 21
6.841961164992875
 31
0.0
  0
LINE
  5
435
330
18
100
AcDbEntity
  8
ADP2DETAIL
  6
HIDDEN2
100
AcDbLine
 10
10.63258923397251
 20
5.221961164992875
 30
0.0
 11
10.63258923397251
 21
6.841961164992875
 31
0.0
  0
LINE
  5
436
330
18
100
AcDbEntity
  8
ADP2DETAIL
  6
HIDDEN2
100
AcDbLine
 10
10.44558923397251
 20
5.221961164992875
 30
0.0
 11
10.44558923397251
 21
6.841961164992875
 31
0.0
  0
LINE
  5
437
330
18
100
AcDbEntity
  8
ADP2DETAIL
  6
HIDDEN2
100
AcDbLine
 10
10.63258923397251
 20
5.399051038106027
 30
0.0
 11
10.63258923397251
 21
6.768493651925075
 31
0.0
  0
LINE
  5
438
330
18
100
AcDbEntity
  8
ADP3DETAIL
  6
CENTER2
100
AcDbLine
 10
9.370589233972514
 20
6.981961164992875
 30
0.0
 11
9.370589233972514
 21
5.081961164992875
 31
0.0
  0
LINE
  5
439
330
18
100
AcDbEntity
  8
ADP1DETAIL
100
AcDbLine
 10
13.82638578480353
 20
5.324558122932273
 30
0.0
 11
11.37058923397251
 21
5.324558122932273
 31
0.0
  0
LINE
  5
43A
330
18
100
AcDbEntity
  8
ADP2DETAIL
  6
HIDDEN2
100
AcDbLine
 10
13.88758923397251
 20
5.436697675094676
 30
0.0
 11
10.63258923397251
 21
5.436697675094676
 31
0.0
  0
LINE
  5
43B
330
18
100
AcDbEntity
  8
ADP2DETAIL
  6
HIDDEN2
100
AcDbLine
 10
13.88758923397251
 20
6.674545684507549
 30
0.0
 11
10.63258923397251
 21
6.674545684507549
 31
0.0
  0
ARC
  5
43C
330
18
100
AcDbEntity
  8
ADP1DETAIL
100
AcDbCircle
 10
9.370589233972514
 20
6.031961164992875
 30
0.0
 40
0.9690000000000001
100
AcDbArc
 50
281.3648769670336
 51
45.0
  0
LINE
  5
43D
330
18
100
AcDbEntity
  8
ADP1DETAIL
100
AcDbLine
 10
9.56153687077381
 20
5.081961164992875
 30
0.0
 11
11.37058923397251
 21
5.081961164992875
 31
0.0
  0
DIMENSION
  5
43E
330
18
100
AcDbEntity
  8
ADPDIM
100
AcDbDimension
  2
*D1
 10
9.370589233972514
 20
4.717445909242545
 30
0.0
 11
10.37058923397251
 21
4.717445909242545
 31
0.0
100
AcDbAlignedDimension
 13
11.37058923397251
 23
5.081961164992875
 33
0.0
 14
9.370589233972514
 24
5.081961164992875
 34
0.0
100
AcDbRotatedDimension
  0
LINE
  5
43F
330
18
100
AcDbEntity
  8
ADP2DETAIL
  6
HIDDEN2
100
AcDbLine
 10
9.902436016420242
 20
5.221961164992875
 30
0.0
 11
11.37058923397251
 21
5.221961164992875
 31
0.0
  0
LINE
  5
440
330
18
100
AcDbEntity
  8
ADP2DETAIL
  6
HIDDEN2
100
AcDbLine
 10
11.37058923397251
 20
5.324558122932273
 30
0.0
 11
10.69508923397251
 21
5.324558122932273
 31
0.0
  0
LINE
  5
441
330
18
100
AcDbEntity
  8
ADP2DETAIL
  6
HIDDEN2
100
AcDbLine
 10
10.63258923397251
 20
5.387058122932273
 30
0.0
 11
10.69508923397251
 21
5.324558122932273
 31
0.0
  0
LINE
  5
442
330
18
100
AcDbEntity
  8
ADP2DETAIL
  6
HIDDEN2
100
AcDbLine
 10
10.63258923397251
 20
5.891961164992875
 30
0.0
 11
10.44558923397251
 21
5.891961164992875
 31
0.0
  0
LINE
  5
443
330
18
100
AcDbEntity
  8
ADP2DETAIL
  6
HIDDEN2
100
AcDbLine
 10
10.44558923397251
 20
6.171961164992875
 30
0.0
 11
10.63258923397251
 21
6.171961164992875
 31
0.0
  0
LINE
  5
444
330
18
100
AcDbEntity
  8
ADP1DETAIL
100
AcDbLine
 10
13.88888578480353
 20
5.387058122932273
 30
0.0
 11
13.82638578480353
 21
5.324558122932273
 31
0.0
  0
CIRCLE
  5
445
330
18
100
AcDbEntity
  8
ADP1DETAIL
100
AcDbCircle
 10
15.61869288569436
 20
6.023260937985918
 30
0.0
 40
0.14
  0
LINE
  5
446
330
18
100
AcDbEntity
  8
ADP1DETAIL
100
AcDbLine
 10
11.37058923397251
 20
6.841961164992875
 30
0.0
 11
13.82638578480353
 21
6.841961164992875
 31
0.0
  0
LINE
  5
447
330
18
100
AcDbEntity
  8
ADP1DETAIL
100
AcDbLine
 10
11.37058923397251
 20
9.272834951199641
 30
0.0
 11
13.82508923397251
 21
9.272834951199641
 31
0.0
  0
LINE
  5
448
330
18
100
AcDbEntity
  8
ADP1DETAIL
100
AcDbLine
 10
11.37058923397251
 20
7.652834951199642
 30
0.0
 11
13.82508923397251
 21
7.652834951199642
 31
0.0
  0
LINE
  5
449
330
18
100
AcDbEntity
  8
ADP2DETAIL
  6
HIDDEN2
100
AcDbLine
 10
13.88758923397251
 20
7.775282918617167
 30
0.0
 11
10.69508923397251
 21
7.775282918617167
 31
0.0
  0
LINE
  5
44A
330
18
100
AcDbEntity
  8
ADP2DETAIL
  6
HIDDEN2
100
AcDbLine
 10
13.88758923397251
 20
9.150386983782116
 30
0.0
 11
10.63258923397251
 21
9.150386983782116
 31
0.0
  0
ARC
  5
44B
330
18
100
AcDbEntity
  8
ADP1DETAIL
100
AcDbCircle
 10
9.681036033277766
 20
8.462834952117042
 30
0.0
 40
0.125
100
AcDbArc
 50
134.7586901982504
 51
225.2413098017496
  0
LINE
  5
44C
330
18
100
AcDbEntity
  8
ADP1DETAIL
100
AcDbLine
 10
11.37058923397251
 20
6.981961164992875
 30
0.0
 11
10.32058923397251
 21
6.981961164992875
 31
0.0
  0
LINE
  5
44D
330
18
100
AcDbEntity
  8
ADP2DETAIL
  6
HIDDEN2
100
AcDbLine
 10
11.37058923397251
 20
6.841961164992875
 30
0.0
 11
10.18058923397251
 21
6.841961164992874
 31
0.0
  0
LINE
  5
44E
330
18
100
AcDbEntity
  8
ADP2DETAIL
  6
HIDDEN2
100
AcDbLine
 10
11.37058923397251
 20
9.272834951199641
 30
0.0
 11
10.17205673637447
 21
9.272834951199641
 31
0.0
  0
LINE
  5
44F
330
18
100
AcDbEntity
  8
ADP1DETAIL
100
AcDbLine
 10
10.32058923397251
 20
7.512834951199642
 30
0.0
 11
11.37058923397251
 21
7.512834951199642
 31
0.0
  0
LINE
  5
450
330
18
100
AcDbEntity
  8
ADP1DETAIL
100
AcDbLine
 10
11.37058923397251
 20
9.412834951199641
 30
0.0
 11
10.32058923397251
 21
9.412834951199641
 31
0.0
  0
LINE
  5
451
330
18
100
AcDbEntity
  8
ADP2DETAIL
  6
HIDDEN2
100
AcDbLine
 10
10.20231840392515
 20
7.652834951199641
 30
0.0
 11
11.37058923397251
 21
7.652834951199642
 31
0.0
  0
ARC
  5
452
330
18
100
AcDbEntity
  8
ADP1DETAIL
100
AcDbCircle
 10
9.4231622175493
 20
8.462834951533547
 30
0.0
 40
0.8974270164232153
100
AcDbArc
 50
314.8230124726552
 51
45.17698752734481
  0
LINE
  5
453
330
18
100
AcDbEntity
  8
ADP2DETAIL
  6
HIDDEN2
100
AcDbLine
 10
10.69508923397251
 20
7.652834951199642
 30
0.0
 11
10.69508923397251
 21
9.272834951199641
 31
0.0
  0
LINE
  5
454
330
18
100
AcDbEntity
  8
ADP2DETAIL
  6
HIDDEN2
100
AcDbLine
 10
10.63258923397251
 20
7.652834951199642
 30
0.0
 11
10.63258923397251
 21
9.267834951199642
 31
0.0
  0
LINE
  5
455
330
18
100
AcDbEntity
  8
ADP2DETAIL
  6
HIDDEN2
100
AcDbLine
 10
10.44558923397251
 20
7.652834951199642
 30
0.0
 11
10.44558923397251
 21
9.267834951199642
 31
0.0
  0
LINE
  5
456
330
18
100
AcDbEntity
  8
ADP2DETAIL
  6
HIDDEN2
100
AcDbLine
 10
10.63258923397251
 20
7.829924824312795
 30
0.0
 11
10.63258923397251
 21
9.19936743813184
 31
0.0
  0
LINE
  5
457
330
18
100
AcDbEntity
  8
ADP1DETAIL
100
AcDbLine
 10
10.32058923397251
 20
7.512834951199641
 30
0.0
 11
9.593020729277718
 21
8.374075128650684
 31
0.0
  0
LINE
  5
458
330
18
100
AcDbEntity
  8
ADP2DETAIL
  6
HIDDEN2
100
AcDbLine
 10
10.69508923397251
 20
6.875961164992875
 30
0.0
 11
10.63258923397251
 21
6.813461164992875
 31
0.0
  0
LINE
  5
459
330
18
100
AcDbEntity
  8
ADP2DETAIL
  6
HIDDEN2
100
AcDbLine
 10
10.63258923397251
 20
7.681334951199642
 30
0.0
 11
10.69508923397251
 21
7.618834951199642
 31
0.0
  0
LINE
  5
45A
330
18
100
AcDbEntity
  8
ADP1DETAIL
100
AcDbLine
 10
10.32058923397251
 20
9.412834951199641
 30
0.0
 11
9.593020729277718
 21
8.551594775583401
 31
0.0
  0
LINE
  5
45B
330
18
100
AcDbEntity
  8
ADP2DETAIL
  6
HIDDEN2
100
AcDbLine
 10
10.44558923397251
 20
8.602834951199643
 30
0.0
 11
10.63258923397251
 21
8.602834951199643
 31
0.0
  0
LINE
  5
45C
330
18
100
AcDbEntity
  8
ADP2DETAIL
  6
HIDDEN2
100
AcDbLine
 10
10.63258923397251
 20
8.322834951199642
 30
0.0
 11
10.44558923397251
 21
8.322834951199642
 31
0.0
  0
LINE
  5
45D
330
18
100
AcDbEntity
  8
ADP2DETAIL
  6
HIDDEN2
100
AcDbLine
 10
10.69508923397251
 20
9.26186743813184
 30
0.0
 11
10.63258923397251
 21
9.19936743813184
 31
0.0
  0
LINE
  5
45E
330
18
100
AcDbEntity
  8
ADP1DETAIL
100
AcDbLine
 10
11.37058923397251
 20
7.512834951199642
 30
0.0
 11
11.37058923397251
 21
9.412834951199641
 31
0.0
  0
LINE
  5
45F
330
18
100
AcDbEntity
  8
ADP1DETAIL
100
AcDbLine
 10
13.88758923397251
 20
9.210334951199641
 30
0.0
 11
13.88758923397251
 21
7.715334951199642
 31
0.0
  0
LINE
  5
460
330
18
100
AcDbEntity
  8
ADP1DETAIL
100
AcDbLine
 10
13.82508923397251
 20
9.272834951199641
 30
0.0
 11
13.82508923397251
 21
7.652834951199642
 31
0.0
  0
LINE
  5
461
330
18
100
AcDbEntity
  8
ADP1DETAIL
100
AcDbLine
 10
13.82638578480353
 20
6.841961164992875
 30
0.0
 11
13.88888578480353
 21
6.779461164992875
 31
0.0
  0
LINE
  5
462
330
18
100
AcDbEntity
  8
ADP1DETAIL
100
AcDbLine
 10
13.88758923397251
 20
7.715334951199642
 30
0.0
 11
13.82508923397251
 21
7.652834951199642
 31
0.0
  0
LINE
  5
463
330
18
100
AcDbEntity
  8
ADP1DETAIL
100
AcDbLine
 10
13.82508923397251
 20
9.272834951199641
 30
0.0
 11
13.88758923397251
 21
9.210334951199641
 31
0.0
  0
ARC
  5
464
330
18
100
AcDbEntity
  8
ADP1DETAIL
100
AcDbCircle
 10
11.30027531550423
 20
8.462834951533547
 30
0.0
 40
1.397839299083992
100
AcDbArc
 50
159.139509440933
 51
200.860490559067
  0
ARC
  5
465
330
18
100
AcDbEntity
  8
ADP1DETAIL
100
AcDbCircle
 10
9.4231622175493
 20
8.462834951533547
 30
0.0
 40
0.7574270164232154
100
AcDbArc
 50
314.8230124726552
 51
45.17698752734481
  0
TEXT
  5
473
330
18
100
AcDbEntity
  8
ADPDIM
100
AcDbText
 10
5.809857804343552
 20
3.747521357559697
 30
0.0
 40
0.125
  1
J U L I U S  B L U M  &  C O . ,  I N C .      ( 8 0 0 )  5 2 6 - 6 2 9 3        W W W . J U L I U S B L U M . C O M        P A R T  N o .  7 5 4 1
 41
1.25
  7
ARIAL_WIDE
 72
     1
 11
12.33558682890016
 21
3.872521357559697
 31
0.0
100
AcDbText
 73
     3
  0
ENDSEC
  0
SECTION
  2
OBJECTS
  0
DICTIONARY
  5
C
330
0
100
AcDbDictionary
  3
ACAD_GROUP
350
D
  3
ACAD_LAYOUT
350
46C
  3
ACAD_MLINESTYLE
350
E
  3
ACAD_PLOTSETTINGS
350
46D
  3
ACAD_PLOTSTYLENAME
350
46A
  3
ACDBHEADERROUNDTRIPXREC
350
5B7
  3
ACDBVARIABLEDICTIONARY
350
4CD
  0
DICTIONARY
  5
4C7
330
18
100
AcDbDictionary
280
     1
  3
ACAD_LAYOUTSELFREF
360
5D8
  0
DICTIONARY
  5
4C5
330
15
100
AcDbDictionary
280
     1
  3
ACAD_LAYOUTSELFREF
360
5D7
  0
DICTIONARY
  5
D
102
{ACAD_REACTORS
330
C
102
}
330
C
100
AcDbDictionary
  0
DICTIONARY
  5
46C
102
{ACAD_REACTORS
330
C
102
}
330
C
100
AcDbDictionary
  0
DICTIONARY
  5
E
102
{ACAD_REACTORS
330
C
102
}
330
C
100
AcDbDictionary
  3
STANDARD
350
1B
  0
DICTIONARY
  5
46D
102
{ACAD_REACTORS
330
C
102
}
330
C
100
AcDbDictionary
  0
ACDBDICTIONARYWDFLT
  5
46A
102
{ACAD_REACTORS
330
C
102
}
330
C
100
AcDbDictionary
281
     1
  3
Normal
350
46B
100
AcDbDictionaryWithDefault
340
46B
  0
DICTIONARY
  5
5B7
102
{ACAD_REACTORS
330
C
102
}
330
C
100
AcDbDictionary
  3
CEPSNTYPE
350
5C1
  3
FINGERPRINTGUID
350
5C2
  3
HYPERLINKBASE
350
5BA
  3
INSUNITS
350
5C0
  3
LAYOUTDICT
350
5BC
  3
LWETCUNION
350
5BF
  3
PLOTSETDICT
350
5BD
  3
PLOTSTYLNAMDICT
350
5BE
  3
PSVPSCALE
350
5C4
  3
PUCSBASE
350
5C7
  3
PUCSORGBACK
350
5CD
  3
PUCSORGBOTTOM
350
5C9
  3
PUCSORGFRONT
350
5CC
  3
PUCSORGLEFT
350
5CA
  3
PUCSORGRIGHT
350
5CB
  3
PUCSORGTOP
350
5C8
  3
PUCSORTHOREF
350
5C5
  3
PUCSORTHOVIEW
350
5C6
  3
STYLESHEET
350
5BB
  3
TSTACKALIGN
350
5B8
  3
TSTACKSIZE
350
5B9
  3
UCSBASE
350
5D0
  3
UCSORGBACK
350
5D6
  3
UCSORGBOTTOM
350
5D2
  3
UCSORGFRONT
350
5D5
  3
UCSORGLEFT
350
5D3
  3
UCSORGRIGHT
350
5D4
  3
UCSORGTOP
350
5D1
  3
UCSORTHOREF
350
5CE
  3
UCSORTHOVIEW
350
5CF
  3
VERSIONGUID
350
5C3
  0
DICTIONARY
  5
4CD
102
{ACAD_REACTORS
330
C
102
}
330
C
100
AcDbDictionary
  3
DIMASSOC
350
4CE
  0
XRECORD
  5
5D8
102
{ACAD_REACTORS
330
4C7
102
}
330
4C7
100
AcDbXrecord
340
18
  0
XRECORD
  5
5D7
102
{ACAD_REACTORS
330
4C5
102
}
330
4C5
100
AcDbXrecord
340
15
  0
MLINESTYLE
  5
1B
102
{ACAD_REACTORS
330
E
102
}
330
E
100
AcDbMlineStyle
  2
STANDARD
 70
     0
  3

 62
     0
 51
90.0
 52
90.0
 71
     2
 49
0.5
 62
   256
  6
BYLAYER
 49
-0.5
 62
   256
  6
BYLAYER
  0
ACDBPLACEHOLDER
  5
46B
102
{ACAD_REACTORS
330
46A
102
}
330
46A
100
AcDbPlaceHolder
280
     0
  0
XRECORD
  5
5C1
102
{ACAD_REACTORS
330
5B7
102
}
330
5B7
100
AcDbXrecord
 90
        0
  0
XRECORD
  5
5C2
102
{ACAD_REACTORS
330
5B7
102
}
330
5B7
100
AcDbXrecord
  1
{811CA6EE-9C05-4B65-8517-D6E1E032DB49}
  0
XRECORD
  5
5BA
102
{ACAD_REACTORS
330
5B7
102
}
330
5B7
100
AcDbXrecord
  1

  0
XRECORD
  5
5C0
102
{ACAD_REACTORS
330
5B7
102
}
330
5B7
100
AcDbXrecord
 90
        0
  0
XRECORD
  5
5BC
102
{ACAD_REACTORS
330
5B7
102
}
330
5B7
100
AcDbXrecord
340
46C
  0
XRECORD
  5
5BF
102
{ACAD_REACTORS
330
5B7
102
}
330
5B7
100
AcDbXrecord
 90
    14877
  0
XRECORD
  5
5BD
102
{ACAD_REACTORS
330
5B7
102
}
330
5B7
100
AcDbXrecord
340
46D
  0
XRECORD
  5
5BE
102
{ACAD_REACTORS
330
5B7
102
}
330
5B7
100
AcDbXrecord
340
46A
  0
XRECORD
  5
5C4
102
{ACAD_REACTORS
330
5B7
102
}
330
5B7
100
AcDbXrecord
 40
0.0
  0
XRECORD
  5
5C7
102
{ACAD_REACTORS
330
5B7
102
}
330
5B7
100
AcDbXrecord
340
0
  0
XRECORD
  5
5CD
102
{ACAD_REACTORS
330
5B7
102
}
330
5B7
100
AcDbXrecord
 10
0.0
 20
0.0
 30
0.0
  0
XRECORD
  5
5C9
102
{ACAD_REACTORS
330
5B7
102
}
330
5B7
100
AcDbXrecord
 10
0.0
 20
0.0
 30
0.0
  0
XRECORD
  5
5CC
102
{ACAD_REACTORS
330
5B7
102
}
330
5B7
100
AcDbXrecord
 10
0.0
 20
0.0
 30
0.0
  0
XRECORD
  5
5CA
102
{ACAD_REACTORS
330
5B7
102
}
330
5B7
100
AcDbXrecord
 10
0.0
 20
0.0
 30
0.0
  0
XRECORD
  5
5CB
102
{ACAD_REACTORS
330
5B7
102
}
330
5B7
100
AcDbXrecord
 10
0.0
 20
0.0
 30
0.0
  0
XRECORD
  5
5C8
102
{ACAD_REACTORS
330
5B7
102
}
330
5B7
100
AcDbXrecord
 10
0.0
 20
0.0
 30
0.0
  0
XRECORD
  5
5C5
102
{ACAD_REACTORS
330
5B7
102
}
330
5B7
100
AcDbXrecord
340
0
  0
XRECORD
  5
5C6
102
{ACAD_REACTORS
330
5B7
102
}
330
5B7
100
AcDbXrecord
 70
     0
  0
XRECORD
  5
5BB
102
{ACAD_REACTORS
330
5B7
102
}
330
5B7
100
AcDbXrecord
  1

  0
XRECORD
  5
5B8
102
{ACAD_REACTORS
330
5B7
102
}
330
5B7
100
AcDbXrecord
 90
        1
  0
XRECORD
  5
5B9
102
{ACAD_REACTORS
330
5B7
102
}
330
5B7
100
AcDbXrecord
 90
       70
  0
XRECORD
  5
5D0
102
{ACAD_REACTORS
330
5B7
102
}
330
5B7
100
AcDbXrecord
340
0
  0
XRECORD
  5
5D6
102
{ACAD_REACTORS
330
5B7
102
}
330
5B7
100
AcDbXrecord
 10
0.0
 20
0.0
 30
0.0
  0
XRECORD
  5
5D2
102
{ACAD_REACTORS
330
5B7
102
}
330
5B7
100
AcDbXrecord
 10
0.0
 20
0.0
 30
0.0
  0
XRECORD
  5
5D5
102
{ACAD_REACTORS
330
5B7
102
}
330
5B7
100
AcDbXrecord
 10
0.0
 20
0.0
 30
0.0
  0
XRECORD
  5
5D3
102
{ACAD_REACTORS
330
5B7
102
}
330
5B7
100
AcDbXrecord
 10
0.0
 20
0.0
 30
0.0
  0
XRECORD
  5
5D4
102
{ACAD_REACTORS
330
5B7
102
}
330
5B7
100
AcDbXrecord
 10
0.0
 20
0.0
 30
0.0
  0
XRECORD
  5
5D1
102
{ACAD_REACTORS
330
5B7
102
}
330
5B7
100
AcDbXrecord
 10
0.0
 20
0.0
 30
0.0
  0
XRECORD
  5
5CE
102
{ACAD_REACTORS
330
5B7
102
}
330
5B7
100
AcDbXrecord
340
0
  0
XRECORD
  5
5CF
102
{ACAD_REACTORS
330
5B7
102
}
330
5B7
100
AcDbXrecord
 70
     0
  0
XRECORD
  5
5C3
102
{ACAD_REACTORS
330
5B7
102
}
330
5B7
100
AcDbXrecord
  1
{8D2DA0BC-637F-4CDB-89BE-7C1689208E5F}
  0
DICTIONARYVAR
  5
4CE
102
{ACAD_REACTORS
330
4CD
102
}
330
4CD
100
DictionaryVariables
280
     0
  1
1
  0
ENDSEC
  0
EOF
