  0
SECTION
  2
HEADER
  9
$ACADVER
  1
AC1014
  9
$ACADMAINTVER
 70
     9
  9
$DWGCODEPAGE
  3
ANSI_1252
  9
$INSBASE
 10
-159.1861181266329
 20
111.5464647143467
 30
0.0
  9
$EXTMIN
 10
-169.2744598688723
 20
108.2200917986886
 30
0.0
  9
$EXTMAX
 10
-149.6972727952024
 20
117.3752495891745
 30
0.0
  9
$LIMMIN
 10
0.0
 20
0.0
  9
$LIMMAX
 10
36.0
 20
36.0
  9
$ORTHOMODE
 70
     1
  9
$REGENMODE
 70
     1
  9
$FILLMODE
 70
     1
  9
$QTEXTMODE
 70
     0
  9
$MIRRTEXT
 70
     1
  9
$DRAGMODE
 70
     0
  9
$LTSCALE
 40
1.0
  9
$OSMODE
 70
    37
  9
$ATTMODE
 70
     1
  9
$TEXTSIZE
 40
0.2
  9
$TRACEWID
 40
0.05
  9
$TEXTSTYLE
  7
STANDARD
  9
$CLAYER
  8
0
  9
$CELTYPE
  6
BYLAYER
  9
$CECOLOR
 62
   256
  9
$CELTSCALE
 40
1.0
  9
$DELOBJ
 70
     1
  9
$DISPSILH
 70
     0
  9
$DIMSCALE
 40
1.0
  9
$DIMASZ
 40
0.125
  9
$DIMEXO
 40
0.0625
  9
$DIMDLI
 40
0.38
  9
$DIMRND
 40
0.0
  9
$DIMDLE
 40
0.0
  9
$DIMEXE
 40
0.18
  9
$DIMTP
 40
0.0
  9
$DIMTM
 40
0.0
  9
$DIMTXT
 40
0.125
  9
$DIMCEN
 40
0.1875
  9
$DIMTSZ
 40
0.125
  9
$DIMTOL
 70
     0
  9
$DIMLIM
 70
     0
  9
$DIMTIH
 70
     0
  9
$DIMTOH
 70
     0
  9
$DIMSE1
 70
     0
  9
$DIMSE2
 70
     0
  9
$DIMTAD
 70
     0
  9
$DIMZIN
 70
     3
  9
$DIMBLK
  1

  9
$DIMASO
 70
     1
  9
$DIMSHO
 70
     1
  9
$DIMPOST
  1

  9
$DIMAPOST
  1

  9
$DIMALT
 70
     0
  9
$DIMALTD
 70
     1
  9
$DIMALTF
 40
25.4
  9
$DIMLFAC
 40
1.0
  9
$DIMTOFL
 70
     0
  9
$DIMTVP
 40
0.0
  9
$DIMTIX
 70
     0
  9
$DIMSOXD
 70
     0
  9
$DIMSAH
 70
     0
  9
$DIMBLK1
  1

  9
$DIMBLK2
  1

  9
$DIMSTYLE
  2
STANDARD
  9
$DIMCLRD
 70
     0
  9
$DIMCLRE
 70
     0
  9
$DIMCLRT
 70
     0
  9
$DIMTFAC
 40
1.0
  9
$DIMGAP
 40
0.125
  9
$DIMJUST
 70
     0
  9
$DIMSD1
 70
     0
  9
$DIMSD2
 70
     0
  9
$DIMTOLJ
 70
     1
  9
$DIMTZIN
 70
     0
  9
$DIMALTZ
 70
     0
  9
$DIMALTTZ
 70
     0
  9
$DIMFIT
 70
     3
  9
$DIMUPT
 70
     0
  9
$DIMUNIT
 70
     2
  9
$DIMDEC
 70
     4
  9
$DIMTDEC
 70
     4
  9
$DIMALTU
 70
     2
  9
$DIMALTTD
 70
     2
  9
$DIMTXSTY
  7
STANDARD
  9
$DIMAUNIT
 70
     0
  9
$LUNITS
 70
     5
  9
$LUPREC
 70
     4
  9
$SKETCHINC
 40
0.1
  9
$FILLETRAD
 40
0.062
  9
$AUNITS
 70
     0
  9
$AUPREC
 70
     0
  9
$MENU
  1
acad
  9
$ELEVATION
 40
0.0
  9
$PELEVATION
 40
0.0
  9
$THICKNESS
 40
0.0
  9
$LIMCHECK
 70
     0
  9
$BLIPMODE
 70
     0
  9
$CHAMFERA
 40
0.0
  9
$CHAMFERB
 40
0.0
  9
$CHAMFERC
 40
0.0
  9
$CHAMFERD
 40
0.0
  9
$SKPOLY
 70
     0
  9
$TDCREATE
 40
2450387.549308449
  9
$TDUPDATE
 40
2452297.102600543
  9
$TDINDWG
 40
0.0674240625
  9
$TDUSRTIMER
 40
0.0674240625
  9
$USRTIMER
 70
     1
  9
$ANGBASE
 50
0.0
  9
$ANGDIR
 70
     0
  9
$PDMODE
 70
     0
  9
$PDSIZE
 40
0.0
  9
$PLINEWID
 40
0.0
  9
$COORDS
 70
     2
  9
$SPLFRAME
 70
     0
  9
$SPLINETYPE
 70
     6
  9
$SPLINESEGS
 70
     8
  9
$ATTDIA
 70
     0
  9
$ATTREQ
 70
     1
  9
$HANDLING
 70
 22529
  9
$HANDSEED
  5
549
  9
$SURFTAB1
 70
     6
  9
$SURFTAB2
 70
     6
  9
$SURFTYPE
 70
     6
  9
$SURFU
 70
     6
  9
$SURFV
 70
     6
  9
$UCSNAME
  2

  9
$UCSORG
 10
0.0
 20
0.0
 30
0.0
  9
$UCSXDIR
 10
1.0
 20
0.0
 30
0.0
  9
$UCSYDIR
 10
0.0
 20
1.0
 30
0.0
  9
$PUCSNAME
  2

  9
$PUCSORG
 10
0.0
 20
0.0
 30
0.0
  9
$PUCSXDIR
 10
1.0
 20
0.0
 30
0.0
  9
$PUCSYDIR
 10
0.0
 20
1.0
 30
0.0
  9
$USERI1
 70
     0
  9
$USERI2
 70
     0
  9
$USERI3
 70
     0
  9
$USERI4
 70
     0
  9
$USERI5
 70
     0
  9
$USERR1
 40
0.0
  9
$USERR2
 40
0.0
  9
$USERR3
 40
0.0
  9
$USERR4
 40
0.0
  9
$USERR5
 40
0.0
  9
$WORLDVIEW
 70
     1
  9
$SHADEDGE
 70
     3
  9
$SHADEDIF
 70
    70
  9
$TILEMODE
 70
     1
  9
$MAXACTVP
 70
    15
  9
$PINSBASE
 10
0.0
 20
0.0
 30
0.0
  9
$PLIMCHECK
 70
     0
  9
$PEXTMIN
 10
1.000000000000000E+20
 20
1.000000000000000E+20
 30
1.000000000000000E+20
  9
$PEXTMAX
 10
-1.000000000000000E+20
 20
-1.000000000000000E+20
 30
-1.000000000000000E+20
  9
$PLIMMIN
 10
0.0
 20
0.0
  9
$PLIMMAX
 10
12.0
 20
9.0
  9
$UNITMODE
 70
     0
  9
$VISRETAIN
 70
     0
  9
$PLINEGEN
 70
     0
  9
$PSLTSCALE
 70
     1
  9
$TREEDEPTH
 70
  3020
  9
$PICKSTYLE
 70
     1
  9
$CMLSTYLE
  2
STANDARD
  9
$CMLJUST
 70
     0
  9
$CMLSCALE
 40
1.0
  9
$PROXYGRAPHICS
 70
     1
  9
$MEASUREMENT
 70
     0
  0
ENDSEC
  0
SECTION
  2
CLASSES
  0
CLASS
  1
ACDBDICTIONARYWDFLT
  2
AcDbDictionaryWithDefault
  3
AutoCAD 2000
 90
        0
280
     0
281
     0
  0
CLASS
  1
ACDBPLACEHOLDER
  2
AcDbPlaceHolder
  3
AutoCAD 2000
 90
        0
280
     0
281
     0
  0
CLASS
  1
LAYOUT
  2
AcDbLayout
  3
AutoCAD 2000
 90
        0
280
     0
281
     0
  0
CLASS
  1
DICTIONARYVAR
  2
AcDbDictionaryVar
  3
AutoCAD 2000
 90
        0
280
     0
281
     0
  0
CLASS
  1
LONG_TRANSACTION
  2
AcDbLongTransaction
  3
AutoCAD 2000
 90
        0
280
     0
281
     0
  0
CLASS
  1
LWPOLYLINE
  2
AcDbPolyline
  3
AutoCAD 2000
 90
        0
280
     0
281
     1
  0
CLASS
  1
HATCH
  2
AcDbHatch
  3
AutoCAD 2000
 90
        0
280
     0
281
     1
  0
CLASS
  1
XRECORD
  2
AcDbXrecord
  3
AutoCAD 2000
 90
        0
280
     0
281
     0
  0
CLASS
  1
LONG_TRANSACTION
  2
AcDbLongTransaction
  3
AutoCAD 2000
 90
        0
280
     0
281
     0
  0
CLASS
  1
LWPOLYLINE
  2
AcDbPolyline
  3
AutoCAD 2000
 90
        0
280
     0
281
     1
  0
CLASS
  1
HATCH
  2
AcDbHatch
  3
AutoCAD 2000
 90
        0
280
     0
281
     1
  0
CLASS
  1
XRECORD
  2
AcDbXrecord
  3
AutoCAD 2000
 90
        0
280
     0
281
     0
  0
CLASS
  1
LONG_TRANSACTION
  2
AcDbLongTransaction
  3
AutoCAD 2000
 90
        0
280
     0
281
     0
  0
CLASS
  1
LWPOLYLINE
  2
AcDbPolyline
  3
AutoCAD 2000
 90
        0
280
     0
281
     1
  0
CLASS
  1
HATCH
  2
AcDbHatch
  3
AutoCAD 2000
 90
        0
280
     0
281
     1
  0
CLASS
  1
XRECORD
  2
AcDbXrecord
  3
AutoCAD 2000
 90
        0
280
     0
281
     0
  0
CLASS
  1
LONG_TRANSACTION
  2
AcDbLongTransaction
  3
AutoCAD 2000
 90
        0
280
     0
281
     0
  0
CLASS
  1
LWPOLYLINE
  2
AcDbPolyline
  3
AutoCAD 2000
 90
        0
280
     0
281
     1
  0
CLASS
  1
HATCH
  2
AcDbHatch
  3
AutoCAD 2000
 90
        0
280
     0
281
     1
  0
CLASS
  1
XRECORD
  2
AcDbXrecord
  3
AutoCAD 2000
 90
        0
280
     0
281
     0
  0
CLASS
  1
LONG_TRANSACTION
  2
AcDbLongTransaction
  3
AutoCAD 2000
 90
        0
280
     0
281
     0
  0
CLASS
  1
LWPOLYLINE
  2
AcDbPolyline
  3
AutoCAD 2000
 90
        0
280
     0
281
     1
  0
CLASS
  1
HATCH
  2
AcDbHatch
  3
AutoCAD 2000
 90
        0
280
     0
281
     1
  0
CLASS
  1
XRECORD
  2
AcDbXrecord
  3
AutoCAD 2000
 90
        0
280
     0
281
     0
  0
ENDSEC
  0
SECTION
  2
TABLES
  0
TABLE
  2
VPORT
  5
8
330
0
100
AcDbSymbolTable
 70
     2
  0
VPORT
  5
526
330
8
100
AcDbSymbolTableRecord
100
AcDbViewportTableRecord
  2
*ACTIVE
 70
     0
 10
0.0
 20
0.0
 11
1.0
 21
1.0
 12
-159.4665503866812
 22
112.7973433850504
 13
0.0
 23
0.0
 14
0.5740882589684922
 24
0.5740882589684922
 15
0.5
 25
0.5
 16
0.0
 26
0.0
 36
1.0
 17
0.0
 27
0.0
 37
0.0
 40
12.55591925676369
 41
1.570528967254408
 42
50.0
 43
0.0
 44
0.0
 50
0.0
 51
0.0
 71
     0
 72
   100
 73
     1
 74
     0
 75
     0
 76
     0
 77
     0
 78
     0
  0
ENDTAB
  0
TABLE
  2
LTYPE
  5
5
330
0
100
AcDbSymbolTable
 70
     2
  0
LTYPE
  5
12
330
5
100
AcDbSymbolTableRecord
100
AcDbLinetypeTableRecord
  2
BYBLOCK
 70
     0
  3

 72
    65
 73
     0
 40
0.0
  0
LTYPE
  5
13
330
5
100
AcDbSymbolTableRecord
100
AcDbLinetypeTableRecord
  2
BYLAYER
 70
     0
  3

 72
    65
 73
     0
 40
0.0
  0
LTYPE
  5
14
330
5
100
AcDbSymbolTableRecord
100
AcDbLinetypeTableRecord
  2
CONTINUOUS
 70
     0
  3
Solid line
 72
    65
 73
     0
 40
0.0
  0
LTYPE
  5
37C
330
5
100
AcDbSymbolTableRecord
100
AcDbLinetypeTableRecord
  2
CENTER2
 70
     0
  3
___ _ ___ _ ___ _ ___ _ ___ _ ___ _ ___ _ ___ _
 72
    65
 73
     4
 40
1.125
 49
0.75
 74
     0
 49
-0.125
 74
     0
 49
0.125
 74
     0
 49
-0.125
 74
     0
  0
ENDTAB
  0
TABLE
  2
LAYER
  5
2
330
0
100
AcDbSymbolTable
 70
     5
  0
LAYER
  5
F
330
2
100
AcDbSymbolTableRecord
100
AcDbLayerTableRecord
  2
0
 70
     0
 62
     7
  6
CONTINUOUS
  0
LAYER
  5
37D
330
2
100
AcDbSymbolTableRecord
100
AcDbLayerTableRecord
  2
ADP1DETAIL
 70
     0
 62
     7
  6
CONTINUOUS
  0
LAYER
  5
37E
330
2
100
AcDbSymbolTableRecord
100
AcDbLayerTableRecord
  2
DEFPOINTS
 70
     0
 62
     7
  6
CONTINUOUS
  0
LAYER
  5
382
330
2
100
AcDbSymbolTableRecord
100
AcDbLayerTableRecord
  2
ADP3DETAIL
 70
     0
 62
     1
  6
CONTINUOUS
  0
LAYER
  5
387
330
2
100
AcDbSymbolTableRecord
100
AcDbLayerTableRecord
  2
ADPDIM
 70
     0
 62
     3
  6
CONTINUOUS
  0
ENDTAB
  0
TABLE
  2
STYLE
  5
3
330
0
100
AcDbSymbolTable
 70
     2
  0
STYLE
  5
10
330
3
100
AcDbSymbolTableRecord
100
AcDbTextStyleTableRecord
  2
STANDARD
 70
     0
 40
0.0
 41
1.0
 50
0.0
 71
     0
 42
0.2
  3
txt
  4

  0
STYLE
  5
3E2
330
3
100
AcDbSymbolTableRecord
100
AcDbTextStyleTableRecord
  2
ARIAL_WIDE
 70
     0
 40
0.0
 41
1.25
 50
0.0
 71
     0
 42
0.2
  3
ARIAL.TTF
  4

1001
ACAD
1000
Arial
1071
       34
  0
ENDTAB
  0
TABLE
  2
VIEW
  5
6
330
0
100
AcDbSymbolTable
 70
     0
  0
ENDTAB
  0
TABLE
  2
UCS
  5
7
330
0
100
AcDbSymbolTable
 70
     0
  0
ENDTAB
  0
TABLE
  2
APPID
  5
9
330
0
100
AcDbSymbolTable
 70
     1
  0
APPID
  5
11
330
9
100
AcDbSymbolTableRecord
100
AcDbRegAppTableRecord
  2
ACAD
 70
     0
  0
ENDTAB
  0
TABLE
  2
DIMSTYLE
  5
A
330
0
100
AcDbSymbolTable
 70
     1
  0
DIMSTYLE
105
3D6
330
A
100
AcDbSymbolTableRecord
100
AcDbDimStyleTableRecord
  2
STANDARD
 70
     0
  3

  4

  5

  6

  7

 40
1.0
 41
0.18
 42
0.0625
 43
0.38
 44
0.18
 45
0.0
 46
0.0
 47
0.0
 48
0.0
140
0.18
141
0.09
142
0.0
143
25.4
144
1.0
145
0.0
146
1.0
147
0.09
 71
     0
 72
     0
 73
     1
 74
     1
 75
     0
 76
     0
 77
     0
 78
     0
170
     0
171
     2
172
     0
173
     0
174
     0
175
     0
176
     0
177
     0
178
     0
270
     2
271
     4
272
     4
273
     2
274
     2
340
10
275
     0
280
     0
281
     0
282
     0
283
     1
284
     0
285
     0
286
     0
287
     3
288
     0
  0
ENDTAB
  0
TABLE
  2
BLOCK_RECORD
  5
1
330
0
100
AcDbSymbolTable
 70
     5
  0
BLOCK_RECORD
  5
18
102
{ACAD_XDICTIONARY
360
437
102
}
330
1
100
AcDbSymbolTableRecord
100
AcDbBlockTableRecord
  2
*MODEL_SPACE
  0
BLOCK_RECORD
  5
15
102
{ACAD_XDICTIONARY
360
435
102
}
330
1
100
AcDbSymbolTableRecord
100
AcDbBlockTableRecord
  2
*PAPER_SPACE
  0
BLOCK_RECORD
  5
33E
330
1
100
AcDbSymbolTableRecord
100
AcDbBlockTableRecord
  2
*D0
  0
BLOCK_RECORD
  5
33F
330
1
100
AcDbSymbolTableRecord
100
AcDbBlockTableRecord
  2
*D1
  0
BLOCK_RECORD
  5
340
330
1
100
AcDbSymbolTableRecord
100
AcDbBlockTableRecord
  2
*D2
  0
BLOCK_RECORD
  5
341
330
1
100
AcDbSymbolTableRecord
100
AcDbBlockTableRecord
  2
*D3
  0
BLOCK_RECORD
  5
37A
330
1
100
AcDbSymbolTableRecord
100
AcDbBlockTableRecord
  2
*D4
  0
ENDTAB
  0
ENDSEC
  0
SECTION
  2
BLOCKS
  0
BLOCK
  5
38A
330
18
100
AcDbEntity
  8
0
100
AcDbBlockBegin
  2
*MODEL_SPACE
 70
     0
 10
0.0
 20
0.0
 30
0.0
  3
*MODEL_SPACE
  1

  0
ENDBLK
  5
38B
330
18
100
AcDbEntity
  8
0
100
AcDbBlockEnd
  0
BLOCK
  5
388
330
15
100
AcDbEntity
 67
     1
  8
0
100
AcDbBlockBegin
  2
*PAPER_SPACE
 70
     0
 10
0.0
 20
0.0
 30
0.0
  3
*PAPER_SPACE
  1

  0
ENDBLK
  5
389
330
15
100
AcDbEntity
 67
     1
  8
0
100
AcDbBlockEnd
  0
BLOCK
  5
38D
330
33E
100
AcDbEntity
  8
0
100
AcDbBlockBegin
  2
*D0
 70
     1
 10
0.0
 20
0.0
 30
0.0
  3
*D0
  1

  0
LINE
  5
38E
330
33E
100
AcDbEntity
  8
0
  6
BYBLOCK
 62
     0
100
AcDbLine
 10
-161.1486181266329
 20
111.5464647143467
 30
0.0
 11
-161.6812121977425
 21
111.5464647143467
 31
0.0
  0
LINE
  5
38F
330
33E
100
AcDbEntity
  8
0
  6
BYBLOCK
 62
     0
100
AcDbLine
 10
-160.1913433596136
 20
114.5464647143467
 30
0.0
 11
-161.6812121977425
 21
114.5464647143467
 31
0.0
  0
LINE
  5
390
330
33E
100
AcDbEntity
  8
0
  6
BYBLOCK
 62
     0
100
AcDbLine
 10
-161.5012121977425
 20
111.5464647143467
 30
0.0
 11
-161.5012121977425
 21
112.8797980476801
 31
0.0
  0
LINE
  5
391
330
33E
100
AcDbEntity
  8
0
  6
BYBLOCK
 62
     0
100
AcDbLine
 10
-161.5012121977425
 20
114.5464647143467
 30
0.0
 11
-161.5012121977425
 21
113.2131313810134
 31
0.0
  0
LINE
  5
392
330
33E
100
AcDbEntity
  8
0
  6
BYBLOCK
 62
     0
100
AcDbLine
 10
-161.3762121977425
 20
111.4214647143467
 30
0.0
 11
-161.6262121977425
 21
111.6714647143467
 31
0.0
  0
LINE
  5
393
330
33E
100
AcDbEntity
  8
0
  6
BYBLOCK
 62
     0
100
AcDbLine
 10
-161.3762121977425
 20
114.4214647143467
 30
0.0
 11
-161.6262121977425
 21
114.6714647143467
 31
0.0
  0
TEXT
  5
394
330
33E
100
AcDbEntity
  8
0
  6
BYBLOCK
 62
     0
100
AcDbText
 10
-161.4387121977425
 20
113.0047980476801
 30
0.0
 40
0.125
  1
3
 50
90.0
 72
     1
 11
-161.5012121977425
 21
113.0464647143467
 31
0.0
100
AcDbText
 73
     2
  0
POINT
  5
395
330
33E
100
AcDbEntity
  8
DEFPOINTS
  6
BYBLOCK
 62
     0
100
AcDbPoint
 10
-161.0861181266329
 20
111.5464647143467
 30
0.0
  0
POINT
  5
396
330
33E
100
AcDbEntity
  8
DEFPOINTS
  6
BYBLOCK
 62
     0
100
AcDbPoint
 10
-160.1288433596135
 20
114.5464647143467
 30
0.0
  0
POINT
  5
397
330
33E
100
AcDbEntity
  8
DEFPOINTS
  6
BYBLOCK
 62
     0
100
AcDbPoint
 10
-161.5012121977425
 20
114.5464647143467
 30
0.0
  0
ENDBLK
  5
398
330
33E
100
AcDbEntity
  8
0
100
AcDbBlockEnd
  0
BLOCK
  5
399
330
33F
100
AcDbEntity
  8
0
100
AcDbBlockBegin
  2
*D1
 70
     1
 10
0.0
 20
0.0
 30
0.0
  3
*D1
  1

  0
LINE
  5
39A
330
33F
100
AcDbEntity
  8
0
  6
BYBLOCK
 62
     0
100
AcDbLine
 10
-161.0861181266329
 20
111.4839647143467
 30
0.0
 11
-161.0861181266329
 21
110.7185442900727
 31
0.0
  0
LINE
  5
39B
330
33F
100
AcDbEntity
  8
0
  6
BYBLOCK
 62
     0
100
AcDbLine
 10
-159.1861181266329
 20
111.4839647143467
 30
0.0
 11
-159.1861181266329
 21
110.7185442900727
 31
0.0
  0
LINE
  5
39C
330
33F
100
AcDbEntity
  8
0
  6
BYBLOCK
 62
     0
100
AcDbLine
 10
-161.0861181266329
 20
110.8985442900727
 30
0.0
 11
-160.4694514599663
 21
110.8985442900727
 31
0.0
  0
LINE
  5
39D
330
33F
100
AcDbEntity
  8
0
  6
BYBLOCK
 62
     0
100
AcDbLine
 10
-159.1861181266329
 20
110.8985442900727
 30
0.0
 11
-159.8027847932996
 21
110.8985442900727
 31
0.0
  0
LINE
  5
39E
330
33F
100
AcDbEntity
  8
0
  6
BYBLOCK
 62
     0
100
AcDbLine
 10
-161.2111181266329
 20
110.7735442900727
 30
0.0
 11
-160.9611181266329
 21
111.0235442900727
 31
0.0
  0
LINE
  5
39F
330
33F
100
AcDbEntity
  8
0
  6
BYBLOCK
 62
     0
100
AcDbLine
 10
-159.3111181266329
 20
110.7735442900727
 30
0.0
 11
-159.0611181266329
 21
111.0235442900727
 31
0.0
  0
TEXT
  5
3A0
330
33F
100
AcDbEntity
  8
0
  6
BYBLOCK
 62
     0
100
AcDbText
 10
-160.3444514599663
 20
110.8360442900727
 30
0.0
 40
0.125
  1
1.900
 72
     1
 11
-160.1361181266329
 21
110.8985442900727
 31
0.0
100
AcDbText
 73
     2
  0
POINT
  5
3A1
330
33F
100
AcDbEntity
  8
DEFPOINTS
  6
BYBLOCK
 62
     0
100
AcDbPoint
 10
-161.0861181266329
 20
111.5464647143467
 30
0.0
  0
POINT
  5
3A2
330
33F
100
AcDbEntity
  8
DEFPOINTS
  6
BYBLOCK
 62
     0
100
AcDbPoint
 10
-159.1861181266329
 20
111.5464647143467
 30
0.0
  0
POINT
  5
3A3
330
33F
100
AcDbEntity
  8
DEFPOINTS
  6
BYBLOCK
 62
     0
100
AcDbPoint
 10
-159.1861181266329
 20
110.8985442900727
 30
0.0
  0
ENDBLK
  5
3A4
330
33F
100
AcDbEntity
  8
0
100
AcDbBlockEnd
  0
BLOCK
  5
3A5
330
340
100
AcDbEntity
  8
0
100
AcDbBlockBegin
  2
*D2
 70
     1
 10
0.0
 20
0.0
 30
0.0
  3
*D2
  1

  0
LINE
  5
3A6
330
340
100
AcDbEntity
  8
0
  6
BYBLOCK
 62
     0
100
AcDbLine
 10
-157.625325647159
 20
116.1912252351535
 30
0.0
 11
-158.352940449033
 21
117.3556523264339
 31
0.0
  0
LINE
  5
3A7
330
340
100
AcDbEntity
  8
0
  6
BYBLOCK
 62
     0
100
AcDbLine
 10
-160.1694699356282
 20
114.6014674424539
 30
0.0
 11
-160.8970847375023
 21
115.7658945337343
 31
0.0
  0
LINE
  5
3A8
330
340
100
AcDbEntity
  8
0
  6
BYBLOCK
 62
     0
100
AcDbLine
 10
-158.257554981471
 20
117.2030036691257
 30
0.0
 11
-159.3882857763462
 21
116.4964446501481
 31
0.0
  0
LINE
  5
3A9
330
340
100
AcDbEntity
  8
0
  6
BYBLOCK
 62
     0
100
AcDbLine
 10
-160.8016992699403
 20
115.6132458764261
 30
0.0
 11
-159.6709684750651
 21
116.3198048954037
 31
0.0
  0
LINE
  5
3AA
330
340
100
AcDbEntity
  8
0
  6
BYBLOCK
 62
     0
100
AcDbLine
 10
-158.2973210854614
 20
117.030757749077
 30
0.0
 11
-158.2177888774806
 21
117.3752495891745
 31
0.0
  0
LINE
  5
3AB
330
340
100
AcDbEntity
  8
0
  6
BYBLOCK
 62
     0
100
AcDbLine
 10
-160.8414653739307
 20
115.4409999563774
 30
0.0
 11
-160.7619331659499
 21
115.7854917964748
 31
0.0
  0
TEXT
  5
3AC
330
340
100
AcDbEntity
  8
0
  6
BYBLOCK
 62
     0
100
AcDbText
 10
-159.5318425090309
 20
116.3330417974231
 30
0.0
 40
0.125
  1
3
 50
31.99999999999994
 72
     1
 11
-159.5296271257057
 21
116.408124772776
 31
0.0
100
AcDbText
 73
     2
  0
POINT
  5
3AD
330
340
100
AcDbEntity
  8
DEFPOINTS
  6
BYBLOCK
 62
     0
100
AcDbPoint
 10
-157.5922056931444
 20
116.1382222291438
 30
0.0
  0
POINT
  5
3AE
330
340
100
AcDbEntity
  8
DEFPOINTS
  6
BYBLOCK
 62
     0
100
AcDbPoint
 10
-160.1363499816137
 20
114.5484644364441
 30
0.0
  0
POINT
  5
3AF
330
340
100
AcDbEntity
  8
DEFPOINTS
  6
BYBLOCK
 62
     0
100
AcDbPoint
 10
-160.8016992699403
 20
115.6132458764261
 30
0.0
  0
ENDBLK
  5
3B0
330
340
100
AcDbEntity
  8
0
100
AcDbBlockEnd
  0
BLOCK
  5
3B1
330
341
100
AcDbEntity
  8
0
100
AcDbBlockBegin
  2
*D3
 70
     1
 10
0.0
 20
0.0
 30
0.0
  3
*D3
  1

  0
LINE
  5
3B2
330
341
100
AcDbEntity
  8
0
  6
BYBLOCK
 62
     0
100
AcDbLine
 10
-159.8335181853951
 20
114.1975583036439
 30
0.0
 11
-157.151955337724
 21
112.8922431048585
 31
0.0
  0
LINE
  5
3B3
330
341
100
AcDbEntity
  8
0
  6
BYBLOCK
 62
     0
100
AcDbLine
 10
-160.0006192020984
 20
114.139875982117
 30
0.0
 11
-159.6664171686918
 21
114.2552406251708
 31
0.0
  0
TEXT
  5
3B4
330
341
100
AcDbEntity
  8
0
  6
BYBLOCK
 62
     0
100
AcDbText
 10
-157.066918342403
 20
112.7813379227127
 30
0.0
 40
0.125
  1
R3
 50
334.0443831442929
 72
     1
 11
-156.9459039443463
 21
112.7919426342801
 31
0.0
100
AcDbText
 73
     2
  0
POINT
  5
3B5
330
341
100
AcDbEntity
  8
DEFPOINTS
  6
BYBLOCK
 62
     0
100
AcDbPoint
 10
-159.8335181853951
 20
114.1975583036439
 30
0.0
  0
POINT
  5
3B6
330
341
100
AcDbEntity
  8
DEFPOINTS
  6
BYBLOCK
 62
     0
100
AcDbPoint
 10
-157.1361181266329
 20
112.8845339615276
 30
0.0
  0
ENDBLK
  5
3B7
330
341
100
AcDbEntity
  8
0
100
AcDbBlockEnd
  0
BLOCK
  5
3B8
330
37A
100
AcDbEntity
  8
0
100
AcDbBlockBegin
  2
*D4
 70
     1
 10
0.0
 20
0.0
 30
0.0
  3
*D4
  1

  0
LINE
  5
3B9
330
37A
100
AcDbEntity
  8
0
  6
BYBLOCK
 62
     0
100
AcDbLine
 10
-159.3326606260806
 20
109.8481275274442
 30
0.0
 11
-159.3326606260806
 21
109.9656275274442
 31
0.0
  0
LINE
  5
3BA
330
37A
100
AcDbEntity
  8
0
  6
BYBLOCK
 62
     0
100
AcDbLine
 10
-159.1876606260806
 20
109.8481275274442
 30
0.0
 11
-159.1876606260806
 21
109.9656275274442
 31
0.0
  0
LINE
  5
3BB
330
37A
100
AcDbEntity
  8
0
  6
BYBLOCK
 62
     0
100
AcDbLine
 10
-159.3326606260806
 20
109.7856275274442
 30
0.0
 11
-159.5826606260807
 21
109.7856275274442
 31
0.0
  0
LINE
  5
3BC
330
37A
100
AcDbEntity
  8
0
  6
BYBLOCK
 62
     0
100
AcDbLine
 10
-159.1876606260806
 20
109.7856275274442
 30
0.0
 11
-158.9376606260806
 21
109.7856275274442
 31
0.0
  0
LINE
  5
3BD
330
37A
100
AcDbEntity
  8
0
  6
BYBLOCK
 62
     0
100
AcDbLine
 10
-159.4576606260806
 20
109.6606275274442
 30
0.0
 11
-159.2076606260806
 21
109.9106275274442
 31
0.0
  0
LINE
  5
3BE
330
37A
100
AcDbEntity
  8
0
  6
BYBLOCK
 62
     0
100
AcDbLine
 10
-159.3126606260806
 20
109.6606275274442
 30
0.0
 11
-159.0626606260807
 21
109.9106275274442
 31
0.0
  0
TEXT
  5
3BF
330
37A
100
AcDbEntity
  8
0
  6
BYBLOCK
 62
     0
100
AcDbText
 10
-158.8126606260806
 20
109.7231275274442
 30
0.0
 40
0.125
  1
0.145
 72
     1
 11
-158.5939106260806
 21
109.7856275274442
 31
0.0
100
AcDbText
 73
     2
  0
POINT
  5
3C0
330
37A
100
AcDbEntity
  8
DEFPOINTS
  6
BYBLOCK
 62
     0
100
AcDbPoint
 10
-159.3326606260806
 20
109.7856275274442
 30
0.0
  0
POINT
  5
3C1
330
37A
100
AcDbEntity
  8
DEFPOINTS
  6
BYBLOCK
 62
     0
100
AcDbPoint
 10
-159.1876606260806
 20
109.7856275274442
 30
0.0
  0
POINT
  5
3C2
330
37A
100
AcDbEntity
  8
DEFPOINTS
  6
BYBLOCK
 62
     0
100
AcDbPoint
 10
-159.1876606260806
 20
109.7856275274442
 30
0.0
  0
ENDBLK
  5
3C3
330
37A
100
AcDbEntity
  8
0
100
AcDbBlockEnd
  0
ENDSEC
  0
SECTION
  2
ENTITIES
  0
DIMENSION
  5
3C4
330
18
100
AcDbEntity
  8
ADPDIM
100
AcDbDimension
  2
*D3
 10
-157.1361181266329
 20
112.8845339615276
 30
0.0
 11
-156.9459039443463
 21
112.7919426342801
 31
0.0
 70
     4
100
AcDbRadialDimension
 15
-159.8335181853951
 25
114.1975583036439
 35
0.0
 40
-2.982386137674005
  0
DIMENSION
  5
3C5
330
18
100
AcDbEntity
  8
ADPDIM
100
AcDbDimension
  2
*D0
 10
-161.5012121977425
 20
114.5464647143467
 30
0.0
 11
-161.5012121977425
 21
113.0464647143467
 31
0.0
100
AcDbAlignedDimension
 13
-161.0861181266329
 23
111.5464647143467
 33
0.0
 14
-160.1288433596135
 24
114.5464647143467
 34
0.0
 50
90.0
100
AcDbRotatedDimension
  0
ARC
  5
3C6
330
18
100
AcDbEntity
  8
ADP3DETAIL
  6
CENTER2
100
AcDbCircle
 10
-157.1361181266329
 20
112.8845339615276
 30
0.0
 40
3.0
100
AcDbArc
 50
122.0291182612622
 51
180.0
  0
ARC
  5
3C7
330
18
100
AcDbEntity
  8
ADP1DETAIL
100
AcDbCircle
 10
-157.1361181266329
 20
112.8842464317714
 30
0.0
 40
3.95
100
AcDbArc
 50
122.0521026195022
 51
180.0
  0
ARC
  5
3C8
330
18
100
AcDbEntity
  8
ADP1DETAIL
100
AcDbCircle
 10
-157.1361181266329
 20
112.8947108498265
 30
0.0
 40
2.049999999999999
100
AcDbArc
 50
121.6689834922905
 51
180.0
  0
CIRCLE
  5
3C9
330
18
100
AcDbEntity
  8
0
100
AcDbCircle
 10
-160.1381560941891
 20
109.7573839443397
 30
0.0
 40
0.95
  0
CIRCLE
  5
3CA
330
18
100
AcDbEntity
  8
0
100
AcDbCircle
 10
-160.1381560941891
 20
109.7573839443397
 30
0.0
 40
0.805
  0
DIMENSION
  5
3CB
330
18
100
AcDbEntity
  8
ADPDIM
100
AcDbDimension
  2
*D4
 10
-159.1876606260806
 20
109.7856275274442
 30
0.0
 11
-158.5939106260806
 21
109.7856275274442
 31
0.0
  1
0.145
100
AcDbAlignedDimension
 13
-159.3326606260806
 23
109.7856275274442
 33
0.0
 14
-159.1876606260806
 24
109.7856275274442
 34
0.0
100
AcDbRotatedDimension
  0
DIMENSION
  5
3CC
330
18
100
AcDbEntity
  8
ADPDIM
100
AcDbDimension
  2
*D1
 10
-159.1861181266329
 20
110.8985442900727
 30
0.0
 11
-160.1361181266329
 21
110.8985442900727
 31
0.0
  1
1.900
100
AcDbAlignedDimension
 13
-161.0861181266329
 23
111.5464647143467
 33
0.0
 14
-159.1861181266329
 24
111.5464647143467
 34
0.0
100
AcDbRotatedDimension
  0
LINE
  5
3CD
330
18
100
AcDbEntity
  8
ADP1DETAIL
100
AcDbLine
 10
-159.1861181266329
 20
111.5464647143467
 30
0.0
 11
-161.0861181266329
 21
111.5464647143467
 31
0.0
  0
LINE
  5
3CE
330
18
100
AcDbEntity
  8
ADP3DETAIL
  6
CENTER2
100
AcDbLine
 10
-160.1361181266329
 20
111.1155798732804
 30
0.0
 11
-160.1361181266329
 21
112.8845339615276
 31
0.0
  0
LINE
  5
3CF
330
18
100
AcDbEntity
  8
ADP1DETAIL
100
AcDbLine
 10
-161.0861181266329
 20
111.5464647143467
 30
0.0
 11
-161.0861181266329
 21
112.8842464317714
 31
0.0
  0
LINE
  5
3D0
330
18
100
AcDbEntity
  8
ADP1DETAIL
100
AcDbLine
 10
-159.1861181266329
 20
112.8947108498265
 30
0.0
 11
-159.1861181266329
 21
111.5464647143467
 31
0.0
  0
DIMENSION
  5
3D1
330
18
100
AcDbEntity
  8
ADPDIM
100
AcDbDimension
  2
*D2
 10
-160.8016992699403
 20
115.6132458764261
 30
0.0
 11
-159.5296271257057
 21
116.408124772776
 31
0.0
 70
     1
100
AcDbAlignedDimension
 13
-157.5922056931444
 23
116.1382222291438
 33
0.0
 14
-160.1363499816137
 24
114.5484644364441
 34
0.0
  0
LINE
  5
3D2
330
18
100
AcDbEntity
  8
ADP3DETAIL
  6
CENTER2
100
AcDbLine
 10
-158.7271686723549
 20
115.4278699914217
 30
0.0
 11
-157.1021810912874
 21
116.444423583735
 31
0.0
  0
LINE
  5
3D3
330
18
100
AcDbEntity
  8
ADP1DETAIL
100
AcDbLine
 10
-158.0963614097006
 20
116.9434097932949
 30
0.0
 11
-157.0880499765881
 21
115.3330346649926
 31
0.0
  0
LINE
  5
3D4
330
18
100
AcDbEntity
  8
ADP1DETAIL
100
AcDbLine
 10
-158.2123906681447
 20
114.639456509339
 30
0.0
 11
-157.0895152239582
 21
115.3321190768181
 31
0.0
  0
LINE
  5
3D5
330
18
100
AcDbEntity
  8
ADP1DETAIL
100
AcDbLine
 10
-159.232344527051
 20
116.2321315669262
 30
0.0
 11
-158.0963614097006
 21
116.9434097932949
 31
0.0
  0
TEXT
  5
3E3
330
18
100
AcDbEntity
  8
ADPDIM
100
AcDbText
 10
-169.2744598688723
 20
108.2755999842275
 30
0.0
 40
0.1875
  1
J U L I U S  B L U M  &  C O . ,  I N C .      ( 8 0 0 )  5 2 6 - 6 2 9 3        W W W . J U L I U S B L U M . C O M        P A R T  N o .  7 5 2 2
 41
1.25
  7
ARIAL_WIDE
 72
     1
 11
-159.4858663320374
 21
108.4630999842275
 31
0.0
100
AcDbText
 73
     3
  0
ENDSEC
  0
SECTION
  2
OBJECTS
  0
DICTIONARY
  5
C
330
0
100
AcDbDictionary
  3
ACAD_GROUP
350
D
  3
ACAD_LAYOUT
350
3DC
  3
ACAD_MLINESTYLE
350
E
  3
ACAD_PLOTSETTINGS
350
3DD
  3
ACAD_PLOTSTYLENAME
350
3DA
  3
ACDBHEADERROUNDTRIPXREC
350
527
  3
ACDBVARIABLEDICTIONARY
350
43D
  0
DICTIONARY
  5
437
330
18
100
AcDbDictionary
280
     1
  3
ACAD_LAYOUTSELFREF
360
548
  0
DICTIONARY
  5
435
330
15
100
AcDbDictionary
280
     1
  3
ACAD_LAYOUTSELFREF
360
547
  0
DICTIONARY
  5
D
102
{ACAD_REACTORS
330
C
102
}
330
C
100
AcDbDictionary
  0
DICTIONARY
  5
3DC
102
{ACAD_REACTORS
330
C
102
}
330
C
100
AcDbDictionary
  0
DICTIONARY
  5
E
102
{ACAD_REACTORS
330
C
102
}
330
C
100
AcDbDictionary
  3
STANDARD
350
1B
  0
DICTIONARY
  5
3DD
102
{ACAD_REACTORS
330
C
102
}
330
C
100
AcDbDictionary
  0
ACDBDICTIONARYWDFLT
  5
3DA
102
{ACAD_REACTORS
330
C
102
}
330
C
100
AcDbDictionary
281
     1
  3
Normal
350
3DB
100
AcDbDictionaryWithDefault
340
3DB
  0
DICTIONARY
  5
527
102
{ACAD_REACTORS
330
C
102
}
330
C
100
AcDbDictionary
  3
CEPSNTYPE
350
531
  3
FINGERPRINTGUID
350
532
  3
HYPERLINKBASE
350
52A
  3
INSUNITS
350
530
  3
LAYOUTDICT
350
52C
  3
LWETCUNION
350
52F
  3
PLOTSETDICT
350
52D
  3
PLOTSTYLNAMDICT
350
52E
  3
PSVPSCALE
350
534
  3
PUCSBASE
350
537
  3
PUCSORGBACK
350
53D
  3
PUCSORGBOTTOM
350
539
  3
PUCSORGFRONT
350
53C
  3
PUCSORGLEFT
350
53A
  3
PUCSORGRIGHT
350
53B
  3
PUCSORGTOP
350
538
  3
PUCSORTHOREF
350
535
  3
PUCSORTHOVIEW
350
536
  3
STYLESHEET
350
52B
  3
TSTACKALIGN
350
528
  3
TSTACKSIZE
350
529
  3
UCSBASE
350
540
  3
UCSORGBACK
350
546
  3
UCSORGBOTTOM
350
542
  3
UCSORGFRONT
350
545
  3
UCSORGLEFT
350
543
  3
UCSORGRIGHT
350
544
  3
UCSORGTOP
350
541
  3
UCSORTHOREF
350
53E
  3
UCSORTHOVIEW
350
53F
  3
VERSIONGUID
350
533
  0
DICTIONARY
  5
43D
102
{ACAD_REACTORS
330
C
102
}
330
C
100
AcDbDictionary
  3
DIMASSOC
350
43E
  0
XRECORD
  5
548
102
{ACAD_REACTORS
330
437
102
}
330
437
100
AcDbXrecord
340
18
  0
XRECORD
  5
547
102
{ACAD_REACTORS
330
435
102
}
330
435
100
AcDbXrecord
340
15
  0
MLINESTYLE
  5
1B
102
{ACAD_REACTORS
330
E
102
}
330
E
100
AcDbMlineStyle
  2
STANDARD
 70
     0
  3

 62
     0
 51
90.0
 52
90.0
 71
     2
 49
0.5
 62
   256
  6
BYLAYER
 49
-0.5
 62
   256
  6
BYLAYER
  0
ACDBPLACEHOLDER
  5
3DB
102
{ACAD_REACTORS
330
3DA
102
}
330
3DA
100
AcDbPlaceHolder
280
     0
  0
XRECORD
  5
531
102
{ACAD_REACTORS
330
527
102
}
330
527
100
AcDbXrecord
 90
        0
  0
XRECORD
  5
532
102
{ACAD_REACTORS
330
527
102
}
330
527
100
AcDbXrecord
  1
{02155C5D-EA5D-4A92-8067-67BEE9CE686D}
  0
XRECORD
  5
52A
102
{ACAD_REACTORS
330
527
102
}
330
527
100
AcDbXrecord
  1

  0
XRECORD
  5
530
102
{ACAD_REACTORS
330
527
102
}
330
527
100
AcDbXrecord
 90
        0
  0
XRECORD
  5
52C
102
{ACAD_REACTORS
330
527
102
}
330
527
100
AcDbXrecord
340
3DC
  0
XRECORD
  5
52F
102
{ACAD_REACTORS
330
527
102
}
330
527
100
AcDbXrecord
 90
    14877
  0
XRECORD
  5
52D
102
{ACAD_REACTORS
330
527
102
}
330
527
100
AcDbXrecord
340
3DD
  0
XRECORD
  5
52E
102
{ACAD_REACTORS
330
527
102
}
330
527
100
AcDbXrecord
340
3DA
  0
XRECORD
  5
534
102
{ACAD_REACTORS
330
527
102
}
330
527
100
AcDbXrecord
 40
0.0
  0
XRECORD
  5
537
102
{ACAD_REACTORS
330
527
102
}
330
527
100
AcDbXrecord
340
0
  0
XRECORD
  5
53D
102
{ACAD_REACTORS
330
527
102
}
330
527
100
AcDbXrecord
 10
0.0
 20
0.0
 30
0.0
  0
XRECORD
  5
539
102
{ACAD_REACTORS
330
527
102
}
330
527
100
AcDbXrecord
 10
0.0
 20
0.0
 30
0.0
  0
XRECORD
  5
53C
102
{ACAD_REACTORS
330
527
102
}
330
527
100
AcDbXrecord
 10
0.0
 20
0.0
 30
0.0
  0
XRECORD
  5
53A
102
{ACAD_REACTORS
330
527
102
}
330
527
100
AcDbXrecord
 10
0.0
 20
0.0
 30
0.0
  0
XRECORD
  5
53B
102
{ACAD_REACTORS
330
527
102
}
330
527
100
AcDbXrecord
 10
0.0
 20
0.0
 30
0.0
  0
XRECORD
  5
538
102
{ACAD_REACTORS
330
527
102
}
330
527
100
AcDbXrecord
 10
0.0
 20
0.0
 30
0.0
  0
XRECORD
  5
535
102
{ACAD_REACTORS
330
527
102
}
330
527
100
AcDbXrecord
340
0
  0
XRECORD
  5
536
102
{ACAD_REACTORS
330
527
102
}
330
527
100
AcDbXrecord
 70
     0
  0
XRECORD
  5
52B
102
{ACAD_REACTORS
330
527
102
}
330
527
100
AcDbXrecord
  1

  0
XRECORD
  5
528
102
{ACAD_REACTORS
330
527
102
}
330
527
100
AcDbXrecord
 90
        1
  0
XRECORD
  5
529
102
{ACAD_REACTORS
330
527
102
}
330
527
100
AcDbXrecord
 90
       70
  0
XRECORD
  5
540
102
{ACAD_REACTORS
330
527
102
}
330
527
100
AcDbXrecord
340
0
  0
XRECORD
  5
546
102
{ACAD_REACTORS
330
527
102
}
330
527
100
AcDbXrecord
 10
0.0
 20
0.0
 30
0.0
  0
XRECORD
  5
542
102
{ACAD_REACTORS
330
527
102
}
330
527
100
AcDbXrecord
 10
0.0
 20
0.0
 30
0.0
  0
XRECORD
  5
545
102
{ACAD_REACTORS
330
527
102
}
330
527
100
AcDbXrecord
 10
0.0
 20
0.0
 30
0.0
  0
XRECORD
  5
543
102
{ACAD_REACTORS
330
527
102
}
330
527
100
AcDbXrecord
 10
0.0
 20
0.0
 30
0.0
  0
XRECORD
  5
544
102
{ACAD_REACTORS
330
527
102
}
330
527
100
AcDbXrecord
 10
0.0
 20
0.0
 30
0.0
  0
XRECORD
  5
541
102
{ACAD_REACTORS
330
527
102
}
330
527
100
AcDbXrecord
 10
0.0
 20
0.0
 30
0.0
  0
XRECORD
  5
53E
102
{ACAD_REACTORS
330
527
102
}
330
527
100
AcDbXrecord
340
0
  0
XRECORD
  5
53F
102
{ACAD_REACTORS
330
527
102
}
330
527
100
AcDbXrecord
 70
     0
  0
XRECORD
  5
533
102
{ACAD_REACTORS
330
527
102
}
330
527
100
AcDbXrecord
  1
{D3EC5B0F-B937-401B-94F3-187ED58111D3}
  0
DICTIONARYVAR
  5
43E
102
{ACAD_REACTORS
330
43D
102
}
330
43D
100
DictionaryVariables
280
     0
  1
1
  0
ENDSEC
  0
EOF
