  0
SECTION
  2
HEADER
  9
$ACADVER
  1
AC1014
  9
$ACADMAINTVER
 70
     9
  9
$DWGCODEPAGE
  3
ANSI_1252
  9
$INSBASE
 10
12.89475440385556
 20
-0.742834911821312
 30
0.0
  9
$EXTMIN
 10
7.444618507956848
 20
-1.550510566225536
 30
0.0
  9
$EXTMAX
 10
17.09667981423243
 20
1.888290329477199
 30
0.0
  9
$LIMMIN
 10
0.0
 20
0.0
  9
$LIMMAX
 10
36.0
 20
36.0
  9
$ORTHOMODE
 70
     1
  9
$REGENMODE
 70
     1
  9
$FILLMODE
 70
     1
  9
$QTEXTMODE
 70
     0
  9
$MIRRTEXT
 70
     1
  9
$DRAGMODE
 70
     0
  9
$LTSCALE
 40
1.0
  9
$OSMODE
 70
    37
  9
$ATTMODE
 70
     1
  9
$TEXTSIZE
 40
0.2
  9
$TRACEWID
 40
0.05
  9
$TEXTSTYLE
  7
STANDARD
  9
$CLAYER
  8
0
  9
$CELTYPE
  6
BYLAYER
  9
$CECOLOR
 62
   256
  9
$CELTSCALE
 40
1.0
  9
$DELOBJ
 70
     1
  9
$DISPSILH
 70
     0
  9
$DIMSCALE
 40
1.0
  9
$DIMASZ
 40
0.125
  9
$DIMEXO
 40
0.0625
  9
$DIMDLI
 40
0.38
  9
$DIMRND
 40
0.0
  9
$DIMDLE
 40
0.0
  9
$DIMEXE
 40
0.18
  9
$DIMTP
 40
0.0
  9
$DIMTM
 40
0.0
  9
$DIMTXT
 40
0.125
  9
$DIMCEN
 40
0.1875
  9
$DIMTSZ
 40
0.125
  9
$DIMTOL
 70
     0
  9
$DIMLIM
 70
     0
  9
$DIMTIH
 70
     0
  9
$DIMTOH
 70
     0
  9
$DIMSE1
 70
     0
  9
$DIMSE2
 70
     0
  9
$DIMTAD
 70
     0
  9
$DIMZIN
 70
     3
  9
$DIMBLK
  1

  9
$DIMASO
 70
     1
  9
$DIMSHO
 70
     1
  9
$DIMPOST
  1

  9
$DIMAPOST
  1

  9
$DIMALT
 70
     0
  9
$DIMALTD
 70
     1
  9
$DIMALTF
 40
25.4
  9
$DIMLFAC
 40
1.0
  9
$DIMTOFL
 70
     0
  9
$DIMTVP
 40
0.0
  9
$DIMTIX
 70
     0
  9
$DIMSOXD
 70
     0
  9
$DIMSAH
 70
     0
  9
$DIMBLK1
  1

  9
$DIMBLK2
  1

  9
$DIMSTYLE
  2
STANDARD
  9
$DIMCLRD
 70
     0
  9
$DIMCLRE
 70
     0
  9
$DIMCLRT
 70
     0
  9
$DIMTFAC
 40
1.0
  9
$DIMGAP
 40
0.125
  9
$DIMJUST
 70
     0
  9
$DIMSD1
 70
     0
  9
$DIMSD2
 70
     0
  9
$DIMTOLJ
 70
     1
  9
$DIMTZIN
 70
     0
  9
$DIMALTZ
 70
     0
  9
$DIMALTTZ
 70
     0
  9
$DIMFIT
 70
     3
  9
$DIMUPT
 70
     0
  9
$DIMUNIT
 70
     2
  9
$DIMDEC
 70
     4
  9
$DIMTDEC
 70
     4
  9
$DIMALTU
 70
     2
  9
$DIMALTTD
 70
     2
  9
$DIMTXSTY
  7
STANDARD
  9
$DIMAUNIT
 70
     0
  9
$LUNITS
 70
     5
  9
$LUPREC
 70
     4
  9
$SKETCHINC
 40
0.1
  9
$FILLETRAD
 40
0.0
  9
$AUNITS
 70
     0
  9
$AUPREC
 70
     0
  9
$MENU
  1
acad
  9
$ELEVATION
 40
0.0
  9
$PELEVATION
 40
0.0
  9
$THICKNESS
 40
0.0
  9
$LIMCHECK
 70
     0
  9
$BLIPMODE
 70
     0
  9
$CHAMFERA
 40
0.0
  9
$CHAMFERB
 40
0.0
  9
$CHAMFERC
 40
0.0
  9
$CHAMFERD
 40
0.0
  9
$SKPOLY
 70
     0
  9
$TDCREATE
 40
2450375.388628472
  9
$TDUPDATE
 40
2452297.075542164
  9
$TDINDWG
 40
0.0125372106
  9
$TDUSRTIMER
 40
0.0125372106
  9
$USRTIMER
 70
     1
  9
$ANGBASE
 50
0.0
  9
$ANGDIR
 70
     0
  9
$PDMODE
 70
     0
  9
$PDSIZE
 40
0.0
  9
$PLINEWID
 40
0.0
  9
$COORDS
 70
     2
  9
$SPLFRAME
 70
     0
  9
$SPLINETYPE
 70
     6
  9
$SPLINESEGS
 70
     8
  9
$ATTDIA
 70
     0
  9
$ATTREQ
 70
     1
  9
$HANDLING
 70
 22529
  9
$HANDSEED
  5
260
  9
$SURFTAB1
 70
     6
  9
$SURFTAB2
 70
     6
  9
$SURFTYPE
 70
     6
  9
$SURFU
 70
     6
  9
$SURFV
 70
     6
  9
$UCSNAME
  2

  9
$UCSORG
 10
0.0
 20
0.0
 30
0.0
  9
$UCSXDIR
 10
1.0
 20
0.0
 30
0.0
  9
$UCSYDIR
 10
0.0
 20
1.0
 30
0.0
  9
$PUCSNAME
  2

  9
$PUCSORG
 10
0.0
 20
0.0
 30
0.0
  9
$PUCSXDIR
 10
1.0
 20
0.0
 30
0.0
  9
$PUCSYDIR
 10
0.0
 20
1.0
 30
0.0
  9
$USERI1
 70
     0
  9
$USERI2
 70
     0
  9
$USERI3
 70
     0
  9
$USERI4
 70
     0
  9
$USERI5
 70
     0
  9
$USERR1
 40
0.0
  9
$USERR2
 40
0.0
  9
$USERR3
 40
0.0
  9
$USERR4
 40
0.0
  9
$USERR5
 40
0.0
  9
$WORLDVIEW
 70
     1
  9
$SHADEDGE
 70
     3
  9
$SHADEDIF
 70
    70
  9
$TILEMODE
 70
     1
  9
$MAXACTVP
 70
    15
  9
$PINSBASE
 10
6.111119585016845E+90
 20
8.346071047958366E+93
 30
0.0
  9
$PLIMCHECK
 70
     0
  9
$PEXTMIN
 10
1.000000000000000E+20
 20
1.000000000000000E+20
 30
1.000000000000000E+20
  9
$PEXTMAX
 10
-1.000000000000000E+20
 20
-1.000000000000000E+20
 30
-1.000000000000000E+20
  9
$PLIMMIN
 10
0.0
 20
0.0
  9
$PLIMMAX
 10
12.0
 20
9.0
  9
$UNITMODE
 70
     0
  9
$VISRETAIN
 70
     0
  9
$PLINEGEN
 70
     0
  9
$PSLTSCALE
 70
     1
  9
$TREEDEPTH
 70
  3020
  9
$PICKSTYLE
 70
     1
  9
$CMLSTYLE
  2
STANDARD
  9
$CMLJUST
 70
     0
  9
$CMLSCALE
 40
1.0
  9
$PROXYGRAPHICS
 70
     1
  9
$MEASUREMENT
 70
     0
  0
ENDSEC
  0
SECTION
  2
CLASSES
  0
CLASS
  1
ACDBDICTIONARYWDFLT
  2
AcDbDictionaryWithDefault
  3
AutoCAD 2000
 90
        0
280
     0
281
     0
  0
CLASS
  1
ACDBPLACEHOLDER
  2
AcDbPlaceHolder
  3
AutoCAD 2000
 90
        0
280
     0
281
     0
  0
CLASS
  1
LAYOUT
  2
AcDbLayout
  3
AutoCAD 2000
 90
        0
280
     0
281
     0
  0
CLASS
  1
DICTIONARYVAR
  2
AcDbDictionaryVar
  3
AutoCAD 2000
 90
        0
280
     0
281
     0
  0
CLASS
  1
LONG_TRANSACTION
  2
AcDbLongTransaction
  3
AutoCAD 2000
 90
        0
280
     0
281
     0
  0
CLASS
  1
LWPOLYLINE
  2
AcDbPolyline
  3
AutoCAD 2000
 90
        0
280
     0
281
     1
  0
CLASS
  1
HATCH
  2
AcDbHatch
  3
AutoCAD 2000
 90
        0
280
     0
281
     1
  0
CLASS
  1
XRECORD
  2
AcDbXrecord
  3
AutoCAD 2000
 90
        0
280
     0
281
     0
  0
CLASS
  1
LONG_TRANSACTION
  2
AcDbLongTransaction
  3
AutoCAD 2000
 90
        0
280
     0
281
     0
  0
CLASS
  1
LWPOLYLINE
  2
AcDbPolyline
  3
AutoCAD 2000
 90
        0
280
     0
281
     1
  0
CLASS
  1
HATCH
  2
AcDbHatch
  3
AutoCAD 2000
 90
        0
280
     0
281
     1
  0
CLASS
  1
XRECORD
  2
AcDbXrecord
  3
AutoCAD 2000
 90
        0
280
     0
281
     0
  0
CLASS
  1
LONG_TRANSACTION
  2
AcDbLongTransaction
  3
AutoCAD 2000
 90
        0
280
     0
281
     0
  0
CLASS
  1
LWPOLYLINE
  2
AcDbPolyline
  3
AutoCAD 2000
 90
        0
280
     0
281
     1
  0
CLASS
  1
HATCH
  2
AcDbHatch
  3
AutoCAD 2000
 90
        0
280
     0
281
     1
  0
CLASS
  1
XRECORD
  2
AcDbXrecord
  3
AutoCAD 2000
 90
        0
280
     0
281
     0
  0
CLASS
  1
LONG_TRANSACTION
  2
AcDbLongTransaction
  3
AutoCAD 2000
 90
        0
280
     0
281
     0
  0
CLASS
  1
LWPOLYLINE
  2
AcDbPolyline
  3
AutoCAD 2000
 90
        0
280
     0
281
     1
  0
CLASS
  1
HATCH
  2
AcDbHatch
  3
AutoCAD 2000
 90
        0
280
     0
281
     1
  0
CLASS
  1
XRECORD
  2
AcDbXrecord
  3
AutoCAD 2000
 90
        0
280
     0
281
     0
  0
CLASS
  1
LONG_TRANSACTION
  2
AcDbLongTransaction
  3
AutoCAD 2000
 90
        0
280
     0
281
     0
  0
CLASS
  1
LWPOLYLINE
  2
AcDbPolyline
  3
AutoCAD 2000
 90
        0
280
     0
281
     1
  0
CLASS
  1
HATCH
  2
AcDbHatch
  3
AutoCAD 2000
 90
        0
280
     0
281
     1
  0
CLASS
  1
XRECORD
  2
AcDbXrecord
  3
AutoCAD 2000
 90
        0
280
     0
281
     0
  0
ENDSEC
  0
SECTION
  2
TABLES
  0
TABLE
  2
VPORT
  5
8
330
0
100
AcDbSymbolTable
 70
     2
  0
VPORT
  5
23D
330
8
100
AcDbSymbolTableRecord
100
AcDbViewportTableRecord
  2
*ACTIVE
 70
     0
 10
0.0
 20
0.0
 11
1.0
 21
1.0
 12
12.27842390656802
 22
0.1683134995779092
 13
0.0
 23
0.0
 14
0.5740882589684922
 24
0.5740882589684922
 15
0.5
 25
0.5
 16
0.0
 26
0.0
 36
1.0
 17
0.0
 27
0.0
 37
0.0
 40
6.188393605445586
 41
1.570528967254408
 42
50.0
 43
0.0
 44
0.0
 50
0.0
 51
0.0
 71
     0
 72
   100
 73
     1
 74
     0
 75
     0
 76
     0
 77
     0
 78
     0
  0
ENDTAB
  0
TABLE
  2
LTYPE
  5
5
330
0
100
AcDbSymbolTable
 70
     2
  0
LTYPE
  5
12
330
5
100
AcDbSymbolTableRecord
100
AcDbLinetypeTableRecord
  2
BYBLOCK
 70
     0
  3

 72
    65
 73
     0
 40
0.0
  0
LTYPE
  5
13
330
5
100
AcDbSymbolTableRecord
100
AcDbLinetypeTableRecord
  2
BYLAYER
 70
     0
  3

 72
    65
 73
     0
 40
0.0
  0
LTYPE
  5
14
330
5
100
AcDbSymbolTableRecord
100
AcDbLinetypeTableRecord
  2
CONTINUOUS
 70
     0
  3
Solid line
 72
    65
 73
     0
 40
0.0
  0
LTYPE
  5
86
330
5
100
AcDbSymbolTableRecord
100
AcDbLinetypeTableRecord
  2
HIDDEN2
 70
     0
  3
_ _ _ _ _ _ _ _ _ _ _ _ _ _ _ _ _ _ _ _ _ _ _ _
 72
    65
 73
     2
 40
0.1875
 49
0.125
 74
     0
 49
-0.0625
 74
     0
  0
ENDTAB
  0
TABLE
  2
LAYER
  5
2
330
0
100
AcDbSymbolTable
 70
     4
  0
LAYER
  5
F
330
2
100
AcDbSymbolTableRecord
100
AcDbLayerTableRecord
  2
0
 70
     0
 62
     7
  6
CONTINUOUS
  0
LAYER
  5
8C
330
2
100
AcDbSymbolTableRecord
100
AcDbLayerTableRecord
  2
DEFPOINTS
 70
     0
 62
     7
  6
CONTINUOUS
  0
LAYER
  5
8D
330
2
100
AcDbSymbolTableRecord
100
AcDbLayerTableRecord
  2
ADPDIM
 70
     0
 62
     3
  6
CONTINUOUS
  0
LAYER
  5
8E
330
2
100
AcDbSymbolTableRecord
100
AcDbLayerTableRecord
  2
ADP2DETAIL
 70
     0
 62
     5
  6
CONTINUOUS
  0
ENDTAB
  0
TABLE
  2
STYLE
  5
3
330
0
100
AcDbSymbolTable
 70
     2
  0
STYLE
  5
10
330
3
100
AcDbSymbolTableRecord
100
AcDbTextStyleTableRecord
  2
STANDARD
 70
     0
 40
0.0
 41
1.0
 50
0.0
 71
     0
 42
0.2
  3
txt
  4

  0
STYLE
  5
F9
330
3
100
AcDbSymbolTableRecord
100
AcDbTextStyleTableRecord
  2
ARIAL_WIDE
 70
     0
 40
0.0
 41
1.25
 50
0.0
 71
     0
 42
0.2
  3
ARIAL.TTF
  4

1001
ACAD
1000
Arial
1071
       34
  0
ENDTAB
  0
TABLE
  2
VIEW
  5
6
330
0
100
AcDbSymbolTable
 70
     0
  0
ENDTAB
  0
TABLE
  2
UCS
  5
7
330
0
100
AcDbSymbolTable
 70
     0
  0
ENDTAB
  0
TABLE
  2
APPID
  5
9
330
0
100
AcDbSymbolTable
 70
     1
  0
APPID
  5
11
330
9
100
AcDbSymbolTableRecord
100
AcDbRegAppTableRecord
  2
ACAD
 70
     0
  0
ENDTAB
  0
TABLE
  2
DIMSTYLE
  5
A
330
0
100
AcDbSymbolTable
 70
     1
  0
DIMSTYLE
105
ED
330
A
100
AcDbSymbolTableRecord
100
AcDbDimStyleTableRecord
  2
STANDARD
 70
     0
  3

  4

  5

  6

  7

 40
1.0
 41
0.18
 42
0.0625
 43
0.38
 44
0.18
 45
0.0
 46
0.0
 47
0.0
 48
0.0
140
0.18
141
0.09
142
0.0
143
25.4
144
1.0
145
0.0
146
1.0
147
0.09
 71
     0
 72
     0
 73
     1
 74
     1
 75
     0
 76
     0
 77
     0
 78
     0
170
     0
171
     2
172
     0
173
     0
174
     0
175
     0
176
     0
177
     0
178
     0
270
     2
271
     4
272
     4
273
     2
274
     2
340
10
275
     0
280
     0
281
     0
282
     0
283
     1
284
     0
285
     0
286
     0
287
     3
288
     0
  0
ENDTAB
  0
TABLE
  2
BLOCK_RECORD
  5
1
330
0
100
AcDbSymbolTable
 70
     3
  0
BLOCK_RECORD
  5
18
102
{ACAD_XDICTIONARY
360
14E
102
}
330
1
100
AcDbSymbolTableRecord
100
AcDbBlockTableRecord
  2
*MODEL_SPACE
  0
BLOCK_RECORD
  5
15
102
{ACAD_XDICTIONARY
360
14C
102
}
330
1
100
AcDbSymbolTableRecord
100
AcDbBlockTableRecord
  2
*PAPER_SPACE
  0
BLOCK_RECORD
  5
82
330
1
100
AcDbSymbolTableRecord
100
AcDbBlockTableRecord
  2
*D0
  0
BLOCK_RECORD
  5
83
330
1
100
AcDbSymbolTableRecord
100
AcDbBlockTableRecord
  2
*D1
  0
BLOCK_RECORD
  5
84
330
1
100
AcDbSymbolTableRecord
100
AcDbBlockTableRecord
  2
*D2
  0
ENDTAB
  0
ENDSEC
  0
SECTION
  2
BLOCKS
  0
BLOCK
  5
91
330
18
100
AcDbEntity
  8
0
100
AcDbBlockBegin
  2
*MODEL_SPACE
 70
     0
 10
0.0
 20
0.0
 30
0.0
  3
*MODEL_SPACE
  1

  0
ENDBLK
  5
92
330
18
100
AcDbEntity
  8
0
100
AcDbBlockEnd
  0
BLOCK
  5
8F
330
15
100
AcDbEntity
 67
     1
  8
0
100
AcDbBlockBegin
  2
*PAPER_SPACE
 70
     0
 10
0.0
 20
0.0
 30
0.0
  3
*PAPER_SPACE
  1

  0
ENDBLK
  5
90
330
15
100
AcDbEntity
 67
     1
  8
0
100
AcDbBlockEnd
  0
BLOCK
  5
94
330
82
100
AcDbEntity
  8
0
100
AcDbBlockBegin
  2
*D0
 70
     1
 10
0.0
 20
0.0
 30
0.0
  3
*D0
  1

  0
LINE
  5
95
330
82
100
AcDbEntity
  8
0
  6
BYBLOCK
 62
     0
100
AcDbLine
 10
12.01745791753293
 20
0.2684952903935085
 30
0.0
 11
12.01745791753293
 21
0.5500908776424718
 31
0.0
  0
LINE
  5
96
330
82
100
AcDbEntity
  8
0
  6
BYBLOCK
 62
     0
100
AcDbLine
 10
12.51745791753293
 20
0.2684952903935085
 30
0.0
 11
12.51745791753293
 21
0.5500908776424718
 31
0.0
  0
LINE
  5
97
330
82
100
AcDbEntity
  8
0
  6
BYBLOCK
 62
     0
100
AcDbLine
 10
12.01745791753293
 20
0.3700908776424718
 30
0.0
 11
11.76745791753293
 21
0.3700908776424718
 31
0.0
  0
LINE
  5
98
330
82
100
AcDbEntity
  8
0
  6
BYBLOCK
 62
     0
100
AcDbLine
 10
12.51745791753293
 20
0.3700908776424718
 30
0.0
 11
12.76745791753294
 21
0.3700908776424718
 31
0.0
  0
LINE
  5
99
330
82
100
AcDbEntity
  8
0
  6
BYBLOCK
 62
     0
100
AcDbLine
 10
11.89245791753293
 20
0.2450908776424718
 30
0.0
 11
12.14245791753294
 21
0.4950908776424719
 31
0.0
  0
LINE
  5
9A
330
82
100
AcDbEntity
  8
0
  6
BYBLOCK
 62
     0
100
AcDbLine
 10
12.39245791753293
 20
0.2450908776424718
 30
0.0
 11
12.64245791753293
 21
0.4950908776424719
 31
0.0
  0
TEXT
  5
9B
330
82
100
AcDbEntity
  8
0
  6
BYBLOCK
 62
     0
100
AcDbText
 10
12.89245791753294
 20
0.3075908776424718
 30
0.0
 40
0.125
  1
1/2
 72
     1
 11
13.03829125086627
 21
0.3700908776424718
 31
0.0
100
AcDbText
 73
     2
  0
POINT
  5
9C
330
82
100
AcDbEntity
  8
DEFPOINTS
  6
BYBLOCK
 62
     0
100
AcDbPoint
 10
12.01745791753293
 20
0.2059952903935085
 30
0.0
  0
POINT
  5
9D
330
82
100
AcDbEntity
  8
DEFPOINTS
  6
BYBLOCK
 62
     0
100
AcDbPoint
 10
12.51745791753293
 20
0.2059952903935085
 30
0.0
  0
POINT
  5
9E
330
82
100
AcDbEntity
  8
DEFPOINTS
  6
BYBLOCK
 62
     0
100
AcDbPoint
 10
12.51745791753293
 20
0.3700908776424718
 30
0.0
  0
ENDBLK
  5
9F
330
82
100
AcDbEntity
  8
0
100
AcDbBlockEnd
  0
BLOCK
  5
A0
330
83
100
AcDbEntity
  8
0
100
AcDbBlockBegin
  2
*D1
 70
     1
 10
0.0
 20
0.0
 30
0.0
  3
*D1
  1

  0
LINE
  5
A1
330
83
100
AcDbEntity
  8
0
  6
BYBLOCK
 62
     0
100
AcDbLine
 10
12.95725440385556
 20
-0.742834911821312
 30
0.0
 11
13.54310130353504
 21
-0.742834911821312
 31
0.0
  0
LINE
  5
A2
330
83
100
AcDbEntity
  8
0
  6
BYBLOCK
 62
     0
100
AcDbLine
 10
12.69504839949643
 20
0.2059952903935081
 30
0.0
 11
13.54310130353504
 21
0.205995290393508
 31
0.0
  0
LINE
  5
A3
330
83
100
AcDbEntity
  8
0
  6
BYBLOCK
 62
     0
100
AcDbLine
 10
13.36310130353504
 20
-0.742834911821312
 30
0.0
 11
13.36310130353504
 21
-0.992834911821312
 31
0.0
  0
LINE
  5
A4
330
83
100
AcDbEntity
  8
0
  6
BYBLOCK
 62
     0
100
AcDbLine
 10
13.36310130353504
 20
0.205995290393508
 30
0.0
 11
13.36310130353504
 21
0.455995290393508
 31
0.0
  0
LINE
  5
A5
330
83
100
AcDbEntity
  8
0
  6
BYBLOCK
 62
     0
100
AcDbLine
 10
13.48810130353504
 20
-0.867834911821312
 30
0.0
 11
13.23810130353504
 21
-0.617834911821312
 31
0.0
  0
LINE
  5
A6
330
83
100
AcDbEntity
  8
0
  6
BYBLOCK
 62
     0
100
AcDbLine
 10
13.48810130353504
 20
0.080995290393508
 30
0.0
 11
13.23810130353504
 21
0.330995290393508
 31
0.0
  0
TEXT
  5
A7
330
83
100
AcDbEntity
  8
0
  6
BYBLOCK
 62
     0
100
AcDbText
 10
13.42560130353504
 20
0.5809952903935081
 30
0.0
 40
0.125
  1
15/16
 50
90.0
 72
     1
 11
13.36310130353504
 21
0.830995290393508
 31
0.0
100
AcDbText
 73
     2
  0
POINT
  5
A8
330
83
100
AcDbEntity
  8
DEFPOINTS
  6
BYBLOCK
 62
     0
100
AcDbPoint
 10
12.89475440385556
 20
-0.742834911821312
 30
0.0
  0
POINT
  5
A9
330
83
100
AcDbEntity
  8
DEFPOINTS
  6
BYBLOCK
 62
     0
100
AcDbPoint
 10
12.63254839949643
 20
0.2059952903935081
 30
0.0
  0
POINT
  5
AA
330
83
100
AcDbEntity
  8
DEFPOINTS
  6
BYBLOCK
 62
     0
100
AcDbPoint
 10
13.36310130353504
 20
0.205995290393508
 30
0.0
  0
ENDBLK
  5
AB
330
83
100
AcDbEntity
  8
0
100
AcDbBlockEnd
  0
BLOCK
  5
AC
330
84
100
AcDbEntity
  8
0
100
AcDbBlockBegin
  2
*D2
 70
     1
 10
0.0
 20
0.0
 30
0.0
  3
*D2
  1

  0
LINE
  5
AD
330
84
100
AcDbEntity
  8
0
  6
BYBLOCK
 62
     0
100
AcDbLine
 10
11.64654391833371
 20
-0.805334911821312
 30
0.0
 11
11.64654391833371
 21
-1.09726653974669
 31
0.0
  0
LINE
  5
AE
330
84
100
AcDbEntity
  8
0
  6
BYBLOCK
 62
     0
100
AcDbLine
 10
12.89475440385556
 20
-0.805334911821312
 30
0.0
 11
12.89475440385556
 21
-1.09726653974669
 31
0.0
  0
LINE
  5
AF
330
84
100
AcDbEntity
  8
0
  6
BYBLOCK
 62
     0
100
AcDbLine
 10
11.64654391833371
 20
-0.91726653974669
 30
0.0
 11
11.39654391833371
 21
-0.91726653974669
 31
0.0
  0
LINE
  5
B0
330
84
100
AcDbEntity
  8
0
  6
BYBLOCK
 62
     0
100
AcDbLine
 10
12.89475440385556
 20
-0.91726653974669
 30
0.0
 11
13.14475440385556
 21
-0.91726653974669
 31
0.0
  0
LINE
  5
B1
330
84
100
AcDbEntity
  8
0
  6
BYBLOCK
 62
     0
100
AcDbLine
 10
11.52154391833371
 20
-1.04226653974669
 30
0.0
 11
11.77154391833371
 21
-0.7922665397466902
 31
0.0
  0
LINE
  5
B2
330
84
100
AcDbEntity
  8
0
  6
BYBLOCK
 62
     0
100
AcDbLine
 10
12.76975440385556
 20
-1.04226653974669
 30
0.0
 11
13.01975440385556
 21
-0.7922665397466902
 31
0.0
  0
TEXT
  5
B3
330
84
100
AcDbEntity
  8
0
  6
BYBLOCK
 62
     0
100
AcDbText
 10
13.26975440385556
 20
-0.97976653974669
 30
0.0
 40
0.125
  1
1 1/4
 72
     1
 11
13.51975440385556
 21
-0.91726653974669
 31
0.0
100
AcDbText
 73
     2
  0
POINT
  5
B4
330
84
100
AcDbEntity
  8
DEFPOINTS
  6
BYBLOCK
 62
     0
100
AcDbPoint
 10
11.64654391833371
 20
-0.742834911821312
 30
0.0
  0
POINT
  5
B5
330
84
100
AcDbEntity
  8
DEFPOINTS
  6
BYBLOCK
 62
     0
100
AcDbPoint
 10
12.89475440385556
 20
-0.742834911821312
 30
0.0
  0
POINT
  5
B6
330
84
100
AcDbEntity
  8
DEFPOINTS
  6
BYBLOCK
 62
     0
100
AcDbPoint
 10
12.89475440385556
 20
-0.91726653974669
 30
0.0
  0
ENDBLK
  5
B7
330
84
100
AcDbEntity
  8
0
100
AcDbBlockEnd
  0
ENDSEC
  0
SECTION
  2
ENTITIES
  0
LINE
  5
B8
330
18
100
AcDbEntity
  8
0
 62
     7
100
AcDbLine
 10
11.90208366834472
 20
0.2059952903935081
 30
0.0
 11
12.63254839949643
 21
0.2059952903935081
 31
0.0
  0
LWPOLYLINE
  5
B9
330
18
100
AcDbEntity
  8
0
100
AcDbPolyline
 90
        4
 70
     1
 43
0.0
 10
12.02077979188115
 20
1.013290329477199
 10
12.02077979188115
 20
1.513290329477199
 10
12.52077979188115
 20
1.513290329477199
 10
12.52077979188115
 20
1.013290329477199
  0
LWPOLYLINE
  5
BF
330
18
100
AcDbEntity
  8
0
100
AcDbPolyline
 90
        4
 70
     1
 43
0.0
 10
11.89577979188115
 20
0.888290329477199
 10
11.89577979188115
 20
1.638290329477199
 10
12.64577979188115
 20
1.638290329477199
 10
12.64577979188115
 20
0.888290329477199
  0
DIMENSION
  5
C5
330
18
100
AcDbEntity
  8
ADPDIM
100
AcDbDimension
  2
*D2
 10
12.89475440385556
 20
-0.91726653974669
 30
0.0
 11
13.51975440385556
 21
-0.91726653974669
 31
0.0
100
AcDbAlignedDimension
 13
11.64654391833371
 23
-0.742834911821312
 33
0.0
 14
12.89475440385556
 24
-0.742834911821312
 34
0.0
100
AcDbRotatedDimension
  0
DIMENSION
  5
C6
330
18
100
AcDbEntity
  8
ADPDIM
100
AcDbDimension
  2
*D0
 10
12.51745791753293
 20
0.3700908776424718
 30
0.0
 11
13.03829125086627
 21
0.3700908776424718
 31
0.0
100
AcDbAlignedDimension
 13
12.01745791753293
 23
0.2059952903935085
 33
0.0
 14
12.51745791753293
 24
0.2059952903935085
 34
0.0
100
AcDbRotatedDimension
  0
LINE
  5
C7
330
18
100
AcDbEntity
  8
0
 62
     7
100
AcDbLine
 10
11.73542730964189
 20
0.0060076599501033
 30
0.0
 11
12.80364892776468
 21
0.0060076599501033
 31
0.0
  0
LINE
  5
C8
330
18
100
AcDbEntity
  8
0
 62
     7
100
AcDbLine
 10
12.89475440385556
 20
-0.4984055857238179
 30
0.0
 11
11.6420997487683
 21
-0.4984055857238179
 31
0.0
  0
LINE
  5
C9
330
18
100
AcDbEntity
  8
0
 62
     7
100
AcDbLine
 10
11.64654391833371
 20
-0.742834911821312
 30
0.0
 11
12.89475440385556
 21
-0.742834911821312
 31
0.0
  0
LINE
  5
CA
330
18
100
AcDbEntity
  8
0
 62
     7
100
AcDbLine
 10
12.89475440385556
 20
-0.4984055857238179
 30
0.0
 11
11.64654391833371
 21
-0.4984055857238179
 31
0.0
  0
LINE
  5
CB
330
18
100
AcDbEntity
  8
0
 62
     7
100
AcDbLine
 10
12.80364892776468
 20
0.0548935251696019
 30
0.0
 11
11.73098314007648
 21
0.0548935251696019
 31
0.0
  0
LWPOLYLINE
  5
CC
330
18
100
AcDbEntity
  8
0
100
AcDbPolyline
 90
        4
 70
     1
 43
0.0
 10
11.64577979188115
 20
0.6382903294771991
 10
11.64577979188115
 20
1.888290329477199
 10
12.89577979188115
 20
1.888290329477199
 10
12.89577979188115
 20
0.6382903294771991
  0
LWPOLYLINE
  5
D2
330
18
100
AcDbEntity
  8
0
100
AcDbPolyline
 90
        4
 70
     1
 43
0.0
 10
11.73952979188115
 20
0.7320403294771991
 10
11.73952979188115
 20
1.794540329477199
 10
12.80202979188115
 20
1.794540329477199
 10
12.80202979188115
 20
0.7320403294771991
  0
LINE
  5
D8
330
18
100
AcDbEntity
  8
ADP2DETAIL
  6
HIDDEN2
100
AcDbLine
 10
12.01745791753293
 20
0.2059952903935085
 30
0.0
 11
12.01745791753293
 21
-0.742834911821312
 31
0.0
  0
LWPOLYLINE
  5
D9
330
18
100
AcDbEntity
  8
0
 62
     7
100
AcDbPolyline
 90
        3
 70
     0
 43
0.0
 10
11.73542730964189
 20
0.0060076599501033
 42
-0.4736476781549209
 10
11.82208861616736
 20
-0.3473038204999113
 42
-0.0867611836985002
 10
11.644321833551
 20
-0.4984055857238179
 42
3.674619629186882
  0
LINE
  5
DE
330
18
100
AcDbEntity
  8
0
 62
     7
100
AcDbLine
 10
11.64654391833371
 20
-0.4984055857238179
 30
0.0
 11
11.64654391833371
 21
-0.742834911821312
 31
0.0
  0
LINE
  5
DF
330
18
100
AcDbEntity
  8
0
 62
     7
100
AcDbLine
 10
11.73098314007648
 20
0.0548935251696019
 30
0.0
 11
11.90208366834472
 21
0.2059952903935081
 31
0.0
  0
LINE
  5
E0
330
18
100
AcDbEntity
  8
0
 62
     7
100
AcDbLine
 10
11.73542730964189
 20
0.0548935251696019
 30
0.0
 11
11.73542730964189
 21
0.0060076599501033
 31
0.0
  0
LINE
  5
E1
330
18
100
AcDbEntity
  8
ADP2DETAIL
  6
HIDDEN2
100
AcDbLine
 10
12.51745791753293
 20
0.2059952903935085
 30
0.0
 11
12.51745791753293
 21
-0.742834911821312
 31
0.0
  0
DIMENSION
  5
E2
330
18
100
AcDbEntity
  8
ADPDIM
100
AcDbDimension
  2
*D1
 10
13.36310130353504
 20
0.205995290393508
 30
0.0
 11
13.36310130353504
 21
0.830995290393508
 31
0.0
100
AcDbAlignedDimension
 13
12.89475440385556
 23
-0.742834911821312
 33
0.0
 14
12.63254839949643
 24
0.2059952903935081
 34
0.0
 50
90.0
100
AcDbRotatedDimension
  0
LWPOLYLINE
  5
E3
330
18
100
AcDbEntity
  8
0
 62
     7
100
AcDbPolyline
 90
        3
 70
     0
 43
0.0
 10
12.80364892776468
 20
0.0060076599501033
 42
0.4736476781549209
 10
12.7169876212392
 20
-0.3473038204999113
 42
0.0867611836985002
 10
12.89475440385556
 20
-0.4984055857238179
 42
-3.674619629186882
  0
LINE
  5
E8
330
18
100
AcDbEntity
  8
0
 62
     7
100
AcDbLine
 10
12.89475440385556
 20
-0.742834911821312
 30
0.0
 11
12.89475440385556
 21
-0.742834911821312
 31
0.0
  0
LINE
  5
E9
330
18
100
AcDbEntity
  8
0
 62
     7
100
AcDbLine
 10
12.89475440385556
 20
-0.742834911821312
 30
0.0
 11
12.89475440385556
 21
-0.4984055857238179
 31
0.0
  0
LINE
  5
EA
330
18
100
AcDbEntity
  8
0
 62
     7
100
AcDbLine
 10
12.63254839949643
 20
0.2059952903935081
 30
0.0
 11
12.80364892776468
 21
0.0548935251696019
 31
0.0
  0
LINE
  5
EB
330
18
100
AcDbEntity
  8
0
 62
     7
100
AcDbLine
 10
12.80364892776468
 20
0.0060076599501033
 30
0.0
 11
12.80364892776468
 21
0.0548935251696019
 31
0.0
  0
LINE
  5
EC
330
18
100
AcDbEntity
  8
0
 62
     7
100
AcDbLine
 10
12.80364892776468
 20
0.0548935251696019
 30
0.0
 11
12.80364892776468
 21
0.0060076599501033
 31
0.0
  0
TEXT
  5
FA
330
18
100
AcDbEntity
  8
ADPDIM
100
AcDbText
 10
7.444618507956848
 20
-1.522756473456095
 30
0.0
 40
0.09375
  1
J U L I U S  B L U M  &  C O . ,  I N C .      ( 8 0 0 )  5 2 6 - 6 2 9 3        W W W . J U L I U S B L U M . C O M        P A R T  N o .  7 5 2
 41
1.25
  7
ARIAL_WIDE
 72
     1
 11
12.27064916109463
 21
-1.429006473456095
 31
0.0
100
AcDbText
 73
     3
  0
ENDSEC
  0
SECTION
  2
OBJECTS
  0
DICTIONARY
  5
C
330
0
100
AcDbDictionary
  3
ACAD_GROUP
350
D
  3
ACAD_LAYOUT
350
F3
  3
ACAD_MLINESTYLE
350
E
  3
ACAD_PLOTSETTINGS
350
F4
  3
ACAD_PLOTSTYLENAME
350
F1
  3
ACDBHEADERROUNDTRIPXREC
350
23E
  3
ACDBVARIABLEDICTIONARY
350
154
  0
DICTIONARY
  5
14E
330
18
100
AcDbDictionary
280
     1
  3
ACAD_LAYOUTSELFREF
360
25F
  0
DICTIONARY
  5
14C
330
15
100
AcDbDictionary
280
     1
  3
ACAD_LAYOUTSELFREF
360
25E
  0
DICTIONARY
  5
D
102
{ACAD_REACTORS
330
C
102
}
330
C
100
AcDbDictionary
  0
DICTIONARY
  5
F3
102
{ACAD_REACTORS
330
C
102
}
330
C
100
AcDbDictionary
  0
DICTIONARY
  5
E
102
{ACAD_REACTORS
330
C
102
}
330
C
100
AcDbDictionary
  3
STANDARD
350
1B
  0
DICTIONARY
  5
F4
102
{ACAD_REACTORS
330
C
102
}
330
C
100
AcDbDictionary
  0
ACDBDICTIONARYWDFLT
  5
F1
102
{ACAD_REACTORS
330
C
102
}
330
C
100
AcDbDictionary
281
     1
  3
Normal
350
F2
100
AcDbDictionaryWithDefault
340
F2
  0
DICTIONARY
  5
23E
102
{ACAD_REACTORS
330
C
102
}
330
C
100
AcDbDictionary
  3
CEPSNTYPE
350
248
  3
FINGERPRINTGUID
350
249
  3
HYPERLINKBASE
350
241
  3
INSUNITS
350
247
  3
LAYOUTDICT
350
243
  3
LWETCUNION
350
246
  3
PLOTSETDICT
350
244
  3
PLOTSTYLNAMDICT
350
245
  3
PSVPSCALE
350
24B
  3
PUCSBASE
350
24E
  3
PUCSORGBACK
350
254
  3
PUCSORGBOTTOM
350
250
  3
PUCSORGFRONT
350
253
  3
PUCSORGLEFT
350
251
  3
PUCSORGRIGHT
350
252
  3
PUCSORGTOP
350
24F
  3
PUCSORTHOREF
350
24C
  3
PUCSORTHOVIEW
350
24D
  3
STYLESHEET
350
242
  3
TSTACKALIGN
350
23F
  3
TSTACKSIZE
350
240
  3
UCSBASE
350
257
  3
UCSORGBACK
350
25D
  3
UCSORGBOTTOM
350
259
  3
UCSORGFRONT
350
25C
  3
UCSORGLEFT
350
25A
  3
UCSORGRIGHT
350
25B
  3
UCSORGTOP
350
258
  3
UCSORTHOREF
350
255
  3
UCSORTHOVIEW
350
256
  3
VERSIONGUID
350
24A
  0
DICTIONARY
  5
154
102
{ACAD_REACTORS
330
C
102
}
330
C
100
AcDbDictionary
  3
DIMASSOC
350
155
  0
XRECORD
  5
25F
102
{ACAD_REACTORS
330
14E
102
}
330
14E
100
AcDbXrecord
340
18
  0
XRECORD
  5
25E
102
{ACAD_REACTORS
330
14C
102
}
330
14C
100
AcDbXrecord
340
15
  0
MLINESTYLE
  5
1B
102
{ACAD_REACTORS
330
E
102
}
330
E
100
AcDbMlineStyle
  2
STANDARD
 70
     0
  3

 62
     0
 51
90.0
 52
90.0
 71
     2
 49
0.5
 62
   256
  6
BYLAYER
 49
-0.5
 62
   256
  6
BYLAYER
  0
ACDBPLACEHOLDER
  5
F2
102
{ACAD_REACTORS
330
F1
102
}
330
F1
100
AcDbPlaceHolder
280
     0
  0
XRECORD
  5
248
102
{ACAD_REACTORS
330
23E
102
}
330
23E
100
AcDbXrecord
 90
        0
  0
XRECORD
  5
249
102
{ACAD_REACTORS
330
23E
102
}
330
23E
100
AcDbXrecord
  1
{6171D3F4-61D1-4DB2-AEA4-6A328E054C14}
  0
XRECORD
  5
241
102
{ACAD_REACTORS
330
23E
102
}
330
23E
100
AcDbXrecord
  1

  0
XRECORD
  5
247
102
{ACAD_REACTORS
330
23E
102
}
330
23E
100
AcDbXrecord
 90
        0
  0
XRECORD
  5
243
102
{ACAD_REACTORS
330
23E
102
}
330
23E
100
AcDbXrecord
340
F3
  0
XRECORD
  5
246
102
{ACAD_REACTORS
330
23E
102
}
330
23E
100
AcDbXrecord
 90
    14877
  0
XRECORD
  5
244
102
{ACAD_REACTORS
330
23E
102
}
330
23E
100
AcDbXrecord
340
F4
  0
XRECORD
  5
245
102
{ACAD_REACTORS
330
23E
102
}
330
23E
100
AcDbXrecord
340
F1
  0
XRECORD
  5
24B
102
{ACAD_REACTORS
330
23E
102
}
330
23E
100
AcDbXrecord
 40
0.0
  0
XRECORD
  5
24E
102
{ACAD_REACTORS
330
23E
102
}
330
23E
100
AcDbXrecord
340
0
  0
XRECORD
  5
254
102
{ACAD_REACTORS
330
23E
102
}
330
23E
100
AcDbXrecord
 10
0.0
 20
0.0
 30
0.0
  0
XRECORD
  5
250
102
{ACAD_REACTORS
330
23E
102
}
330
23E
100
AcDbXrecord
 10
0.0
 20
0.0
 30
0.0
  0
XRECORD
  5
253
102
{ACAD_REACTORS
330
23E
102
}
330
23E
100
AcDbXrecord
 10
0.0
 20
0.0
 30
0.0
  0
XRECORD
  5
251
102
{ACAD_REACTORS
330
23E
102
}
330
23E
100
AcDbXrecord
 10
0.0
 20
0.0
 30
0.0
  0
XRECORD
  5
252
102
{ACAD_REACTORS
330
23E
102
}
330
23E
100
AcDbXrecord
 10
0.0
 20
0.0
 30
0.0
  0
XRECORD
  5
24F
102
{ACAD_REACTORS
330
23E
102
}
330
23E
100
AcDbXrecord
 10
0.0
 20
0.0
 30
0.0
  0
XRECORD
  5
24C
102
{ACAD_REACTORS
330
23E
102
}
330
23E
100
AcDbXrecord
340
0
  0
XRECORD
  5
24D
102
{ACAD_REACTORS
330
23E
102
}
330
23E
100
AcDbXrecord
 70
     0
  0
XRECORD
  5
242
102
{ACAD_REACTORS
330
23E
102
}
330
23E
100
AcDbXrecord
  1

  0
XRECORD
  5
23F
102
{ACAD_REACTORS
330
23E
102
}
330
23E
100
AcDbXrecord
 90
        1
  0
XRECORD
  5
240
102
{ACAD_REACTORS
330
23E
102
}
330
23E
100
AcDbXrecord
 90
       70
  0
XRECORD
  5
257
102
{ACAD_REACTORS
330
23E
102
}
330
23E
100
AcDbXrecord
340
0
  0
XRECORD
  5
25D
102
{ACAD_REACTORS
330
23E
102
}
330
23E
100
AcDbXrecord
 10
0.0
 20
0.0
 30
0.0
  0
XRECORD
  5
259
102
{ACAD_REACTORS
330
23E
102
}
330
23E
100
AcDbXrecord
 10
0.0
 20
0.0
 30
0.0
  0
XRECORD
  5
25C
102
{ACAD_REACTORS
330
23E
102
}
330
23E
100
AcDbXrecord
 10
0.0
 20
0.0
 30
0.0
  0
XRECORD
  5
25A
102
{ACAD_REACTORS
330
23E
102
}
330
23E
100
AcDbXrecord
 10
0.0
 20
0.0
 30
0.0
  0
XRECORD
  5
25B
102
{ACAD_REACTORS
330
23E
102
}
330
23E
100
AcDbXrecord
 10
0.0
 20
0.0
 30
0.0
  0
XRECORD
  5
258
102
{ACAD_REACTORS
330
23E
102
}
330
23E
100
AcDbXrecord
 10
0.0
 20
0.0
 30
0.0
  0
XRECORD
  5
255
102
{ACAD_REACTORS
330
23E
102
}
330
23E
100
AcDbXrecord
340
0
  0
XRECORD
  5
256
102
{ACAD_REACTORS
330
23E
102
}
330
23E
100
AcDbXrecord
 70
     0
  0
XRECORD
  5
24A
102
{ACAD_REACTORS
330
23E
102
}
330
23E
100
AcDbXrecord
  1
{A536E5EB-5715-4C39-BCD9-76624D39A4DB}
  0
DICTIONARYVAR
  5
155
102
{ACAD_REACTORS
330
154
102
}
330
154
100
DictionaryVariables
280
     0
  1
1
  0
ENDSEC
  0
EOF
