  0
SECTION
  2
HEADER
  9
$ACADVER
  1
AC1014
  9
$ACADMAINTVER
 70
     9
  9
$DWGCODEPAGE
  3
ANSI_1252
  9
$INSBASE
 10
-51.53945950132585
 20
3.149093477169111
 30
0.0
  9
$EXTMIN
 10
-62.11023414324164
 20
-0.3051263887306579
 30
0.0
  9
$EXTMAX
 10
-42.53304706957179
 20
9.516306410429505
 30
0.0
  9
$LIMMIN
 10
0.0
 20
0.0
  9
$LIMMAX
 10
36.0
 20
36.0
  9
$ORTHOMODE
 70
     1
  9
$REGENMODE
 70
     1
  9
$FILLMODE
 70
     1
  9
$QTEXTMODE
 70
     0
  9
$MIRRTEXT
 70
     1
  9
$DRAGMODE
 70
     0
  9
$LTSCALE
 40
1.0
  9
$OSMODE
 70
    37
  9
$ATTMODE
 70
     1
  9
$TEXTSIZE
 40
0.2
  9
$TRACEWID
 40
0.05
  9
$TEXTSTYLE
  7
STANDARD
  9
$CLAYER
  8
0
  9
$CELTYPE
  6
BYLAYER
  9
$CECOLOR
 62
   256
  9
$CELTSCALE
 40
1.0
  9
$DELOBJ
 70
     1
  9
$DISPSILH
 70
     0
  9
$DIMSCALE
 40
1.0
  9
$DIMASZ
 40
0.125
  9
$DIMEXO
 40
0.0625
  9
$DIMDLI
 40
0.38
  9
$DIMRND
 40
0.0
  9
$DIMDLE
 40
0.0
  9
$DIMEXE
 40
0.18
  9
$DIMTP
 40
0.0
  9
$DIMTM
 40
0.0
  9
$DIMTXT
 40
0.125
  9
$DIMCEN
 40
0.1875
  9
$DIMTSZ
 40
0.125
  9
$DIMTOL
 70
     0
  9
$DIMLIM
 70
     0
  9
$DIMTIH
 70
     0
  9
$DIMTOH
 70
     0
  9
$DIMSE1
 70
     0
  9
$DIMSE2
 70
     0
  9
$DIMTAD
 70
     0
  9
$DIMZIN
 70
     3
  9
$DIMBLK
  1

  9
$DIMASO
 70
     1
  9
$DIMSHO
 70
     1
  9
$DIMPOST
  1

  9
$DIMAPOST
  1

  9
$DIMALT
 70
     0
  9
$DIMALTD
 70
     1
  9
$DIMALTF
 40
25.4
  9
$DIMLFAC
 40
1.0
  9
$DIMTOFL
 70
     0
  9
$DIMTVP
 40
0.0
  9
$DIMTIX
 70
     0
  9
$DIMSOXD
 70
     0
  9
$DIMSAH
 70
     0
  9
$DIMBLK1
  1

  9
$DIMBLK2
  1

  9
$DIMSTYLE
  2
STANDARD
  9
$DIMCLRD
 70
     0
  9
$DIMCLRE
 70
     0
  9
$DIMCLRT
 70
     0
  9
$DIMTFAC
 40
1.0
  9
$DIMGAP
 40
0.125
  9
$DIMJUST
 70
     0
  9
$DIMSD1
 70
     0
  9
$DIMSD2
 70
     0
  9
$DIMTOLJ
 70
     1
  9
$DIMTZIN
 70
     0
  9
$DIMALTZ
 70
     0
  9
$DIMALTTZ
 70
     0
  9
$DIMFIT
 70
     3
  9
$DIMUPT
 70
     0
  9
$DIMUNIT
 70
     2
  9
$DIMDEC
 70
     4
  9
$DIMTDEC
 70
     4
  9
$DIMALTU
 70
     2
  9
$DIMALTTD
 70
     2
  9
$DIMTXSTY
  7
STANDARD
  9
$DIMAUNIT
 70
     0
  9
$LUNITS
 70
     5
  9
$LUPREC
 70
     4
  9
$SKETCHINC
 40
0.1
  9
$FILLETRAD
 40
0.062
  9
$AUNITS
 70
     0
  9
$AUPREC
 70
     0
  9
$MENU
  1
acad
  9
$ELEVATION
 40
0.0
  9
$PELEVATION
 40
0.0
  9
$THICKNESS
 40
0.0
  9
$LIMCHECK
 70
     0
  9
$BLIPMODE
 70
     0
  9
$CHAMFERA
 40
0.0
  9
$CHAMFERB
 40
0.0
  9
$CHAMFERC
 40
0.0
  9
$CHAMFERD
 40
0.0
  9
$SKPOLY
 70
     0
  9
$TDCREATE
 40
2450387.518160879
  9
$TDUPDATE
 40
2452297.102330902
  9
$TDINDWG
 40
0.0727191319
  9
$TDUSRTIMER
 40
0.0727191319
  9
$USRTIMER
 70
     1
  9
$ANGBASE
 50
0.0
  9
$ANGDIR
 70
     0
  9
$PDMODE
 70
     0
  9
$PDSIZE
 40
0.0
  9
$PLINEWID
 40
0.0
  9
$COORDS
 70
     2
  9
$SPLFRAME
 70
     0
  9
$SPLINETYPE
 70
     6
  9
$SPLINESEGS
 70
     8
  9
$ATTDIA
 70
     0
  9
$ATTREQ
 70
     1
  9
$HANDLING
 70
 22529
  9
$HANDSEED
  5
41E
  9
$SURFTAB1
 70
     6
  9
$SURFTAB2
 70
     6
  9
$SURFTYPE
 70
     6
  9
$SURFU
 70
     6
  9
$SURFV
 70
     6
  9
$UCSNAME
  2

  9
$UCSORG
 10
0.0
 20
0.0
 30
0.0
  9
$UCSXDIR
 10
1.0
 20
0.0
 30
0.0
  9
$UCSYDIR
 10
0.0
 20
1.0
 30
0.0
  9
$PUCSNAME
  2

  9
$PUCSORG
 10
0.0
 20
0.0
 30
0.0
  9
$PUCSXDIR
 10
1.0
 20
0.0
 30
0.0
  9
$PUCSYDIR
 10
0.0
 20
1.0
 30
0.0
  9
$USERI1
 70
     0
  9
$USERI2
 70
     0
  9
$USERI3
 70
     0
  9
$USERI4
 70
     0
  9
$USERI5
 70
     0
  9
$USERR1
 40
0.0
  9
$USERR2
 40
0.0
  9
$USERR3
 40
0.0
  9
$USERR4
 40
0.0
  9
$USERR5
 40
0.0
  9
$WORLDVIEW
 70
     1
  9
$SHADEDGE
 70
     3
  9
$SHADEDIF
 70
    70
  9
$TILEMODE
 70
     1
  9
$MAXACTVP
 70
    15
  9
$PINSBASE
 10
0.0
 20
0.0
 30
0.0
  9
$PLIMCHECK
 70
     0
  9
$PEXTMIN
 10
1.000000000000000E+20
 20
1.000000000000000E+20
 30
1.000000000000000E+20
  9
$PEXTMAX
 10
-1.000000000000000E+20
 20
-1.000000000000000E+20
 30
-1.000000000000000E+20
  9
$PLIMMIN
 10
0.0
 20
0.0
  9
$PLIMMAX
 10
12.0
 20
9.0
  9
$UNITMODE
 70
     0
  9
$VISRETAIN
 70
     0
  9
$PLINEGEN
 70
     0
  9
$PSLTSCALE
 70
     1
  9
$TREEDEPTH
 70
  3020
  9
$PICKSTYLE
 70
     1
  9
$CMLSTYLE
  2
STANDARD
  9
$CMLJUST
 70
     0
  9
$CMLSCALE
 40
1.0
  9
$PROXYGRAPHICS
 70
     1
  9
$MEASUREMENT
 70
     0
  0
ENDSEC
  0
SECTION
  2
CLASSES
  0
CLASS
  1
ACDBDICTIONARYWDFLT
  2
AcDbDictionaryWithDefault
  3
AutoCAD 2000
 90
        0
280
     0
281
     0
  0
CLASS
  1
ACDBPLACEHOLDER
  2
AcDbPlaceHolder
  3
AutoCAD 2000
 90
        0
280
     0
281
     0
  0
CLASS
  1
LAYOUT
  2
AcDbLayout
  3
AutoCAD 2000
 90
        0
280
     0
281
     0
  0
CLASS
  1
DICTIONARYVAR
  2
AcDbDictionaryVar
  3
AutoCAD 2000
 90
        0
280
     0
281
     0
  0
CLASS
  1
LONG_TRANSACTION
  2
AcDbLongTransaction
  3
AutoCAD 2000
 90
        0
280
     0
281
     0
  0
CLASS
  1
LWPOLYLINE
  2
AcDbPolyline
  3
AutoCAD 2000
 90
        0
280
     0
281
     1
  0
CLASS
  1
HATCH
  2
AcDbHatch
  3
AutoCAD 2000
 90
        0
280
     0
281
     1
  0
CLASS
  1
XRECORD
  2
AcDbXrecord
  3
AutoCAD 2000
 90
        0
280
     0
281
     0
  0
CLASS
  1
LONG_TRANSACTION
  2
AcDbLongTransaction
  3
AutoCAD 2000
 90
        0
280
     0
281
     0
  0
CLASS
  1
LWPOLYLINE
  2
AcDbPolyline
  3
AutoCAD 2000
 90
        0
280
     0
281
     1
  0
CLASS
  1
HATCH
  2
AcDbHatch
  3
AutoCAD 2000
 90
        0
280
     0
281
     1
  0
CLASS
  1
XRECORD
  2
AcDbXrecord
  3
AutoCAD 2000
 90
        0
280
     0
281
     0
  0
CLASS
  1
LONG_TRANSACTION
  2
AcDbLongTransaction
  3
AutoCAD 2000
 90
        0
280
     0
281
     0
  0
CLASS
  1
LWPOLYLINE
  2
AcDbPolyline
  3
AutoCAD 2000
 90
        0
280
     0
281
     1
  0
CLASS
  1
HATCH
  2
AcDbHatch
  3
AutoCAD 2000
 90
        0
280
     0
281
     1
  0
CLASS
  1
XRECORD
  2
AcDbXrecord
  3
AutoCAD 2000
 90
        0
280
     0
281
     0
  0
CLASS
  1
LONG_TRANSACTION
  2
AcDbLongTransaction
  3
AutoCAD 2000
 90
        0
280
     0
281
     0
  0
CLASS
  1
LWPOLYLINE
  2
AcDbPolyline
  3
AutoCAD 2000
 90
        0
280
     0
281
     1
  0
CLASS
  1
HATCH
  2
AcDbHatch
  3
AutoCAD 2000
 90
        0
280
     0
281
     1
  0
CLASS
  1
XRECORD
  2
AcDbXrecord
  3
AutoCAD 2000
 90
        0
280
     0
281
     0
  0
CLASS
  1
LONG_TRANSACTION
  2
AcDbLongTransaction
  3
AutoCAD 2000
 90
        0
280
     0
281
     0
  0
CLASS
  1
LWPOLYLINE
  2
AcDbPolyline
  3
AutoCAD 2000
 90
        0
280
     0
281
     1
  0
CLASS
  1
HATCH
  2
AcDbHatch
  3
AutoCAD 2000
 90
        0
280
     0
281
     1
  0
CLASS
  1
XRECORD
  2
AcDbXrecord
  3
AutoCAD 2000
 90
        0
280
     0
281
     0
  0
ENDSEC
  0
SECTION
  2
TABLES
  0
TABLE
  2
VPORT
  5
8
330
0
100
AcDbSymbolTable
 70
     2
  0
VPORT
  5
3FB
330
8
100
AcDbSymbolTableRecord
100
AcDbViewportTableRecord
  2
*ACTIVE
 70
     0
 10
0.0
 20
0.0
 11
1.0
 21
1.0
 12
-52.30560393298667
 22
4.605638232525904
 13
0.0
 23
0.0
 14
0.5740882589684922
 24
0.5740882589684922
 15
0.5
 25
0.5
 16
0.0
 26
0.0
 36
1.0
 17
0.0
 27
0.0
 37
0.0
 40
12.5532836681287
 41
1.570528967254408
 42
50.0
 43
0.0
 44
0.0
 50
0.0
 51
0.0
 71
     0
 72
   100
 73
     1
 74
     0
 75
     0
 76
     0
 77
     0
 78
     0
  0
ENDTAB
  0
TABLE
  2
LTYPE
  5
5
330
0
100
AcDbSymbolTable
 70
     2
  0
LTYPE
  5
12
330
5
100
AcDbSymbolTableRecord
100
AcDbLinetypeTableRecord
  2
BYBLOCK
 70
     0
  3

 72
    65
 73
     0
 40
0.0
  0
LTYPE
  5
13
330
5
100
AcDbSymbolTableRecord
100
AcDbLinetypeTableRecord
  2
BYLAYER
 70
     0
  3

 72
    65
 73
     0
 40
0.0
  0
LTYPE
  5
14
330
5
100
AcDbSymbolTableRecord
100
AcDbLinetypeTableRecord
  2
CONTINUOUS
 70
     0
  3
Solid line
 72
    65
 73
     0
 40
0.0
  0
LTYPE
  5
253
330
5
100
AcDbSymbolTableRecord
100
AcDbLinetypeTableRecord
  2
CENTER2
 70
     0
  3
___ _ ___ _ ___ _ ___ _ ___ _ ___ _ ___ _ ___ _
 72
    65
 73
     4
 40
1.125
 49
0.75
 74
     0
 49
-0.125
 74
     0
 49
0.125
 74
     0
 49
-0.125
 74
     0
  0
ENDTAB
  0
TABLE
  2
LAYER
  5
2
330
0
100
AcDbSymbolTable
 70
     5
  0
LAYER
  5
F
330
2
100
AcDbSymbolTableRecord
100
AcDbLayerTableRecord
  2
0
 70
     0
 62
     7
  6
CONTINUOUS
  0
LAYER
  5
254
330
2
100
AcDbSymbolTableRecord
100
AcDbLayerTableRecord
  2
ADP1DETAIL
 70
     0
 62
     7
  6
CONTINUOUS
  0
LAYER
  5
255
330
2
100
AcDbSymbolTableRecord
100
AcDbLayerTableRecord
  2
DEFPOINTS
 70
     0
 62
     7
  6
CONTINUOUS
  0
LAYER
  5
259
330
2
100
AcDbSymbolTableRecord
100
AcDbLayerTableRecord
  2
ADP3DETAIL
 70
     0
 62
     1
  6
CONTINUOUS
  0
LAYER
  5
25C
330
2
100
AcDbSymbolTableRecord
100
AcDbLayerTableRecord
  2
ADPDIM
 70
     0
 62
     3
  6
CONTINUOUS
  0
ENDTAB
  0
TABLE
  2
STYLE
  5
3
330
0
100
AcDbSymbolTable
 70
     2
  0
STYLE
  5
10
330
3
100
AcDbSymbolTableRecord
100
AcDbTextStyleTableRecord
  2
STANDARD
 70
     0
 40
0.0
 41
1.0
 50
0.0
 71
     0
 42
0.2
  3
txt
  4

  0
STYLE
  5
2B7
330
3
100
AcDbSymbolTableRecord
100
AcDbTextStyleTableRecord
  2
ARIAL_WIDE
 70
     0
 40
0.0
 41
1.25
 50
0.0
 71
     0
 42
0.2
  3
ARIAL.TTF
  4

1001
ACAD
1000
Arial
1071
       34
  0
ENDTAB
  0
TABLE
  2
VIEW
  5
6
330
0
100
AcDbSymbolTable
 70
     0
  0
ENDTAB
  0
TABLE
  2
UCS
  5
7
330
0
100
AcDbSymbolTable
 70
     0
  0
ENDTAB
  0
TABLE
  2
APPID
  5
9
330
0
100
AcDbSymbolTable
 70
     1
  0
APPID
  5
11
330
9
100
AcDbSymbolTableRecord
100
AcDbRegAppTableRecord
  2
ACAD
 70
     0
  0
ENDTAB
  0
TABLE
  2
DIMSTYLE
  5
A
330
0
100
AcDbSymbolTable
 70
     1
  0
DIMSTYLE
105
2AB
330
A
100
AcDbSymbolTableRecord
100
AcDbDimStyleTableRecord
  2
STANDARD
 70
     0
  3

  4

  5

  6

  7

 40
1.0
 41
0.18
 42
0.0625
 43
0.38
 44
0.18
 45
0.0
 46
0.0
 47
0.0
 48
0.0
140
0.18
141
0.09
142
0.0
143
25.4
144
1.0
145
0.0
146
1.0
147
0.09
 71
     0
 72
     0
 73
     1
 74
     1
 75
     0
 76
     0
 77
     0
 78
     0
170
     0
171
     2
172
     0
173
     0
174
     0
175
     0
176
     0
177
     0
178
     0
270
     2
271
     4
272
     4
273
     2
274
     2
340
10
275
     0
280
     0
281
     0
282
     0
283
     1
284
     0
285
     0
286
     0
287
     3
288
     0
  0
ENDTAB
  0
TABLE
  2
BLOCK_RECORD
  5
1
330
0
100
AcDbSymbolTable
 70
     5
  0
BLOCK_RECORD
  5
18
102
{ACAD_XDICTIONARY
360
30C
102
}
330
1
100
AcDbSymbolTableRecord
100
AcDbBlockTableRecord
  2
*MODEL_SPACE
  0
BLOCK_RECORD
  5
15
102
{ACAD_XDICTIONARY
360
30A
102
}
330
1
100
AcDbSymbolTableRecord
100
AcDbBlockTableRecord
  2
*PAPER_SPACE
  0
BLOCK_RECORD
  5
24C
330
1
100
AcDbSymbolTableRecord
100
AcDbBlockTableRecord
  2
*D0
  0
BLOCK_RECORD
  5
24D
330
1
100
AcDbSymbolTableRecord
100
AcDbBlockTableRecord
  2
*D1
  0
BLOCK_RECORD
  5
24E
330
1
100
AcDbSymbolTableRecord
100
AcDbBlockTableRecord
  2
*D2
  0
BLOCK_RECORD
  5
250
330
1
100
AcDbSymbolTableRecord
100
AcDbBlockTableRecord
  2
*D3
  0
BLOCK_RECORD
  5
251
330
1
100
AcDbSymbolTableRecord
100
AcDbBlockTableRecord
  2
*D4
  0
ENDTAB
  0
ENDSEC
  0
SECTION
  2
BLOCKS
  0
BLOCK
  5
25F
330
18
100
AcDbEntity
  8
0
100
AcDbBlockBegin
  2
*MODEL_SPACE
 70
     0
 10
0.0
 20
0.0
 30
0.0
  3
*MODEL_SPACE
  1

  0
ENDBLK
  5
260
330
18
100
AcDbEntity
  8
0
100
AcDbBlockEnd
  0
BLOCK
  5
25D
330
15
100
AcDbEntity
 67
     1
  8
0
100
AcDbBlockBegin
  2
*PAPER_SPACE
 70
     0
 10
0.0
 20
0.0
 30
0.0
  3
*PAPER_SPACE
  1

  0
ENDBLK
  5
25E
330
15
100
AcDbEntity
 67
     1
  8
0
100
AcDbBlockEnd
  0
BLOCK
  5
262
330
24C
100
AcDbEntity
  8
0
100
AcDbBlockBegin
  2
*D0
 70
     1
 10
0.0
 20
0.0
 30
0.0
  3
*D0
  1

  0
LINE
  5
263
330
24C
100
AcDbEntity
  8
0
  6
BYBLOCK
 62
     0
100
AcDbLine
 10
-51.0867380532581
 20
8.986234015517853
 30
0.0
 11
-51.59427886188058
 21
9.462833735664991
 31
0.0
  0
LINE
  5
264
330
24C
100
AcDbEntity
  8
0
  6
BYBLOCK
 62
     0
100
AcDbLine
 10
-53.15825367978178
 20
6.780234574655109
 30
0.0
 11
-53.66579448840426
 21
7.256834294802247
 31
0.0
  0
LINE
  5
265
330
24C
100
AcDbEntity
  8
0
  6
BYBLOCK
 62
     0
100
AcDbLine
 10
-51.46306285459167
 20
9.339617018328599
 30
0.0
 11
-52.38473111476426
 21
8.358113600942516
 31
0.0
  0
LINE
  5
266
330
24C
100
AcDbEntity
  8
0
  6
BYBLOCK
 62
     0
100
AcDbLine
 10
-53.53457848111535
 20
7.133617577465855
 30
0.0
 11
-52.61291022094276
 21
8.115120994851938
 31
0.0
  0
LINE
  5
267
330
24C
100
AcDbEntity
  8
0
  6
BYBLOCK
 62
     0
100
AcDbLine
 10
-51.45750779212464
 20
9.162927626227693
 30
0.0
 11
-51.4686179170587
 21
9.516306410429505
 31
0.0
  0
LINE
  5
268
330
24C
100
AcDbEntity
  8
0
  6
BYBLOCK
 62
     0
100
AcDbLine
 10
-53.52902341864833
 20
6.95692818536495
 30
0.0
 11
-53.54013354358237
 21
7.31030696956676
 31
0.0
  0
TEXT
  5
269
330
24C
100
AcDbEntity
  8
0
  6
BYBLOCK
 62
     0
100
AcDbText
 10
-52.48178194248385
 20
8.163459639727435
 30
0.0
 40
0.125
  1
3
 50
46.80076926875194
 72
     1
 11
-52.49882066785351
 21
8.236617297897227
 31
0.0
100
AcDbText
 73
     2
  0
POINT
  5
26A
330
24C
100
AcDbEntity
  8
DEFPOINTS
  6
BYBLOCK
 62
     0
100
AcDbPoint
 10
-51.04117693961612
 20
8.943450433109383
 30
0.0
  0
POINT
  5
26B
330
24C
100
AcDbEntity
  8
DEFPOINTS
  6
BYBLOCK
 62
     0
100
AcDbPoint
 10
-53.1126925661398
 20
6.737450992246639
 30
0.0
  0
POINT
  5
26C
330
24C
100
AcDbEntity
  8
DEFPOINTS
  6
BYBLOCK
 62
     0
100
AcDbPoint
 10
-53.53457848111535
 20
7.133617577465855
 30
0.0
  0
ENDBLK
  5
26D
330
24C
100
AcDbEntity
  8
0
100
AcDbBlockEnd
  0
BLOCK
  5
26E
330
24D
100
AcDbEntity
  8
0
100
AcDbBlockBegin
  2
*D1
 70
     1
 10
0.0
 20
0.0
 30
0.0
  3
*D1
  1

  0
LINE
  5
26F
330
24D
100
AcDbEntity
  8
0
  6
BYBLOCK
 62
     0
100
AcDbLine
 10
-53.43945950132585
 20
3.086593477169111
 30
0.0
 11
-53.43945950132585
 21
2.354203973780307
 31
0.0
  0
LINE
  5
270
330
24D
100
AcDbEntity
  8
0
  6
BYBLOCK
 62
     0
100
AcDbLine
 10
-51.53945950132585
 20
3.086593477169111
 30
0.0
 11
-51.53945950132585
 21
2.354203973780307
 31
0.0
  0
LINE
  5
271
330
24D
100
AcDbEntity
  8
0
  6
BYBLOCK
 62
     0
100
AcDbLine
 10
-53.43945950132585
 20
2.534203973780307
 30
0.0
 11
-52.82279283465919
 21
2.534203973780307
 31
0.0
  0
LINE
  5
272
330
24D
100
AcDbEntity
  8
0
  6
BYBLOCK
 62
     0
100
AcDbLine
 10
-51.53945950132585
 20
2.534203973780307
 30
0.0
 11
-52.15612616799251
 21
2.534203973780307
 31
0.0
  0
LINE
  5
273
330
24D
100
AcDbEntity
  8
0
  6
BYBLOCK
 62
     0
100
AcDbLine
 10
-53.56445950132584
 20
2.409203973780307
 30
0.0
 11
-53.31445950132585
 21
2.659203973780307
 31
0.0
  0
LINE
  5
274
330
24D
100
AcDbEntity
  8
0
  6
BYBLOCK
 62
     0
100
AcDbLine
 10
-51.66445950132585
 20
2.409203973780307
 30
0.0
 11
-51.41445950132585
 21
2.659203973780307
 31
0.0
  0
TEXT
  5
275
330
24D
100
AcDbEntity
  8
0
  6
BYBLOCK
 62
     0
100
AcDbText
 10
-52.69779283465918
 20
2.471703973780307
 30
0.0
 40
0.125
  1
1.900
 72
     1
 11
-52.48945950132585
 21
2.534203973780307
 31
0.0
100
AcDbText
 73
     2
  0
POINT
  5
276
330
24D
100
AcDbEntity
  8
DEFPOINTS
  6
BYBLOCK
 62
     0
100
AcDbPoint
 10
-53.43945950132585
 20
3.149093477169111
 30
0.0
  0
POINT
  5
277
330
24D
100
AcDbEntity
  8
DEFPOINTS
  6
BYBLOCK
 62
     0
100
AcDbPoint
 10
-51.53945950132585
 20
3.149093477169111
 30
0.0
  0
POINT
  5
278
330
24D
100
AcDbEntity
  8
DEFPOINTS
  6
BYBLOCK
 62
     0
100
AcDbPoint
 10
-51.53945950132585
 20
2.534203973780307
 30
0.0
  0
ENDBLK
  5
279
330
24D
100
AcDbEntity
  8
0
100
AcDbBlockEnd
  0
BLOCK
  5
27A
330
24E
100
AcDbEntity
  8
0
100
AcDbBlockBegin
  2
*D2
 70
     1
 10
0.0
 20
0.0
 30
0.0
  3
*D2
  1

  0
LINE
  5
27B
330
24E
100
AcDbEntity
  8
0
  6
BYBLOCK
 62
     0
100
AcDbLine
 10
-53.50195950132585
 20
3.149093477169111
 30
0.0
 11
-54.08295331231864
 21
3.149093477169111
 31
0.0
  0
LINE
  5
27C
330
24E
100
AcDbEntity
  8
0
  6
BYBLOCK
 62
     0
100
AcDbLine
 10
-52.55427338829788
 20
6.149093477169111
 30
0.0
 11
-54.08295331231864
 21
6.149093477169111
 31
0.0
  0
LINE
  5
27D
330
24E
100
AcDbEntity
  8
0
  6
BYBLOCK
 62
     0
100
AcDbLine
 10
-53.90295331231864
 20
3.149093477169111
 30
0.0
 11
-53.90295331231864
 21
4.482426810502444
 31
0.0
  0
LINE
  5
27E
330
24E
100
AcDbEntity
  8
0
  6
BYBLOCK
 62
     0
100
AcDbLine
 10
-53.90295331231864
 20
6.149093477169111
 30
0.0
 11
-53.90295331231864
 21
4.815760143835777
 31
0.0
  0
LINE
  5
27F
330
24E
100
AcDbEntity
  8
0
  6
BYBLOCK
 62
     0
100
AcDbLine
 10
-53.77795331231864
 20
3.024093477169111
 30
0.0
 11
-54.02795331231864
 21
3.274093477169111
 31
0.0
  0
LINE
  5
280
330
24E
100
AcDbEntity
  8
0
  6
BYBLOCK
 62
     0
100
AcDbLine
 10
-53.77795331231864
 20
6.024093477169111
 30
0.0
 11
-54.02795331231864
 21
6.274093477169111
 31
0.0
  0
TEXT
  5
281
330
24E
100
AcDbEntity
  8
0
  6
BYBLOCK
 62
     0
100
AcDbText
 10
-53.84045331231863
 20
4.607426810502444
 30
0.0
 40
0.125
  1
3
 50
90.0
 72
     1
 11
-53.90295331231864
 21
4.649093477169111
 31
0.0
100
AcDbText
 73
     2
  0
POINT
  5
282
330
24E
100
AcDbEntity
  8
DEFPOINTS
  6
BYBLOCK
 62
     0
100
AcDbPoint
 10
-53.43945950132585
 20
3.149093477169111
 30
0.0
  0
POINT
  5
283
330
24E
100
AcDbEntity
  8
DEFPOINTS
  6
BYBLOCK
 62
     0
100
AcDbPoint
 10
-52.49177338829788
 20
6.149093477169111
 30
0.0
  0
POINT
  5
284
330
24E
100
AcDbEntity
  8
DEFPOINTS
  6
BYBLOCK
 62
     0
100
AcDbPoint
 10
-53.90295331231864
 20
6.149093477169111
 30
0.0
  0
ENDBLK
  5
285
330
24E
100
AcDbEntity
  8
0
100
AcDbBlockEnd
  0
BLOCK
  5
286
330
250
100
AcDbEntity
  8
0
100
AcDbBlockBegin
  2
*D3
 70
     1
 10
0.0
 20
0.0
 30
0.0
  3
*D3
  1

  0
LINE
  5
287
330
250
100
AcDbEntity
  8
0
  6
BYBLOCK
 62
     0
100
AcDbLine
 10
-51.6769418414357
 20
1.422684812954177
 30
0.0
 11
-51.6769418414357
 21
1.540184812954177
 31
0.0
  0
LINE
  5
288
330
250
100
AcDbEntity
  8
0
  6
BYBLOCK
 62
     0
100
AcDbLine
 10
-51.5319418414357
 20
1.422684812954177
 30
0.0
 11
-51.5319418414357
 21
1.540184812954177
 31
0.0
  0
LINE
  5
289
330
250
100
AcDbEntity
  8
0
  6
BYBLOCK
 62
     0
100
AcDbLine
 10
-51.6769418414357
 20
1.360184812954177
 30
0.0
 11
-51.9269418414357
 21
1.360184812954177
 31
0.0
  0
LINE
  5
28A
330
250
100
AcDbEntity
  8
0
  6
BYBLOCK
 62
     0
100
AcDbLine
 10
-51.5319418414357
 20
1.360184812954177
 30
0.0
 11
-51.2819418414357
 21
1.360184812954177
 31
0.0
  0
LINE
  5
28B
330
250
100
AcDbEntity
  8
0
  6
BYBLOCK
 62
     0
100
AcDbLine
 10
-51.8019418414357
 20
1.235184812954177
 30
0.0
 11
-51.55194184143571
 21
1.485184812954177
 31
0.0
  0
LINE
  5
28C
330
250
100
AcDbEntity
  8
0
  6
BYBLOCK
 62
     0
100
AcDbLine
 10
-51.6569418414357
 20
1.235184812954177
 30
0.0
 11
-51.4069418414357
 21
1.485184812954177
 31
0.0
  0
TEXT
  5
28D
330
250
100
AcDbEntity
  8
0
  6
BYBLOCK
 62
     0
100
AcDbText
 10
-51.15694184143571
 20
1.297684812954177
 30
0.0
 40
0.125
  1
0.145
 72
     1
 11
-50.9381918414357
 21
1.360184812954177
 31
0.0
100
AcDbText
 73
     2
  0
POINT
  5
28E
330
250
100
AcDbEntity
  8
DEFPOINTS
  6
BYBLOCK
 62
     0
100
AcDbPoint
 10
-51.6769418414357
 20
1.360184812954177
 30
0.0
  0
POINT
  5
28F
330
250
100
AcDbEntity
  8
DEFPOINTS
  6
BYBLOCK
 62
     0
100
AcDbPoint
 10
-51.5319418414357
 20
1.360184812954177
 30
0.0
  0
POINT
  5
290
330
250
100
AcDbEntity
  8
DEFPOINTS
  6
BYBLOCK
 62
     0
100
AcDbPoint
 10
-51.5319418414357
 20
1.360184812954177
 30
0.0
  0
ENDBLK
  5
291
330
250
100
AcDbEntity
  8
0
100
AcDbBlockEnd
  0
BLOCK
  5
292
330
251
100
AcDbEntity
  8
0
100
AcDbBlockBegin
  2
*D4
 70
     1
 10
0.0
 20
0.0
 30
0.0
  3
*D4
  1

  0
LINE
  5
293
330
251
100
AcDbEntity
  8
0
  6
BYBLOCK
 62
     0
100
AcDbLine
 10
-52.29517439848575
 20
5.969402258887481
 30
0.0
 11
-49.49442048539458
 21
4.909223700388952
 31
0.0
  0
LINE
  5
294
330
251
100
AcDbEntity
  8
0
  6
BYBLOCK
 62
     0
100
AcDbLine
 10
-52.45633153820318
 20
5.896749823841578
 30
0.0
 11
-52.13401725876833
 21
6.042054693933384
 31
0.0
  0
TEXT
  5
295
330
251
100
AcDbEntity
  8
0
  6
BYBLOCK
 62
     0
100
AcDbText
 10
-49.3996418741808
 20
4.806518954362363
 30
0.0
 40
0.125
  1
R3
 50
339.2666779709783
 72
     1
 11
-49.28009504186153
 21
4.828094387773394
 31
0.0
100
AcDbText
 73
     2
  0
POINT
  5
296
330
251
100
AcDbEntity
  8
DEFPOINTS
  6
BYBLOCK
 62
     0
100
AcDbPoint
 10
-52.29517439848575
 20
5.969402258887481
 30
0.0
  0
POINT
  5
297
330
251
100
AcDbEntity
  8
DEFPOINTS
  6
BYBLOCK
 62
     0
100
AcDbPoint
 10
-49.48945950132585
 20
4.907345802829249
 30
0.0
  0
ENDBLK
  5
298
330
251
100
AcDbEntity
  8
0
100
AcDbBlockEnd
  0
ENDSEC
  0
SECTION
  2
ENTITIES
  0
CIRCLE
  5
299
330
18
100
AcDbEntity
  8
ADP1DETAIL
100
AcDbCircle
 10
-52.49149746888204
 20
1.360012707162087
 30
0.0
 40
0.805
  0
CIRCLE
  5
29A
330
18
100
AcDbEntity
  8
ADP1DETAIL
100
AcDbCircle
 10
-52.49149746888204
 20
1.360012707162087
 30
0.0
 40
0.95
  0
DIMENSION
  5
29B
330
18
100
AcDbEntity
  8
ADPDIM
100
AcDbDimension
  2
*D0
 10
-53.53457848111535
 20
7.133617577465855
 30
0.0
 11
-52.49882066785351
 21
8.236617297897227
 31
0.0
 70
     1
100
AcDbAlignedDimension
 13
-51.04117693961612
 23
8.943450433109383
 33
0.0
 14
-53.1126925661398
 24
6.737450992246639
 34
0.0
  0
DIMENSION
  5
29C
330
18
100
AcDbEntity
  8
ADPDIM
100
AcDbDimension
  2
*D1
 10
-51.53945950132585
 20
2.534203973780307
 30
0.0
 11
-52.48945950132585
 21
2.534203973780307
 31
0.0
  1
1.900
100
AcDbAlignedDimension
 13
-53.43945950132585
 23
3.149093477169111
 33
0.0
 14
-51.53945950132585
 24
3.149093477169111
 34
0.0
100
AcDbRotatedDimension
  0
DIMENSION
  5
29D
330
18
100
AcDbEntity
  8
ADPDIM
100
AcDbDimension
  2
*D2
 10
-53.90295331231864
 20
6.149093477169111
 30
0.0
 11
-53.90295331231864
 21
4.649093477169111
 31
0.0
100
AcDbAlignedDimension
 13
-53.43945950132585
 23
3.149093477169111
 33
0.0
 14
-52.49177338829788
 24
6.149093477169111
 34
0.0
 50
90.0
100
AcDbRotatedDimension
  0
ARC
  5
29E
330
18
100
AcDbEntity
  8
ADP1DETAIL
100
AcDbCircle
 10
-49.48945950132586
 20
4.906762251090615
 30
0.0
 40
3.95
100
AcDbArc
 50
135.0521026195022
 51
180.0
  0
LINE
  5
29F
330
18
100
AcDbEntity
  8
ADP1DETAIL
100
AcDbLine
 10
-51.53945950132585
 20
3.149093477169111
 30
0.0
 11
-53.43945950132585
 21
3.149093477169111
 31
0.0
  0
LINE
  5
2A0
330
18
100
AcDbEntity
  8
ADP1DETAIL
100
AcDbLine
 10
-53.43945950132585
 20
3.149093477169111
 30
0.0
 11
-53.43945950132585
 21
4.906762251090615
 31
0.0
  0
LINE
  5
2A1
330
18
100
AcDbEntity
  8
ADP1DETAIL
100
AcDbLine
 10
-51.04117693961612
 20
8.943450433109383
 30
0.0
 11
-49.69645288020987
 21
7.601169835002576
 31
0.0
  0
LINE
  5
2A2
330
18
100
AcDbEntity
  8
ADP1DETAIL
100
AcDbLine
 10
-52.28507004588095
 20
7.697292968207402
 30
0.0
 11
-51.04117693961612
 21
8.943450433109383
 31
0.0
  0
LINE
  5
2A3
330
18
100
AcDbEntity
  8
ADP3DETAIL
  6
CENTER2
100
AcDbLine
 10
-51.61185764611296
 20
7.02758779727333
 30
0.0
 11
-49.96022992441211
 21
8.680895118608571
 31
0.0
  0
DIMENSION
  5
2A4
330
18
100
AcDbEntity
  8
ADPDIM
100
AcDbDimension
  2
*D4
 10
-49.48945950132585
 20
4.907345802829249
 30
0.0
 11
-49.28009504186153
 21
4.828094387773394
 31
0.0
 70
     4
100
AcDbRadialDimension
 15
-52.29517439848575
 25
5.969402258887481
 35
0.0
 40
-2.994695486622225
  0
LINE
  5
2A5
330
18
100
AcDbEntity
  8
ADP3DETAIL
  6
CENTER2
100
AcDbLine
 10
-52.48945950132585
 20
2.718208636102753
 30
0.0
 11
-52.48945950132585
 21
4.907345802829247
 31
0.0
  0
LINE
  5
2A6
330
18
100
AcDbEntity
  8
ADP1DETAIL
100
AcDbLine
 10
-51.53945950132585
 20
4.923238488285052
 30
0.0
 11
-51.53945950132585
 21
3.149093477169111
 31
0.0
  0
DIMENSION
  5
2A7
330
18
100
AcDbEntity
  8
ADPDIM
100
AcDbDimension
  2
*D3
 10
-51.5319418414357
 20
1.360184812954177
 30
0.0
 11
-50.9381918414357
 21
1.360184812954177
 31
0.0
  1
0.145
100
AcDbAlignedDimension
 13
-51.6769418414357
 23
1.360184812954177
 33
0.0
 14
-51.5319418414357
 24
1.360184812954177
 34
0.0
100
AcDbRotatedDimension
  0
ARC
  5
2A8
330
18
100
AcDbEntity
  8
ADP1DETAIL
100
AcDbCircle
 10
-49.48945950132586
 20
4.923238488285052
 30
0.0
 40
2.049999999999999
100
AcDbArc
 50
134.6689834922905
 51
180.0
  0
ARC
  5
2A9
330
18
100
AcDbEntity
  8
ADP3DETAIL
  6
CENTER2
100
AcDbCircle
 10
-49.48945950132585
 20
4.907345802829247
 30
0.0
 40
3.0
100
AcDbArc
 50
135.0291182612621
 51
180.0
  0
LINE
  5
2AA
330
18
100
AcDbEntity
  8
ADP1DETAIL
100
AcDbLine
 10
-50.9306296229945
 20
6.38115778660357
 30
0.0
 11
-49.69767461085959
 21
7.599948104352855
 31
0.0
  0
TEXT
  5
2B8
330
18
100
AcDbEntity
  8
ADPDIM
100
AcDbText
 10
-62.11023414324164
 20
-0.2496182031917766
 30
0.0
 40
0.1875
  1
J U L I U S  B L U M  &  C O . ,  I N C .      ( 8 0 0 )  5 2 6 - 6 2 9 3        W W W . J U L I U S B L U M . C O M        P A R T  N o .  7 5 0 8
 41
1.25
  7
ARIAL_WIDE
 72
     1
 11
-52.32164060640672
 21
-0.0621182031917766
 31
0.0
100
AcDbText
 73
     3
  0
ENDSEC
  0
SECTION
  2
OBJECTS
  0
DICTIONARY
  5
C
330
0
100
AcDbDictionary
  3
ACAD_GROUP
350
D
  3
ACAD_LAYOUT
350
2B1
  3
ACAD_MLINESTYLE
350
E
  3
ACAD_PLOTSETTINGS
350
2B2
  3
ACAD_PLOTSTYLENAME
350
2AF
  3
ACDBHEADERROUNDTRIPXREC
350
3FC
  3
ACDBVARIABLEDICTIONARY
350
312
  0
DICTIONARY
  5
30C
330
18
100
AcDbDictionary
280
     1
  3
ACAD_LAYOUTSELFREF
360
41D
  0
DICTIONARY
  5
30A
330
15
100
AcDbDictionary
280
     1
  3
ACAD_LAYOUTSELFREF
360
41C
  0
DICTIONARY
  5
D
102
{ACAD_REACTORS
330
C
102
}
330
C
100
AcDbDictionary
  0
DICTIONARY
  5
2B1
102
{ACAD_REACTORS
330
C
102
}
330
C
100
AcDbDictionary
  0
DICTIONARY
  5
E
102
{ACAD_REACTORS
330
C
102
}
330
C
100
AcDbDictionary
  3
STANDARD
350
1B
  0
DICTIONARY
  5
2B2
102
{ACAD_REACTORS
330
C
102
}
330
C
100
AcDbDictionary
  0
ACDBDICTIONARYWDFLT
  5
2AF
102
{ACAD_REACTORS
330
C
102
}
330
C
100
AcDbDictionary
281
     1
  3
Normal
350
2B0
100
AcDbDictionaryWithDefault
340
2B0
  0
DICTIONARY
  5
3FC
102
{ACAD_REACTORS
330
C
102
}
330
C
100
AcDbDictionary
  3
CEPSNTYPE
350
406
  3
FINGERPRINTGUID
350
407
  3
HYPERLINKBASE
350
3FF
  3
INSUNITS
350
405
  3
LAYOUTDICT
350
401
  3
LWETCUNION
350
404
  3
PLOTSETDICT
350
402
  3
PLOTSTYLNAMDICT
350
403
  3
PSVPSCALE
350
409
  3
PUCSBASE
350
40C
  3
PUCSORGBACK
350
412
  3
PUCSORGBOTTOM
350
40E
  3
PUCSORGFRONT
350
411
  3
PUCSORGLEFT
350
40F
  3
PUCSORGRIGHT
350
410
  3
PUCSORGTOP
350
40D
  3
PUCSORTHOREF
350
40A
  3
PUCSORTHOVIEW
350
40B
  3
STYLESHEET
350
400
  3
TSTACKALIGN
350
3FD
  3
TSTACKSIZE
350
3FE
  3
UCSBASE
350
415
  3
UCSORGBACK
350
41B
  3
UCSORGBOTTOM
350
417
  3
UCSORGFRONT
350
41A
  3
UCSORGLEFT
350
418
  3
UCSORGRIGHT
350
419
  3
UCSORGTOP
350
416
  3
UCSORTHOREF
350
413
  3
UCSORTHOVIEW
350
414
  3
VERSIONGUID
350
408
  0
DICTIONARY
  5
312
102
{ACAD_REACTORS
330
C
102
}
330
C
100
AcDbDictionary
  3
DIMASSOC
350
313
  0
XRECORD
  5
41D
102
{ACAD_REACTORS
330
30C
102
}
330
30C
100
AcDbXrecord
340
18
  0
XRECORD
  5
41C
102
{ACAD_REACTORS
330
30A
102
}
330
30A
100
AcDbXrecord
340
15
  0
MLINESTYLE
  5
1B
102
{ACAD_REACTORS
330
E
102
}
330
E
100
AcDbMlineStyle
  2
STANDARD
 70
     0
  3

 62
     0
 51
90.0
 52
90.0
 71
     2
 49
0.5
 62
   256
  6
BYLAYER
 49
-0.5
 62
   256
  6
BYLAYER
  0
ACDBPLACEHOLDER
  5
2B0
102
{ACAD_REACTORS
330
2AF
102
}
330
2AF
100
AcDbPlaceHolder
280
     0
  0
XRECORD
  5
406
102
{ACAD_REACTORS
330
3FC
102
}
330
3FC
100
AcDbXrecord
 90
        0
  0
XRECORD
  5
407
102
{ACAD_REACTORS
330
3FC
102
}
330
3FC
100
AcDbXrecord
  1
{75A0BF60-4CC0-4089-B822-9C223F626990}
  0
XRECORD
  5
3FF
102
{ACAD_REACTORS
330
3FC
102
}
330
3FC
100
AcDbXrecord
  1

  0
XRECORD
  5
405
102
{ACAD_REACTORS
330
3FC
102
}
330
3FC
100
AcDbXrecord
 90
        0
  0
XRECORD
  5
401
102
{ACAD_REACTORS
330
3FC
102
}
330
3FC
100
AcDbXrecord
340
2B1
  0
XRECORD
  5
404
102
{ACAD_REACTORS
330
3FC
102
}
330
3FC
100
AcDbXrecord
 90
    14877
  0
XRECORD
  5
402
102
{ACAD_REACTORS
330
3FC
102
}
330
3FC
100
AcDbXrecord
340
2B2
  0
XRECORD
  5
403
102
{ACAD_REACTORS
330
3FC
102
}
330
3FC
100
AcDbXrecord
340
2AF
  0
XRECORD
  5
409
102
{ACAD_REACTORS
330
3FC
102
}
330
3FC
100
AcDbXrecord
 40
0.0
  0
XRECORD
  5
40C
102
{ACAD_REACTORS
330
3FC
102
}
330
3FC
100
AcDbXrecord
340
0
  0
XRECORD
  5
412
102
{ACAD_REACTORS
330
3FC
102
}
330
3FC
100
AcDbXrecord
 10
0.0
 20
0.0
 30
0.0
  0
XRECORD
  5
40E
102
{ACAD_REACTORS
330
3FC
102
}
330
3FC
100
AcDbXrecord
 10
0.0
 20
0.0
 30
0.0
  0
XRECORD
  5
411
102
{ACAD_REACTORS
330
3FC
102
}
330
3FC
100
AcDbXrecord
 10
0.0
 20
0.0
 30
0.0
  0
XRECORD
  5
40F
102
{ACAD_REACTORS
330
3FC
102
}
330
3FC
100
AcDbXrecord
 10
0.0
 20
0.0
 30
0.0
  0
XRECORD
  5
410
102
{ACAD_REACTORS
330
3FC
102
}
330
3FC
100
AcDbXrecord
 10
0.0
 20
0.0
 30
0.0
  0
XRECORD
  5
40D
102
{ACAD_REACTORS
330
3FC
102
}
330
3FC
100
AcDbXrecord
 10
0.0
 20
0.0
 30
0.0
  0
XRECORD
  5
40A
102
{ACAD_REACTORS
330
3FC
102
}
330
3FC
100
AcDbXrecord
340
0
  0
XRECORD
  5
40B
102
{ACAD_REACTORS
330
3FC
102
}
330
3FC
100
AcDbXrecord
 70
     0
  0
XRECORD
  5
400
102
{ACAD_REACTORS
330
3FC
102
}
330
3FC
100
AcDbXrecord
  1

  0
XRECORD
  5
3FD
102
{ACAD_REACTORS
330
3FC
102
}
330
3FC
100
AcDbXrecord
 90
        1
  0
XRECORD
  5
3FE
102
{ACAD_REACTORS
330
3FC
102
}
330
3FC
100
AcDbXrecord
 90
       70
  0
XRECORD
  5
415
102
{ACAD_REACTORS
330
3FC
102
}
330
3FC
100
AcDbXrecord
340
0
  0
XRECORD
  5
41B
102
{ACAD_REACTORS
330
3FC
102
}
330
3FC
100
AcDbXrecord
 10
0.0
 20
0.0
 30
0.0
  0
XRECORD
  5
417
102
{ACAD_REACTORS
330
3FC
102
}
330
3FC
100
AcDbXrecord
 10
0.0
 20
0.0
 30
0.0
  0
XRECORD
  5
41A
102
{ACAD_REACTORS
330
3FC
102
}
330
3FC
100
AcDbXrecord
 10
0.0
 20
0.0
 30
0.0
  0
XRECORD
  5
418
102
{ACAD_REACTORS
330
3FC
102
}
330
3FC
100
AcDbXrecord
 10
0.0
 20
0.0
 30
0.0
  0
XRECORD
  5
419
102
{ACAD_REACTORS
330
3FC
102
}
330
3FC
100
AcDbXrecord
 10
0.0
 20
0.0
 30
0.0
  0
XRECORD
  5
416
102
{ACAD_REACTORS
330
3FC
102
}
330
3FC
100
AcDbXrecord
 10
0.0
 20
0.0
 30
0.0
  0
XRECORD
  5
413
102
{ACAD_REACTORS
330
3FC
102
}
330
3FC
100
AcDbXrecord
340
0
  0
XRECORD
  5
414
102
{ACAD_REACTORS
330
3FC
102
}
330
3FC
100
AcDbXrecord
 70
     0
  0
XRECORD
  5
408
102
{ACAD_REACTORS
330
3FC
102
}
330
3FC
100
AcDbXrecord
  1
{C83D2C26-DE56-44E7-B653-27194D6221E0}
  0
DICTIONARYVAR
  5
313
102
{ACAD_REACTORS
330
312
102
}
330
312
100
DictionaryVariables
280
     0
  1
1
  0
ENDSEC
  0
EOF
