  0
SECTION
  2
HEADER
  9
$ACADVER
  1
AC1014
  9
$ACADMAINTVER
 70
     9
  9
$DWGCODEPAGE
  3
ANSI_1252
  9
$INSBASE
 10
-44.45414765667945
 20
16.94299808048244
 30
0.0
  9
$EXTMIN
 10
-57.55222742703679
 20
13.56606623934225
 30
0.0
  9
$EXTMAX
 10
-37.97504035336695
 20
19.65600402838116
 30
0.0
  9
$LIMMIN
 10
0.0
 20
0.0
  9
$LIMMAX
 10
36.0
 20
36.0
  9
$ORTHOMODE
 70
     1
  9
$REGENMODE
 70
     1
  9
$FILLMODE
 70
     1
  9
$QTEXTMODE
 70
     0
  9
$MIRRTEXT
 70
     1
  9
$DRAGMODE
 70
     0
  9
$LTSCALE
 40
1.0
  9
$OSMODE
 70
    37
  9
$ATTMODE
 70
     1
  9
$TEXTSIZE
 40
0.2
  9
$TRACEWID
 40
0.05
  9
$TEXTSTYLE
  7
STANDARD
  9
$CLAYER
  8
0
  9
$CELTYPE
  6
BYLAYER
  9
$CECOLOR
 62
   256
  9
$CELTSCALE
 40
1.0
  9
$DELOBJ
 70
     1
  9
$DISPSILH
 70
     0
  9
$DIMSCALE
 40
1.0
  9
$DIMASZ
 40
0.125
  9
$DIMEXO
 40
0.0625
  9
$DIMDLI
 40
0.38
  9
$DIMRND
 40
0.0
  9
$DIMDLE
 40
0.0
  9
$DIMEXE
 40
0.18
  9
$DIMTP
 40
0.0
  9
$DIMTM
 40
0.0
  9
$DIMTXT
 40
0.125
  9
$DIMCEN
 40
0.1875
  9
$DIMTSZ
 40
0.125
  9
$DIMTOL
 70
     0
  9
$DIMLIM
 70
     0
  9
$DIMTIH
 70
     0
  9
$DIMTOH
 70
     0
  9
$DIMSE1
 70
     0
  9
$DIMSE2
 70
     0
  9
$DIMTAD
 70
     0
  9
$DIMZIN
 70
     3
  9
$DIMBLK
  1

  9
$DIMASO
 70
     1
  9
$DIMSHO
 70
     1
  9
$DIMPOST
  1

  9
$DIMAPOST
  1

  9
$DIMALT
 70
     0
  9
$DIMALTD
 70
     1
  9
$DIMALTF
 40
25.4
  9
$DIMLFAC
 40
1.0
  9
$DIMTOFL
 70
     0
  9
$DIMTVP
 40
0.0
  9
$DIMTIX
 70
     0
  9
$DIMSOXD
 70
     0
  9
$DIMSAH
 70
     0
  9
$DIMBLK1
  1

  9
$DIMBLK2
  1

  9
$DIMSTYLE
  2
STANDARD
  9
$DIMCLRD
 70
     0
  9
$DIMCLRE
 70
     0
  9
$DIMCLRT
 70
     0
  9
$DIMTFAC
 40
1.0
  9
$DIMGAP
 40
0.125
  9
$DIMJUST
 70
     0
  9
$DIMSD1
 70
     0
  9
$DIMSD2
 70
     0
  9
$DIMTOLJ
 70
     1
  9
$DIMTZIN
 70
     0
  9
$DIMALTZ
 70
     0
  9
$DIMALTTZ
 70
     0
  9
$DIMFIT
 70
     3
  9
$DIMUPT
 70
     0
  9
$DIMUNIT
 70
     2
  9
$DIMDEC
 70
     4
  9
$DIMTDEC
 70
     4
  9
$DIMALTU
 70
     2
  9
$DIMALTTD
 70
     2
  9
$DIMTXSTY
  7
STANDARD
  9
$DIMAUNIT
 70
     0
  9
$LUNITS
 70
     5
  9
$LUPREC
 70
     4
  9
$SKETCHINC
 40
0.1
  9
$FILLETRAD
 40
0.062
  9
$AUNITS
 70
     0
  9
$AUPREC
 70
     0
  9
$MENU
  1
acad
  9
$ELEVATION
 40
0.0
  9
$PELEVATION
 40
0.0
  9
$THICKNESS
 40
0.0
  9
$LIMCHECK
 70
     0
  9
$BLIPMODE
 70
     0
  9
$CHAMFERA
 40
0.0
  9
$CHAMFERB
 40
0.0
  9
$CHAMFERC
 40
0.0
  9
$CHAMFERD
 40
0.0
  9
$SKPOLY
 70
     0
  9
$TDCREATE
 40
2450387.516977037
  9
$TDUPDATE
 40
2452297.102301065
  9
$TDINDWG
 40
0.0738283333
  9
$TDUSRTIMER
 40
0.0738283333
  9
$USRTIMER
 70
     1
  9
$ANGBASE
 50
0.0
  9
$ANGDIR
 70
     0
  9
$PDMODE
 70
     0
  9
$PDSIZE
 40
0.0
  9
$PLINEWID
 40
0.0
  9
$COORDS
 70
     2
  9
$SPLFRAME
 70
     0
  9
$SPLINETYPE
 70
     6
  9
$SPLINESEGS
 70
     8
  9
$ATTDIA
 70
     0
  9
$ATTREQ
 70
     1
  9
$HANDLING
 70
 22529
  9
$HANDSEED
  5
423
  9
$SURFTAB1
 70
     6
  9
$SURFTAB2
 70
     6
  9
$SURFTYPE
 70
     6
  9
$SURFU
 70
     6
  9
$SURFV
 70
     6
  9
$UCSNAME
  2

  9
$UCSORG
 10
0.0
 20
0.0
 30
0.0
  9
$UCSXDIR
 10
1.0
 20
0.0
 30
0.0
  9
$UCSYDIR
 10
0.0
 20
1.0
 30
0.0
  9
$PUCSNAME
  2

  9
$PUCSORG
 10
0.0
 20
0.0
 30
0.0
  9
$PUCSXDIR
 10
1.0
 20
0.0
 30
0.0
  9
$PUCSYDIR
 10
0.0
 20
1.0
 30
0.0
  9
$USERI1
 70
     0
  9
$USERI2
 70
     0
  9
$USERI3
 70
     0
  9
$USERI4
 70
     0
  9
$USERI5
 70
     0
  9
$USERR1
 40
0.0
  9
$USERR2
 40
0.0
  9
$USERR3
 40
0.0
  9
$USERR4
 40
0.0
  9
$USERR5
 40
0.0
  9
$WORLDVIEW
 70
     1
  9
$SHADEDGE
 70
     3
  9
$SHADEDIF
 70
    70
  9
$TILEMODE
 70
     1
  9
$MAXACTVP
 70
    15
  9
$PINSBASE
 10
0.0
 20
0.0
 30
0.0
  9
$PLIMCHECK
 70
     0
  9
$PEXTMIN
 10
1.000000000000000E+20
 20
1.000000000000000E+20
 30
1.000000000000000E+20
  9
$PEXTMAX
 10
-1.000000000000000E+20
 20
-1.000000000000000E+20
 30
-1.000000000000000E+20
  9
$PLIMMIN
 10
0.0
 20
0.0
  9
$PLIMMAX
 10
12.0
 20
9.0
  9
$UNITMODE
 70
     0
  9
$VISRETAIN
 70
     0
  9
$PLINEGEN
 70
     0
  9
$PSLTSCALE
 70
     1
  9
$TREEDEPTH
 70
  3020
  9
$PICKSTYLE
 70
     1
  9
$CMLSTYLE
  2
STANDARD
  9
$CMLJUST
 70
     0
  9
$CMLSCALE
 40
1.0
  9
$PROXYGRAPHICS
 70
     1
  9
$MEASUREMENT
 70
     0
  0
ENDSEC
  0
SECTION
  2
CLASSES
  0
CLASS
  1
ACDBDICTIONARYWDFLT
  2
AcDbDictionaryWithDefault
  3
AutoCAD 2000
 90
        0
280
     0
281
     0
  0
CLASS
  1
ACDBPLACEHOLDER
  2
AcDbPlaceHolder
  3
AutoCAD 2000
 90
        0
280
     0
281
     0
  0
CLASS
  1
LAYOUT
  2
AcDbLayout
  3
AutoCAD 2000
 90
        0
280
     0
281
     0
  0
CLASS
  1
DICTIONARYVAR
  2
AcDbDictionaryVar
  3
AutoCAD 2000
 90
        0
280
     0
281
     0
  0
CLASS
  1
LONG_TRANSACTION
  2
AcDbLongTransaction
  3
AutoCAD 2000
 90
        0
280
     0
281
     0
  0
CLASS
  1
LWPOLYLINE
  2
AcDbPolyline
  3
AutoCAD 2000
 90
        0
280
     0
281
     1
  0
CLASS
  1
HATCH
  2
AcDbHatch
  3
AutoCAD 2000
 90
        0
280
     0
281
     1
  0
CLASS
  1
XRECORD
  2
AcDbXrecord
  3
AutoCAD 2000
 90
        0
280
     0
281
     0
  0
CLASS
  1
LONG_TRANSACTION
  2
AcDbLongTransaction
  3
AutoCAD 2000
 90
        0
280
     0
281
     0
  0
CLASS
  1
LWPOLYLINE
  2
AcDbPolyline
  3
AutoCAD 2000
 90
        0
280
     0
281
     1
  0
CLASS
  1
HATCH
  2
AcDbHatch
  3
AutoCAD 2000
 90
        0
280
     0
281
     1
  0
CLASS
  1
XRECORD
  2
AcDbXrecord
  3
AutoCAD 2000
 90
        0
280
     0
281
     0
  0
CLASS
  1
LONG_TRANSACTION
  2
AcDbLongTransaction
  3
AutoCAD 2000
 90
        0
280
     0
281
     0
  0
CLASS
  1
LWPOLYLINE
  2
AcDbPolyline
  3
AutoCAD 2000
 90
        0
280
     0
281
     1
  0
CLASS
  1
HATCH
  2
AcDbHatch
  3
AutoCAD 2000
 90
        0
280
     0
281
     1
  0
CLASS
  1
XRECORD
  2
AcDbXrecord
  3
AutoCAD 2000
 90
        0
280
     0
281
     0
  0
CLASS
  1
LONG_TRANSACTION
  2
AcDbLongTransaction
  3
AutoCAD 2000
 90
        0
280
     0
281
     0
  0
CLASS
  1
LWPOLYLINE
  2
AcDbPolyline
  3
AutoCAD 2000
 90
        0
280
     0
281
     1
  0
CLASS
  1
HATCH
  2
AcDbHatch
  3
AutoCAD 2000
 90
        0
280
     0
281
     1
  0
CLASS
  1
XRECORD
  2
AcDbXrecord
  3
AutoCAD 2000
 90
        0
280
     0
281
     0
  0
CLASS
  1
LONG_TRANSACTION
  2
AcDbLongTransaction
  3
AutoCAD 2000
 90
        0
280
     0
281
     0
  0
CLASS
  1
LWPOLYLINE
  2
AcDbPolyline
  3
AutoCAD 2000
 90
        0
280
     0
281
     1
  0
CLASS
  1
HATCH
  2
AcDbHatch
  3
AutoCAD 2000
 90
        0
280
     0
281
     1
  0
CLASS
  1
XRECORD
  2
AcDbXrecord
  3
AutoCAD 2000
 90
        0
280
     0
281
     0
  0
ENDSEC
  0
SECTION
  2
TABLES
  0
TABLE
  2
VPORT
  5
8
330
0
100
AcDbSymbolTable
 70
     2
  0
VPORT
  5
400
330
8
100
AcDbSymbolTableRecord
100
AcDbViewportTableRecord
  2
*ACTIVE
 70
     0
 10
0.0
 20
0.0
 11
1.0
 21
1.0
 12
-47.74843370063872
 22
16.61022957438863
 13
0.0
 23
0.0
 14
0.5740882589684922
 24
0.5740882589684922
 15
0.5
 25
0.5
 16
0.0
 26
0.0
 36
1.0
 17
0.0
 27
0.0
 37
0.0
 40
12.55087353639628
 41
1.570528967254408
 42
50.0
 43
0.0
 44
0.0
 50
0.0
 51
0.0
 71
     0
 72
   100
 73
     1
 74
     0
 75
     0
 76
     0
 77
     0
 78
     0
  0
ENDTAB
  0
TABLE
  2
LTYPE
  5
5
330
0
100
AcDbSymbolTable
 70
     2
  0
LTYPE
  5
12
330
5
100
AcDbSymbolTableRecord
100
AcDbLinetypeTableRecord
  2
BYBLOCK
 70
     0
  3

 72
    65
 73
     0
 40
0.0
  0
LTYPE
  5
13
330
5
100
AcDbSymbolTableRecord
100
AcDbLinetypeTableRecord
  2
BYLAYER
 70
     0
  3

 72
    65
 73
     0
 40
0.0
  0
LTYPE
  5
14
330
5
100
AcDbSymbolTableRecord
100
AcDbLinetypeTableRecord
  2
CONTINUOUS
 70
     0
  3
Solid line
 72
    65
 73
     0
 40
0.0
  0
LTYPE
  5
258
330
5
100
AcDbSymbolTableRecord
100
AcDbLinetypeTableRecord
  2
CENTER2
 70
     0
  3
___ _ ___ _ ___ _ ___ _ ___ _ ___ _ ___ _ ___ _
 72
    65
 73
     4
 40
1.125
 49
0.75
 74
     0
 49
-0.125
 74
     0
 49
0.125
 74
     0
 49
-0.125
 74
     0
  0
ENDTAB
  0
TABLE
  2
LAYER
  5
2
330
0
100
AcDbSymbolTable
 70
     5
  0
LAYER
  5
F
330
2
100
AcDbSymbolTableRecord
100
AcDbLayerTableRecord
  2
0
 70
     0
 62
     7
  6
CONTINUOUS
  0
LAYER
  5
259
330
2
100
AcDbSymbolTableRecord
100
AcDbLayerTableRecord
  2
ADP1DETAIL
 70
     0
 62
     7
  6
CONTINUOUS
  0
LAYER
  5
25A
330
2
100
AcDbSymbolTableRecord
100
AcDbLayerTableRecord
  2
DEFPOINTS
 70
     0
 62
     7
  6
CONTINUOUS
  0
LAYER
  5
25E
330
2
100
AcDbSymbolTableRecord
100
AcDbLayerTableRecord
  2
ADP3DETAIL
 70
     0
 62
     1
  6
CONTINUOUS
  0
LAYER
  5
261
330
2
100
AcDbSymbolTableRecord
100
AcDbLayerTableRecord
  2
ADPDIM
 70
     0
 62
     3
  6
CONTINUOUS
  0
ENDTAB
  0
TABLE
  2
STYLE
  5
3
330
0
100
AcDbSymbolTable
 70
     2
  0
STYLE
  5
10
330
3
100
AcDbSymbolTableRecord
100
AcDbTextStyleTableRecord
  2
STANDARD
 70
     0
 40
0.0
 41
1.0
 50
0.0
 71
     0
 42
0.2
  3
txt
  4

  0
STYLE
  5
2BC
330
3
100
AcDbSymbolTableRecord
100
AcDbTextStyleTableRecord
  2
ARIAL_WIDE
 70
     0
 40
0.0
 41
1.25
 50
0.0
 71
     0
 42
0.2
  3
ARIAL.TTF
  4

1001
ACAD
1000
Arial
1071
       34
  0
ENDTAB
  0
TABLE
  2
VIEW
  5
6
330
0
100
AcDbSymbolTable
 70
     0
  0
ENDTAB
  0
TABLE
  2
UCS
  5
7
330
0
100
AcDbSymbolTable
 70
     0
  0
ENDTAB
  0
TABLE
  2
APPID
  5
9
330
0
100
AcDbSymbolTable
 70
     1
  0
APPID
  5
11
330
9
100
AcDbSymbolTableRecord
100
AcDbRegAppTableRecord
  2
ACAD
 70
     0
  0
ENDTAB
  0
TABLE
  2
DIMSTYLE
  5
A
330
0
100
AcDbSymbolTable
 70
     1
  0
DIMSTYLE
105
2B0
330
A
100
AcDbSymbolTableRecord
100
AcDbDimStyleTableRecord
  2
STANDARD
 70
     0
  3

  4

  5

  6

  7

 40
1.0
 41
0.18
 42
0.0625
 43
0.38
 44
0.18
 45
0.0
 46
0.0
 47
0.0
 48
0.0
140
0.18
141
0.09
142
0.0
143
25.4
144
1.0
145
0.0
146
1.0
147
0.09
 71
     0
 72
     0
 73
     1
 74
     1
 75
     0
 76
     0
 77
     0
 78
     0
170
     0
171
     2
172
     0
173
     0
174
     0
175
     0
176
     0
177
     0
178
     0
270
     2
271
     4
272
     4
273
     2
274
     2
340
10
275
     0
280
     0
281
     0
282
     0
283
     1
284
     0
285
     0
286
     0
287
     3
288
     0
  0
ENDTAB
  0
TABLE
  2
BLOCK_RECORD
  5
1
330
0
100
AcDbSymbolTable
 70
     5
  0
BLOCK_RECORD
  5
18
102
{ACAD_XDICTIONARY
360
311
102
}
330
1
100
AcDbSymbolTableRecord
100
AcDbBlockTableRecord
  2
*MODEL_SPACE
  0
BLOCK_RECORD
  5
15
102
{ACAD_XDICTIONARY
360
30F
102
}
330
1
100
AcDbSymbolTableRecord
100
AcDbBlockTableRecord
  2
*PAPER_SPACE
  0
BLOCK_RECORD
  5
252
330
1
100
AcDbSymbolTableRecord
100
AcDbBlockTableRecord
  2
*D0
  0
BLOCK_RECORD
  5
253
330
1
100
AcDbSymbolTableRecord
100
AcDbBlockTableRecord
  2
*D1
  0
BLOCK_RECORD
  5
254
330
1
100
AcDbSymbolTableRecord
100
AcDbBlockTableRecord
  2
*D2
  0
BLOCK_RECORD
  5
255
330
1
100
AcDbSymbolTableRecord
100
AcDbBlockTableRecord
  2
*D3
  0
BLOCK_RECORD
  5
256
330
1
100
AcDbSymbolTableRecord
100
AcDbBlockTableRecord
  2
*D4
  0
ENDTAB
  0
ENDSEC
  0
SECTION
  2
BLOCKS
  0
BLOCK
  5
264
330
18
100
AcDbEntity
  8
0
100
AcDbBlockBegin
  2
*MODEL_SPACE
 70
     0
 10
0.0
 20
0.0
 30
0.0
  3
*MODEL_SPACE
  1

  0
ENDBLK
  5
265
330
18
100
AcDbEntity
  8
0
100
AcDbBlockEnd
  0
BLOCK
  5
262
330
15
100
AcDbEntity
 67
     1
  8
0
100
AcDbBlockBegin
  2
*PAPER_SPACE
 70
     0
 10
0.0
 20
0.0
 30
0.0
  3
*PAPER_SPACE
  1

  0
ENDBLK
  5
263
330
15
100
AcDbEntity
 67
     1
  8
0
100
AcDbBlockEnd
  0
BLOCK
  5
267
330
252
100
AcDbEntity
  8
0
100
AcDbBlockBegin
  2
*D0
 70
     1
 10
0.0
 20
0.0
 30
0.0
  3
*D0
  1

  0
LINE
  5
268
330
252
100
AcDbEntity
  8
0
  6
BYBLOCK
 62
     0
100
AcDbLine
 10
-44.51664765667945
 20
18.90549729488976
 30
0.0
 11
-44.51664765667945
 21
19.49949076111623
 31
0.0
  0
LINE
  5
269
330
252
100
AcDbEntity
  8
0
  6
BYBLOCK
 62
     0
100
AcDbLine
 10
-51.51598901833893
 20
18.30054926565017
 30
0.0
 11
-51.51598901833893
 21
19.49949076111623
 31
0.0
  0
LINE
  5
26A
330
252
100
AcDbEntity
  8
0
  6
BYBLOCK
 62
     0
100
AcDbLine
 10
-44.51664765667945
 20
19.31949076111623
 30
0.0
 11
-47.84965167084252
 21
19.31949076111623
 31
0.0
  0
LINE
  5
26B
330
252
100
AcDbEntity
  8
0
  6
BYBLOCK
 62
     0
100
AcDbLine
 10
-51.51598901833893
 20
19.31949076111623
 30
0.0
 11
-48.18298500417586
 21
19.31949076111623
 31
0.0
  0
LINE
  5
26C
330
252
100
AcDbEntity
  8
0
  6
BYBLOCK
 62
     0
100
AcDbLine
 10
-44.64164765667945
 20
19.19449076111623
 30
0.0
 11
-44.39164765667945
 21
19.44449076111623
 31
0.0
  0
LINE
  5
26D
330
252
100
AcDbEntity
  8
0
  6
BYBLOCK
 62
     0
100
AcDbLine
 10
-51.64098901833893
 20
19.19449076111623
 30
0.0
 11
-51.39098901833893
 21
19.44449076111623
 31
0.0
  0
TEXT
  5
26E
330
252
100
AcDbEntity
  8
0
  6
BYBLOCK
 62
     0
100
AcDbText
 10
-48.05798500417585
 20
19.25699076111623
 30
0.0
 40
0.125
  1
7
 72
     1
 11
-48.01631833750919
 21
19.31949076111623
 31
0.0
100
AcDbText
 73
     2
  0
POINT
  5
26F
330
252
100
AcDbEntity
  8
DEFPOINTS
  6
BYBLOCK
 62
     0
100
AcDbPoint
 10
-44.51664765667945
 20
18.84299729488976
 30
0.0
  0
POINT
  5
270
330
252
100
AcDbEntity
  8
DEFPOINTS
  6
BYBLOCK
 62
     0
100
AcDbPoint
 10
-51.51598901833893
 20
18.23804926565017
 30
0.0
  0
POINT
  5
271
330
252
100
AcDbEntity
  8
DEFPOINTS
  6
BYBLOCK
 62
     0
100
AcDbPoint
 10
-51.51598901833893
 20
19.31949076111623
 30
0.0
  0
ENDBLK
  5
272
330
252
100
AcDbEntity
  8
0
100
AcDbBlockEnd
  0
BLOCK
  5
273
330
253
100
AcDbEntity
  8
0
100
AcDbBlockBegin
  2
*D1
 70
     1
 10
0.0
 20
0.0
 30
0.0
  3
*D1
  1

  0
LINE
  5
274
330
253
100
AcDbEntity
  8
0
  6
BYBLOCK
 62
     0
100
AcDbLine
 10
-54.48180313508522
 20
17.43180594683835
 30
0.0
 11
-54.74459982035587
 21
18.93937333573695
 31
0.0
  0
LINE
  5
275
330
253
100
AcDbEntity
  8
0
  6
BYBLOCK
 62
     0
100
AcDbLine
 10
-51.52531052263754
 20
17.94717691088263
 30
0.0
 11
-51.78810720790819
 21
19.45474429978124
 31
0.0
  0
LINE
  5
276
330
253
100
AcDbEntity
  8
0
  6
BYBLOCK
 62
     0
100
AcDbLine
 10
-54.7136886469865
 20
18.7620473665138
 30
0.0
 11
-53.39963305300631
 21
18.99111139171246
 31
0.0
  0
LINE
  5
277
330
253
100
AcDbEntity
  8
0
  6
BYBLOCK
 62
     0
100
AcDbLine
 10
-51.75719603453882
 20
19.27741833055809
 30
0.0
 11
-53.071251628519
 21
19.04835430535943
 31
0.0
  0
LINE
  5
278
330
253
100
AcDbEntity
  8
0
  6
BYBLOCK
 62
     0
100
AcDbLine
 10
-54.81536558855163
 20
18.61743823971345
 30
0.0
 11
-54.61201170542137
 21
18.90665649331416
 31
0.0
  0
LINE
  5
279
330
253
100
AcDbEntity
  8
0
  6
BYBLOCK
 62
     0
100
AcDbLine
 10
-51.85887297610396
 20
19.13280920375773
 30
0.0
 11
-51.6555190929737
 21
19.42202745735844
 31
0.0
  0
TEXT
  5
27A
330
253
100
AcDbEntity
  8
0
  6
BYBLOCK
 62
     0
100
AcDbText
 10
-53.26575697251477
 20
18.9510059672387
 30
0.0
 40
0.125
  1
3
 50
9.888346937222832
 72
     1
 11
-53.23544234076266
 21
19.01973284853594
 31
0.0
100
AcDbText
 73
     2
  0
POINT
  5
27B
330
253
100
AcDbEntity
  8
DEFPOINTS
  6
BYBLOCK
 62
     0
100
AcDbPoint
 10
-54.47107008877641
 20
17.37023442974697
 30
0.0
  0
POINT
  5
27C
330
253
100
AcDbEntity
  8
DEFPOINTS
  6
BYBLOCK
 62
     0
100
AcDbPoint
 10
-51.51457747632874
 20
17.88560539379126
 30
0.0
  0
POINT
  5
27D
330
253
100
AcDbEntity
  8
DEFPOINTS
  6
BYBLOCK
 62
     0
100
AcDbPoint
 10
-51.75719603453882
 20
19.27741833055809
 30
0.0
  0
ENDBLK
  5
27E
330
253
100
AcDbEntity
  8
0
100
AcDbBlockEnd
  0
BLOCK
  5
27F
330
254
100
AcDbEntity
  8
0
100
AcDbBlockBegin
  2
*D2
 70
     1
 10
0.0
 20
0.0
 30
0.0
  3
*D2
  1

  0
LINE
  5
280
330
254
100
AcDbEntity
  8
0
  6
BYBLOCK
 62
     0
100
AcDbLine
 10
-51.51457747632873
 20
17.88560539379126
 30
0.0
 11
-51.26683355421774
 21
14.87286886853365
 31
0.0
  0
LINE
  5
281
330
254
100
AcDbEntity
  8
0
  6
BYBLOCK
 62
     0
100
AcDbLine
 10
-51.64940141937986
 20
17.99994044694709
 30
0.0
 11
-51.3797535332776
 21
17.77127034063543
 31
0.0
  0
TEXT
  5
282
330
254
100
AcDbEntity
  8
0
  6
BYBLOCK
 62
     0
100
AcDbText
 10
-51.31887885832183
 20
14.74316714795635
 30
0.0
 40
0.125
  1
R3
 50
274.7009802444078
 72
     1
 11
-51.24805207181371
 21
14.64447312201061
 31
0.0
100
AcDbText
 73
     2
  0
POINT
  5
283
330
254
100
AcDbEntity
  8
DEFPOINTS
  6
BYBLOCK
 62
     0
100
AcDbPoint
 10
-51.51457747632873
 20
17.88560539379126
 30
0.0
  0
POINT
  5
284
330
254
100
AcDbEntity
  8
DEFPOINTS
  6
BYBLOCK
 62
     0
100
AcDbPoint
 10
-51.26871079758514
 20
14.89569743930777
 30
0.0
  0
ENDBLK
  5
285
330
254
100
AcDbEntity
  8
0
100
AcDbBlockEnd
  0
BLOCK
  5
286
330
255
100
AcDbEntity
  8
0
100
AcDbBlockBegin
  2
*D3
 70
     1
 10
0.0
 20
0.0
 30
0.0
  3
*D3
  1

  0
LINE
  5
287
330
255
100
AcDbEntity
  8
0
  6
BYBLOCK
 62
     0
100
AcDbLine
 10
-44.45414765667945
 20
18.84299729488976
 30
0.0
 11
-43.63968473578661
 21
18.84299729488976
 31
0.0
  0
LINE
  5
288
330
255
100
AcDbEntity
  8
0
  6
BYBLOCK
 62
     0
100
AcDbLine
 10
-44.45414765667945
 20
16.94299808048244
 30
0.0
 11
-43.63968473578661
 21
16.94299808048244
 31
0.0
  0
LINE
  5
289
330
255
100
AcDbEntity
  8
0
  6
BYBLOCK
 62
     0
100
AcDbLine
 10
-43.81968473578661
 20
18.84299729488976
 30
0.0
 11
-43.81968473578661
 21
18.22633102101943
 31
0.0
  0
LINE
  5
28A
330
255
100
AcDbEntity
  8
0
  6
BYBLOCK
 62
     0
100
AcDbLine
 10
-43.81968473578661
 20
16.94299808048244
 30
0.0
 11
-43.81968473578661
 21
17.55966435435277
 31
0.0
  0
LINE
  5
28B
330
255
100
AcDbEntity
  8
0
  6
BYBLOCK
 62
     0
100
AcDbLine
 10
-43.69468473578661
 20
18.71799729488976
 30
0.0
 11
-43.94468473578661
 21
18.96799729488976
 31
0.0
  0
LINE
  5
28C
330
255
100
AcDbEntity
  8
0
  6
BYBLOCK
 62
     0
100
AcDbLine
 10
-43.69468473578661
 20
16.81799808048244
 30
0.0
 11
-43.94468473578661
 21
17.06799808048244
 31
0.0
  0
TEXT
  5
28D
330
255
100
AcDbEntity
  8
0
  6
BYBLOCK
 62
     0
100
AcDbText
 10
-43.7571847357866
 20
17.68466435435277
 30
0.0
 40
0.125
  1
1.900
 50
90.0
 72
     1
 11
-43.81968473578661
 21
17.8929976876861
 31
0.0
100
AcDbText
 73
     2
  0
POINT
  5
28E
330
255
100
AcDbEntity
  8
DEFPOINTS
  6
BYBLOCK
 62
     0
100
AcDbPoint
 10
-44.51664765667945
 20
18.84299729488976
 30
0.0
  0
POINT
  5
28F
330
255
100
AcDbEntity
  8
DEFPOINTS
  6
BYBLOCK
 62
     0
100
AcDbPoint
 10
-44.51664765667945
 20
16.94299808048244
 30
0.0
  0
POINT
  5
290
330
255
100
AcDbEntity
  8
DEFPOINTS
  6
BYBLOCK
 62
     0
100
AcDbPoint
 10
-43.81968473578661
 20
16.94299808048244
 30
0.0
  0
ENDBLK
  5
291
330
255
100
AcDbEntity
  8
0
100
AcDbBlockEnd
  0
BLOCK
  5
292
330
256
100
AcDbEntity
  8
0
100
AcDbBlockBegin
  2
*D4
 70
     1
 10
0.0
 20
0.0
 30
0.0
  3
*D4
  1

  0
LINE
  5
293
330
256
100
AcDbEntity
  8
0
  6
BYBLOCK
 62
     0
100
AcDbLine
 10
-42.00439239650954
 20
18.69852226523527
 30
0.0
 11
-41.88689243980302
 21
18.69862313132378
 31
0.0
  0
LINE
  5
294
330
256
100
AcDbEntity
  8
0
  6
BYBLOCK
 62
     0
100
AcDbLine
 10
-42.00451686955492
 20
18.84352221180927
 30
0.0
 11
-41.88701691284841
 21
18.84362307789777
 31
0.0
  0
LINE
  5
295
330
256
100
AcDbEntity
  8
0
  6
BYBLOCK
 62
     0
100
AcDbLine
 10
-42.06689237348109
 20
18.69846861306054
 30
0.0
 11
-42.06667776478215
 21
18.44846870517434
 31
0.0
  0
LINE
  5
296
330
256
100
AcDbEntity
  8
0
  6
BYBLOCK
 62
     0
100
AcDbLine
 10
-42.06701684652648
 20
18.84346855963453
 30
0.0
 11
-42.0672314552254
 21
19.09346846752073
 31
0.0
  0
LINE
  5
297
330
256
100
AcDbEntity
  8
0
  6
BYBLOCK
 62
     0
100
AcDbLine
 10
-42.19199963177366
 20
18.82336126265417
 30
0.0
 11
-41.94178511518852
 21
18.57357596346691
 31
0.0
  0
LINE
  5
298
330
256
100
AcDbEntity
  8
0
  6
BYBLOCK
 62
     0
100
AcDbLine
 10
-42.19212410481904
 20
18.96836120922816
 30
0.0
 11
-41.9419095882339
 21
18.7185759100409
 31
0.0
  0
TEXT
  5
299
330
256
100
AcDbEntity
  8
0
  6
BYBLOCK
 62
     0
100
AcDbText
 10
-42.13021430176957
 20
19.65591460808993
 30
0.0
 40
0.125
  1
0.145
 50
270.0491846968248
 72
     1
 11
-42.06752654218646
 21
19.43721834086425
 31
0.0
100
AcDbText
 73
     2
  0
POINT
  5
29A
330
256
100
AcDbEntity
  8
DEFPOINTS
  6
BYBLOCK
 62
     0
100
AcDbPoint
 10
-42.06689237348109
 20
18.69846861306054
 30
0.0
  0
POINT
  5
29B
330
256
100
AcDbEntity
  8
DEFPOINTS
  6
BYBLOCK
 62
     0
100
AcDbPoint
 10
-42.06701684652648
 20
18.84346855963453
 30
0.0
  0
POINT
  5
29C
330
256
100
AcDbEntity
  8
DEFPOINTS
  6
BYBLOCK
 62
     0
100
AcDbPoint
 10
-42.06701684652648
 20
18.84346855963453
 30
0.0
  0
ENDBLK
  5
29D
330
256
100
AcDbEntity
  8
0
100
AcDbBlockEnd
  0
ENDSEC
  0
SECTION
  2
ENTITIES
  0
DIMENSION
  5
29E
330
18
100
AcDbEntity
  8
ADPDIM
100
AcDbDimension
  2
*D1
 10
-51.75719603453882
 20
19.27741833055809
 30
0.0
 11
-53.23544234076266
 21
19.01973284853594
 31
0.0
 70
     1
100
AcDbAlignedDimension
 13
-54.47107008877642
 23
17.37023442974698
 33
0.0
 14
-51.51457747632874
 24
17.88560539379126
 34
0.0
  0
LINE
  5
29F
330
18
100
AcDbEntity
  8
ADP3DETAIL
  6
CENTER2
100
AcDbLine
 10
-54.895408820914
 20
17.29541206231149
 30
0.0
 11
-51.77476816311685
 21
17.84566520737694
 31
0.0
  0
LINE
  5
2A0
330
18
100
AcDbEntity
  8
ADP1DETAIL
100
AcDbLine
 10
-51.52632008904522
 20
16.92481802484938
 30
0.0
 11
-54.30610431999284
 21
16.43466706438538
 31
0.0
  0
LINE
  5
2A1
330
18
100
AcDbEntity
  8
ADP1DETAIL
100
AcDbLine
 10
-54.63603585756001
 20
18.30580179510858
 30
0.0
 11
-51.8596558051886
 21
18.79535250704243
 31
0.0
  0
LINE
  5
2A2
330
18
100
AcDbEntity
  8
ADP1DETAIL
100
AcDbLine
 10
-54.30610431999284
 20
16.43466706438538
 30
0.0
 11
-54.63603585756001
 21
18.30580179510858
 31
0.0
  0
DIMENSION
  5
2A3
330
18
100
AcDbEntity
  8
ADPDIM
100
AcDbDimension
  2
*D0
 10
-51.51598901833893
 20
19.31949076111623
 30
0.0
 11
-48.01631833750919
 21
19.31949076111623
 31
0.0
100
AcDbAlignedDimension
 13
-44.51664765667945
 23
18.84299729488976
 33
0.0
 14
-51.51598901833893
 24
18.23804926565017
 34
0.0
100
AcDbRotatedDimension
  0
LINE
  5
2A4
330
18
100
AcDbEntity
  8
ADP3DETAIL
  6
CENTER2
100
AcDbLine
 10
-51.25454356628054
 20
17.89124186195564
 30
0.0
 11
-44.35046430632332
 21
17.89117154814353
 31
0.0
  0
LINE
  5
2A5
330
18
100
AcDbEntity
  8
ADP1DETAIL
100
AcDbLine
 10
-51.33962063440526
 20
18.84092911018253
 30
0.0
 11
-44.51664765667945
 21
18.84299729488976
 31
0.0
  0
LINE
  5
2A6
330
18
100
AcDbEntity
  8
ADP1DETAIL
100
AcDbLine
 10
-51.2063737309506
 20
16.95603961869765
 30
0.0
 11
-44.51491986862506
 21
16.94299808048244
 31
0.0
  0
DIMENSION
  5
2A7
330
18
100
AcDbEntity
  8
ADPDIM
100
AcDbDimension
  2
*D2
 10
-51.26871079758514
 20
14.89569743930777
 30
0.0
 11
-51.24805207181371
 21
14.64447312201061
 31
0.0
 70
     4
100
AcDbRadialDimension
 15
-51.51457747632873
 25
17.88560539379126
 35
0.0
 40
-3.022905625646328
  0
ARC
  5
2A8
330
18
100
AcDbEntity
  8
ADP1DETAIL
100
AcDbCircle
 10
-51.170341324828
 20
14.90596213117435
 30
0.0
 40
2.049999999999999
100
AcDbArc
 50
89.88833156929045
 51
100.0
  0
ARC
  5
2A9
330
18
100
AcDbEntity
  8
ADP1DETAIL
100
AcDbCircle
 10
-51.33871127218781
 20
15.84092924800581
 30
0.0
 40
3.0
100
AcDbArc
 50
90.01736753930215
 51
100.0
  0
ARC
  5
2AA
330
18
100
AcDbEntity
  8
ADP3DETAIL
  6
CENTER2
100
AcDbCircle
 10
-51.25382363011606
 20
14.89124194834032
 30
0.0
 40
3.0
100
AcDbArc
 50
90.01374976804639
 51
100.0
  0
CIRCLE
  5
2AB
330
18
100
AcDbEntity
  8
ADP1DETAIL
100
AcDbCircle
 10
-42.03795733544543
 20
17.89299768701556
 30
0.0
 40
0.805
  0
CIRCLE
  5
2AC
330
18
100
AcDbEntity
  8
ADP1DETAIL
100
AcDbCircle
 10
-42.03795733544543
 20
17.89299768701556
 30
0.0
 40
0.95
  0
DIMENSION
  5
2AD
330
18
100
AcDbEntity
  8
ADPDIM
100
AcDbDimension
  2
*D3
 10
-43.81968473578661
 20
16.94299808048244
 30
0.0
 11
-43.81968473578661
 21
17.8929976876861
 31
0.0
  1
1.900
100
AcDbAlignedDimension
 13
-44.51664765667945
 23
18.84299729488976
 33
0.0
 14
-44.51664765667945
 24
16.94299808048244
 34
0.0
 50
90.0
100
AcDbRotatedDimension
  0
LINE
  5
2AE
330
18
100
AcDbEntity
  8
ADP1DETAIL
100
AcDbLine
 10
-44.51664765667945
 20
18.84299729488976
 30
0.0
 11
-44.51491986862506
 21
16.94299808048244
 31
0.0
  0
DIMENSION
  5
2AF
330
18
100
AcDbEntity
  8
ADPDIM
100
AcDbDimension
  2
*D4
 10
-42.06701684652648
 20
18.84346855963453
 30
0.0
 11
-42.06752654218646
 21
19.43721834086425
 31
0.0
  1
0.145
100
AcDbAlignedDimension
 13
-42.06689237348109
 23
18.69846861306054
 33
0.0
 14
-42.06701684652647
 24
18.84346855963453
 34
0.0
 50
90.04918469682484
100
AcDbRotatedDimension
  0
TEXT
  5
2BD
330
18
100
AcDbEntity
  8
ADPDIM
100
AcDbText
 10
-57.55222742703679
 20
13.62157442488113
 30
0.0
 40
0.1875
  1
J U L I U S  B L U M  &  C O . ,  I N C .      ( 8 0 0 )  5 2 6 - 6 2 9 3        W W W . J U L I U S B L U M . C O M        P A R T  N o .  7 5 0 7
 41
1.25
  7
ARIAL_WIDE
 72
     1
 11
-47.76363389020187
 21
13.80907442488113
 31
0.0
100
AcDbText
 73
     3
  0
ENDSEC
  0
SECTION
  2
OBJECTS
  0
DICTIONARY
  5
C
330
0
100
AcDbDictionary
  3
ACAD_GROUP
350
D
  3
ACAD_LAYOUT
350
2B6
  3
ACAD_MLINESTYLE
350
E
  3
ACAD_PLOTSETTINGS
350
2B7
  3
ACAD_PLOTSTYLENAME
350
2B4
  3
ACDBHEADERROUNDTRIPXREC
350
401
  3
ACDBVARIABLEDICTIONARY
350
317
  0
DICTIONARY
  5
311
330
18
100
AcDbDictionary
280
     1
  3
ACAD_LAYOUTSELFREF
360
422
  0
DICTIONARY
  5
30F
330
15
100
AcDbDictionary
280
     1
  3
ACAD_LAYOUTSELFREF
360
421
  0
DICTIONARY
  5
D
102
{ACAD_REACTORS
330
C
102
}
330
C
100
AcDbDictionary
  0
DICTIONARY
  5
2B6
102
{ACAD_REACTORS
330
C
102
}
330
C
100
AcDbDictionary
  0
DICTIONARY
  5
E
102
{ACAD_REACTORS
330
C
102
}
330
C
100
AcDbDictionary
  3
STANDARD
350
1B
  0
DICTIONARY
  5
2B7
102
{ACAD_REACTORS
330
C
102
}
330
C
100
AcDbDictionary
  0
ACDBDICTIONARYWDFLT
  5
2B4
102
{ACAD_REACTORS
330
C
102
}
330
C
100
AcDbDictionary
281
     1
  3
Normal
350
2B5
100
AcDbDictionaryWithDefault
340
2B5
  0
DICTIONARY
  5
401
102
{ACAD_REACTORS
330
C
102
}
330
C
100
AcDbDictionary
  3
CEPSNTYPE
350
40B
  3
FINGERPRINTGUID
350
40C
  3
HYPERLINKBASE
350
404
  3
INSUNITS
350
40A
  3
LAYOUTDICT
350
406
  3
LWETCUNION
350
409
  3
PLOTSETDICT
350
407
  3
PLOTSTYLNAMDICT
350
408
  3
PSVPSCALE
350
40E
  3
PUCSBASE
350
411
  3
PUCSORGBACK
350
417
  3
PUCSORGBOTTOM
350
413
  3
PUCSORGFRONT
350
416
  3
PUCSORGLEFT
350
414
  3
PUCSORGRIGHT
350
415
  3
PUCSORGTOP
350
412
  3
PUCSORTHOREF
350
40F
  3
PUCSORTHOVIEW
350
410
  3
STYLESHEET
350
405
  3
TSTACKALIGN
350
402
  3
TSTACKSIZE
350
403
  3
UCSBASE
350
41A
  3
UCSORGBACK
350
420
  3
UCSORGBOTTOM
350
41C
  3
UCSORGFRONT
350
41F
  3
UCSORGLEFT
350
41D
  3
UCSORGRIGHT
350
41E
  3
UCSORGTOP
350
41B
  3
UCSORTHOREF
350
418
  3
UCSORTHOVIEW
350
419
  3
VERSIONGUID
350
40D
  0
DICTIONARY
  5
317
102
{ACAD_REACTORS
330
C
102
}
330
C
100
AcDbDictionary
  3
DIMASSOC
350
318
  0
XRECORD
  5
422
102
{ACAD_REACTORS
330
311
102
}
330
311
100
AcDbXrecord
340
18
  0
XRECORD
  5
421
102
{ACAD_REACTORS
330
30F
102
}
330
30F
100
AcDbXrecord
340
15
  0
MLINESTYLE
  5
1B
102
{ACAD_REACTORS
330
E
102
}
330
E
100
AcDbMlineStyle
  2
STANDARD
 70
     0
  3

 62
     0
 51
90.0
 52
90.0
 71
     2
 49
0.5
 62
   256
  6
BYLAYER
 49
-0.5
 62
   256
  6
BYLAYER
  0
ACDBPLACEHOLDER
  5
2B5
102
{ACAD_REACTORS
330
2B4
102
}
330
2B4
100
AcDbPlaceHolder
280
     0
  0
XRECORD
  5
40B
102
{ACAD_REACTORS
330
401
102
}
330
401
100
AcDbXrecord
 90
        0
  0
XRECORD
  5
40C
102
{ACAD_REACTORS
330
401
102
}
330
401
100
AcDbXrecord
  1
{357A7B41-A952-4B9A-BC69-83FABC21AC2B}
  0
XRECORD
  5
404
102
{ACAD_REACTORS
330
401
102
}
330
401
100
AcDbXrecord
  1

  0
XRECORD
  5
40A
102
{ACAD_REACTORS
330
401
102
}
330
401
100
AcDbXrecord
 90
        0
  0
XRECORD
  5
406
102
{ACAD_REACTORS
330
401
102
}
330
401
100
AcDbXrecord
340
2B6
  0
XRECORD
  5
409
102
{ACAD_REACTORS
330
401
102
}
330
401
100
AcDbXrecord
 90
    14877
  0
XRECORD
  5
407
102
{ACAD_REACTORS
330
401
102
}
330
401
100
AcDbXrecord
340
2B7
  0
XRECORD
  5
408
102
{ACAD_REACTORS
330
401
102
}
330
401
100
AcDbXrecord
340
2B4
  0
XRECORD
  5
40E
102
{ACAD_REACTORS
330
401
102
}
330
401
100
AcDbXrecord
 40
0.0
  0
XRECORD
  5
411
102
{ACAD_REACTORS
330
401
102
}
330
401
100
AcDbXrecord
340
0
  0
XRECORD
  5
417
102
{ACAD_REACTORS
330
401
102
}
330
401
100
AcDbXrecord
 10
0.0
 20
0.0
 30
0.0
  0
XRECORD
  5
413
102
{ACAD_REACTORS
330
401
102
}
330
401
100
AcDbXrecord
 10
0.0
 20
0.0
 30
0.0
  0
XRECORD
  5
416
102
{ACAD_REACTORS
330
401
102
}
330
401
100
AcDbXrecord
 10
0.0
 20
0.0
 30
0.0
  0
XRECORD
  5
414
102
{ACAD_REACTORS
330
401
102
}
330
401
100
AcDbXrecord
 10
0.0
 20
0.0
 30
0.0
  0
XRECORD
  5
415
102
{ACAD_REACTORS
330
401
102
}
330
401
100
AcDbXrecord
 10
0.0
 20
0.0
 30
0.0
  0
XRECORD
  5
412
102
{ACAD_REACTORS
330
401
102
}
330
401
100
AcDbXrecord
 10
0.0
 20
0.0
 30
0.0
  0
XRECORD
  5
40F
102
{ACAD_REACTORS
330
401
102
}
330
401
100
AcDbXrecord
340
0
  0
XRECORD
  5
410
102
{ACAD_REACTORS
330
401
102
}
330
401
100
AcDbXrecord
 70
     0
  0
XRECORD
  5
405
102
{ACAD_REACTORS
330
401
102
}
330
401
100
AcDbXrecord
  1

  0
XRECORD
  5
402
102
{ACAD_REACTORS
330
401
102
}
330
401
100
AcDbXrecord
 90
        1
  0
XRECORD
  5
403
102
{ACAD_REACTORS
330
401
102
}
330
401
100
AcDbXrecord
 90
       70
  0
XRECORD
  5
41A
102
{ACAD_REACTORS
330
401
102
}
330
401
100
AcDbXrecord
340
0
  0
XRECORD
  5
420
102
{ACAD_REACTORS
330
401
102
}
330
401
100
AcDbXrecord
 10
0.0
 20
0.0
 30
0.0
  0
XRECORD
  5
41C
102
{ACAD_REACTORS
330
401
102
}
330
401
100
AcDbXrecord
 10
0.0
 20
0.0
 30
0.0
  0
XRECORD
  5
41F
102
{ACAD_REACTORS
330
401
102
}
330
401
100
AcDbXrecord
 10
0.0
 20
0.0
 30
0.0
  0
XRECORD
  5
41D
102
{ACAD_REACTORS
330
401
102
}
330
401
100
AcDbXrecord
 10
0.0
 20
0.0
 30
0.0
  0
XRECORD
  5
41E
102
{ACAD_REACTORS
330
401
102
}
330
401
100
AcDbXrecord
 10
0.0
 20
0.0
 30
0.0
  0
XRECORD
  5
41B
102
{ACAD_REACTORS
330
401
102
}
330
401
100
AcDbXrecord
 10
0.0
 20
0.0
 30
0.0
  0
XRECORD
  5
418
102
{ACAD_REACTORS
330
401
102
}
330
401
100
AcDbXrecord
340
0
  0
XRECORD
  5
419
102
{ACAD_REACTORS
330
401
102
}
330
401
100
AcDbXrecord
 70
     0
  0
XRECORD
  5
40D
102
{ACAD_REACTORS
330
401
102
}
330
401
100
AcDbXrecord
  1
{E1EAC62E-DDA9-40D4-A66A-B31BCCCAACE2}
  0
DICTIONARYVAR
  5
318
102
{ACAD_REACTORS
330
317
102
}
330
317
100
DictionaryVariables
280
     0
  1
1
  0
ENDSEC
  0
EOF
