  0
SECTION
  2
HEADER
  9
$ACADVER
  1
AC1014
  9
$ACADMAINTVER
 70
     9
  9
$DWGCODEPAGE
  3
ANSI_1252
  9
$INSBASE
 10
43.36116462725652
 20
5.345104186546081
 30
0.0
  9
$EXTMIN
 10
30.39398007183001
 20
1.989300798779513
 30
0.0
  9
$EXTMAX
 10
49.97116714549986
 20
14.48064915765461
 30
0.0
  9
$LIMMIN
 10
0.0
 20
0.0
  9
$LIMMAX
 10
36.0
 20
36.0
  9
$ORTHOMODE
 70
     1
  9
$REGENMODE
 70
     1
  9
$FILLMODE
 70
     1
  9
$QTEXTMODE
 70
     0
  9
$MIRRTEXT
 70
     1
  9
$DRAGMODE
 70
     0
  9
$LTSCALE
 40
1.0
  9
$OSMODE
 70
    37
  9
$ATTMODE
 70
     1
  9
$TEXTSIZE
 40
0.2
  9
$TRACEWID
 40
0.05
  9
$TEXTSTYLE
  7
STANDARD
  9
$CLAYER
  8
0
  9
$CELTYPE
  6
BYLAYER
  9
$CECOLOR
 62
   256
  9
$CELTSCALE
 40
1.0
  9
$DELOBJ
 70
     1
  9
$DISPSILH
 70
     0
  9
$DIMSCALE
 40
1.0
  9
$DIMASZ
 40
0.125
  9
$DIMEXO
 40
0.0625
  9
$DIMDLI
 40
0.38
  9
$DIMRND
 40
0.0
  9
$DIMDLE
 40
0.0
  9
$DIMEXE
 40
0.18
  9
$DIMTP
 40
0.0
  9
$DIMTM
 40
0.0
  9
$DIMTXT
 40
0.125
  9
$DIMCEN
 40
0.1875
  9
$DIMTSZ
 40
0.125
  9
$DIMTOL
 70
     0
  9
$DIMLIM
 70
     0
  9
$DIMTIH
 70
     0
  9
$DIMTOH
 70
     0
  9
$DIMSE1
 70
     0
  9
$DIMSE2
 70
     0
  9
$DIMTAD
 70
     0
  9
$DIMZIN
 70
     3
  9
$DIMBLK
  1

  9
$DIMASO
 70
     1
  9
$DIMSHO
 70
     1
  9
$DIMPOST
  1

  9
$DIMAPOST
  1

  9
$DIMALT
 70
     0
  9
$DIMALTD
 70
     1
  9
$DIMALTF
 40
25.4
  9
$DIMLFAC
 40
1.0
  9
$DIMTOFL
 70
     0
  9
$DIMTVP
 40
0.0
  9
$DIMTIX
 70
     0
  9
$DIMSOXD
 70
     0
  9
$DIMSAH
 70
     0
  9
$DIMBLK1
  1

  9
$DIMBLK2
  1

  9
$DIMSTYLE
  2
STANDARD
  9
$DIMCLRD
 70
     0
  9
$DIMCLRE
 70
     0
  9
$DIMCLRT
 70
     0
  9
$DIMTFAC
 40
1.0
  9
$DIMGAP
 40
0.125
  9
$DIMJUST
 70
     0
  9
$DIMSD1
 70
     0
  9
$DIMSD2
 70
     0
  9
$DIMTOLJ
 70
     1
  9
$DIMTZIN
 70
     0
  9
$DIMALTZ
 70
     0
  9
$DIMALTTZ
 70
     0
  9
$DIMFIT
 70
     3
  9
$DIMUPT
 70
     0
  9
$DIMUNIT
 70
     2
  9
$DIMDEC
 70
     4
  9
$DIMTDEC
 70
     4
  9
$DIMALTU
 70
     2
  9
$DIMALTTD
 70
     2
  9
$DIMTXSTY
  7
STANDARD
  9
$DIMAUNIT
 70
     0
  9
$LUNITS
 70
     5
  9
$LUPREC
 70
     4
  9
$SKETCHINC
 40
0.1
  9
$FILLETRAD
 40
0.062
  9
$AUNITS
 70
     0
  9
$AUPREC
 70
     0
  9
$MENU
  1
acad
  9
$ELEVATION
 40
0.0
  9
$PELEVATION
 40
0.0
  9
$THICKNESS
 40
0.0
  9
$LIMCHECK
 70
     0
  9
$BLIPMODE
 70
     0
  9
$CHAMFERA
 40
0.0
  9
$CHAMFERB
 40
0.0
  9
$CHAMFERC
 40
0.0
  9
$CHAMFERD
 40
0.0
  9
$SKPOLY
 70
     0
  9
$TDCREATE
 40
2450387.505662998
  9
$TDUPDATE
 40
2452297.102013159
  9
$TDINDWG
 40
0.0308046065
  9
$TDUSRTIMER
 40
0.0308046065
  9
$USRTIMER
 70
     1
  9
$ANGBASE
 50
0.0
  9
$ANGDIR
 70
     0
  9
$PDMODE
 70
     0
  9
$PDSIZE
 40
0.0
  9
$PLINEWID
 40
0.0
  9
$COORDS
 70
     2
  9
$SPLFRAME
 70
     0
  9
$SPLINETYPE
 70
     6
  9
$SPLINESEGS
 70
     8
  9
$ATTDIA
 70
     0
  9
$ATTREQ
 70
     1
  9
$HANDLING
 70
 22529
  9
$HANDSEED
  5
360
  9
$SURFTAB1
 70
     6
  9
$SURFTAB2
 70
     6
  9
$SURFTYPE
 70
     6
  9
$SURFU
 70
     6
  9
$SURFV
 70
     6
  9
$UCSNAME
  2

  9
$UCSORG
 10
0.0
 20
0.0
 30
0.0
  9
$UCSXDIR
 10
1.0
 20
0.0
 30
0.0
  9
$UCSYDIR
 10
0.0
 20
1.0
 30
0.0
  9
$PUCSNAME
  2

  9
$PUCSORG
 10
0.0
 20
0.0
 30
0.0
  9
$PUCSXDIR
 10
1.0
 20
0.0
 30
0.0
  9
$PUCSYDIR
 10
0.0
 20
1.0
 30
0.0
  9
$USERI1
 70
     0
  9
$USERI2
 70
     0
  9
$USERI3
 70
     0
  9
$USERI4
 70
     0
  9
$USERI5
 70
     0
  9
$USERR1
 40
0.0
  9
$USERR2
 40
0.0
  9
$USERR3
 40
0.0
  9
$USERR4
 40
0.0
  9
$USERR5
 40
0.0
  9
$WORLDVIEW
 70
     1
  9
$SHADEDGE
 70
     3
  9
$SHADEDIF
 70
    70
  9
$TILEMODE
 70
     1
  9
$MAXACTVP
 70
    15
  9
$PINSBASE
 10
0.0
 20
0.0
 30
0.0
  9
$PLIMCHECK
 70
     0
  9
$PEXTMIN
 10
1.000000000000000E+20
 20
1.000000000000000E+20
 30
1.000000000000000E+20
  9
$PEXTMAX
 10
-1.000000000000000E+20
 20
-1.000000000000000E+20
 30
-1.000000000000000E+20
  9
$PLIMMIN
 10
0.0
 20
0.0
  9
$PLIMMAX
 10
12.0
 20
9.0
  9
$UNITMODE
 70
     0
  9
$VISRETAIN
 70
     0
  9
$PLINEGEN
 70
     0
  9
$PSLTSCALE
 70
     1
  9
$TREEDEPTH
 70
  3020
  9
$PICKSTYLE
 70
     1
  9
$CMLSTYLE
  2
STANDARD
  9
$CMLJUST
 70
     0
  9
$CMLSCALE
 40
1.0
  9
$PROXYGRAPHICS
 70
     1
  9
$MEASUREMENT
 70
     0
  0
ENDSEC
  0
SECTION
  2
CLASSES
  0
CLASS
  1
ACDBDICTIONARYWDFLT
  2
AcDbDictionaryWithDefault
  3
AutoCAD 2000
 90
        0
280
     0
281
     0
  0
CLASS
  1
ACDBPLACEHOLDER
  2
AcDbPlaceHolder
  3
AutoCAD 2000
 90
        0
280
     0
281
     0
  0
CLASS
  1
LAYOUT
  2
AcDbLayout
  3
AutoCAD 2000
 90
        0
280
     0
281
     0
  0
CLASS
  1
DICTIONARYVAR
  2
AcDbDictionaryVar
  3
AutoCAD 2000
 90
        0
280
     0
281
     0
  0
CLASS
  1
LONG_TRANSACTION
  2
AcDbLongTransaction
  3
AutoCAD 2000
 90
        0
280
     0
281
     0
  0
CLASS
  1
LWPOLYLINE
  2
AcDbPolyline
  3
AutoCAD 2000
 90
        0
280
     0
281
     1
  0
CLASS
  1
HATCH
  2
AcDbHatch
  3
AutoCAD 2000
 90
        0
280
     0
281
     1
  0
CLASS
  1
XRECORD
  2
AcDbXrecord
  3
AutoCAD 2000
 90
        0
280
     0
281
     0
  0
CLASS
  1
LONG_TRANSACTION
  2
AcDbLongTransaction
  3
AutoCAD 2000
 90
        0
280
     0
281
     0
  0
CLASS
  1
LWPOLYLINE
  2
AcDbPolyline
  3
AutoCAD 2000
 90
        0
280
     0
281
     1
  0
CLASS
  1
HATCH
  2
AcDbHatch
  3
AutoCAD 2000
 90
        0
280
     0
281
     1
  0
CLASS
  1
XRECORD
  2
AcDbXrecord
  3
AutoCAD 2000
 90
        0
280
     0
281
     0
  0
CLASS
  1
LONG_TRANSACTION
  2
AcDbLongTransaction
  3
AutoCAD 2000
 90
        0
280
     0
281
     0
  0
CLASS
  1
LWPOLYLINE
  2
AcDbPolyline
  3
AutoCAD 2000
 90
        0
280
     0
281
     1
  0
CLASS
  1
HATCH
  2
AcDbHatch
  3
AutoCAD 2000
 90
        0
280
     0
281
     1
  0
CLASS
  1
XRECORD
  2
AcDbXrecord
  3
AutoCAD 2000
 90
        0
280
     0
281
     0
  0
CLASS
  1
LONG_TRANSACTION
  2
AcDbLongTransaction
  3
AutoCAD 2000
 90
        0
280
     0
281
     0
  0
CLASS
  1
LWPOLYLINE
  2
AcDbPolyline
  3
AutoCAD 2000
 90
        0
280
     0
281
     1
  0
CLASS
  1
HATCH
  2
AcDbHatch
  3
AutoCAD 2000
 90
        0
280
     0
281
     1
  0
CLASS
  1
XRECORD
  2
AcDbXrecord
  3
AutoCAD 2000
 90
        0
280
     0
281
     0
  0
CLASS
  1
LONG_TRANSACTION
  2
AcDbLongTransaction
  3
AutoCAD 2000
 90
        0
280
     0
281
     0
  0
CLASS
  1
LWPOLYLINE
  2
AcDbPolyline
  3
AutoCAD 2000
 90
        0
280
     0
281
     1
  0
CLASS
  1
HATCH
  2
AcDbHatch
  3
AutoCAD 2000
 90
        0
280
     0
281
     1
  0
CLASS
  1
XRECORD
  2
AcDbXrecord
  3
AutoCAD 2000
 90
        0
280
     0
281
     0
  0
CLASS
  1
LONG_TRANSACTION
  2
AcDbLongTransaction
  3
AutoCAD 2000
 90
        0
280
     0
281
     0
  0
CLASS
  1
LWPOLYLINE
  2
AcDbPolyline
  3
AutoCAD 2000
 90
        0
280
     0
281
     1
  0
CLASS
  1
HATCH
  2
AcDbHatch
  3
AutoCAD 2000
 90
        0
280
     0
281
     1
  0
CLASS
  1
XRECORD
  2
AcDbXrecord
  3
AutoCAD 2000
 90
        0
280
     0
281
     0
  0
ENDSEC
  0
SECTION
  2
TABLES
  0
TABLE
  2
VPORT
  5
8
330
0
100
AcDbSymbolTable
 70
     2
  0
VPORT
  5
33D
330
8
100
AcDbSymbolTableRecord
100
AcDbViewportTableRecord
  2
*ACTIVE
 70
     0
 10
0.0
 20
0.0
 11
1.0
 21
1.0
 12
40.19956197177864
 22
8.234527660341154
 13
0.0
 23
0.0
 14
0.5740882589684922
 24
0.5740882589684922
 15
0.5
 25
0.5
 16
0.0
 26
0.0
 36
1.0
 17
0.0
 27
0.0
 37
0.0
 40
12.58849749417146
 41
1.570528967254407
 42
50.0
 43
0.0
 44
0.0
 50
0.0
 51
0.0
 71
     0
 72
   100
 73
     1
 74
     0
 75
     0
 76
     0
 77
     0
 78
     0
  0
ENDTAB
  0
TABLE
  2
LTYPE
  5
5
330
0
100
AcDbSymbolTable
 70
     2
  0
LTYPE
  5
12
330
5
100
AcDbSymbolTableRecord
100
AcDbLinetypeTableRecord
  2
BYBLOCK
 70
     0
  3

 72
    65
 73
     0
 40
0.0
  0
LTYPE
  5
13
330
5
100
AcDbSymbolTableRecord
100
AcDbLinetypeTableRecord
  2
BYLAYER
 70
     0
  3

 72
    65
 73
     0
 40
0.0
  0
LTYPE
  5
14
330
5
100
AcDbSymbolTableRecord
100
AcDbLinetypeTableRecord
  2
CONTINUOUS
 70
     0
  3
Solid line
 72
    65
 73
     0
 40
0.0
  0
LTYPE
  5
168
330
5
100
AcDbSymbolTableRecord
100
AcDbLinetypeTableRecord
  2
CENTER2
 70
     0
  3
___ _ ___ _ ___ _ ___ _ ___ _ ___ _ ___ _ ___ _
 72
    65
 73
     4
 40
1.125
 49
0.75
 74
     0
 49
-0.125
 74
     0
 49
0.125
 74
     0
 49
-0.125
 74
     0
  0
ENDTAB
  0
TABLE
  2
LAYER
  5
2
330
0
100
AcDbSymbolTable
 70
     5
  0
LAYER
  5
F
330
2
100
AcDbSymbolTableRecord
100
AcDbLayerTableRecord
  2
0
 70
     0
 62
     7
  6
CONTINUOUS
  0
LAYER
  5
169
330
2
100
AcDbSymbolTableRecord
100
AcDbLayerTableRecord
  2
ADP1DETAIL
 70
     0
 62
     7
  6
CONTINUOUS
  0
LAYER
  5
16A
330
2
100
AcDbSymbolTableRecord
100
AcDbLayerTableRecord
  2
DEFPOINTS
 70
     0
 62
     7
  6
CONTINUOUS
  0
LAYER
  5
16E
330
2
100
AcDbSymbolTableRecord
100
AcDbLayerTableRecord
  2
ADP3DETAIL
 70
     0
 62
     1
  6
CONTINUOUS
  0
LAYER
  5
16F
330
2
100
AcDbSymbolTableRecord
100
AcDbLayerTableRecord
  2
ADPDIM
 70
     0
 62
     3
  6
CONTINUOUS
  0
ENDTAB
  0
TABLE
  2
STYLE
  5
3
330
0
100
AcDbSymbolTable
 70
     2
  0
STYLE
  5
10
330
3
100
AcDbSymbolTableRecord
100
AcDbTextStyleTableRecord
  2
STANDARD
 70
     0
 40
0.0
 41
1.0
 50
0.0
 71
     0
 42
0.2
  3
txt
  4

  0
STYLE
  5
1CA
330
3
100
AcDbSymbolTableRecord
100
AcDbTextStyleTableRecord
  2
ARIAL_WIDE
 70
     0
 40
0.0
 41
1.25
 50
0.0
 71
     0
 42
0.2
  3
ARIAL.TTF
  4

1001
ACAD
1000
Arial
1071
       34
  0
ENDTAB
  0
TABLE
  2
VIEW
  5
6
330
0
100
AcDbSymbolTable
 70
     0
  0
ENDTAB
  0
TABLE
  2
UCS
  5
7
330
0
100
AcDbSymbolTable
 70
     0
  0
ENDTAB
  0
TABLE
  2
APPID
  5
9
330
0
100
AcDbSymbolTable
 70
     1
  0
APPID
  5
11
330
9
100
AcDbSymbolTableRecord
100
AcDbRegAppTableRecord
  2
ACAD
 70
     0
  0
ENDTAB
  0
TABLE
  2
DIMSTYLE
  5
A
330
0
100
AcDbSymbolTable
 70
     1
  0
DIMSTYLE
105
1BE
330
A
100
AcDbSymbolTableRecord
100
AcDbDimStyleTableRecord
  2
STANDARD
 70
     0
  3

  4

  5

  6

  7

 40
1.0
 41
0.18
 42
0.0625
 43
0.38
 44
0.18
 45
0.0
 46
0.0
 47
0.0
 48
0.0
140
0.18
141
0.09
142
0.0
143
25.4
144
1.0
145
0.0
146
1.0
147
0.09
 71
     0
 72
     0
 73
     1
 74
     1
 75
     0
 76
     0
 77
     0
 78
     0
170
     0
171
     2
172
     0
173
     0
174
     0
175
     0
176
     0
177
     0
178
     0
270
     2
271
     4
272
     4
273
     2
274
     2
340
10
275
     0
280
     0
281
     0
282
     0
283
     1
284
     0
285
     0
286
     0
287
     3
288
     0
  0
ENDTAB
  0
TABLE
  2
BLOCK_RECORD
  5
1
330
0
100
AcDbSymbolTable
 70
     5
  0
BLOCK_RECORD
  5
18
102
{ACAD_XDICTIONARY
360
21F
102
}
330
1
100
AcDbSymbolTableRecord
100
AcDbBlockTableRecord
  2
*MODEL_SPACE
  0
BLOCK_RECORD
  5
15
102
{ACAD_XDICTIONARY
360
21D
102
}
330
1
100
AcDbSymbolTableRecord
100
AcDbBlockTableRecord
  2
*PAPER_SPACE
  0
BLOCK_RECORD
  5
161
330
1
100
AcDbSymbolTableRecord
100
AcDbBlockTableRecord
  2
*D0
  0
BLOCK_RECORD
  5
162
330
1
100
AcDbSymbolTableRecord
100
AcDbBlockTableRecord
  2
*D1
  0
BLOCK_RECORD
  5
163
330
1
100
AcDbSymbolTableRecord
100
AcDbBlockTableRecord
  2
*D2
  0
BLOCK_RECORD
  5
165
330
1
100
AcDbSymbolTableRecord
100
AcDbBlockTableRecord
  2
*D3
  0
BLOCK_RECORD
  5
166
330
1
100
AcDbSymbolTableRecord
100
AcDbBlockTableRecord
  2
*D4
  0
ENDTAB
  0
ENDSEC
  0
SECTION
  2
BLOCKS
  0
BLOCK
  5
172
330
18
100
AcDbEntity
  8
0
100
AcDbBlockBegin
  2
*MODEL_SPACE
 70
     0
 10
0.0
 20
0.0
 30
0.0
  3
*MODEL_SPACE
  1

  0
ENDBLK
  5
173
330
18
100
AcDbEntity
  8
0
100
AcDbBlockEnd
  0
BLOCK
  5
170
330
15
100
AcDbEntity
 67
     1
  8
0
100
AcDbBlockBegin
  2
*PAPER_SPACE
 70
     0
 10
0.0
 20
0.0
 30
0.0
  3
*PAPER_SPACE
  1

  0
ENDBLK
  5
171
330
15
100
AcDbEntity
 67
     1
  8
0
100
AcDbBlockEnd
  0
BLOCK
  5
175
330
161
100
AcDbEntity
  8
0
100
AcDbBlockBegin
  2
*D0
 70
     1
 10
0.0
 20
0.0
 30
0.0
  3
*D0
  1

  0
LINE
  5
176
330
161
100
AcDbEntity
  8
0
  6
BYBLOCK
 62
     0
100
AcDbLine
 10
36.18859975619489
 20
8.469063056041227
 30
0.0
 11
35.36615818576398
 21
9.521740262082007
 31
0.0
  0
LINE
  5
177
330
161
100
AcDbEntity
  8
0
  6
BYBLOCK
 62
     0
100
AcDbLine
 10
42.49268578504866
 20
13.39435485864649
 30
0.0
 11
41.67024421461775
 21
14.44703206468727
 31
0.0
  0
LINE
  5
178
330
161
100
AcDbEntity
  8
0
  6
BYBLOCK
 62
     0
100
AcDbLine
 10
35.47697725132259
 20
9.379898326432797
 30
0.0
 11
38.49768514014836
 21
11.73993398184782
 31
0.0
  0
LINE
  5
179
330
161
100
AcDbEntity
  8
0
  6
BYBLOCK
 62
     0
100
AcDbLine
 10
41.78106328017636
 20
14.30519012903806
 30
0.0
 11
38.7603553913506
 21
11.94515447362304
 31
0.0
  0
LINE
  5
17A
330
161
100
AcDbEntity
  8
0
  6
BYBLOCK
 62
     0
100
AcDbLine
 10
35.45543359153746
 20
9.20443929781625
 30
0.0
 11
35.49852091110772
 21
9.555357355049345
 31
0.0
  0
LINE
  5
17B
330
161
100
AcDbEntity
  8
0
  6
BYBLOCK
 62
     0
100
AcDbLine
 10
41.75951962039124
 20
14.12973110042151
 30
0.0
 11
41.80260693996149
 21
14.48064915765461
 31
0.0
  0
TEXT
  5
17C
330
161
100
AcDbEntity
  8
0
  6
BYBLOCK
 62
     0
100
AcDbText
 10
38.63466532655705
 20
11.7676409941631
 30
0.0
 40
0.125
  1
8
 50
38.0
 72
     1
 11
38.62902026574948
 21
11.84254422773543
 31
0.0
100
AcDbText
 73
     2
  0
POINT
  5
17D
330
161
100
AcDbEntity
  8
DEFPOINTS
  6
BYBLOCK
 62
     0
100
AcDbPoint
 10
36.22707859840274
 20
8.419812383940806
 30
0.0
  0
POINT
  5
17E
330
161
100
AcDbEntity
  8
DEFPOINTS
  6
BYBLOCK
 62
     0
100
AcDbPoint
 10
42.53116462725651
 20
13.34510418654607
 30
0.0
  0
POINT
  5
17F
330
161
100
AcDbEntity
  8
DEFPOINTS
  6
BYBLOCK
 62
     0
100
AcDbPoint
 10
41.78106328017636
 20
14.30519012903806
 30
0.0
  0
ENDBLK
  5
180
330
161
100
AcDbEntity
  8
0
100
AcDbBlockEnd
  0
BLOCK
  5
181
330
162
100
AcDbEntity
  8
0
100
AcDbBlockBegin
  2
*D1
 70
     1
 10
0.0
 20
0.0
 30
0.0
  3
*D1
  1

  0
LINE
  5
182
330
162
100
AcDbEntity
  8
0
  6
BYBLOCK
 62
     0
100
AcDbLine
 10
43.42366462725652
 20
5.345104186546081
 30
0.0
 11
43.98283564240532
 21
5.345104186546081
 31
0.0
  0
LINE
  5
183
330
162
100
AcDbEntity
  8
0
  6
BYBLOCK
 62
     0
100
AcDbLine
 10
42.72871767162887
 20
13.34510418654608
 30
0.0
 11
43.98283564240532
 21
13.34510418654607
 31
0.0
  0
LINE
  5
184
330
162
100
AcDbEntity
  8
0
  6
BYBLOCK
 62
     0
100
AcDbLine
 10
43.80283564240532
 20
5.345104186546081
 30
0.0
 11
43.80283564240532
 21
9.178437519879414
 31
0.0
  0
LINE
  5
185
330
162
100
AcDbEntity
  8
0
  6
BYBLOCK
 62
     0
100
AcDbLine
 10
43.80283564240532
 20
13.34510418654607
 30
0.0
 11
43.80283564240532
 21
9.511770853212746
 31
0.0
  0
LINE
  5
186
330
162
100
AcDbEntity
  8
0
  6
BYBLOCK
 62
     0
100
AcDbLine
 10
43.92783564240533
 20
5.220104186546081
 30
0.0
 11
43.67783564240532
 21
5.470104186546081
 31
0.0
  0
LINE
  5
187
330
162
100
AcDbEntity
  8
0
  6
BYBLOCK
 62
     0
100
AcDbLine
 10
43.92783564240533
 20
13.22010418654607
 30
0.0
 11
43.67783564240532
 21
13.47010418654607
 31
0.0
  0
TEXT
  5
188
330
162
100
AcDbEntity
  8
0
  6
BYBLOCK
 62
     0
100
AcDbText
 10
43.86533564240532
 20
9.303437519879414
 30
0.0
 40
0.125
  1
8
 50
90.0
 72
     1
 11
43.80283564240532
 21
9.34510418654608
 31
0.0
100
AcDbText
 73
     2
  0
POINT
  5
189
330
162
100
AcDbEntity
  8
DEFPOINTS
  6
BYBLOCK
 62
     0
100
AcDbPoint
 10
43.36116462725652
 20
5.345104186546081
 30
0.0
  0
POINT
  5
18A
330
162
100
AcDbEntity
  8
DEFPOINTS
  6
BYBLOCK
 62
     0
100
AcDbPoint
 10
42.66621767162887
 20
13.34510418654608
 30
0.0
  0
POINT
  5
18B
330
162
100
AcDbEntity
  8
DEFPOINTS
  6
BYBLOCK
 62
     0
100
AcDbPoint
 10
43.80283564240532
 20
13.34510418654607
 30
0.0
  0
ENDBLK
  5
18C
330
162
100
AcDbEntity
  8
0
100
AcDbBlockEnd
  0
BLOCK
  5
18D
330
163
100
AcDbEntity
  8
0
100
AcDbBlockBegin
  2
*D2
 70
     1
 10
0.0
 20
0.0
 30
0.0
  3
*D2
  1

  0
LINE
  5
18E
330
163
100
AcDbEntity
  8
0
  6
BYBLOCK
 62
     0
100
AcDbLine
 10
43.20889956965102
 20
3.313161925466178
 30
0.0
 11
43.20889956965102
 21
3.430661925466178
 31
0.0
  0
LINE
  5
18F
330
163
100
AcDbEntity
  8
0
  6
BYBLOCK
 62
     0
100
AcDbLine
 10
43.35389956965102
 20
3.313161925466178
 30
0.0
 11
43.35389956965102
 21
3.430661925466178
 31
0.0
  0
LINE
  5
190
330
163
100
AcDbEntity
  8
0
  6
BYBLOCK
 62
     0
100
AcDbLine
 10
43.20889956965102
 20
3.250661925466178
 30
0.0
 11
42.95889956965102
 21
3.250661925466178
 31
0.0
  0
LINE
  5
191
330
163
100
AcDbEntity
  8
0
  6
BYBLOCK
 62
     0
100
AcDbLine
 10
43.35389956965102
 20
3.250661925466178
 30
0.0
 11
43.60389956965103
 21
3.250661925466178
 31
0.0
  0
LINE
  5
192
330
163
100
AcDbEntity
  8
0
  6
BYBLOCK
 62
     0
100
AcDbLine
 10
43.08389956965102
 20
3.125661925466178
 30
0.0
 11
43.33389956965102
 21
3.375661925466178
 31
0.0
  0
LINE
  5
193
330
163
100
AcDbEntity
  8
0
  6
BYBLOCK
 62
     0
100
AcDbLine
 10
43.22889956965102
 20
3.125661925466178
 30
0.0
 11
43.47889956965103
 21
3.375661925466178
 31
0.0
  0
TEXT
  5
194
330
163
100
AcDbEntity
  8
0
  6
BYBLOCK
 62
     0
100
AcDbText
 10
43.72889956965102
 20
3.188161925466178
 30
0.0
 40
0.125
  1
0.145
 72
     1
 11
43.94764956965103
 21
3.250661925466178
 31
0.0
100
AcDbText
 73
     2
  0
POINT
  5
195
330
163
100
AcDbEntity
  8
DEFPOINTS
  6
BYBLOCK
 62
     0
100
AcDbPoint
 10
43.20889956965102
 20
3.250661925466178
 30
0.0
  0
POINT
  5
196
330
163
100
AcDbEntity
  8
DEFPOINTS
  6
BYBLOCK
 62
     0
100
AcDbPoint
 10
43.35389956965102
 20
3.250661925466178
 30
0.0
  0
POINT
  5
197
330
163
100
AcDbEntity
  8
DEFPOINTS
  6
BYBLOCK
 62
     0
100
AcDbPoint
 10
43.35389956965102
 20
3.250661925466178
 30
0.0
  0
ENDBLK
  5
198
330
163
100
AcDbEntity
  8
0
100
AcDbBlockEnd
  0
BLOCK
  5
199
330
165
100
AcDbEntity
  8
0
100
AcDbBlockBegin
  2
*D3
 70
     1
 10
0.0
 20
0.0
 30
0.0
  3
*D3
  1

  0
LINE
  5
19A
330
165
100
AcDbEntity
  8
0
  6
BYBLOCK
 62
     0
100
AcDbLine
 10
41.70116462725653
 20
5.282604186546081
 30
0.0
 11
41.70116462725653
 21
4.243396117560794
 31
0.0
  0
LINE
  5
19B
330
165
100
AcDbEntity
  8
0
  6
BYBLOCK
 62
     0
100
AcDbLine
 10
43.36116462725652
 20
5.282604186546081
 30
0.0
 11
43.36116462725652
 21
4.243396117560794
 31
0.0
  0
LINE
  5
19C
330
165
100
AcDbEntity
  8
0
  6
BYBLOCK
 62
     0
100
AcDbLine
 10
41.70116462725653
 20
4.423396117560794
 30
0.0
 11
42.18741462725652
 21
4.423396117560794
 31
0.0
  0
LINE
  5
19D
330
165
100
AcDbEntity
  8
0
  6
BYBLOCK
 62
     0
100
AcDbLine
 10
43.36116462725652
 20
4.423396117560794
 30
0.0
 11
42.87491462725653
 21
4.423396117560794
 31
0.0
  0
LINE
  5
19E
330
165
100
AcDbEntity
  8
0
  6
BYBLOCK
 62
     0
100
AcDbLine
 10
41.57616462725653
 20
4.298396117560794
 30
0.0
 11
41.82616462725653
 21
4.548396117560794
 31
0.0
  0
LINE
  5
19F
330
165
100
AcDbEntity
  8
0
  6
BYBLOCK
 62
     0
100
AcDbLine
 10
43.23616462725652
 20
4.298396117560794
 30
0.0
 11
43.48616462725653
 21
4.548396117560794
 31
0.0
  0
TEXT
  5
1A0
330
165
100
AcDbEntity
  8
0
  6
BYBLOCK
 62
     0
100
AcDbText
 10
42.31241462725653
 20
4.360896117560794
 30
0.0
 40
0.125
  1
1.660
 72
     1
 11
42.53116462725652
 21
4.423396117560794
 31
0.0
100
AcDbText
 73
     2
  0
POINT
  5
1A1
330
165
100
AcDbEntity
  8
DEFPOINTS
  6
BYBLOCK
 62
     0
100
AcDbPoint
 10
41.70116462725653
 20
5.345104186546081
 30
0.0
  0
POINT
  5
1A2
330
165
100
AcDbEntity
  8
DEFPOINTS
  6
BYBLOCK
 62
     0
100
AcDbPoint
 10
43.36116462725652
 20
5.345104186546081
 30
0.0
  0
POINT
  5
1A3
330
165
100
AcDbEntity
  8
DEFPOINTS
  6
BYBLOCK
 62
     0
100
AcDbPoint
 10
43.36116462725652
 20
4.423396117560794
 30
0.0
  0
ENDBLK
  5
1A4
330
165
100
AcDbEntity
  8
0
100
AcDbBlockEnd
  0
BLOCK
  5
1A5
330
166
100
AcDbEntity
  8
0
100
AcDbBlockBegin
  2
*D4
 70
     1
 10
0.0
 20
0.0
 30
0.0
  3
*D4
  1

  0
LINE
  5
1A6
330
166
100
AcDbEntity
  8
0
  6
BYBLOCK
 62
     0
100
AcDbLine
 10
41.46559631299882
 20
10.26688108750768
 30
0.0
 11
40.04411521198805
 21
8.237830506508538
 31
0.0
  0
LINE
  5
1A7
330
166
100
AcDbEntity
  8
0
  6
BYBLOCK
 62
     0
100
AcDbLine
 10
41.4962515539572
 20
10.09278267797508
 30
0.0
 11
41.43494107204045
 21
10.44097949704029
 31
0.0
  0
TEXT
  5
1A8
330
166
100
AcDbEntity
  8
0
  6
BYBLOCK
 62
     0
100
AcDbText
 10
39.64106692412572
 20
7.55358315447686
 30
0.0
 40
0.125
  1
R2 1/2
 50
54.98627293987325
 72
     1
 11
39.78113606960195
 21
7.862448813941732
 31
0.0
100
AcDbText
 73
     2
  0
POINT
  5
1A9
330
166
100
AcDbEntity
  8
DEFPOINTS
  6
BYBLOCK
 62
     0
100
AcDbPoint
 10
41.46559631299882
 20
10.26688108750768
 30
0.0
  0
POINT
  5
1AA
330
166
100
AcDbEntity
  8
DEFPOINTS
  6
BYBLOCK
 62
     0
100
AcDbPoint
 10
40.03116462725651
 20
8.219344582597836
 30
0.0
  0
ENDBLK
  5
1AB
330
166
100
AcDbEntity
  8
0
100
AcDbBlockEnd
  0
ENDSEC
  0
SECTION
  2
ENTITIES
  0
DIMENSION
  5
1AC
330
18
100
AcDbEntity
  8
ADPDIM
100
AcDbDimension
  2
*D0
 10
41.78106328017636
 20
14.30519012903806
 30
0.0
 11
38.62902026574948
 21
11.84254422773543
 31
0.0
 70
     1
100
AcDbAlignedDimension
 13
36.22707859840275
 23
8.419812383940808
 33
0.0
 14
42.53116462725652
 24
13.34510418654607
 34
0.0
  0
LINE
  5
1AD
330
18
100
AcDbEntity
  8
ADP3DETAIL
  6
CENTER2
100
AcDbLine
 10
35.74520682913027
 20
8.043332896788861
 30
0.0
 11
38.49201093894237
 21
10.18937146661463
 31
0.0
  0
LINE
  5
1AE
330
18
100
AcDbEntity
  8
ADP1DETAIL
100
AcDbLine
 10
38.02948175868185
 20
10.88128918474739
 30
0.0
 11
35.71607957388245
 21
9.073861309434384
 31
0.0
  0
LINE
  5
1AF
330
18
100
AcDbEntity
  8
ADP1DETAIL
100
AcDbLine
 10
35.71607957388245
 20
9.073861309434384
 30
0.0
 11
36.73807762292304
 21
7.765763458447232
 31
0.0
  0
DIMENSION
  5
1B0
330
18
100
AcDbEntity
  8
ADPDIM
100
AcDbDimension
  2
*D1
 10
43.80283564240532
 20
13.34510418654607
 30
0.0
 11
43.80283564240532
 21
9.34510418654608
 31
0.0
100
AcDbAlignedDimension
 13
43.36116462725652
 23
5.345104186546081
 33
0.0
 14
42.66621767162887
 24
13.34510418654608
 34
0.0
 50
90.0
100
AcDbRotatedDimension
  0
LINE
  5
1B1
330
18
100
AcDbEntity
  8
ADP3DETAIL
  6
CENTER2
100
AcDbLine
 10
42.53116462725651
 20
8.219344582597834
 30
0.0
 11
42.53116462725651
 21
4.591420946089052
 31
0.0
  0
LINE
  5
1B2
330
18
100
AcDbEntity
  8
ADP1DETAIL
100
AcDbLine
 10
43.36116462725652
 20
8.280853697845216
 30
0.0
 11
43.36116462725652
 21
5.345104186546081
 31
0.0
  0
LINE
  5
1B3
330
18
100
AcDbEntity
  8
ADP1DETAIL
100
AcDbLine
 10
41.70116462725653
 20
5.345104186546081
 30
0.0
 11
41.70116462725653
 21
8.157835467350459
 31
0.0
  0
DIMENSION
  5
1B4
330
18
100
AcDbEntity
  8
ADPDIM
100
AcDbDimension
  2
*D3
 10
43.36116462725652
 20
4.423396117560794
 30
0.0
 11
42.53116462725652
 21
4.423396117560794
 31
0.0
  1
1.660
100
AcDbAlignedDimension
 13
41.70116462725653
 23
5.345104186546081
 33
0.0
 14
43.36116462725652
 24
5.345104186546081
 34
0.0
100
AcDbRotatedDimension
  0
CIRCLE
  5
1B5
330
18
100
AcDbEntity
  8
ADP1DETAIL
100
AcDbCircle
 10
42.53116462725652
 20
3.250661925466178
 30
0.0
 40
0.8299999999999998
  0
CIRCLE
  5
1B6
330
18
100
AcDbEntity
  8
ADP1DETAIL
100
AcDbCircle
 10
42.53116462725652
 20
3.250661925466178
 30
0.0
 40
0.6899999999999978
  0
LINE
  5
1B7
330
18
100
AcDbEntity
  8
ADP1DETAIL
100
AcDbLine
 10
43.36116462725652
 20
5.345104186546081
 30
0.0
 11
41.70116462725653
 21
5.345104186546081
 31
0.0
  0
DIMENSION
  5
1B8
330
18
100
AcDbEntity
  8
ADPDIM
100
AcDbDimension
  2
*D2
 10
43.35389956965102
 20
3.250661925466178
 30
0.0
 11
43.94764956965103
 21
3.250661925466178
 31
0.0
  1
0.145
100
AcDbAlignedDimension
 13
43.20889956965102
 23
3.250661925466178
 33
0.0
 14
43.35389956965102
 24
3.250661925466178
 34
0.0
100
AcDbRotatedDimension
  0
ARC
  5
1B9
330
18
100
AcDbEntity
  8
ADP3DETAIL
  6
CENTER2
100
AcDbCircle
 10
40.03116462725651
 20
8.219344582597834
 30
0.0
 40
2.5
100
AcDbArc
 50
0.0
 51
128.0
  0
ARC
  5
1BA
330
18
100
AcDbEntity
  8
ADP1DETAIL
100
AcDbCircle
 10
40.06116462725652
 20
8.280853697845216
 30
0.0
 40
3.299999999999999
100
AcDbArc
 50
0.0
 51
128.0
  0
ARC
  5
1BB
330
18
100
AcDbEntity
  8
ADP1DETAIL
100
AcDbCircle
 10
40.00116462725652
 20
8.157835467350459
 30
0.0
 40
1.7
100
AcDbArc
 50
0.0
 51
127.9999999999999
  0
LINE
  5
1BC
330
18
100
AcDbEntity
  8
ADP1DETAIL
100
AcDbLine
 10
38.9545401192029
 20
9.497453748481884
 30
0.0
 11
36.73807762292304
 21
7.765763458447232
 31
0.0
  0
DIMENSION
  5
1BD
330
18
100
AcDbEntity
  8
ADPDIM
100
AcDbDimension
  2
*D4
 10
40.03116462725651
 20
8.219344582597836
 30
0.0
 11
39.78113606960195
 21
7.862448813941732
 31
0.0
 70
     4
100
AcDbRadialDimension
 15
41.46559631299882
 25
10.26688108750768
 35
0.0
 40
-2.477429066751216
  0
TEXT
  5
1CB
330
18
100
AcDbEntity
  8
ADPDIM
100
AcDbText
 10
30.39398007183001
 20
2.044808984318394
 30
0.0
 40
0.1875
  1
J U L I U S  B L U M  &  C O . ,  I N C .      ( 8 0 0 )  5 2 6 - 6 2 9 3        W W W . J U L I U S B L U M . C O M        P A R T  N o .  7 4 8 8
 41
1.25
  7
ARIAL_WIDE
 72
     1
 11
40.18257360866494
 21
2.232308984318394
 31
0.0
100
AcDbText
 73
     3
  0
ENDSEC
  0
SECTION
  2
OBJECTS
  0
DICTIONARY
  5
C
330
0
100
AcDbDictionary
  3
ACAD_GROUP
350
D
  3
ACAD_LAYOUT
350
1C4
  3
ACAD_MLINESTYLE
350
E
  3
ACAD_PLOTSETTINGS
350
1C5
  3
ACAD_PLOTSTYLENAME
350
1C2
  3
ACDBHEADERROUNDTRIPXREC
350
33E
  3
ACDBVARIABLEDICTIONARY
350
225
  0
DICTIONARY
  5
21F
330
18
100
AcDbDictionary
280
     1
  3
ACAD_LAYOUTSELFREF
360
35F
  0
DICTIONARY
  5
21D
330
15
100
AcDbDictionary
280
     1
  3
ACAD_LAYOUTSELFREF
360
35E
  0
DICTIONARY
  5
D
102
{ACAD_REACTORS
330
C
102
}
330
C
100
AcDbDictionary
  0
DICTIONARY
  5
1C4
102
{ACAD_REACTORS
330
C
102
}
330
C
100
AcDbDictionary
  0
DICTIONARY
  5
E
102
{ACAD_REACTORS
330
C
102
}
330
C
100
AcDbDictionary
  3
STANDARD
350
1B
  0
DICTIONARY
  5
1C5
102
{ACAD_REACTORS
330
C
102
}
330
C
100
AcDbDictionary
  0
ACDBDICTIONARYWDFLT
  5
1C2
102
{ACAD_REACTORS
330
C
102
}
330
C
100
AcDbDictionary
281
     1
  3
Normal
350
1C3
100
AcDbDictionaryWithDefault
340
1C3
  0
DICTIONARY
  5
33E
102
{ACAD_REACTORS
330
C
102
}
330
C
100
AcDbDictionary
  3
CEPSNTYPE
350
348
  3
FINGERPRINTGUID
350
349
  3
HYPERLINKBASE
350
341
  3
INSUNITS
350
347
  3
LAYOUTDICT
350
343
  3
LWETCUNION
350
346
  3
PLOTSETDICT
350
344
  3
PLOTSTYLNAMDICT
350
345
  3
PSVPSCALE
350
34B
  3
PUCSBASE
350
34E
  3
PUCSORGBACK
350
354
  3
PUCSORGBOTTOM
350
350
  3
PUCSORGFRONT
350
353
  3
PUCSORGLEFT
350
351
  3
PUCSORGRIGHT
350
352
  3
PUCSORGTOP
350
34F
  3
PUCSORTHOREF
350
34C
  3
PUCSORTHOVIEW
350
34D
  3
STYLESHEET
350
342
  3
TSTACKALIGN
350
33F
  3
TSTACKSIZE
350
340
  3
UCSBASE
350
357
  3
UCSORGBACK
350
35D
  3
UCSORGBOTTOM
350
359
  3
UCSORGFRONT
350
35C
  3
UCSORGLEFT
350
35A
  3
UCSORGRIGHT
350
35B
  3
UCSORGTOP
350
358
  3
UCSORTHOREF
350
355
  3
UCSORTHOVIEW
350
356
  3
VERSIONGUID
350
34A
  0
DICTIONARY
  5
225
102
{ACAD_REACTORS
330
C
102
}
330
C
100
AcDbDictionary
  3
DIMASSOC
350
226
  0
XRECORD
  5
35F
102
{ACAD_REACTORS
330
21F
102
}
330
21F
100
AcDbXrecord
340
18
  0
XRECORD
  5
35E
102
{ACAD_REACTORS
330
21D
102
}
330
21D
100
AcDbXrecord
340
15
  0
MLINESTYLE
  5
1B
102
{ACAD_REACTORS
330
E
102
}
330
E
100
AcDbMlineStyle
  2
STANDARD
 70
     0
  3

 62
     0
 51
90.0
 52
90.0
 71
     2
 49
0.5
 62
   256
  6
BYLAYER
 49
-0.5
 62
   256
  6
BYLAYER
  0
ACDBPLACEHOLDER
  5
1C3
102
{ACAD_REACTORS
330
1C2
102
}
330
1C2
100
AcDbPlaceHolder
280
     0
  0
XRECORD
  5
348
102
{ACAD_REACTORS
330
33E
102
}
330
33E
100
AcDbXrecord
 90
        0
  0
XRECORD
  5
349
102
{ACAD_REACTORS
330
33E
102
}
330
33E
100
AcDbXrecord
  1
{35E44045-54C0-465B-A78F-EA32C63C3D80}
  0
XRECORD
  5
341
102
{ACAD_REACTORS
330
33E
102
}
330
33E
100
AcDbXrecord
  1

  0
XRECORD
  5
347
102
{ACAD_REACTORS
330
33E
102
}
330
33E
100
AcDbXrecord
 90
        0
  0
XRECORD
  5
343
102
{ACAD_REACTORS
330
33E
102
}
330
33E
100
AcDbXrecord
340
1C4
  0
XRECORD
  5
346
102
{ACAD_REACTORS
330
33E
102
}
330
33E
100
AcDbXrecord
 90
    14877
  0
XRECORD
  5
344
102
{ACAD_REACTORS
330
33E
102
}
330
33E
100
AcDbXrecord
340
1C5
  0
XRECORD
  5
345
102
{ACAD_REACTORS
330
33E
102
}
330
33E
100
AcDbXrecord
340
1C2
  0
XRECORD
  5
34B
102
{ACAD_REACTORS
330
33E
102
}
330
33E
100
AcDbXrecord
 40
0.0
  0
XRECORD
  5
34E
102
{ACAD_REACTORS
330
33E
102
}
330
33E
100
AcDbXrecord
340
0
  0
XRECORD
  5
354
102
{ACAD_REACTORS
330
33E
102
}
330
33E
100
AcDbXrecord
 10
0.0
 20
0.0
 30
0.0
  0
XRECORD
  5
350
102
{ACAD_REACTORS
330
33E
102
}
330
33E
100
AcDbXrecord
 10
0.0
 20
0.0
 30
0.0
  0
XRECORD
  5
353
102
{ACAD_REACTORS
330
33E
102
}
330
33E
100
AcDbXrecord
 10
0.0
 20
0.0
 30
0.0
  0
XRECORD
  5
351
102
{ACAD_REACTORS
330
33E
102
}
330
33E
100
AcDbXrecord
 10
0.0
 20
0.0
 30
0.0
  0
XRECORD
  5
352
102
{ACAD_REACTORS
330
33E
102
}
330
33E
100
AcDbXrecord
 10
0.0
 20
0.0
 30
0.0
  0
XRECORD
  5
34F
102
{ACAD_REACTORS
330
33E
102
}
330
33E
100
AcDbXrecord
 10
0.0
 20
0.0
 30
0.0
  0
XRECORD
  5
34C
102
{ACAD_REACTORS
330
33E
102
}
330
33E
100
AcDbXrecord
340
0
  0
XRECORD
  5
34D
102
{ACAD_REACTORS
330
33E
102
}
330
33E
100
AcDbXrecord
 70
     0
  0
XRECORD
  5
342
102
{ACAD_REACTORS
330
33E
102
}
330
33E
100
AcDbXrecord
  1

  0
XRECORD
  5
33F
102
{ACAD_REACTORS
330
33E
102
}
330
33E
100
AcDbXrecord
 90
        1
  0
XRECORD
  5
340
102
{ACAD_REACTORS
330
33E
102
}
330
33E
100
AcDbXrecord
 90
       70
  0
XRECORD
  5
357
102
{ACAD_REACTORS
330
33E
102
}
330
33E
100
AcDbXrecord
340
0
  0
XRECORD
  5
35D
102
{ACAD_REACTORS
330
33E
102
}
330
33E
100
AcDbXrecord
 10
0.0
 20
0.0
 30
0.0
  0
XRECORD
  5
359
102
{ACAD_REACTORS
330
33E
102
}
330
33E
100
AcDbXrecord
 10
0.0
 20
0.0
 30
0.0
  0
XRECORD
  5
35C
102
{ACAD_REACTORS
330
33E
102
}
330
33E
100
AcDbXrecord
 10
0.0
 20
0.0
 30
0.0
  0
XRECORD
  5
35A
102
{ACAD_REACTORS
330
33E
102
}
330
33E
100
AcDbXrecord
 10
0.0
 20
0.0
 30
0.0
  0
XRECORD
  5
35B
102
{ACAD_REACTORS
330
33E
102
}
330
33E
100
AcDbXrecord
 10
0.0
 20
0.0
 30
0.0
  0
XRECORD
  5
358
102
{ACAD_REACTORS
330
33E
102
}
330
33E
100
AcDbXrecord
 10
0.0
 20
0.0
 30
0.0
  0
XRECORD
  5
355
102
{ACAD_REACTORS
330
33E
102
}
330
33E
100
AcDbXrecord
340
0
  0
XRECORD
  5
356
102
{ACAD_REACTORS
330
33E
102
}
330
33E
100
AcDbXrecord
 70
     0
  0
XRECORD
  5
34A
102
{ACAD_REACTORS
330
33E
102
}
330
33E
100
AcDbXrecord
  1
{9664CF3E-5FA6-46E9-8B11-FB13255C10D9}
  0
DICTIONARYVAR
  5
226
102
{ACAD_REACTORS
330
225
102
}
330
225
100
DictionaryVariables
280
     0
  1
1
  0
ENDSEC
  0
EOF
