  0
SECTION
  2
HEADER
  9
$ACADVER
  1
AC1014
  9
$ACADMAINTVER
 70
     9
  9
$DWGCODEPAGE
  3
ANSI_1252
  9
$INSBASE
 10
33.8245157336149
 20
5.865168350930077
 30
0.0
  9
$EXTMIN
 10
20.55679685579988
 20
2.436922830838768
 30
0.0
  9
$EXTMAX
 10
40.13398392946974
 20
15.06042160648973
 30
0.0
  9
$LIMMIN
 10
0.0
 20
0.0
  9
$LIMMAX
 10
36.0
 20
36.0
  9
$ORTHOMODE
 70
     1
  9
$REGENMODE
 70
     1
  9
$FILLMODE
 70
     1
  9
$QTEXTMODE
 70
     0
  9
$MIRRTEXT
 70
     1
  9
$DRAGMODE
 70
     0
  9
$LTSCALE
 40
1.0
  9
$OSMODE
 70
    37
  9
$ATTMODE
 70
     1
  9
$TEXTSIZE
 40
0.2
  9
$TRACEWID
 40
0.05
  9
$TEXTSTYLE
  7
STANDARD
  9
$CLAYER
  8
0
  9
$CELTYPE
  6
BYLAYER
  9
$CECOLOR
 62
   256
  9
$CELTSCALE
 40
1.0
  9
$DELOBJ
 70
     1
  9
$DISPSILH
 70
     0
  9
$DIMSCALE
 40
1.0
  9
$DIMASZ
 40
0.125
  9
$DIMEXO
 40
0.0625
  9
$DIMDLI
 40
0.38
  9
$DIMRND
 40
0.0
  9
$DIMDLE
 40
0.0
  9
$DIMEXE
 40
0.18
  9
$DIMTP
 40
0.0
  9
$DIMTM
 40
0.0
  9
$DIMTXT
 40
0.125
  9
$DIMCEN
 40
0.1875
  9
$DIMTSZ
 40
0.125
  9
$DIMTOL
 70
     0
  9
$DIMLIM
 70
     0
  9
$DIMTIH
 70
     0
  9
$DIMTOH
 70
     0
  9
$DIMSE1
 70
     0
  9
$DIMSE2
 70
     0
  9
$DIMTAD
 70
     0
  9
$DIMZIN
 70
     3
  9
$DIMBLK
  1

  9
$DIMASO
 70
     1
  9
$DIMSHO
 70
     1
  9
$DIMPOST
  1

  9
$DIMAPOST
  1

  9
$DIMALT
 70
     0
  9
$DIMALTD
 70
     1
  9
$DIMALTF
 40
25.4
  9
$DIMLFAC
 40
1.0
  9
$DIMTOFL
 70
     0
  9
$DIMTVP
 40
0.0
  9
$DIMTIX
 70
     0
  9
$DIMSOXD
 70
     0
  9
$DIMSAH
 70
     0
  9
$DIMBLK1
  1

  9
$DIMBLK2
  1

  9
$DIMSTYLE
  2
STANDARD
  9
$DIMCLRD
 70
     0
  9
$DIMCLRE
 70
     0
  9
$DIMCLRT
 70
     0
  9
$DIMTFAC
 40
1.0
  9
$DIMGAP
 40
0.125
  9
$DIMJUST
 70
     0
  9
$DIMSD1
 70
     0
  9
$DIMSD2
 70
     0
  9
$DIMTOLJ
 70
     1
  9
$DIMTZIN
 70
     0
  9
$DIMALTZ
 70
     0
  9
$DIMALTTZ
 70
     0
  9
$DIMFIT
 70
     3
  9
$DIMUPT
 70
     0
  9
$DIMUNIT
 70
     2
  9
$DIMDEC
 70
     4
  9
$DIMTDEC
 70
     4
  9
$DIMALTU
 70
     2
  9
$DIMALTTD
 70
     2
  9
$DIMTXSTY
  7
STANDARD
  9
$DIMAUNIT
 70
     0
  9
$LUNITS
 70
     5
  9
$LUPREC
 70
     4
  9
$SKETCHINC
 40
0.1
  9
$FILLETRAD
 40
0.062
  9
$AUNITS
 70
     0
  9
$AUPREC
 70
     0
  9
$MENU
  1
acad
  9
$ELEVATION
 40
0.0
  9
$PELEVATION
 40
0.0
  9
$THICKNESS
 40
0.0
  9
$LIMCHECK
 70
     0
  9
$BLIPMODE
 70
     0
  9
$CHAMFERA
 40
0.0
  9
$CHAMFERB
 40
0.0
  9
$CHAMFERC
 40
0.0
  9
$CHAMFERD
 40
0.0
  9
$SKPOLY
 70
     0
  9
$TDCREATE
 40
2450387.505060763
  9
$TDUPDATE
 40
2452297.101983507
  9
$TDINDWG
 40
0.0315428241
  9
$TDUSRTIMER
 40
0.0315428241
  9
$USRTIMER
 70
     1
  9
$ANGBASE
 50
0.0
  9
$ANGDIR
 70
     0
  9
$PDMODE
 70
     0
  9
$PDSIZE
 40
0.0
  9
$PLINEWID
 40
0.0
  9
$COORDS
 70
     2
  9
$SPLFRAME
 70
     0
  9
$SPLINETYPE
 70
     6
  9
$SPLINESEGS
 70
     8
  9
$ATTDIA
 70
     0
  9
$ATTREQ
 70
     1
  9
$HANDLING
 70
 22529
  9
$HANDSEED
  5
337
  9
$SURFTAB1
 70
     6
  9
$SURFTAB2
 70
     6
  9
$SURFTYPE
 70
     6
  9
$SURFU
 70
     6
  9
$SURFV
 70
     6
  9
$UCSNAME
  2

  9
$UCSORG
 10
0.0
 20
0.0
 30
0.0
  9
$UCSXDIR
 10
1.0
 20
0.0
 30
0.0
  9
$UCSYDIR
 10
0.0
 20
1.0
 30
0.0
  9
$PUCSNAME
  2

  9
$PUCSORG
 10
0.0
 20
0.0
 30
0.0
  9
$PUCSXDIR
 10
1.0
 20
0.0
 30
0.0
  9
$PUCSYDIR
 10
0.0
 20
1.0
 30
0.0
  9
$USERI1
 70
     0
  9
$USERI2
 70
     0
  9
$USERI3
 70
     0
  9
$USERI4
 70
     0
  9
$USERI5
 70
     0
  9
$USERR1
 40
0.0
  9
$USERR2
 40
0.0
  9
$USERR3
 40
0.0
  9
$USERR4
 40
0.0
  9
$USERR5
 40
0.0
  9
$WORLDVIEW
 70
     1
  9
$SHADEDGE
 70
     3
  9
$SHADEDIF
 70
    70
  9
$TILEMODE
 70
     1
  9
$MAXACTVP
 70
    15
  9
$PINSBASE
 10
0.0
 20
0.0
 30
0.0
  9
$PLIMCHECK
 70
     0
  9
$PEXTMIN
 10
1.000000000000000E+20
 20
1.000000000000000E+20
 30
1.000000000000000E+20
  9
$PEXTMAX
 10
-1.000000000000000E+20
 20
-1.000000000000000E+20
 30
-1.000000000000000E+20
  9
$PLIMMIN
 10
0.0
 20
0.0
  9
$PLIMMAX
 10
12.0
 20
9.0
  9
$UNITMODE
 70
     0
  9
$VISRETAIN
 70
     0
  9
$PLINEGEN
 70
     0
  9
$PSLTSCALE
 70
     1
  9
$TREEDEPTH
 70
  3020
  9
$PICKSTYLE
 70
     1
  9
$CMLSTYLE
  2
STANDARD
  9
$CMLJUST
 70
     0
  9
$CMLSCALE
 40
1.0
  9
$PROXYGRAPHICS
 70
     1
  9
$MEASUREMENT
 70
     0
  0
ENDSEC
  0
SECTION
  2
CLASSES
  0
CLASS
  1
ACDBDICTIONARYWDFLT
  2
AcDbDictionaryWithDefault
  3
AutoCAD 2000
 90
        0
280
     0
281
     0
  0
CLASS
  1
ACDBPLACEHOLDER
  2
AcDbPlaceHolder
  3
AutoCAD 2000
 90
        0
280
     0
281
     0
  0
CLASS
  1
LAYOUT
  2
AcDbLayout
  3
AutoCAD 2000
 90
        0
280
     0
281
     0
  0
CLASS
  1
DICTIONARYVAR
  2
AcDbDictionaryVar
  3
AutoCAD 2000
 90
        0
280
     0
281
     0
  0
CLASS
  1
LONG_TRANSACTION
  2
AcDbLongTransaction
  3
AutoCAD 2000
 90
        0
280
     0
281
     0
  0
CLASS
  1
LWPOLYLINE
  2
AcDbPolyline
  3
AutoCAD 2000
 90
        0
280
     0
281
     1
  0
CLASS
  1
HATCH
  2
AcDbHatch
  3
AutoCAD 2000
 90
        0
280
     0
281
     1
  0
CLASS
  1
XRECORD
  2
AcDbXrecord
  3
AutoCAD 2000
 90
        0
280
     0
281
     0
  0
CLASS
  1
LONG_TRANSACTION
  2
AcDbLongTransaction
  3
AutoCAD 2000
 90
        0
280
     0
281
     0
  0
CLASS
  1
LWPOLYLINE
  2
AcDbPolyline
  3
AutoCAD 2000
 90
        0
280
     0
281
     1
  0
CLASS
  1
HATCH
  2
AcDbHatch
  3
AutoCAD 2000
 90
        0
280
     0
281
     1
  0
CLASS
  1
XRECORD
  2
AcDbXrecord
  3
AutoCAD 2000
 90
        0
280
     0
281
     0
  0
CLASS
  1
LONG_TRANSACTION
  2
AcDbLongTransaction
  3
AutoCAD 2000
 90
        0
280
     0
281
     0
  0
CLASS
  1
LWPOLYLINE
  2
AcDbPolyline
  3
AutoCAD 2000
 90
        0
280
     0
281
     1
  0
CLASS
  1
HATCH
  2
AcDbHatch
  3
AutoCAD 2000
 90
        0
280
     0
281
     1
  0
CLASS
  1
XRECORD
  2
AcDbXrecord
  3
AutoCAD 2000
 90
        0
280
     0
281
     0
  0
CLASS
  1
LONG_TRANSACTION
  2
AcDbLongTransaction
  3
AutoCAD 2000
 90
        0
280
     0
281
     0
  0
CLASS
  1
LWPOLYLINE
  2
AcDbPolyline
  3
AutoCAD 2000
 90
        0
280
     0
281
     1
  0
CLASS
  1
HATCH
  2
AcDbHatch
  3
AutoCAD 2000
 90
        0
280
     0
281
     1
  0
CLASS
  1
XRECORD
  2
AcDbXrecord
  3
AutoCAD 2000
 90
        0
280
     0
281
     0
  0
CLASS
  1
LONG_TRANSACTION
  2
AcDbLongTransaction
  3
AutoCAD 2000
 90
        0
280
     0
281
     0
  0
CLASS
  1
LWPOLYLINE
  2
AcDbPolyline
  3
AutoCAD 2000
 90
        0
280
     0
281
     1
  0
CLASS
  1
HATCH
  2
AcDbHatch
  3
AutoCAD 2000
 90
        0
280
     0
281
     1
  0
CLASS
  1
XRECORD
  2
AcDbXrecord
  3
AutoCAD 2000
 90
        0
280
     0
281
     0
  0
ENDSEC
  0
SECTION
  2
TABLES
  0
TABLE
  2
VPORT
  5
8
330
0
100
AcDbSymbolTable
 70
     2
  0
VPORT
  5
314
330
8
100
AcDbSymbolTableRecord
100
AcDbViewportTableRecord
  2
*ACTIVE
 70
     0
 10
0.0
 20
0.0
 11
1.0
 21
1.0
 12
30.36120357843089
 22
8.748138500782827
 13
0.0
 23
0.0
 14
0.5740882589684922
 24
0.5740882589684922
 15
0.5
 25
0.5
 16
0.0
 26
0.0
 36
1.0
 17
0.0
 27
0.0
 37
0.0
 40
12.72132842003364
 41
1.570528967254408
 42
50.0
 43
0.0
 44
0.0
 50
0.0
 51
0.0
 71
     0
 72
   100
 73
     1
 74
     0
 75
     0
 76
     0
 77
     0
 78
     0
  0
ENDTAB
  0
TABLE
  2
LTYPE
  5
5
330
0
100
AcDbSymbolTable
 70
     2
  0
LTYPE
  5
12
330
5
100
AcDbSymbolTableRecord
100
AcDbLinetypeTableRecord
  2
BYBLOCK
 70
     0
  3

 72
    65
 73
     0
 40
0.0
  0
LTYPE
  5
13
330
5
100
AcDbSymbolTableRecord
100
AcDbLinetypeTableRecord
  2
BYLAYER
 70
     0
  3

 72
    65
 73
     0
 40
0.0
  0
LTYPE
  5
14
330
5
100
AcDbSymbolTableRecord
100
AcDbLinetypeTableRecord
  2
CONTINUOUS
 70
     0
  3
Solid line
 72
    65
 73
     0
 40
0.0
  0
LTYPE
  5
16E
330
5
100
AcDbSymbolTableRecord
100
AcDbLinetypeTableRecord
  2
CENTER2
 70
     0
  3
___ _ ___ _ ___ _ ___ _ ___ _ ___ _ ___ _ ___ _
 72
    65
 73
     4
 40
1.125
 49
0.75
 74
     0
 49
-0.125
 74
     0
 49
0.125
 74
     0
 49
-0.125
 74
     0
  0
ENDTAB
  0
TABLE
  2
LAYER
  5
2
330
0
100
AcDbSymbolTable
 70
     5
  0
LAYER
  5
F
330
2
100
AcDbSymbolTableRecord
100
AcDbLayerTableRecord
  2
0
 70
     0
 62
     7
  6
CONTINUOUS
  0
LAYER
  5
16F
330
2
100
AcDbSymbolTableRecord
100
AcDbLayerTableRecord
  2
ADP1DETAIL
 70
     0
 62
     7
  6
CONTINUOUS
  0
LAYER
  5
170
330
2
100
AcDbSymbolTableRecord
100
AcDbLayerTableRecord
  2
DEFPOINTS
 70
     0
 62
     7
  6
CONTINUOUS
  0
LAYER
  5
174
330
2
100
AcDbSymbolTableRecord
100
AcDbLayerTableRecord
  2
ADP3DETAIL
 70
     0
 62
     1
  6
CONTINUOUS
  0
LAYER
  5
175
330
2
100
AcDbSymbolTableRecord
100
AcDbLayerTableRecord
  2
ADPDIM
 70
     0
 62
     3
  6
CONTINUOUS
  0
ENDTAB
  0
TABLE
  2
STYLE
  5
3
330
0
100
AcDbSymbolTable
 70
     2
  0
STYLE
  5
10
330
3
100
AcDbSymbolTableRecord
100
AcDbTextStyleTableRecord
  2
STANDARD
 70
     0
 40
0.0
 41
1.0
 50
0.0
 71
     0
 42
0.2
  3
txt
  4

  0
STYLE
  5
1D0
330
3
100
AcDbSymbolTableRecord
100
AcDbTextStyleTableRecord
  2
ARIAL_WIDE
 70
     0
 40
0.0
 41
1.25
 50
0.0
 71
     0
 42
0.2
  3
ARIAL.TTF
  4

1001
ACAD
1000
Arial
1071
       34
  0
ENDTAB
  0
TABLE
  2
VIEW
  5
6
330
0
100
AcDbSymbolTable
 70
     0
  0
ENDTAB
  0
TABLE
  2
UCS
  5
7
330
0
100
AcDbSymbolTable
 70
     0
  0
ENDTAB
  0
TABLE
  2
APPID
  5
9
330
0
100
AcDbSymbolTable
 70
     1
  0
APPID
  5
11
330
9
100
AcDbSymbolTableRecord
100
AcDbRegAppTableRecord
  2
ACAD
 70
     0
  0
ENDTAB
  0
TABLE
  2
DIMSTYLE
  5
A
330
0
100
AcDbSymbolTable
 70
     1
  0
DIMSTYLE
105
1C4
330
A
100
AcDbSymbolTableRecord
100
AcDbDimStyleTableRecord
  2
STANDARD
 70
     0
  3

  4

  5

  6

  7

 40
1.0
 41
0.18
 42
0.0625
 43
0.38
 44
0.18
 45
0.0
 46
0.0
 47
0.0
 48
0.0
140
0.18
141
0.09
142
0.0
143
25.4
144
1.0
145
0.0
146
1.0
147
0.09
 71
     0
 72
     0
 73
     1
 74
     1
 75
     0
 76
     0
 77
     0
 78
     0
170
     0
171
     2
172
     0
173
     0
174
     0
175
     0
176
     0
177
     0
178
     0
270
     2
271
     4
272
     4
273
     2
274
     2
340
10
275
     0
280
     0
281
     0
282
     0
283
     1
284
     0
285
     0
286
     0
287
     3
288
     0
  0
ENDTAB
  0
TABLE
  2
BLOCK_RECORD
  5
1
330
0
100
AcDbSymbolTable
 70
     5
  0
BLOCK_RECORD
  5
18
102
{ACAD_XDICTIONARY
360
225
102
}
330
1
100
AcDbSymbolTableRecord
100
AcDbBlockTableRecord
  2
*MODEL_SPACE
  0
BLOCK_RECORD
  5
15
102
{ACAD_XDICTIONARY
360
223
102
}
330
1
100
AcDbSymbolTableRecord
100
AcDbBlockTableRecord
  2
*PAPER_SPACE
  0
BLOCK_RECORD
  5
167
330
1
100
AcDbSymbolTableRecord
100
AcDbBlockTableRecord
  2
*D0
  0
BLOCK_RECORD
  5
168
330
1
100
AcDbSymbolTableRecord
100
AcDbBlockTableRecord
  2
*D1
  0
BLOCK_RECORD
  5
16A
330
1
100
AcDbSymbolTableRecord
100
AcDbBlockTableRecord
  2
*D2
  0
BLOCK_RECORD
  5
16B
330
1
100
AcDbSymbolTableRecord
100
AcDbBlockTableRecord
  2
*D3
  0
BLOCK_RECORD
  5
16C
330
1
100
AcDbSymbolTableRecord
100
AcDbBlockTableRecord
  2
*D4
  0
ENDTAB
  0
ENDSEC
  0
SECTION
  2
BLOCKS
  0
BLOCK
  5
178
330
18
100
AcDbEntity
  8
0
100
AcDbBlockBegin
  2
*MODEL_SPACE
 70
     0
 10
0.0
 20
0.0
 30
0.0
  3
*MODEL_SPACE
  1

  0
ENDBLK
  5
179
330
18
100
AcDbEntity
  8
0
100
AcDbBlockEnd
  0
BLOCK
  5
176
330
15
100
AcDbEntity
 67
     1
  8
0
100
AcDbBlockBegin
  2
*PAPER_SPACE
 70
     0
 10
0.0
 20
0.0
 30
0.0
  3
*PAPER_SPACE
  1

  0
ENDBLK
  5
177
330
15
100
AcDbEntity
 67
     1
  8
0
100
AcDbBlockEnd
  0
BLOCK
  5
17B
330
167
100
AcDbEntity
  8
0
100
AcDbBlockBegin
  2
*D0
 70
     1
 10
0.0
 20
0.0
 30
0.0
  3
*D0
  1

  0
LINE
  5
17C
330
167
100
AcDbEntity
  8
0
  6
BYBLOCK
 62
     0
100
AcDbLine
 10
26.40545085203101
 20
9.327753862889771
 30
0.0
 11
25.62303015375014
 21
10.44516642357337
 31
0.0
  0
LINE
  5
17D
330
167
100
AcDbEntity
  8
0
  6
BYBLOCK
 62
     0
100
AcDbLine
 10
32.95866720634295
 20
13.91636535369813
 30
0.0
 11
32.17624650806207
 21
15.03377791438174
 31
0.0
  0
LINE
  5
17E
330
167
100
AcDbEntity
  8
0
  6
BYBLOCK
 62
     0
100
AcDbLine
 10
25.72627391229333
 20
10.29771905560136
 30
0.0
 11
28.86635674873446
 21
12.49642872828037
 31
0.0
  0
LINE
  5
17F
330
167
100
AcDbEntity
  8
0
  6
BYBLOCK
 62
     0
100
AcDbLine
 10
32.27949026660526
 20
14.88633054640972
 30
0.0
 11
29.13940743016413
 21
12.68762087373072
 31
0.0
  0
LINE
  5
180
330
167
100
AcDbEntity
  8
0
  6
BYBLOCK
 62
     0
100
AcDbLine
 10
25.69557696130108
 20
10.12362799552135
 30
0.0
 11
25.75697086328557
 21
10.47181011568136
 31
0.0
  0
LINE
  5
181
330
167
100
AcDbEntity
  8
0
  6
BYBLOCK
 62
     0
100
AcDbLine
 10
32.24879331561302
 20
14.71223948632972
 30
0.0
 11
32.31018721759751
 21
15.06042160648973
 31
0.0
  0
TEXT
  5
182
330
167
100
AcDbEntity
  8
0
  6
BYBLOCK
 62
     0
100
AcDbText
 10
29.00459928154253
 20
12.51692878005618
 30
0.0
 40
0.125
  1
8
 50
34.99999999999998
 72
     1
 11
29.0028820894493
 21
12.59202480100554
 31
0.0
100
AcDbText
 73
     2
  0
POINT
  5
183
330
167
100
AcDbEntity
  8
DEFPOINTS
  6
BYBLOCK
 62
     0
100
AcDbPoint
 10
26.44129937930296
 20
9.276556860121708
 30
0.0
  0
POINT
  5
184
330
167
100
AcDbEntity
  8
DEFPOINTS
  6
BYBLOCK
 62
     0
100
AcDbPoint
 10
32.99451573361489
 20
13.86516835093007
 30
0.0
  0
POINT
  5
185
330
167
100
AcDbEntity
  8
DEFPOINTS
  6
BYBLOCK
 62
     0
100
AcDbPoint
 10
32.27949026660526
 20
14.88633054640972
 30
0.0
  0
ENDBLK
  5
186
330
167
100
AcDbEntity
  8
0
100
AcDbBlockEnd
  0
BLOCK
  5
187
330
168
100
AcDbEntity
  8
0
100
AcDbBlockBegin
  2
*D1
 70
     1
 10
0.0
 20
0.0
 30
0.0
  3
*D1
  1

  0
LINE
  5
188
330
168
100
AcDbEntity
  8
0
  6
BYBLOCK
 62
     0
100
AcDbLine
 10
33.8870157336149
 20
5.865168350930077
 30
0.0
 11
34.4461867487637
 21
5.865168350930077
 31
0.0
  0
LINE
  5
189
330
168
100
AcDbEntity
  8
0
  6
BYBLOCK
 62
     0
100
AcDbLine
 10
33.19206877798724
 20
13.86516835093007
 30
0.0
 11
34.4461867487637
 21
13.86516835093007
 31
0.0
  0
LINE
  5
18A
330
168
100
AcDbEntity
  8
0
  6
BYBLOCK
 62
     0
100
AcDbLine
 10
34.2661867487637
 20
5.865168350930077
 30
0.0
 11
34.2661867487637
 21
9.69850168426341
 31
0.0
  0
LINE
  5
18B
330
168
100
AcDbEntity
  8
0
  6
BYBLOCK
 62
     0
100
AcDbLine
 10
34.2661867487637
 20
13.86516835093007
 30
0.0
 11
34.2661867487637
 21
10.03183501759674
 31
0.0
  0
LINE
  5
18C
330
168
100
AcDbEntity
  8
0
  6
BYBLOCK
 62
     0
100
AcDbLine
 10
34.3911867487637
 20
5.740168350930077
 30
0.0
 11
34.1411867487637
 21
5.990168350930077
 31
0.0
  0
LINE
  5
18D
330
168
100
AcDbEntity
  8
0
  6
BYBLOCK
 62
     0
100
AcDbLine
 10
34.3911867487637
 20
13.74016835093007
 30
0.0
 11
34.1411867487637
 21
13.99016835093007
 31
0.0
  0
TEXT
  5
18E
330
168
100
AcDbEntity
  8
0
  6
BYBLOCK
 62
     0
100
AcDbText
 10
34.3286867487637
 20
9.82350168426341
 30
0.0
 40
0.125
  1
8
 50
90.0
 72
     1
 11
34.2661867487637
 21
9.865168350930076
 31
0.0
100
AcDbText
 73
     2
  0
POINT
  5
18F
330
168
100
AcDbEntity
  8
DEFPOINTS
  6
BYBLOCK
 62
     0
100
AcDbPoint
 10
33.8245157336149
 20
5.865168350930077
 30
0.0
  0
POINT
  5
190
330
168
100
AcDbEntity
  8
DEFPOINTS
  6
BYBLOCK
 62
     0
100
AcDbPoint
 10
33.12956877798724
 20
13.86516835093007
 30
0.0
  0
POINT
  5
191
330
168
100
AcDbEntity
  8
DEFPOINTS
  6
BYBLOCK
 62
     0
100
AcDbPoint
 10
34.2661867487637
 20
13.86516835093007
 30
0.0
  0
ENDBLK
  5
192
330
168
100
AcDbEntity
  8
0
100
AcDbBlockEnd
  0
BLOCK
  5
193
330
16A
100
AcDbEntity
  8
0
100
AcDbBlockBegin
  2
*D2
 70
     1
 10
0.0
 20
0.0
 30
0.0
  3
*D2
  1

  0
LINE
  5
194
330
16A
100
AcDbEntity
  8
0
  6
BYBLOCK
 62
     0
100
AcDbLine
 10
33.67225067600939
 20
3.833226089850174
 30
0.0
 11
33.67225067600939
 21
3.950726089850174
 31
0.0
  0
LINE
  5
195
330
16A
100
AcDbEntity
  8
0
  6
BYBLOCK
 62
     0
100
AcDbLine
 10
33.8172506760094
 20
3.833226089850174
 30
0.0
 11
33.8172506760094
 21
3.950726089850174
 31
0.0
  0
LINE
  5
196
330
16A
100
AcDbEntity
  8
0
  6
BYBLOCK
 62
     0
100
AcDbLine
 10
33.67225067600939
 20
3.770726089850174
 30
0.0
 11
33.42225067600939
 21
3.770726089850174
 31
0.0
  0
LINE
  5
197
330
16A
100
AcDbEntity
  8
0
  6
BYBLOCK
 62
     0
100
AcDbLine
 10
33.8172506760094
 20
3.770726089850174
 30
0.0
 11
34.0672506760094
 21
3.770726089850174
 31
0.0
  0
LINE
  5
198
330
16A
100
AcDbEntity
  8
0
  6
BYBLOCK
 62
     0
100
AcDbLine
 10
33.5472506760094
 20
3.645726089850174
 30
0.0
 11
33.7972506760094
 21
3.895726089850174
 31
0.0
  0
LINE
  5
199
330
16A
100
AcDbEntity
  8
0
  6
BYBLOCK
 62
     0
100
AcDbLine
 10
33.6922506760094
 20
3.645726089850174
 30
0.0
 11
33.9422506760094
 21
3.895726089850174
 31
0.0
  0
TEXT
  5
19A
330
16A
100
AcDbEntity
  8
0
  6
BYBLOCK
 62
     0
100
AcDbText
 10
34.1922506760094
 20
3.708226089850174
 30
0.0
 40
0.125
  1
0.145
 72
     1
 11
34.4110006760094
 21
3.770726089850174
 31
0.0
100
AcDbText
 73
     2
  0
POINT
  5
19B
330
16A
100
AcDbEntity
  8
DEFPOINTS
  6
BYBLOCK
 62
     0
100
AcDbPoint
 10
33.67225067600939
 20
3.770726089850174
 30
0.0
  0
POINT
  5
19C
330
16A
100
AcDbEntity
  8
DEFPOINTS
  6
BYBLOCK
 62
     0
100
AcDbPoint
 10
33.8172506760094
 20
3.770726089850174
 30
0.0
  0
POINT
  5
19D
330
16A
100
AcDbEntity
  8
DEFPOINTS
  6
BYBLOCK
 62
     0
100
AcDbPoint
 10
33.8172506760094
 20
3.770726089850174
 30
0.0
  0
ENDBLK
  5
19E
330
16A
100
AcDbEntity
  8
0
100
AcDbBlockEnd
  0
BLOCK
  5
19F
330
16B
100
AcDbEntity
  8
0
100
AcDbBlockBegin
  2
*D3
 70
     1
 10
0.0
 20
0.0
 30
0.0
  3
*D3
  1

  0
LINE
  5
1A0
330
16B
100
AcDbEntity
  8
0
  6
BYBLOCK
 62
     0
100
AcDbLine
 10
32.1645157336149
 20
5.802668350930077
 30
0.0
 11
32.1645157336149
 21
4.76346028194479
 31
0.0
  0
LINE
  5
1A1
330
16B
100
AcDbEntity
  8
0
  6
BYBLOCK
 62
     0
100
AcDbLine
 10
33.8245157336149
 20
5.802668350930077
 30
0.0
 11
33.8245157336149
 21
4.76346028194479
 31
0.0
  0
LINE
  5
1A2
330
16B
100
AcDbEntity
  8
0
  6
BYBLOCK
 62
     0
100
AcDbLine
 10
32.1645157336149
 20
4.94346028194479
 30
0.0
 11
32.6507657336149
 21
4.94346028194479
 31
0.0
  0
LINE
  5
1A3
330
16B
100
AcDbEntity
  8
0
  6
BYBLOCK
 62
     0
100
AcDbLine
 10
33.8245157336149
 20
4.94346028194479
 30
0.0
 11
33.3382657336149
 21
4.94346028194479
 31
0.0
  0
LINE
  5
1A4
330
16B
100
AcDbEntity
  8
0
  6
BYBLOCK
 62
     0
100
AcDbLine
 10
32.0395157336149
 20
4.81846028194479
 30
0.0
 11
32.2895157336149
 21
5.06846028194479
 31
0.0
  0
LINE
  5
1A5
330
16B
100
AcDbEntity
  8
0
  6
BYBLOCK
 62
     0
100
AcDbLine
 10
33.6995157336149
 20
4.81846028194479
 30
0.0
 11
33.9495157336149
 21
5.06846028194479
 31
0.0
  0
TEXT
  5
1A6
330
16B
100
AcDbEntity
  8
0
  6
BYBLOCK
 62
     0
100
AcDbText
 10
32.7757657336149
 20
4.88096028194479
 30
0.0
 40
0.125
  1
1.660
 72
     1
 11
32.9945157336149
 21
4.94346028194479
 31
0.0
100
AcDbText
 73
     2
  0
POINT
  5
1A7
330
16B
100
AcDbEntity
  8
DEFPOINTS
  6
BYBLOCK
 62
     0
100
AcDbPoint
 10
32.1645157336149
 20
5.865168350930077
 30
0.0
  0
POINT
  5
1A8
330
16B
100
AcDbEntity
  8
DEFPOINTS
  6
BYBLOCK
 62
     0
100
AcDbPoint
 10
33.8245157336149
 20
5.865168350930077
 30
0.0
  0
POINT
  5
1A9
330
16B
100
AcDbEntity
  8
DEFPOINTS
  6
BYBLOCK
 62
     0
100
AcDbPoint
 10
33.8245157336149
 20
4.94346028194479
 30
0.0
  0
ENDBLK
  5
1AA
330
16B
100
AcDbEntity
  8
0
100
AcDbBlockEnd
  0
BLOCK
  5
1AB
330
16C
100
AcDbEntity
  8
0
100
AcDbBlockBegin
  2
*D4
 70
     1
 10
0.0
 20
0.0
 30
0.0
  3
*D4
  1

  0
LINE
  5
1AC
330
16C
100
AcDbEntity
  8
0
  6
BYBLOCK
 62
     0
100
AcDbLine
 10
32.12720450038904
 20
10.95594502954743
 30
0.0
 11
30.50146182110137
 21
9.070767572336691
 31
0.0
  0
LINE
  5
1AD
330
16C
100
AcDbEntity
  8
0
  6
BYBLOCK
 62
     0
100
AcDbLine
 10
32.1402316618526
 20
10.77964899140646
 30
0.0
 11
32.11417733892548
 21
11.1322410676884
 31
0.0
  0
TEXT
  5
1AE
330
16C
100
AcDbEntity
  8
0
  6
BYBLOCK
 62
     0
100
AcDbText
 10
30.03177451152403
 20
8.430426887753002
 30
0.0
 40
0.125
  1
R2 1/2
 50
49.22611474072909
 72
     1
 11
30.20213554719278
 21
8.723675039728393
 31
0.0
100
AcDbText
 73
     2
  0
POINT
  5
1AF
330
16C
100
AcDbEntity
  8
DEFPOINTS
  6
BYBLOCK
 62
     0
100
AcDbPoint
 10
32.12720450038904
 20
10.95594502954743
 30
0.0
  0
POINT
  5
1B0
330
16C
100
AcDbEntity
  8
DEFPOINTS
  6
BYBLOCK
 62
     0
100
AcDbPoint
 10
30.49451573361491
 20
9.062713033502161
 30
0.0
  0
ENDBLK
  5
1B1
330
16C
100
AcDbEntity
  8
0
100
AcDbBlockEnd
  0
ENDSEC
  0
SECTION
  2
ENTITIES
  0
DIMENSION
  5
1B2
330
18
100
AcDbEntity
  8
ADPDIM
100
AcDbDimension
  2
*D1
 10
34.2661867487637
 20
13.86516835093007
 30
0.0
 11
34.2661867487637
 21
9.865168350930076
 31
0.0
100
AcDbAlignedDimension
 13
33.8245157336149
 23
5.865168350930077
 33
0.0
 14
33.12956877798724
 24
13.86516835093007
 34
0.0
 50
90.0
100
AcDbRotatedDimension
  0
LINE
  5
1B3
330
18
100
AcDbEntity
  8
ADP3DETAIL
  6
CENTER2
100
AcDbLine
 10
32.99451573361491
 20
9.062713033502166
 30
0.0
 11
32.99451573361491
 21
5.111485110473048
 31
0.0
  0
LINE
  5
1B4
330
18
100
AcDbEntity
  8
ADP1DETAIL
100
AcDbLine
 10
33.8245157336149
 20
9.120342497311288
 30
0.0
 11
33.8245157336149
 21
5.865168350930077
 31
0.0
  0
LINE
  5
1B5
330
18
100
AcDbEntity
  8
ADP1DETAIL
100
AcDbLine
 10
32.1645157336149
 20
5.865168350930077
 30
0.0
 11
32.1645157336149
 21
9.005083569693027
 31
0.0
  0
DIMENSION
  5
1B6
330
18
100
AcDbEntity
  8
ADPDIM
100
AcDbDimension
  2
*D3
 10
33.8245157336149
 20
4.94346028194479
 30
0.0
 11
32.9945157336149
 21
4.94346028194479
 31
0.0
  1
1.660
100
AcDbAlignedDimension
 13
32.1645157336149
 23
5.865168350930077
 33
0.0
 14
33.8245157336149
 24
5.865168350930077
 34
0.0
100
AcDbRotatedDimension
  0
CIRCLE
  5
1B7
330
18
100
AcDbEntity
  8
ADP1DETAIL
100
AcDbCircle
 10
32.9945157336149
 20
3.770726089850174
 30
0.0
 40
0.8299999999999998
  0
CIRCLE
  5
1B8
330
18
100
AcDbEntity
  8
ADP1DETAIL
100
AcDbCircle
 10
32.9945157336149
 20
3.770726089850174
 30
0.0
 40
0.6899999999999978
  0
LINE
  5
1B9
330
18
100
AcDbEntity
  8
ADP1DETAIL
100
AcDbLine
 10
33.8245157336149
 20
5.865168350930077
 30
0.0
 11
32.1645157336149
 21
5.865168350930077
 31
0.0
  0
DIMENSION
  5
1BA
330
18
100
AcDbEntity
  8
ADPDIM
100
AcDbDimension
  2
*D2
 10
33.8172506760094
 20
3.770726089850174
 30
0.0
 11
34.4110006760094
 21
3.770726089850174
 31
0.0
  1
0.145
100
AcDbAlignedDimension
 13
33.67225067600939
 23
3.770726089850174
 33
0.0
 14
33.8172506760094
 24
3.770726089850174
 34
0.0
100
AcDbRotatedDimension
  0
DIMENSION
  5
1BB
330
18
100
AcDbEntity
  8
ADPDIM
100
AcDbDimension
  2
*D0
 10
32.27949026660526
 20
14.88633054640972
 30
0.0
 11
29.0028820894493
 21
12.59202480100554
 31
0.0
 70
     1
100
AcDbAlignedDimension
 13
26.44129937930296
 23
9.27655686012171
 33
0.0
 14
32.99451573361489
 24
13.86516835093007
 34
0.0
  0
LINE
  5
1BC
330
18
100
AcDbEntity
  8
ADP3DETAIL
  6
CENTER2
100
AcDbLine
 10
25.94038458457708
 20
8.925812544853876
 30
0.0
 11
29.06057464273731
 21
11.11059314422464
 31
0.0
  0
LINE
  5
1BD
330
18
100
AcDbEntity
  8
ADP1DETAIL
100
AcDbLine
 10
29.48943579181812
 20
10.39764204498431
 30
0.0
 11
26.91736782147433
 21
8.596660663361845
 31
0.0
  0
ARC
  5
1BE
330
18
100
AcDbEntity
  8
ADP1DETAIL
100
AcDbCircle
 10
30.5245157336149
 20
9.120342497311288
 30
0.0
 40
3.299999999999999
100
AcDbArc
 50
0.0
 51
124.9999999999998
  0
LINE
  5
1BF
330
18
100
AcDbEntity
  8
ADP1DETAIL
100
AcDbLine
 10
25.96523093713159
 20
9.956453056881571
 30
0.0
 11
26.91736782147433
 21
8.596660663361845
 31
0.0
  0
LINE
  5
1C0
330
18
100
AcDbEntity
  8
ADP1DETAIL
100
AcDbLine
 10
28.63171349365646
 20
11.82354424346496
 30
0.0
 11
25.96523093713159
 21
9.956453056881571
 31
0.0
  0
ARC
  5
1C1
330
18
100
AcDbEntity
  8
ADP3DETAIL
  6
CENTER2
100
AcDbCircle
 10
30.49451573361491
 20
9.062713033502163
 30
0.0
 40
2.5
100
AcDbArc
 50
0.0000000000000891
 51
124.9999999999999
  0
ARC
  5
1C2
330
18
100
AcDbEntity
  8
ADP1DETAIL
100
AcDbCircle
 10
30.4645157336149
 20
9.005083569693027
 30
0.0
 40
1.7
100
AcDbArc
 50
0.0
 51
124.9999999999998
  0
DIMENSION
  5
1C3
330
18
100
AcDbEntity
  8
ADPDIM
100
AcDbDimension
  2
*D4
 10
30.49451573361491
 20
9.062713033502161
 30
0.0
 11
30.20213554719278
 21
8.723675039728393
 31
0.0
 70
     4
100
AcDbRadialDimension
 15
32.12720450038904
 25
10.95594502954743
 35
0.0
 40
-2.489364036141164
  0
TEXT
  5
1D1
330
18
100
AcDbEntity
  8
ADPDIM
100
AcDbText
 10
20.55679685579988
 20
2.49243101637765
 30
0.0
 40
0.1875
  1
J U L I U S  B L U M  &  C O . ,  I N C .      ( 8 0 0 )  5 2 6 - 6 2 9 3        W W W . J U L I U S B L U M . C O M        P A R T  N o .  7 4 8 5
 41
1.25
  7
ARIAL_WIDE
 72
     1
 11
30.34539039263481
 21
2.67993101637765
 31
0.0
100
AcDbText
 73
     3
  0
ENDSEC
  0
SECTION
  2
OBJECTS
  0
DICTIONARY
  5
C
330
0
100
AcDbDictionary
  3
ACAD_GROUP
350
D
  3
ACAD_LAYOUT
350
1CA
  3
ACAD_MLINESTYLE
350
E
  3
ACAD_PLOTSETTINGS
350
1CB
  3
ACAD_PLOTSTYLENAME
350
1C8
  3
ACDBHEADERROUNDTRIPXREC
350
315
  3
ACDBVARIABLEDICTIONARY
350
22B
  0
DICTIONARY
  5
225
330
18
100
AcDbDictionary
280
     1
  3
ACAD_LAYOUTSELFREF
360
336
  0
DICTIONARY
  5
223
330
15
100
AcDbDictionary
280
     1
  3
ACAD_LAYOUTSELFREF
360
335
  0
DICTIONARY
  5
D
102
{ACAD_REACTORS
330
C
102
}
330
C
100
AcDbDictionary
  0
DICTIONARY
  5
1CA
102
{ACAD_REACTORS
330
C
102
}
330
C
100
AcDbDictionary
  0
DICTIONARY
  5
E
102
{ACAD_REACTORS
330
C
102
}
330
C
100
AcDbDictionary
  3
STANDARD
350
1B
  0
DICTIONARY
  5
1CB
102
{ACAD_REACTORS
330
C
102
}
330
C
100
AcDbDictionary
  0
ACDBDICTIONARYWDFLT
  5
1C8
102
{ACAD_REACTORS
330
C
102
}
330
C
100
AcDbDictionary
281
     1
  3
Normal
350
1C9
100
AcDbDictionaryWithDefault
340
1C9
  0
DICTIONARY
  5
315
102
{ACAD_REACTORS
330
C
102
}
330
C
100
AcDbDictionary
  3
CEPSNTYPE
350
31F
  3
FINGERPRINTGUID
350
320
  3
HYPERLINKBASE
350
318
  3
INSUNITS
350
31E
  3
LAYOUTDICT
350
31A
  3
LWETCUNION
350
31D
  3
PLOTSETDICT
350
31B
  3
PLOTSTYLNAMDICT
350
31C
  3
PSVPSCALE
350
322
  3
PUCSBASE
350
325
  3
PUCSORGBACK
350
32B
  3
PUCSORGBOTTOM
350
327
  3
PUCSORGFRONT
350
32A
  3
PUCSORGLEFT
350
328
  3
PUCSORGRIGHT
350
329
  3
PUCSORGTOP
350
326
  3
PUCSORTHOREF
350
323
  3
PUCSORTHOVIEW
350
324
  3
STYLESHEET
350
319
  3
TSTACKALIGN
350
316
  3
TSTACKSIZE
350
317
  3
UCSBASE
350
32E
  3
UCSORGBACK
350
334
  3
UCSORGBOTTOM
350
330
  3
UCSORGFRONT
350
333
  3
UCSORGLEFT
350
331
  3
UCSORGRIGHT
350
332
  3
UCSORGTOP
350
32F
  3
UCSORTHOREF
350
32C
  3
UCSORTHOVIEW
350
32D
  3
VERSIONGUID
350
321
  0
DICTIONARY
  5
22B
102
{ACAD_REACTORS
330
C
102
}
330
C
100
AcDbDictionary
  3
DIMASSOC
350
22C
  0
XRECORD
  5
336
102
{ACAD_REACTORS
330
225
102
}
330
225
100
AcDbXrecord
340
18
  0
XRECORD
  5
335
102
{ACAD_REACTORS
330
223
102
}
330
223
100
AcDbXrecord
340
15
  0
MLINESTYLE
  5
1B
102
{ACAD_REACTORS
330
E
102
}
330
E
100
AcDbMlineStyle
  2
STANDARD
 70
     0
  3

 62
     0
 51
90.0
 52
90.0
 71
     2
 49
0.5
 62
   256
  6
BYLAYER
 49
-0.5
 62
   256
  6
BYLAYER
  0
ACDBPLACEHOLDER
  5
1C9
102
{ACAD_REACTORS
330
1C8
102
}
330
1C8
100
AcDbPlaceHolder
280
     0
  0
XRECORD
  5
31F
102
{ACAD_REACTORS
330
315
102
}
330
315
100
AcDbXrecord
 90
        0
  0
XRECORD
  5
320
102
{ACAD_REACTORS
330
315
102
}
330
315
100
AcDbXrecord
  1
{A4D907E4-ECDC-4396-B327-1C1EB22E8C15}
  0
XRECORD
  5
318
102
{ACAD_REACTORS
330
315
102
}
330
315
100
AcDbXrecord
  1

  0
XRECORD
  5
31E
102
{ACAD_REACTORS
330
315
102
}
330
315
100
AcDbXrecord
 90
        0
  0
XRECORD
  5
31A
102
{ACAD_REACTORS
330
315
102
}
330
315
100
AcDbXrecord
340
1CA
  0
XRECORD
  5
31D
102
{ACAD_REACTORS
330
315
102
}
330
315
100
AcDbXrecord
 90
    14877
  0
XRECORD
  5
31B
102
{ACAD_REACTORS
330
315
102
}
330
315
100
AcDbXrecord
340
1CB
  0
XRECORD
  5
31C
102
{ACAD_REACTORS
330
315
102
}
330
315
100
AcDbXrecord
340
1C8
  0
XRECORD
  5
322
102
{ACAD_REACTORS
330
315
102
}
330
315
100
AcDbXrecord
 40
0.0
  0
XRECORD
  5
325
102
{ACAD_REACTORS
330
315
102
}
330
315
100
AcDbXrecord
340
0
  0
XRECORD
  5
32B
102
{ACAD_REACTORS
330
315
102
}
330
315
100
AcDbXrecord
 10
0.0
 20
0.0
 30
0.0
  0
XRECORD
  5
327
102
{ACAD_REACTORS
330
315
102
}
330
315
100
AcDbXrecord
 10
0.0
 20
0.0
 30
0.0
  0
XRECORD
  5
32A
102
{ACAD_REACTORS
330
315
102
}
330
315
100
AcDbXrecord
 10
0.0
 20
0.0
 30
0.0
  0
XRECORD
  5
328
102
{ACAD_REACTORS
330
315
102
}
330
315
100
AcDbXrecord
 10
0.0
 20
0.0
 30
0.0
  0
XRECORD
  5
329
102
{ACAD_REACTORS
330
315
102
}
330
315
100
AcDbXrecord
 10
0.0
 20
0.0
 30
0.0
  0
XRECORD
  5
326
102
{ACAD_REACTORS
330
315
102
}
330
315
100
AcDbXrecord
 10
0.0
 20
0.0
 30
0.0
  0
XRECORD
  5
323
102
{ACAD_REACTORS
330
315
102
}
330
315
100
AcDbXrecord
340
0
  0
XRECORD
  5
324
102
{ACAD_REACTORS
330
315
102
}
330
315
100
AcDbXrecord
 70
     0
  0
XRECORD
  5
319
102
{ACAD_REACTORS
330
315
102
}
330
315
100
AcDbXrecord
  1

  0
XRECORD
  5
316
102
{ACAD_REACTORS
330
315
102
}
330
315
100
AcDbXrecord
 90
        1
  0
XRECORD
  5
317
102
{ACAD_REACTORS
330
315
102
}
330
315
100
AcDbXrecord
 90
       70
  0
XRECORD
  5
32E
102
{ACAD_REACTORS
330
315
102
}
330
315
100
AcDbXrecord
340
0
  0
XRECORD
  5
334
102
{ACAD_REACTORS
330
315
102
}
330
315
100
AcDbXrecord
 10
0.0
 20
0.0
 30
0.0
  0
XRECORD
  5
330
102
{ACAD_REACTORS
330
315
102
}
330
315
100
AcDbXrecord
 10
0.0
 20
0.0
 30
0.0
  0
XRECORD
  5
333
102
{ACAD_REACTORS
330
315
102
}
330
315
100
AcDbXrecord
 10
0.0
 20
0.0
 30
0.0
  0
XRECORD
  5
331
102
{ACAD_REACTORS
330
315
102
}
330
315
100
AcDbXrecord
 10
0.0
 20
0.0
 30
0.0
  0
XRECORD
  5
332
102
{ACAD_REACTORS
330
315
102
}
330
315
100
AcDbXrecord
 10
0.0
 20
0.0
 30
0.0
  0
XRECORD
  5
32F
102
{ACAD_REACTORS
330
315
102
}
330
315
100
AcDbXrecord
 10
0.0
 20
0.0
 30
0.0
  0
XRECORD
  5
32C
102
{ACAD_REACTORS
330
315
102
}
330
315
100
AcDbXrecord
340
0
  0
XRECORD
  5
32D
102
{ACAD_REACTORS
330
315
102
}
330
315
100
AcDbXrecord
 70
     0
  0
XRECORD
  5
321
102
{ACAD_REACTORS
330
315
102
}
330
315
100
AcDbXrecord
  1
{908043FB-F86C-4467-A1F8-FDB0A6C8B5CA}
  0
DICTIONARYVAR
  5
22C
102
{ACAD_REACTORS
330
22B
102
}
330
22B
100
DictionaryVariables
280
     0
  1
1
  0
ENDSEC
  0
EOF
