  0
SECTION
  2
HEADER
  9
$ACADVER
  1
AC1014
  9
$ACADMAINTVER
 70
     9
  9
$DWGCODEPAGE
  3
ANSI_1252
  9
$INSBASE
 10
2.045915524050752
 20
3.085083776506029
 30
0.0
  9
$EXTMIN
 10
-3.176414995987576
 20
2.324321023315789
 30
0.0
  9
$EXTMAX
 10
9.875043053125656
 20
4.760344693449836
 30
0.0
  9
$LIMMIN
 10
0.0
 20
0.0
  9
$LIMMAX
 10
36.0
 20
36.0
  9
$ORTHOMODE
 70
     1
  9
$REGENMODE
 70
     1
  9
$FILLMODE
 70
     1
  9
$QTEXTMODE
 70
     0
  9
$MIRRTEXT
 70
     1
  9
$DRAGMODE
 70
     0
  9
$LTSCALE
 40
1.0
  9
$OSMODE
 70
    37
  9
$ATTMODE
 70
     1
  9
$TEXTSIZE
 40
0.2
  9
$TRACEWID
 40
0.05
  9
$TEXTSTYLE
  7
STANDARD
  9
$CLAYER
  8
ADP1DETAIL
  9
$CELTYPE
  6
BYLAYER
  9
$CECOLOR
 62
   256
  9
$CELTSCALE
 40
1.0
  9
$DELOBJ
 70
     1
  9
$DISPSILH
 70
     0
  9
$DIMSCALE
 40
1.0
  9
$DIMASZ
 40
0.125
  9
$DIMEXO
 40
0.0625
  9
$DIMDLI
 40
0.38
  9
$DIMRND
 40
0.0
  9
$DIMDLE
 40
0.0
  9
$DIMEXE
 40
0.18
  9
$DIMTP
 40
0.0
  9
$DIMTM
 40
0.0
  9
$DIMTXT
 40
0.125
  9
$DIMCEN
 40
0.1875
  9
$DIMTSZ
 40
0.125
  9
$DIMTOL
 70
     0
  9
$DIMLIM
 70
     0
  9
$DIMTIH
 70
     0
  9
$DIMTOH
 70
     0
  9
$DIMSE1
 70
     0
  9
$DIMSE2
 70
     0
  9
$DIMTAD
 70
     0
  9
$DIMZIN
 70
     3
  9
$DIMBLK
  1

  9
$DIMASO
 70
     1
  9
$DIMSHO
 70
     1
  9
$DIMPOST
  1

  9
$DIMAPOST
  1

  9
$DIMALT
 70
     0
  9
$DIMALTD
 70
     1
  9
$DIMALTF
 40
25.4
  9
$DIMLFAC
 40
1.0
  9
$DIMTOFL
 70
     0
  9
$DIMTVP
 40
0.0
  9
$DIMTIX
 70
     0
  9
$DIMSOXD
 70
     0
  9
$DIMSAH
 70
     0
  9
$DIMBLK1
  1

  9
$DIMBLK2
  1

  9
$DIMSTYLE
  2
STANDARD
  9
$DIMCLRD
 70
     0
  9
$DIMCLRE
 70
     0
  9
$DIMCLRT
 70
     0
  9
$DIMTFAC
 40
1.0
  9
$DIMGAP
 40
0.125
  9
$DIMJUST
 70
     0
  9
$DIMSD1
 70
     0
  9
$DIMSD2
 70
     0
  9
$DIMTOLJ
 70
     1
  9
$DIMTZIN
 70
     0
  9
$DIMALTZ
 70
     0
  9
$DIMALTTZ
 70
     0
  9
$DIMFIT
 70
     3
  9
$DIMUPT
 70
     0
  9
$DIMUNIT
 70
     2
  9
$DIMDEC
 70
     4
  9
$DIMTDEC
 70
     4
  9
$DIMALTU
 70
     2
  9
$DIMALTTD
 70
     2
  9
$DIMTXSTY
  7
STANDARD
  9
$DIMAUNIT
 70
     0
  9
$LUNITS
 70
     5
  9
$LUPREC
 70
     4
  9
$SKETCHINC
 40
0.1
  9
$FILLETRAD
 40
0.0
  9
$AUNITS
 70
     0
  9
$AUPREC
 70
     0
  9
$MENU
  1
acad
  9
$ELEVATION
 40
0.0
  9
$PELEVATION
 40
0.0
  9
$THICKNESS
 40
0.0
  9
$LIMCHECK
 70
     0
  9
$BLIPMODE
 70
     0
  9
$CHAMFERA
 40
0.0
  9
$CHAMFERB
 40
0.0
  9
$CHAMFERC
 40
0.0
  9
$CHAMFERD
 40
0.0
  9
$SKPOLY
 70
     0
  9
$TDCREATE
 40
2450225.411761759
  9
$TDUPDATE
 40
2452297.101796875
  9
$TDINDWG
 40
0.0345525000
  9
$TDUSRTIMER
 40
0.0345525000
  9
$USRTIMER
 70
     1
  9
$ANGBASE
 50
0.0
  9
$ANGDIR
 70
     0
  9
$PDMODE
 70
     0
  9
$PDSIZE
 40
0.0
  9
$PLINEWID
 40
0.0
  9
$COORDS
 70
     2
  9
$SPLFRAME
 70
     0
  9
$SPLINETYPE
 70
     6
  9
$SPLINESEGS
 70
     8
  9
$ATTDIA
 70
     0
  9
$ATTREQ
 70
     1
  9
$HANDLING
 70
 22529
  9
$HANDSEED
  5
8B1
  9
$SURFTAB1
 70
     6
  9
$SURFTAB2
 70
     6
  9
$SURFTYPE
 70
     6
  9
$SURFU
 70
     6
  9
$SURFV
 70
     6
  9
$UCSNAME
  2

  9
$UCSORG
 10
0.0
 20
0.0
 30
0.0
  9
$UCSXDIR
 10
1.0
 20
0.0
 30
0.0
  9
$UCSYDIR
 10
0.0
 20
1.0
 30
0.0
  9
$PUCSNAME
  2

  9
$PUCSORG
 10
0.0
 20
0.0
 30
0.0
  9
$PUCSXDIR
 10
1.0
 20
0.0
 30
0.0
  9
$PUCSYDIR
 10
0.0
 20
1.0
 30
0.0
  9
$USERI1
 70
     0
  9
$USERI2
 70
     0
  9
$USERI3
 70
     0
  9
$USERI4
 70
     0
  9
$USERI5
 70
     0
  9
$USERR1
 40
0.0
  9
$USERR2
 40
0.0
  9
$USERR3
 40
0.0
  9
$USERR4
 40
0.0
  9
$USERR5
 40
0.0
  9
$WORLDVIEW
 70
     1
  9
$SHADEDGE
 70
     3
  9
$SHADEDIF
 70
    70
  9
$TILEMODE
 70
     1
  9
$MAXACTVP
 70
    15
  9
$PINSBASE
 10
0.0008545056916773
 20
1.250276130627782
 30
0.0
  9
$PLIMCHECK
 70
     0
  9
$PEXTMIN
 10
1.000000000000000E+20
 20
1.000000000000000E+20
 30
1.000000000000000E+20
  9
$PEXTMAX
 10
-1.000000000000000E+20
 20
-1.000000000000000E+20
 30
-1.000000000000000E+20
  9
$PLIMMIN
 10
0.0
 20
0.0
  9
$PLIMMAX
 10
12.0
 20
9.0
  9
$UNITMODE
 70
     0
  9
$VISRETAIN
 70
     0
  9
$PLINEGEN
 70
     0
  9
$PSLTSCALE
 70
     1
  9
$TREEDEPTH
 70
  3020
  9
$PICKSTYLE
 70
     1
  9
$CMLSTYLE
  2
STANDARD
  9
$CMLJUST
 70
     0
  9
$CMLSCALE
 40
1.0
  9
$PROXYGRAPHICS
 70
     1
  9
$MEASUREMENT
 70
     0
  0
ENDSEC
  0
SECTION
  2
CLASSES
  0
CLASS
  1
ACDBDICTIONARYWDFLT
  2
AcDbDictionaryWithDefault
  3
AutoCAD 2000
 90
        0
280
     0
281
     0
  0
CLASS
  1
ACDBPLACEHOLDER
  2
AcDbPlaceHolder
  3
AutoCAD 2000
 90
        0
280
     0
281
     0
  0
CLASS
  1
LAYOUT
  2
AcDbLayout
  3
AutoCAD 2000
 90
        0
280
     0
281
     0
  0
CLASS
  1
DICTIONARYVAR
  2
AcDbDictionaryVar
  3
AutoCAD 2000
 90
        0
280
     0
281
     0
  0
CLASS
  1
LONG_TRANSACTION
  2
AcDbLongTransaction
  3
AutoCAD 2000
 90
        0
280
     0
281
     0
  0
CLASS
  1
LWPOLYLINE
  2
AcDbPolyline
  3
AutoCAD 2000
 90
        0
280
     0
281
     1
  0
CLASS
  1
HATCH
  2
AcDbHatch
  3
AutoCAD 2000
 90
        0
280
     0
281
     1
  0
CLASS
  1
XRECORD
  2
AcDbXrecord
  3
AutoCAD 2000
 90
        0
280
     0
281
     0
  0
CLASS
  1
LONG_TRANSACTION
  2
AcDbLongTransaction
  3
AutoCAD 2000
 90
        0
280
     0
281
     0
  0
CLASS
  1
LWPOLYLINE
  2
AcDbPolyline
  3
AutoCAD 2000
 90
        0
280
     0
281
     1
  0
CLASS
  1
HATCH
  2
AcDbHatch
  3
AutoCAD 2000
 90
        0
280
     0
281
     1
  0
CLASS
  1
XRECORD
  2
AcDbXrecord
  3
AutoCAD 2000
 90
        0
280
     0
281
     0
  0
CLASS
  1
LONG_TRANSACTION
  2
AcDbLongTransaction
  3
AutoCAD 2000
 90
        0
280
     0
281
     0
  0
CLASS
  1
LWPOLYLINE
  2
AcDbPolyline
  3
AutoCAD 2000
 90
        0
280
     0
281
     1
  0
CLASS
  1
HATCH
  2
AcDbHatch
  3
AutoCAD 2000
 90
        0
280
     0
281
     1
  0
CLASS
  1
XRECORD
  2
AcDbXrecord
  3
AutoCAD 2000
 90
        0
280
     0
281
     0
  0
CLASS
  1
LONG_TRANSACTION
  2
AcDbLongTransaction
  3
AutoCAD 2000
 90
        0
280
     0
281
     0
  0
CLASS
  1
LWPOLYLINE
  2
AcDbPolyline
  3
AutoCAD 2000
 90
        0
280
     0
281
     1
  0
CLASS
  1
HATCH
  2
AcDbHatch
  3
AutoCAD 2000
 90
        0
280
     0
281
     1
  0
CLASS
  1
XRECORD
  2
AcDbXrecord
  3
AutoCAD 2000
 90
        0
280
     0
281
     0
  0
CLASS
  1
LONG_TRANSACTION
  2
AcDbLongTransaction
  3
AutoCAD 2000
 90
        0
280
     0
281
     0
  0
CLASS
  1
LWPOLYLINE
  2
AcDbPolyline
  3
AutoCAD 2000
 90
        0
280
     0
281
     1
  0
CLASS
  1
HATCH
  2
AcDbHatch
  3
AutoCAD 2000
 90
        0
280
     0
281
     1
  0
CLASS
  1
XRECORD
  2
AcDbXrecord
  3
AutoCAD 2000
 90
        0
280
     0
281
     0
  0
ENDSEC
  0
SECTION
  2
TABLES
  0
TABLE
  2
VPORT
  5
8
330
0
100
AcDbSymbolTable
 70
     2
  0
VPORT
  5
88E
330
8
100
AcDbSymbolTableRecord
100
AcDbViewportTableRecord
  2
*ACTIVE
 70
     0
 10
0.0
 20
0.0
 11
1.0
 21
1.0
 12
3.360138228621784
 22
3.541992254487698
 13
0.0
 23
0.0
 14
0.5740882589684922
 24
0.5740882589684922
 15
0.5
 25
0.5
 16
0.0
 26
0.0
 36
1.0
 17
0.0
 27
0.0
 37
0.0
 40
8.366461585731018
 41
1.570528967254408
 42
50.0
 43
0.0
 44
0.0
 50
0.0
 51
0.0
 71
     0
 72
   100
 73
     1
 74
     0
 75
     0
 76
     0
 77
     0
 78
     0
  0
ENDTAB
  0
TABLE
  2
LTYPE
  5
5
330
0
100
AcDbSymbolTable
 70
     2
  0
LTYPE
  5
12
330
5
100
AcDbSymbolTableRecord
100
AcDbLinetypeTableRecord
  2
BYBLOCK
 70
     0
  3

 72
    65
 73
     0
 40
0.0
  0
LTYPE
  5
13
330
5
100
AcDbSymbolTableRecord
100
AcDbLinetypeTableRecord
  2
BYLAYER
 70
     0
  3

 72
    65
 73
     0
 40
0.0
  0
LTYPE
  5
14
330
5
100
AcDbSymbolTableRecord
100
AcDbLinetypeTableRecord
  2
CONTINUOUS
 70
     0
  3
Solid line
 72
    65
 73
     0
 40
0.0
  0
LTYPE
  5
3B
330
5
100
AcDbSymbolTableRecord
100
AcDbLinetypeTableRecord
  2
HIDDEN2
 70
     0
  3
_ _ _ _ _ _ _ _ _ _ _ _ _ _ _ _ _ _ _ _ _ _ _ _
 72
    65
 73
     2
 40
0.1875
 49
0.125
 74
     0
 49
-0.0625
 74
     0
  0
ENDTAB
  0
TABLE
  2
LAYER
  5
2
330
0
100
AcDbSymbolTable
 70
     5
  0
LAYER
  5
F
330
2
100
AcDbSymbolTableRecord
100
AcDbLayerTableRecord
  2
0
 70
     0
 62
     7
  6
CONTINUOUS
  0
LAYER
  5
3C
330
2
100
AcDbSymbolTableRecord
100
AcDbLayerTableRecord
  2
ADP2DETAIL
 70
     0
 62
     5
  6
CONTINUOUS
  0
LAYER
  5
3D
330
2
100
AcDbSymbolTableRecord
100
AcDbLayerTableRecord
  2
ADPDIM
 70
     0
 62
     3
  6
CONTINUOUS
  0
LAYER
  5
3F
330
2
100
AcDbSymbolTableRecord
100
AcDbLayerTableRecord
  2
ADP1DETAIL
 70
     0
 62
     7
  6
CONTINUOUS
  0
LAYER
  5
41
330
2
100
AcDbSymbolTableRecord
100
AcDbLayerTableRecord
  2
DEFPOINTS
 70
     0
 62
     7
  6
CONTINUOUS
  0
ENDTAB
  0
TABLE
  2
STYLE
  5
3
330
0
100
AcDbSymbolTable
 70
     2
  0
STYLE
  5
10
330
3
100
AcDbSymbolTableRecord
100
AcDbTextStyleTableRecord
  2
STANDARD
 70
     0
 40
0.0
 41
1.0
 50
0.0
 71
     0
 42
0.2
  3
txt
  4

  0
STYLE
  5
74A
330
3
100
AcDbSymbolTableRecord
100
AcDbTextStyleTableRecord
  2
ARIAL_WIDE
 70
     0
 40
0.0
 41
1.25
 50
0.0
 71
     0
 42
0.2
  3
ARIAL.TTF
  4

1001
ACAD
1000
Arial
1071
       34
  0
ENDTAB
  0
TABLE
  2
VIEW
  5
6
330
0
100
AcDbSymbolTable
 70
     0
  0
ENDTAB
  0
TABLE
  2
UCS
  5
7
330
0
100
AcDbSymbolTable
 70
     0
  0
ENDTAB
  0
TABLE
  2
APPID
  5
9
330
0
100
AcDbSymbolTable
 70
     1
  0
APPID
  5
11
330
9
100
AcDbSymbolTableRecord
100
AcDbRegAppTableRecord
  2
ACAD
 70
     0
  0
ENDTAB
  0
TABLE
  2
DIMSTYLE
  5
A
330
0
100
AcDbSymbolTable
 70
     1
  0
DIMSTYLE
105
73E
330
A
100
AcDbSymbolTableRecord
100
AcDbDimStyleTableRecord
  2
STANDARD
 70
     0
  3

  4

  5

  6

  7

 40
1.0
 41
0.18
 42
0.0625
 43
0.38
 44
0.18
 45
0.0
 46
0.0
 47
0.0
 48
0.0
140
0.18
141
0.09
142
0.0
143
25.4
144
1.0
145
0.0
146
1.0
147
0.09
 71
     0
 72
     0
 73
     1
 74
     1
 75
     0
 76
     0
 77
     0
 78
     0
170
     0
171
     2
172
     0
173
     0
174
     0
175
     0
176
     0
177
     0
178
     0
270
     2
271
     4
272
     4
273
     2
274
     2
340
10
275
     0
280
     0
281
     0
282
     0
283
     1
284
     0
285
     0
286
     0
287
     3
288
     0
  0
ENDTAB
  0
TABLE
  2
BLOCK_RECORD
  5
1
330
0
100
AcDbSymbolTable
 70
     2
  0
BLOCK_RECORD
  5
18
102
{ACAD_XDICTIONARY
360
79F
102
}
330
1
100
AcDbSymbolTableRecord
100
AcDbBlockTableRecord
  2
*MODEL_SPACE
  0
BLOCK_RECORD
  5
15
102
{ACAD_XDICTIONARY
360
79D
102
}
330
1
100
AcDbSymbolTableRecord
100
AcDbBlockTableRecord
  2
*PAPER_SPACE
  0
BLOCK_RECORD
  5
26
330
1
100
AcDbSymbolTableRecord
100
AcDbBlockTableRecord
  2
*D0
  0
BLOCK_RECORD
  5
27
330
1
100
AcDbSymbolTableRecord
100
AcDbBlockTableRecord
  2
*D1
  0
ENDTAB
  0
ENDSEC
  0
SECTION
  2
BLOCKS
  0
BLOCK
  5
44
330
18
100
AcDbEntity
  8
0
100
AcDbBlockBegin
  2
*MODEL_SPACE
 70
     0
 10
0.0
 20
0.0
 30
0.0
  3
*MODEL_SPACE
  1

  0
ENDBLK
  5
45
330
18
100
AcDbEntity
  8
0
100
AcDbBlockEnd
  0
BLOCK
  5
42
330
15
100
AcDbEntity
 67
     1
  8
0
100
AcDbBlockBegin
  2
*PAPER_SPACE
 70
     0
 10
0.0
 20
0.0
 30
0.0
  3
*PAPER_SPACE
  1

  0
ENDBLK
  5
43
330
15
100
AcDbEntity
 67
     1
  8
0
100
AcDbBlockEnd
  0
BLOCK
  5
47
330
26
100
AcDbEntity
  8
0
100
AcDbBlockBegin
  2
*D0
 70
     1
 10
0.0
 20
0.0
 30
0.0
  3
*D0
  1

  0
LINE
  5
48
330
26
100
AcDbEntity
  8
0
  6
BYBLOCK
 62
     0
100
AcDbLine
 10
0.3274413079618315
 20
3.737846400972798
 30
0.0
 11
0.3274413079618315
 21
4.760344693449836
 31
0.0
  0
LINE
  5
49
330
26
100
AcDbEntity
  8
0
  6
BYBLOCK
 62
     0
100
AcDbLine
 10
1.706636408362148
 20
3.738374329110644
 30
0.0
 11
1.706636408362148
 21
4.760344693449836
 31
0.0
  0
LINE
  5
4A
330
26
100
AcDbEntity
  8
0
  6
BYBLOCK
 62
     0
100
AcDbLine
 10
0.3274413079618315
 20
4.580344693449836
 30
0.0
 11
0.6732888581619898
 21
4.580344693449836
 31
0.0
  0
LINE
  5
4B
330
26
100
AcDbEntity
  8
0
  6
BYBLOCK
 62
     0
100
AcDbLine
 10
1.706636408362148
 20
4.580344693449836
 30
0.0
 11
1.360788858161989
 21
4.580344693449836
 31
0.0
  0
LINE
  5
4C
330
26
100
AcDbEntity
  8
0
  6
BYBLOCK
 62
     0
100
AcDbLine
 10
0.2024413079618315
 20
4.455344693449836
 30
0.0
 11
0.4524413079618315
 21
4.705344693449836
 31
0.0
  0
LINE
  5
4D
330
26
100
AcDbEntity
  8
0
  6
BYBLOCK
 62
     0
100
AcDbLine
 10
1.581636408362148
 20
4.455344693449836
 30
0.0
 11
1.831636408362148
 21
4.705344693449836
 31
0.0
  0
TEXT
  5
4E
330
26
100
AcDbEntity
  8
0
  6
BYBLOCK
 62
     0
100
AcDbText
 10
0.7982888581619898
 20
4.517844693449836
 30
0.0
 40
0.125
  1
1.380
 72
     1
 11
1.017038858161989
 21
4.580344693449836
 31
0.0
100
AcDbText
 73
     2
  0
POINT
  5
4F
330
26
100
AcDbEntity
  8
DEFPOINTS
  6
BYBLOCK
 62
     0
100
AcDbPoint
 10
0.3274413079618315
 20
3.675346400972798
 30
0.0
  0
POINT
  5
50
330
26
100
AcDbEntity
  8
DEFPOINTS
  6
BYBLOCK
 62
     0
100
AcDbPoint
 10
1.706636408362148
 20
3.675874329110644
 30
0.0
  0
POINT
  5
51
330
26
100
AcDbEntity
  8
DEFPOINTS
  6
BYBLOCK
 62
     0
100
AcDbPoint
 10
1.706636408362148
 20
4.580344693449836
 30
0.0
  0
ENDBLK
  5
52
330
26
100
AcDbEntity
  8
0
100
AcDbBlockEnd
  0
BLOCK
  5
53
330
27
100
AcDbEntity
  8
0
100
AcDbBlockBegin
  2
*D1
 70
     1
 10
0.0
 20
0.0
 30
0.0
  3
*D1
  1

  0
LINE
  5
54
330
27
100
AcDbEntity
  8
0
  6
BYBLOCK
 62
     0
100
AcDbLine
 10
6.98341552405075
 20
4.339526390325076
 30
0.0
 11
6.98341552405075
 21
4.74779035704541
 31
0.0
  0
LINE
  5
55
330
27
100
AcDbEntity
  8
0
  6
BYBLOCK
 62
     0
100
AcDbLine
 10
1.98341552405075
 20
4.339526390325076
 30
0.0
 11
1.98341552405075
 21
4.74779035704541
 31
0.0
  0
LINE
  5
56
330
27
100
AcDbEntity
  8
0
  6
BYBLOCK
 62
     0
100
AcDbLine
 10
6.98341552405075
 20
4.56779035704541
 30
0.0
 11
4.650082190717417
 21
4.56779035704541
 31
0.0
  0
LINE
  5
57
330
27
100
AcDbEntity
  8
0
  6
BYBLOCK
 62
     0
100
AcDbLine
 10
1.98341552405075
 20
4.56779035704541
 30
0.0
 11
4.316748857384083
 21
4.56779035704541
 31
0.0
  0
LINE
  5
58
330
27
100
AcDbEntity
  8
0
  6
BYBLOCK
 62
     0
100
AcDbLine
 10
6.85841552405075
 20
4.44279035704541
 30
0.0
 11
7.10841552405075
 21
4.69279035704541
 31
0.0
  0
LINE
  5
59
330
27
100
AcDbEntity
  8
0
  6
BYBLOCK
 62
     0
100
AcDbLine
 10
1.85841552405075
 20
4.44279035704541
 30
0.0
 11
2.10841552405075
 21
4.69279035704541
 31
0.0
  0
TEXT
  5
5A
330
27
100
AcDbEntity
  8
0
  6
BYBLOCK
 62
     0
100
AcDbText
 10
4.441748857384083
 20
4.50529035704541
 30
0.0
 40
0.125
  1
5
 72
     1
 11
4.48341552405075
 21
4.56779035704541
 31
0.0
100
AcDbText
 73
     2
  0
POINT
  5
5B
330
27
100
AcDbEntity
  8
DEFPOINTS
  6
BYBLOCK
 62
     0
100
AcDbPoint
 10
6.98341552405075
 20
4.277026390325076
 30
0.0
  0
POINT
  5
5C
330
27
100
AcDbEntity
  8
DEFPOINTS
  6
BYBLOCK
 62
     0
100
AcDbPoint
 10
1.98341552405075
 20
4.277026390325076
 30
0.0
  0
POINT
  5
5D
330
27
100
AcDbEntity
  8
DEFPOINTS
  6
BYBLOCK
 62
     0
100
AcDbPoint
 10
1.98341552405075
 20
4.56779035704541
 30
0.0
  0
ENDBLK
  5
5E
330
27
100
AcDbEntity
  8
0
100
AcDbBlockEnd
  0
ENDSEC
  0
SECTION
  2
ENTITIES
  0
LINE
  5
5F
330
18
100
AcDbEntity
  8
ADP2DETAIL
  6
HIDDEN2
100
AcDbLine
 10
6.98341552405075
 20
4.18307842290755
 30
0.0
 11
1.983415524050751
 21
4.18307842290755
 31
0.0
  0
LINE
  5
60
330
18
100
AcDbEntity
  8
ADP1DETAIL
100
AcDbLine
 10
6.92091552405075
 20
3.085083776506029
 30
0.0
 11
2.045915524050752
 21
3.085083776506029
 31
0.0
  0
LINE
  5
61
330
18
100
AcDbEntity
  8
ADP2DETAIL
  6
HIDDEN2
100
AcDbLine
 10
6.98341552405075
 20
3.185230413494678
 30
0.0
 11
1.983415524050751
 21
3.185230413494678
 31
0.0
  0
DIMENSION
  5
62
330
18
100
AcDbEntity
  8
ADPDIM
100
AcDbDimension
  2
*D1
 10
1.98341552405075
 20
4.56779035704541
 30
0.0
 11
4.48341552405075
 21
4.56779035704541
 31
0.0
100
AcDbAlignedDimension
 13
6.98341552405075
 23
4.277026390325076
 33
0.0
 14
1.98341552405075
 24
4.277026390325076
 34
0.0
100
AcDbRotatedDimension
  0
LINE
  5
63
330
18
100
AcDbEntity
  8
ADP1DETAIL
100
AcDbLine
 10
2.04591552405075
 20
4.339526390325076
 30
0.0
 11
6.92091552405075
 21
4.339526390325076
 31
0.0
  0
LWPOLYLINE
  5
64
330
18
100
AcDbEntity
  8
ADP1DETAIL
100
AcDbPolyline
 90
        2
 70
     0
 43
0.0
 10
1.131173267746487
 20
4.307491246312956
 10
1.113086177381423
 20
4.335078643817602
  0
LWPOLYLINE
  5
68
330
18
100
AcDbEntity
  8
ADP1DETAIL
100
AcDbPolyline
 90
        2
 70
     0
 43
0.0
 10
1.131173267746484
 20
4.307491246312957
 10
1.113086177381419
 20
4.335078643817602
  0
ARC
  5
6C
330
18
100
AcDbEntity
  8
ADP1DETAIL
100
AcDbCircle
 10
1.017056737718971
 20
3.634793676385921
 30
0.0
 40
0.55
100
AcDbArc
 50
306.4732397847207
 51
232.5155412195496
  0
DIMENSION
  5
6D
330
18
100
AcDbEntity
  8
ADPDIM
100
AcDbDimension
  2
*D0
 10
1.706636408362148
 20
4.580344693449836
 30
0.0
 11
1.017038858161989
 21
4.580344693449836
 31
0.0
  1
1.380
100
AcDbAlignedDimension
 13
0.3274413079618315
 23
3.675346400972798
 33
0.0
 14
1.706636408362148
 24
3.675874329110644
 34
0.0
100
AcDbRotatedDimension
  0
LWPOLYLINE
  5
6E
330
18
100
AcDbEntity
  8
ADP1DETAIL
100
AcDbPolyline
 90
        2
 70
     0
 43
0.0
 10
0.4287152382385662
 20
3.962946638163388
 10
0.3968888457725486
 20
3.954269767670385
  0
LWPOLYLINE
  5
72
330
18
100
AcDbEntity
  8
ADP1DETAIL
100
AcDbPolyline
 90
        2
 70
     0
 43
0.0
 10
0.4287152382385662
 20
3.962946638163383
 10
0.3968888457725468
 20
3.954269767670382
  0
LWPOLYLINE
  5
76
330
18
100
AcDbEntity
  8
ADP1DETAIL
100
AcDbPolyline
 90
        2
 70
     0
 43
0.0
 10
0.3971051195968611
 20
3.34883466433583
 10
0.4282958748314086
 20
3.338094826029214
  0
LWPOLYLINE
  5
7A
330
18
100
AcDbEntity
  8
ADP1DETAIL
100
AcDbPolyline
 90
        2
 70
     0
 43
0.0
 10
0.3971051195968647
 20
3.348834664335827
 10
0.4282958748314103
 20
3.338094826029212
  0
LWPOLYLINE
  5
7E
330
18
100
AcDbEntity
  8
ADP1DETAIL
100
AcDbPolyline
 90
        2
 70
     0
 43
0.0
 10
0.3971051195968647
 20
3.348834664335827
 10
0.4282958748314103
 20
3.338094826029211
  0
LWPOLYLINE
  5
82
330
18
100
AcDbEntity
  8
ADP1DETAIL
100
AcDbPolyline
 90
        2
 70
     0
 43
0.0
 10
0.3581873440033663
 20
3.557703253607767
 10
0.3375393881405477
 20
3.53197643379574
  0
LWPOLYLINE
  5
86
330
18
100
AcDbEntity
  8
ADP1DETAIL
100
AcDbPolyline
 90
        2
 70
     0
 43
0.0
 10
0.33761417288079
 20
3.531452607416497
 10
0.3646363505224093
 20
3.512531474932991
  0
LWPOLYLINE
  5
8A
330
18
100
AcDbEntity
  8
ADP1DETAIL
100
AcDbPolyline
 90
        2
 70
     0
 43
0.0
 10
0.3376141728807918
 20
3.531452607416497
 10
0.3646363505224093
 20
3.512531474932993
  0
LWPOLYLINE
  5
8E
330
18
100
AcDbEntity
  8
ADP1DETAIL
100
AcDbPolyline
 90
        2
 70
     0
 43
0.0
 10
0.3581873440033645
 20
3.557703253607771
 10
0.3375393881405477
 20
3.531976433795743
  0
LWPOLYLINE
  5
92
330
18
100
AcDbEntity
  8
ADP1DETAIL
100
AcDbPolyline
 90
        2
 70
     0
 43
0.0
 10
0.3376141728807918
 20
3.5314526074165
 10
0.3646363505224093
 20
3.512531474932995
  0
LWPOLYLINE
  5
96
330
18
100
AcDbEntity
  8
ADP1DETAIL
100
AcDbPolyline
 90
        2
 70
     0
 43
0.0
 10
0.365741210498574
 20
3.788724204886171
 10
0.3375393881405477
 20
3.771610918976103
  0
LWPOLYLINE
  5
9A
330
18
100
AcDbEntity
  8
ADP1DETAIL
100
AcDbPolyline
 90
        2
 70
     0
 43
0.0
 10
0.3374305036357947
 20
3.771093105305379
 10
0.3563516361192986
 20
3.744070927663758
  0
LWPOLYLINE
  5
9E
330
18
100
AcDbEntity
  8
ADP1DETAIL
100
AcDbPolyline
 90
        2
 70
     0
 43
0.0
 10
0.3374305036357965
 20
3.771093105305379
 10
0.3563516361192986
 20
3.744070927663759
  0
LWPOLYLINE
  5
A2
330
18
100
AcDbEntity
  8
ADP1DETAIL
100
AcDbPolyline
 90
        2
 70
     0
 43
0.0
 10
0.365741210498574
 20
3.788724204886174
 10
0.3375393881405477
 20
3.771610918976107
  0
LWPOLYLINE
  5
A6
330
18
100
AcDbEntity
  8
ADP1DETAIL
100
AcDbPolyline
 90
        2
 70
     0
 43
0.0
 10
0.3374305036357947
 20
3.771093105305383
 10
0.3563516361192986
 20
3.744070927663761
  0
LWPOLYLINE
  5
AA
330
18
100
AcDbEntity
  8
ADP1DETAIL
100
AcDbPolyline
 90
        2
 70
     0
 43
0.0
 10
0.3307641315030176
 20
3.72339416833886
 10
0.3515241448839292
 20
3.697757686845139
  0
LWPOLYLINE
  5
AE
330
18
100
AcDbEntity
  8
ADP1DETAIL
100
AcDbPolyline
 90
        2
 70
     0
 43
0.0
 10
0.3577759915717804
 20
3.742957174527161
 10
0.3308366299148622
 20
3.723918316040604
  0
LWPOLYLINE
  5
B2
330
18
100
AcDbEntity
  8
ADP1DETAIL
100
AcDbPolyline
 90
        2
 70
     0
 43
0.0
 10
0.3307641315030176
 20
3.723394168338857
 10
0.351524144883931
 20
3.697757686845137
  0
LWPOLYLINE
  5
B6
330
18
100
AcDbEntity
  8
ADP1DETAIL
100
AcDbPolyline
 90
        2
 70
     0
 43
0.0
 10
0.3307641315030159
 20
3.723394168338857
 10
0.351524144883931
 20
3.697757686845135
  0
LWPOLYLINE
  5
BA
330
18
100
AcDbEntity
  8
ADP1DETAIL
100
AcDbPolyline
 90
        2
 70
     0
 43
0.0
 10
0.3577759915717822
 20
3.742957174527157
 10
0.3308366299148622
 20
3.723918316040601
  0
LWPOLYLINE
  5
BE
330
18
100
AcDbEntity
  8
ADP1DETAIL
100
AcDbPolyline
 90
        2
 70
     0
 43
0.0
 10
0.3274413079618315
 20
3.675346400972801
 10
0.3499390615417512
 20
3.651220513987847
  0
LWPOLYLINE
  5
C2
330
18
100
AcDbEntity
  8
ADP1DETAIL
100
AcDbPolyline
 90
        2
 70
     0
 43
0.0
 10
0.3530227221695492
 20
3.696746004768926
 10
0.3274770670757947
 20
3.675874329110649
  0
LWPOLYLINE
  5
C6
330
18
100
AcDbEntity
  8
ADP1DETAIL
100
AcDbPolyline
 90
        2
 70
     0
 43
0.0
 10
0.3274413079618332
 20
3.675346400972797
 10
0.349939061541753
 20
3.651220513987844
  0
LWPOLYLINE
  5
CA
330
18
100
AcDbEntity
  8
ADP1DETAIL
100
AcDbPolyline
 90
        2
 70
     0
 43
0.0
 10
0.3274413079618315
 20
3.675346400972798
 10
0.349939061541753
 20
3.651220513987843
  0
LWPOLYLINE
  5
CE
330
18
100
AcDbEntity
  8
ADP1DETAIL
100
AcDbPolyline
 90
        2
 70
     0
 43
0.0
 10
0.353022722169551
 20
3.696746004768923
 10
0.3274770670757947
 20
3.675874329110645
  0
LWPOLYLINE
  5
D2
330
18
100
AcDbEntity
  8
ADP1DETAIL
100
AcDbPolyline
 90
        2
 70
     0
 43
0.0
 10
0.3274782214745242
 20
3.627183887100067
 10
0.3516041084594752
 20
3.604686133520145
  0
LWPOLYLINE
  5
D6
330
18
100
AcDbEntity
  8
ADP1DETAIL
100
AcDbPolyline
 90
        2
 70
     0
 43
0.0
 10
0.3515045597426107
 20
3.650315831785404
 10
0.3274770670757947
 20
3.6277130236612
  0
LWPOLYLINE
  5
DA
330
18
100
AcDbEntity
  8
ADP1DETAIL
100
AcDbPolyline
 90
        2
 70
     0
 43
0.0
 10
0.3274782214745242
 20
3.627183887100064
 10
0.351604108459477
 20
3.604686133520143
  0
LWPOLYLINE
  5
DE
330
18
100
AcDbEntity
  8
ADP1DETAIL
100
AcDbPolyline
 90
        2
 70
     0
 43
0.0
 10
0.3274782214745242
 20
3.627183887100064
 10
0.3516041084594752
 20
3.604686133520141
  0
LWPOLYLINE
  5
E2
330
18
100
AcDbEntity
  8
ADP1DETAIL
100
AcDbPolyline
 90
        2
 70
     0
 43
0.0
 10
0.351504559742609
 20
3.6503158317854
 10
0.3274770670757947
 20
3.627713023661197
  0
LWPOLYLINE
  5
E6
330
18
100
AcDbEntity
  8
ADP1DETAIL
100
AcDbPolyline
 90
        2
 70
     0
 43
0.0
 10
0.3308746922021664
 20
3.579141269646965
 10
0.3565111736958846
 20
3.558381256266049
  0
LWPOLYLINE
  5
EA
330
18
100
AcDbEntity
  8
ADP1DETAIL
100
AcDbPolyline
 90
        2
 70
     0
 43
0.0
 10
0.3532289006256972
 20
3.60389285871222
 10
0.3308366299148622
 20
3.579669036731243
  0
LWPOLYLINE
  5
EE
330
18
100
AcDbEntity
  8
ADP1DETAIL
100
AcDbPolyline
 90
        2
 70
     0
 43
0.0
 10
0.3308746922021681
 20
3.579141269646961
 10
0.3565111736958846
 20
3.558381256266047
  0
LWPOLYLINE
  5
F2
330
18
100
AcDbEntity
  8
ADP1DETAIL
100
AcDbPolyline
 90
        2
 70
     0
 43
0.0
 10
0.3308746922021681
 20
3.579141269646961
 10
0.3565111736958864
 20
3.558381256266045
  0
LWPOLYLINE
  5
F6
330
18
100
AcDbEntity
  8
ADP1DETAIL
100
AcDbPolyline
 90
        2
 70
     0
 43
0.0
 10
0.353228900625699
 20
3.603892858712216
 10
0.3308366299148622
 20
3.57966903673124
  0
LWPOLYLINE
  5
FA
330
18
100
AcDbEntity
  8
ADP1DETAIL
100
AcDbPolyline
 90
        2
 70
     0
 43
0.0
 10
0.33761417288079
 20
3.5314526074165
 10
0.3646363505224093
 20
3.512531474932994
  0
LWPOLYLINE
  5
FE
330
18
100
AcDbEntity
  8
ADP1DETAIL
100
AcDbPolyline
 90
        2
 70
     0
 43
0.0
 10
0.3376141728807918
 20
3.531452607416496
 10
0.3646363505224111
 20
3.512531474932992
  0
LWPOLYLINE
  5
102
330
18
100
AcDbEntity
  8
ADP1DETAIL
100
AcDbPolyline
 90
        2
 70
     0
 43
0.0
 10
0.33761417288079
 20
3.531452607416496
 10
0.3646363505224111
 20
3.51253147493299
  0
LWPOLYLINE
  5
106
330
18
100
AcDbEntity
  8
ADP1DETAIL
100
AcDbPolyline
 90
        2
 70
     0
 43
0.0
 10
0.3581873440033645
 20
3.557703253607771
 10
0.3375393881405477
 20
3.531976433795742
  0
LWPOLYLINE
  5
10A
330
18
100
AcDbEntity
  8
ADP1DETAIL
100
AcDbPolyline
 90
        2
 70
     0
 43
0.0
 10
0.3581873440033663
 20
3.557703253607767
 10
0.3375393881405477
 20
3.531976433795739
  0
LWPOLYLINE
  5
10E
330
18
100
AcDbEntity
  8
ADP1DETAIL
100
AcDbPolyline
 90
        2
 70
     0
 43
0.0
 10
0.3966414504778433
 20
3.953802025860064
 10
0.4073812887844559
 20
3.922611270625517
  0
LWPOLYLINE
  5
112
330
18
100
AcDbEntity
  8
ADP1DETAIL
100
AcDbPolyline
 90
        2
 70
     0
 43
0.0
 10
0.3966414504778433
 20
3.95380202586006
 10
0.4073812887844559
 20
3.922611270625515
  0
LWPOLYLINE
  5
116
330
18
100
AcDbEntity
  8
ADP1DETAIL
100
AcDbPolyline
 90
        2
 70
     0
 43
0.0
 10
0.3966414504778415
 20
3.953802025860061
 10
0.4073812887844559
 20
3.922611270625513
  0
LWPOLYLINE
  5
11A
330
18
100
AcDbEntity
  8
ADP1DETAIL
100
AcDbPolyline
 90
        2
 70
     0
 43
0.0
 10
0.3770857134350001
 20
3.909788366004742
 10
0.3899751471338577
 20
3.879422763131156
  0
LWPOLYLINE
  5
11E
330
18
100
AcDbEntity
  8
ADP1DETAIL
100
AcDbPolyline
 90
        2
 70
     0
 43
0.0
 10
0.4084434751527235
 20
3.921148056825906
 10
0.3772998780678902
 20
3.9102722258429
  0
LWPOLYLINE
  5
122
330
18
100
AcDbEntity
  8
ADP1DETAIL
100
AcDbPolyline
 90
        2
 70
     0
 43
0.0
 10
0.3770857134350001
 20
3.909788366004739
 10
0.3899751471338577
 20
3.879422763131154
  0
LWPOLYLINE
  5
126
330
18
100
AcDbEntity
  8
ADP1DETAIL
100
AcDbPolyline
 90
        2
 70
     0
 43
0.0
 10
0.3770857134349983
 20
3.90978836600474
 10
0.3899751471338577
 20
3.879422763131152
  0
LWPOLYLINE
  5
12A
330
18
100
AcDbEntity
  8
ADP1DETAIL
100
AcDbPolyline
 90
        2
 70
     0
 43
0.0
 10
0.4084434751527235
 20
3.921148056825902
 10
0.3772998780678884
 20
3.910272225842898
  0
LWPOLYLINE
  5
12E
330
18
100
AcDbEntity
  8
ADP1DETAIL
100
AcDbPolyline
 90
        2
 70
     0
 43
0.0
 10
0.3606478508928079
 20
3.864517781955134
 10
0.3756240839585709
 20
3.835125269607369
  0
LWPOLYLINE
  5
132
330
18
100
AcDbEntity
  8
ADP1DETAIL
100
AcDbPolyline
 90
        2
 70
     0
 43
0.0
 10
0.391136814704514
 20
3.87803720802233
 10
0.360827741475318
 20
3.865015402504637
  0
LWPOLYLINE
  5
136
330
18
100
AcDbEntity
  8
ADP1DETAIL
100
AcDbPolyline
 90
        2
 70
     0
 43
0.0
 10
0.3606478508928061
 20
3.864517781955131
 10
0.3756240839585709
 20
3.835125269607367
  0
LWPOLYLINE
  5
13A
330
18
100
AcDbEntity
  8
ADP1DETAIL
100
AcDbPolyline
 90
        2
 70
     0
 43
0.0
 10
0.3606478508928061
 20
3.864517781955131
 10
0.3756240839585692
 20
3.835125269607365
  0
LWPOLYLINE
  5
13E
330
18
100
AcDbEntity
  8
ADP1DETAIL
100
AcDbPolyline
 90
        2
 70
     0
 43
0.0
 10
0.3911368147045122
 20
3.878037208022327
 10
0.3608277414753163
 20
3.865015402504634
  0
LWPOLYLINE
  5
142
330
18
100
AcDbEntity
  8
ADP1DETAIL
100
AcDbPolyline
 90
        2
 70
     0
 43
0.0
 10
0.3474079464652382
 20
3.818210827446144
 10
0.3643980161958167
 20
3.789934602989832
  0
LWPOLYLINE
  5
146
330
18
100
AcDbEntity
  8
ADP1DETAIL
100
AcDbPolyline
 90
        2
 70
     0
 43
0.0
 10
0.3768795732039765
 20
3.833824123474541
 10
0.3475526865885365
 20
3.818719784349693
  0
LWPOLYLINE
  5
14A
330
18
100
AcDbEntity
  8
ADP1DETAIL
100
AcDbPolyline
 90
        2
 70
     0
 43
0.0
 10
0.3474079464652382
 20
3.81821082744614
 10
0.3643980161958167
 20
3.789934602989831
  0
LWPOLYLINE
  5
14E
330
18
100
AcDbEntity
  8
ADP1DETAIL
100
AcDbPolyline
 90
        2
 70
     0
 43
0.0
 10
0.3474079464652382
 20
3.81821082744614
 10
0.3643980161958167
 20
3.789934602989828
  0
LWPOLYLINE
  5
152
330
18
100
AcDbEntity
  8
ADP1DETAIL
100
AcDbPolyline
 90
        2
 70
     0
 43
0.0
 10
0.3768795732039765
 20
3.833824123474537
 10
0.3475526865885348
 20
3.818719784349689
  0
LWPOLYLINE
  5
156
330
18
100
AcDbEntity
  8
ADP1DETAIL
100
AcDbPolyline
 90
        2
 70
     0
 43
0.0
 10
0.3374305036357983
 20
3.77109310530538
 10
0.3563516361193004
 20
3.744070927663759
  0
LWPOLYLINE
  5
15A
330
18
100
AcDbEntity
  8
ADP1DETAIL
100
AcDbPolyline
 90
        2
 70
     0
 43
0.0
 10
0.3374305036357965
 20
3.771093105305376
 10
0.3563516361193004
 20
3.744070927663757
  0
LWPOLYLINE
  5
15E
330
18
100
AcDbEntity
  8
ADP1DETAIL
100
AcDbPolyline
 90
        2
 70
     0
 43
0.0
 10
0.3374305036357965
 20
3.771093105305377
 10
0.3563516361193004
 20
3.744070927663755
  0
LWPOLYLINE
  5
162
330
18
100
AcDbEntity
  8
ADP1DETAIL
100
AcDbPolyline
 90
        2
 70
     0
 43
0.0
 10
0.3657412104985758
 20
3.788724204886173
 10
0.3375393881405495
 20
3.771610918976104
  0
LWPOLYLINE
  5
166
330
18
100
AcDbEntity
  8
ADP1DETAIL
100
AcDbPolyline
 90
        2
 70
     0
 43
0.0
 10
0.3657412104985758
 20
3.788724204886169
 10
0.3375393881405495
 20
3.7716109189761
  0
LWPOLYLINE
  5
16A
330
18
100
AcDbEntity
  8
ADP1DETAIL
100
AcDbPolyline
 90
        2
 70
     0
 43
0.0
 10
0.3476638294379777
 20
3.484350234777412
 10
0.3759400538942854
 20
3.46736016504683
  0
LWPOLYLINE
  5
16E
330
18
100
AcDbEntity
  8
ADP1DETAIL
100
AcDbPolyline
 90
        2
 70
     0
 43
0.0
 10
0.3476638294379795
 20
3.484350234777409
 10
0.3759400538942872
 20
3.467360165046828
  0
LWPOLYLINE
  5
172
330
18
100
AcDbEntity
  8
ADP1DETAIL
100
AcDbPolyline
 90
        2
 70
     0
 43
0.0
 10
0.3476638294379777
 20
3.484350234777409
 10
0.3759400538942872
 20
3.467360165046827
  0
LWPOLYLINE
  5
176
330
18
100
AcDbEntity
  8
ADP1DETAIL
100
AcDbPolyline
 90
        2
 70
     0
 43
0.0
 10
0.3609747009571693
 20
3.438063629754487
 10
0.3903672133049332
 20
3.423087396688719
  0
LWPOLYLINE
  5
17A
330
18
100
AcDbEntity
  8
ADP1DETAIL
100
AcDbPolyline
 90
        2
 70
     0
 43
0.0
 10
0.3776942715599683
 20
3.466922038483244
 10
0.3608277414753145
 20
3.43857195026721
  0
LWPOLYLINE
  5
17E
330
18
100
AcDbEntity
  8
ADP1DETAIL
100
AcDbPolyline
 90
        2
 70
     0
 43
0.0
 10
0.3609747009571729
 20
3.438063629754483
 10
0.3903672133049349
 20
3.423087396688718
  0
LWPOLYLINE
  5
182
330
18
100
AcDbEntity
  8
ADP1DETAIL
100
AcDbPolyline
 90
        2
 70
     0
 43
0.0
 10
0.3609747009571711
 20
3.438063629754483
 10
0.3903672133049349
 20
3.423087396688716
  0
LWPOLYLINE
  5
186
330
18
100
AcDbEntity
  8
ADP1DETAIL
100
AcDbPolyline
 90
        2
 70
     0
 43
0.0
 10
0.3776942715599683
 20
3.46692203848324
 10
0.3608277414753145
 20
3.438571950267206
  0
LWPOLYLINE
  5
18A
330
18
100
AcDbEntity
  8
ADP1DETAIL
100
AcDbPolyline
 90
        2
 70
     0
 43
0.0
 10
0.3774819382103312
 20
3.392818296034681
 10
0.4078475410839149
 20
3.37992886233582
  0
LWPOLYLINE
  5
18E
330
18
100
AcDbEntity
  8
ADP1DETAIL
100
AcDbPolyline
 90
        2
 70
     0
 43
0.0
 10
0.3921477199486771
 20
3.422772705417961
 10
0.3772998780678867
 20
3.393315126928947
  0
LWPOLYLINE
  5
192
330
18
100
AcDbEntity
  8
ADP1DETAIL
100
AcDbPolyline
 90
        2
 70
     0
 43
0.0
 10
0.3774819382103312
 20
3.392818296034677
 10
0.4078475410839167
 20
3.379928862335818
  0
LWPOLYLINE
  5
196
330
18
100
AcDbEntity
  8
ADP1DETAIL
100
AcDbPolyline
 90
        2
 70
     0
 43
0.0
 10
0.3774819382103312
 20
3.392818296034677
 10
0.4078475410839167
 20
3.379928862335817
  0
LWPOLYLINE
  5
19A
330
18
100
AcDbEntity
  8
ADP1DETAIL
100
AcDbPolyline
 90
        2
 70
     0
 43
0.0
 10
0.3921477199486771
 20
3.422772705417957
 10
0.3772998780678884
 20
3.393315126928944
  0
LWPOLYLINE
  5
19E
330
18
100
AcDbEntity
  8
ADP1DETAIL
100
AcDbPolyline
 90
        2
 70
     0
 43
0.0
 10
0.4096456622563283
 20
3.379739139502123
 10
0.3968888457725432
 20
3.349317585101461
  0
LWPOLYLINE
  5
1A2
330
18
100
AcDbEntity
  8
ADP1DETAIL
100
AcDbPolyline
 90
        2
 70
     0
 43
0.0
 10
0.4096456622563301
 20
3.37973913950212
 10
0.396888845772545
 20
3.349317585101458
  0
LWPOLYLINE
  5
1A6
330
18
100
AcDbEntity
  8
ADP1DETAIL
100
AcDbPolyline
 90
        2
 70
     0
 43
0.0
 10
0.3663557328378948
 20
3.511972047585159
 10
0.347552686588533
 20
3.484867568422153
  0
LWPOLYLINE
  5
1AA
330
18
100
AcDbEntity
  8
ADP1DETAIL
100
AcDbPolyline
 90
        2
 70
     0
 43
0.0
 10
0.3663557328378948
 20
3.511972047585156
 10
0.347552686588533
 20
3.48486756842215
  0
LWPOLYLINE
  5
1AE
330
18
100
AcDbEntity
  8
ADP1DETAIL
100
AcDbPolyline
 90
        2
 70
     0
 43
0.0
 10
0.4729900796257392
 20
4.076194010205123
 10
0.4770103040389211
 20
4.043451909865939
  0
LWPOLYLINE
  5
1B2
330
18
100
AcDbEntity
  8
ADP1DETAIL
100
AcDbPolyline
 90
        2
 70
     0
 43
0.0
 10
0.4729900796257356
 20
4.07619401020512
 10
0.4770103040389211
 20
4.043451909865936
  0
LWPOLYLINE
  5
1B6
330
18
100
AcDbEntity
  8
ADP1DETAIL
100
AcDbPolyline
 90
        2
 70
     0
 43
0.0
 10
0.4729900796257356
 20
4.07619401020512
 10
0.4770103040389193
 20
4.043451909865935
  0
LWPOLYLINE
  5
1BA
330
18
100
AcDbEntity
  8
ADP1DETAIL
100
AcDbPolyline
 90
        2
 70
     0
 43
0.0
 10
0.4777450598314692
 20
4.041799829834697
 10
0.4450208126559927
 20
4.03763677978074
  0
LWPOLYLINE
  5
1BE
330
18
100
AcDbEntity
  8
ADP1DETAIL
100
AcDbPolyline
 90
        2
 70
     0
 43
0.0
 10
0.4777450598314675
 20
4.041799829834694
 10
0.445020812655991
 20
4.037636779780736
  0
LWPOLYLINE
  5
1C2
330
18
100
AcDbEntity
  8
ADP1DETAIL
100
AcDbPolyline
 90
        2
 70
     0
 43
0.0
 10
0.4447107279171006
 20
4.037208020771891
 10
0.4510051327283078
 20
4.004826115222243
  0
LWPOLYLINE
  5
1C6
330
18
100
AcDbEntity
  8
ADP1DETAIL
100
AcDbPolyline
 90
        2
 70
     0
 43
0.0
 10
0.4447107279170988
 20
4.037208020771887
 10
0.451005132728306
 20
4.004826115222241
  0
LWPOLYLINE
  5
1CA
330
18
100
AcDbEntity
  8
ADP1DETAIL
100
AcDbPolyline
 90
        2
 70
     0
 43
0.0
 10
0.4447107279170988
 20
4.037208020771887
 10
0.451005132728306
 20
4.00482611522224
  0
LWPOLYLINE
  5
1CE
330
18
100
AcDbEntity
  8
ADP1DETAIL
100
AcDbPolyline
 90
        2
 70
     0
 43
0.0
 10
0.419219788436199
 20
3.996344331394519
 10
0.4277577079379009
 20
3.96448038202323
  0
LWPOLYLINE
  5
1D2
330
18
100
AcDbEntity
  8
ADP1DETAIL
100
AcDbPolyline
 90
        2
 70
     0
 43
0.0
 10
0.4192197884362008
 20
3.996344331394518
 10
0.4277577079379009
 20
3.964480382023231
  0
LWPOLYLINE
  5
1D6
330
18
100
AcDbEntity
  8
ADP1DETAIL
100
AcDbPolyline
 90
        2
 70
     0
 43
0.0
 10
0.4192197884362008
 20
3.996344331394523
 10
0.4277577079379027
 20
3.964480382023233
  0
LWPOLYLINE
  5
1DA
330
18
100
AcDbEntity
  8
ADP1DETAIL
100
AcDbPolyline
 90
        2
 70
     0
 43
0.0
 10
0.419219788436199
 20
3.996344331394523
 10
0.4277577079378992
 20
3.964480382023235
  0
LWPOLYLINE
  5
1DE
330
18
100
AcDbEntity
  8
ADP1DETAIL
100
AcDbPolyline
 90
        2
 70
     0
 43
0.0
 10
0.4192197884361973
 20
3.99634433139452
 10
0.4277577079378992
 20
3.964480382023232
  0
LWPOLYLINE
  5
1E2
330
18
100
AcDbEntity
  8
ADP1DETAIL
100
AcDbPolyline
 90
        2
 70
     0
 43
0.0
 10
0.4192197884361973
 20
3.996344331394521
 10
0.4277577079378974
 20
3.964480382023231
  0
LWPOLYLINE
  5
1E6
330
18
100
AcDbEntity
  8
ADP1DETAIL
100
AcDbPolyline
 90
        2
 70
     0
 43
0.0
 10
0.451853341969998
 20
4.003229313548072
 10
0.4194992091077099
 20
3.996793676385919
  0
LWPOLYLINE
  5
1EA
330
18
100
AcDbEntity
  8
ADP1DETAIL
100
AcDbPolyline
 90
        2
 70
     0
 43
0.0
 10
0.4518533419699997
 20
4.003229313548075
 10
0.4194992091077117
 20
3.996793676385922
  0
LWPOLYLINE
  5
1EE
330
18
100
AcDbEntity
  8
ADP1DETAIL
100
AcDbPolyline
 90
        2
 70
     0
 43
0.0
 10
0.4518533419699962
 20
4.003229313548078
 10
0.4194992091077099
 20
3.996793676385924
  0
LWPOLYLINE
  5
1F2
330
18
100
AcDbEntity
  8
ADP1DETAIL
100
AcDbPolyline
 90
        2
 70
     0
 43
0.0
 10
0.4518533419699944
 20
4.003229313548074
 10
0.4194992091077064
 20
3.996793676385921
  0
LWPOLYLINE
  5
1F6
330
18
100
AcDbEntity
  8
ADP1DETAIL
100
AcDbPolyline
 90
        2
 70
     0
 43
0.0
 10
0.4453021912987856
 20
3.26550245147596
 10
0.4776840968484324
 20
3.259208046664749
  0
LWPOLYLINE
  5
1FA
330
18
100
AcDbEntity
  8
ADP1DETAIL
100
AcDbPolyline
 90
        2
 70
     0
 43
0.0
 10
0.453419618616711
 20
3.297851472623999
 10
0.4450208126559874
 20
3.26595057299111
  0
LWPOLYLINE
  5
1FE
330
18
100
AcDbEntity
  8
ADP1DETAIL
100
AcDbPolyline
 90
        2
 70
     0
 43
0.0
 10
0.4453021912987892
 20
3.265502451475958
 10
0.4776840968484324
 20
3.259208046664748
  0
LWPOLYLINE
  5
202
330
18
100
AcDbEntity
  8
ADP1DETAIL
100
AcDbPolyline
 90
        2
 70
     0
 43
0.0
 10
0.4453021912987874
 20
3.265502451475957
 10
0.4776840968484342
 20
3.259208046664746
  0
LWPOLYLINE
  5
206
330
18
100
AcDbEntity
  8
ADP1DETAIL
100
AcDbPolyline
 90
        2
 70
     0
 43
0.0
 10
0.4534196186167128
 20
3.297851472623995
 10
0.4450208126559892
 20
3.265950572991108
  0
LWPOLYLINE
  5
20A
330
18
100
AcDbEntity
  8
ADP1DETAIL
100
AcDbPolyline
 90
        2
 70
     0
 43
0.0
 10
0.4736412703255999
 20
3.226559856479468
 10
0.5063833706647847
 20
3.22253963206628
  0
LWPOLYLINE
  5
20E
330
18
100
AcDbEntity
  8
ADP1DETAIL
100
AcDbPolyline
 90
        2
 70
     0
 43
0.0
 10
0.4794823703541989
 20
3.259396320143418
 10
0.473329317730328
 20
3.226987258411221
  0
LWPOLYLINE
  5
212
330
18
100
AcDbEntity
  8
ADP1DETAIL
100
AcDbPolyline
 90
        2
 70
     0
 43
0.0
 10
0.4736412703256035
 20
3.226559856479466
 10
0.5063833706647865
 20
3.22253963206628
  0
LWPOLYLINE
  5
216
330
18
100
AcDbEntity
  8
ADP1DETAIL
100
AcDbPolyline
 90
        2
 70
     0
 43
0.0
 10
0.4736412703256017
 20
3.226559856479465
 10
0.5063833706647865
 20
3.222539632066278
  0
LWPOLYLINE
  5
21A
330
18
100
AcDbEntity
  8
ADP1DETAIL
100
AcDbPolyline
 90
        2
 70
     0
 43
0.0
 10
0.4794823703542006
 20
3.259396320143415
 10
0.4733293177303298
 20
3.226987258411218
  0
LWPOLYLINE
  5
21E
330
18
100
AcDbEntity
  8
ADP1DETAIL
100
AcDbPolyline
 90
        2
 70
     0
 43
0.0
 10
0.5081641303726992
 20
3.222852888138809
 10
0.5042868081395638
 20
3.190093557998316
  0
LWPOLYLINE
  5
222
330
18
100
AcDbEntity
  8
ADP1DETAIL
100
AcDbPolyline
 90
        2
 70
     0
 43
0.0
 10
0.508164130372701
 20
3.222852888138805
 10
0.5042868081395655
 20
3.190093557998313
  0
LWPOLYLINE
  5
226
330
18
100
AcDbEntity
  8
ADP1DETAIL
100
AcDbPolyline
 90
        2
 70
     0
 43
0.0
 10
0.5728136578739252
 20
3.15620314818393
 10
0.5735332870352563
 20
3.123223010633828
  0
LWPOLYLINE
  5
22A
330
18
100
AcDbEntity
  8
ADP1DETAIL
100
AcDbPolyline
 90
        2
 70
     0
 43
0.0
 10
0.5728136578739216
 20
3.156203148183932
 10
0.5735332870352546
 20
3.123223010633831
  0
LWPOLYLINE
  5
22E
330
18
100
AcDbEntity
  8
ADP1DETAIL
100
AcDbPolyline
 90
        2
 70
     0
 43
0.0
 10
0.573927284576155
 20
3.122869807051273
 10
0.6067897431211256
 20
3.125744899629546
  0
LWPOLYLINE
  5
232
330
18
100
AcDbEntity
  8
ADP1DETAIL
100
AcDbPolyline
 90
        2
 70
     0
 43
0.0
 10
0.573927284576155
 20
3.122869807051273
 10
0.6067897431211256
 20
3.125744899629548
  0
LWPOLYLINE
  5
236
330
18
100
AcDbEntity
  8
ADP1DETAIL
100
AcDbPolyline
 90
        2
 70
     0
 43
0.0
 10
0.5739272845761514
 20
3.122869807051275
 10
0.606789743121122
 20
3.125744899629549
  0
LWPOLYLINE
  5
23A
330
18
100
AcDbEntity
  8
ADP1DETAIL
100
AcDbPolyline
 90
        2
 70
     0
 43
0.0
 10
0.5381108616485184
 20
3.155069387076757
 10
0.5710938252160842
 20
3.155645106847352
  0
LWPOLYLINE
  5
23E
330
18
100
AcDbEntity
  8
ADP1DETAIL
100
AcDbPolyline
 90
        2
 70
     0
 43
0.0
 10
0.5381108616485184
 20
3.155069387076757
 10
0.5710938252160825
 20
3.155645106847353
  0
LWPOLYLINE
  5
242
330
18
100
AcDbEntity
  8
ADP1DETAIL
100
AcDbPolyline
 90
        2
 70
     0
 43
0.0
 10
0.5381108616485149
 20
3.15506938707676
 10
0.5710938252160807
 20
3.155645106847354
  0
LWPOLYLINE
  5
246
330
18
100
AcDbEntity
  8
ADP1DETAIL
100
AcDbPolyline
 90
        2
 70
     0
 43
0.0
 10
0.6084664593572109
 20
3.126421551067113
 10
0.6114849136371659
 20
3.093571950267206
  0
LWPOLYLINE
  5
24A
330
18
100
AcDbEntity
  8
ADP1DETAIL
100
AcDbPolyline
 90
        2
 70
     0
 43
0.0
 10
0.6084664593572074
 20
3.126421551067115
 10
0.6114849136371623
 20
3.093571950267208
  0
LWPOLYLINE
  5
24E
330
18
100
AcDbEntity
  8
ADP1DETAIL
100
AcDbPolyline
 90
        2
 70
     0
 43
0.0
 10
0.5739272845761532
 20
3.122869807051271
 10
0.6067897431211256
 20
3.125744899629546
  0
LWPOLYLINE
  5
252
330
18
100
AcDbEntity
  8
ADP1DETAIL
100
AcDbPolyline
 90
        2
 70
     0
 43
0.0
 10
0.5728136578739252
 20
3.156203148183929
 10
0.5735332870352563
 20
3.123223010633828
  0
LWPOLYLINE
  5
256
330
18
100
AcDbEntity
  8
ADP1DETAIL
100
AcDbPolyline
 90
        2
 70
     0
 43
0.0
 10
0.5739272845761568
 20
3.12286980705127
 10
0.6067897431211274
 20
3.125744899629545
  0
LWPOLYLINE
  5
25A
330
18
100
AcDbEntity
  8
ADP1DETAIL
100
AcDbPolyline
 90
        2
 70
     0
 43
0.0
 10
0.5739272845761568
 20
3.122869807051269
 10
0.6067897431211274
 20
3.125744899629544
  0
LWPOLYLINE
  5
25E
330
18
100
AcDbEntity
  8
ADP1DETAIL
100
AcDbPolyline
 90
        2
 70
     0
 43
0.0
 10
0.5728136578739269
 20
3.156203148183927
 10
0.5735332870352599
 20
3.123223010633826
  0
ARC
  5
262
330
18
100
AcDbEntity
  8
ADP1DETAIL
100
AcDbCircle
 10
0.6429141698141079
 20
3.139160561054953
 30
0.0
 40
0.0553725525634547
100
AcDbArc
 50
235.4172217632739
 51
329.4218032972297
  0
LWPOLYLINE
  5
263
330
18
100
AcDbEntity
  8
ADP1DETAIL
100
AcDbPolyline
 90
        2
 70
     0
 43
0.0
 10
0.5393251640204851
 20
3.188399212537559
 10
0.5377424621022576
 20
3.155449214152256
  0
LWPOLYLINE
  5
267
330
18
100
AcDbEntity
  8
ADP1DETAIL
100
AcDbPolyline
 90
        2
 70
     0
 43
0.0
 10
0.5393251640204886
 20
3.188399212537556
 10
0.5377424621022593
 20
3.155449214152254
  0
ARC
  5
26B
330
18
100
AcDbEntity
  8
ADP1DETAIL
100
AcDbCircle
 10
0.6458435477082736
 20
3.150747431113765
 30
0.0
 40
0.06
100
AcDbArc
 50
318.4050461680787
 51
52.51554121954949
  0
LWPOLYLINE
  5
26C
330
18
100
AcDbEntity
  8
ADP1DETAIL
100
AcDbPolyline
 90
        2
 70
     0
 43
0.0
 10
0.5046278148856241
 20
3.189688957909208
 10
0.537570593792716
 20
3.187962500023273
  0
LWPOLYLINE
  5
270
330
18
100
AcDbEntity
  8
ADP1DETAIL
100
AcDbPolyline
 90
        2
 70
     0
 43
0.0
 10
0.5046278148856258
 20
3.189688957909205
 10
0.5375705937927196
 20
3.187962500023272
  0
LWPOLYLINE
  5
274
330
18
100
AcDbEntity
  8
ADP1DETAIL
100
AcDbPolyline
 90
        2
 70
     0
 43
0.0
 10
0.5046278148856258
 20
3.189688957909205
 10
0.5375705937927196
 20
3.18796250002327
  0
LWPOLYLINE
  5
278
330
18
100
AcDbEntity
  8
ADP1DETAIL
100
AcDbPolyline
 90
        2
 70
     0
 43
0.0
 10
0.4301028502668851
 20
3.338030995943158
 10
0.4194992091077064
 20
3.306793676385924
  0
LWPOLYLINE
  5
27C
330
18
100
AcDbEntity
  8
ADP1DETAIL
100
AcDbPolyline
 90
        2
 70
     0
 43
0.0
 10
0.4301028502668834
 20
3.338030995943161
 10
0.4194992091077046
 20
3.306793676385927
  0
LWPOLYLINE
  5
280
330
18
100
AcDbEntity
  8
ADP1DETAIL
100
AcDbPolyline
 90
        2
 70
     0
 43
0.0
 10
0.4301028502668869
 20
3.338030995943159
 10
0.4194992091077064
 20
3.306793676385924
  0
LWPOLYLINE
  5
284
330
18
100
AcDbEntity
  8
ADP1DETAIL
100
AcDbPolyline
 90
        2
 70
     0
 43
0.0
 10
0.4301028502668887
 20
3.338030995943156
 10
0.4194992091077081
 20
3.306793676385921
  0
LWPOLYLINE
  5
288
330
18
100
AcDbEntity
  8
ADP1DETAIL
100
AcDbPolyline
 90
        2
 70
     0
 43
0.0
 10
0.419748642949565
 20
3.306327018490352
 10
0.4516125923208536
 20
3.297789098988648
  0
LWPOLYLINE
  5
28C
330
18
100
AcDbEntity
  8
ADP1DETAIL
100
AcDbPolyline
 90
        2
 70
     0
 43
0.0
 10
0.4197486429495667
 20
3.306327018490353
 10
0.4516125923208536
 20
3.29778909898865
  0
LWPOLYLINE
  5
290
330
18
100
AcDbEntity
  8
ADP1DETAIL
100
AcDbPolyline
 90
        2
 70
     0
 43
0.0
 10
0.419748642949565
 20
3.306327018490357
 10
0.4516125923208519
 20
3.297789098988651
  0
LWPOLYLINE
  5
294
330
18
100
AcDbEntity
  8
ADP1DETAIL
100
AcDbPolyline
 90
        2
 70
     0
 43
0.0
 10
0.4197486429495685
 20
3.306327018490354
 10
0.4516125923208554
 20
3.297789098988649
  0
LWPOLYLINE
  5
298
330
18
100
AcDbEntity
  8
ADP1DETAIL
100
AcDbPolyline
 90
        2
 70
     0
 43
0.0
 10
0.4197486429495703
 20
3.306327018490351
 10
0.4516125923208572
 20
3.297789098988648
  0
LWPOLYLINE
  5
29C
330
18
100
AcDbEntity
  8
ADP1DETAIL
100
AcDbPolyline
 90
        2
 70
     0
 43
0.0
 10
0.4197486429495703
 20
3.306327018490351
 10
0.4516125923208572
 20
3.297789098988646
  0
LWPOLYLINE
  5
2A0
330
18
100
AcDbEntity
  8
ADP1DETAIL
100
AcDbPolyline
 90
        2
 70
     0
 43
0.0
 10
0.7663662699335463
 20
4.268329299845966
 10
0.7364084539966714
 20
4.282140042159316
  0
LWPOLYLINE
  5
2A4
330
18
100
AcDbEntity
  8
ADP1DETAIL
100
AcDbPolyline
 90
        2
 70
     0
 43
0.0
 10
0.7663662699335428
 20
4.268329299845964
 10
0.7364084539966678
 20
4.282140042159315
  0
LWPOLYLINE
  5
2A8
330
18
100
AcDbEntity
  8
ADP1DETAIL
100
AcDbPolyline
 90
        2
 70
     0
 43
0.0
 10
0.7359182795657029
 20
4.281940753774835
 10
0.724096442018948
 20
4.251143814057201
  0
LWPOLYLINE
  5
2AC
330
18
100
AcDbEntity
  8
ADP1DETAIL
100
AcDbPolyline
 90
        2
 70
     0
 43
0.0
 10
0.7359182795657011
 20
4.281940753774833
 10
0.7240964420189462
 20
4.251143814057199
  0
LWPOLYLINE
  5
2B0
330
18
100
AcDbEntity
  8
ADP1DETAIL
100
AcDbPolyline
 90
        2
 70
     0
 43
0.0
 10
0.7359182795656994
 20
4.281940753774835
 10
0.7240964420189444
 20
4.251143814057198
  0
LWPOLYLINE
  5
2B4
330
18
100
AcDbEntity
  8
ADP1DETAIL
100
AcDbPolyline
 90
        2
 70
     0
 43
0.0
 10
0.7239695882832029
 20
4.249340167020212
 10
0.6931213593967085
 20
4.261027515458581
  0
LWPOLYLINE
  5
2B8
330
18
100
AcDbEntity
  8
ADP1DETAIL
100
AcDbPolyline
 90
        2
 70
     0
 43
0.0
 10
0.7239695882832012
 20
4.249340167020211
 10
0.693121359396705
 20
4.261027515458579
  0
LWPOLYLINE
  5
2BC
330
18
100
AcDbEntity
  8
ADP1DETAIL
100
AcDbPolyline
 90
        2
 70
     0
 43
0.0
 10
0.6509547768934168
 20
4.236681294714665
 10
0.6435340942575972
 20
4.204538786906903
  0
LWPOLYLINE
  5
2C0
330
18
100
AcDbEntity
  8
ADP1DETAIL
100
AcDbPolyline
 90
        2
 70
     0
 43
0.0
 10
0.6830007977638966
 20
4.227439847757253
 10
0.6514124453980648
 20
4.236946862733856
  0
LWPOLYLINE
  5
2C4
330
18
100
AcDbEntity
  8
ADP1DETAIL
100
AcDbPolyline
 90
        2
 70
     0
 43
0.0
 10
0.6509547768934132
 20
4.236681294714662
 10
0.6435340942575954
 20
4.204538786906901
  0
LWPOLYLINE
  5
2C8
330
18
100
AcDbEntity
  8
ADP1DETAIL
100
AcDbPolyline
 90
        2
 70
     0
 43
0.0
 10
0.6509547768934132
 20
4.236681294714664
 10
0.6435340942575936
 20
4.204538786906901
  0
LWPOLYLINE
  5
2CC
330
18
100
AcDbEntity
  8
ADP1DETAIL
100
AcDbPolyline
 90
        2
 70
     0
 43
0.0
 10
0.683000797763893
 20
4.227439847757251
 10
0.6514124453980612
 20
4.236946862733855
  0
LWPOLYLINE
  5
2D0
330
18
100
AcDbEntity
  8
ADP1DETAIL
100
AcDbPolyline
 90
        2
 70
     0
 43
0.0
 10
0.6061373444824687
 20
4.17534609773061
 10
0.5735332870352581
 20
4.180364342138016
  0
LWPOLYLINE
  5
2D4
330
18
100
AcDbEntity
  8
ADP1DETAIL
100
AcDbPolyline
 90
        2
 70
     0
 43
0.0
 10
0.5731170324537827
 20
4.180037663463529
 10
0.5702419398755057
 20
4.147175204918557
  0
LWPOLYLINE
  5
2D8
330
18
100
AcDbEntity
  8
ADP1DETAIL
100
AcDbPolyline
 90
        2
 70
     0
 43
0.0
 10
0.5731170324537845
 20
4.180037663463528
 10
0.5702419398755075
 20
4.147175204918559
  0
LWPOLYLINE
  5
2DC
330
18
100
AcDbEntity
  8
ADP1DETAIL
100
AcDbPolyline
 90
        2
 70
     0
 43
0.0
 10
0.6061373444824705
 20
4.175346097730612
 10
0.5735332870352617
 20
4.180364342138018
  0
LWPOLYLINE
  5
2E0
330
18
100
AcDbEntity
  8
ADP1DETAIL
100
AcDbPolyline
 90
        2
 70
     0
 43
0.0
 10
0.5731170324537862
 20
4.18003766346353
 10
0.5702419398755092
 20
4.14717520491856
  0
LWPOLYLINE
  5
2E4
330
18
100
AcDbEntity
  8
ADP1DETAIL
100
AcDbPolyline
 90
        2
 70
     0
 43
0.0
 10
0.5373500094484074
 20
4.147783219266154
 10
0.5367742896778092
 20
4.114800255698589
  0
LWPOLYLINE
  5
2E8
330
18
100
AcDbEntity
  8
ADP1DETAIL
100
AcDbPolyline
 90
        2
 70
     0
 43
0.0
 10
0.5706171527384543
 20
4.145406462480615
 10
0.5377424621022647
 20
4.148138138619592
  0
LWPOLYLINE
  5
2EC
330
18
100
AcDbEntity
  8
ADP1DETAIL
100
AcDbPolyline
 90
        2
 70
     0
 43
0.0
 10
0.5373500094484056
 20
4.14778321926615
 10
0.5367742896778092
 20
4.114800255698587
  0
LWPOLYLINE
  5
2F0
330
18
100
AcDbEntity
  8
ADP1DETAIL
100
AcDbPolyline
 90
        2
 70
     0
 43
0.0
 10
0.5373500094484056
 20
4.147783219266152
 10
0.5367742896778074
 20
4.114800255698586
  0
LWPOLYLINE
  5
2F4
330
18
100
AcDbEntity
  8
ADP1DETAIL
100
AcDbPolyline
 90
        2
 70
     0
 43
0.0
 10
0.5706171527384507
 20
4.145406462480612
 10
0.5377424621022611
 20
4.148138138619589
  0
LWPOLYLINE
  5
2F8
330
18
100
AcDbEntity
  8
ADP1DETAIL
100
AcDbPolyline
 90
        2
 70
     0
 43
0.0
 10
0.5039200694032138
 20
4.113112363872559
 10
0.5056465272891453
 20
4.080169584965466
  0
LWPOLYLINE
  5
2FC
330
18
100
AcDbEntity
  8
ADP1DETAIL
100
AcDbPolyline
 90
        2
 70
     0
 43
0.0
 10
0.5372719697765112
 20
4.113061995354548
 10
0.5042868081395691
 20
4.113493794773535
  0
LWPOLYLINE
  5
300
330
18
100
AcDbEntity
  8
ADP1DETAIL
100
AcDbPolyline
 90
        2
 70
     0
 43
0.0
 10
0.503920069403212
 20
4.113112363872556
 10
0.5056465272891453
 20
4.080169584965463
  0
LWPOLYLINE
  5
304
330
18
100
AcDbEntity
  8
ADP1DETAIL
100
AcDbPolyline
 90
        2
 70
     0
 43
0.0
 10
0.503920069403212
 20
4.113112363872557
 10
0.5056465272891435
 20
4.080169584965462
  0
LWPOLYLINE
  5
308
330
18
100
AcDbEntity
  8
ADP1DETAIL
100
AcDbPolyline
 90
        2
 70
     0
 43
0.0
 10
0.5372719697765094
 20
4.113061995354545
 10
0.5042868081395673
 20
4.113493794773533
  0
LWPOLYLINE
  5
30C
330
18
100
AcDbEntity
  8
ADP1DETAIL
100
AcDbPolyline
 90
        2
 70
     0
 43
0.0
 10
0.5062642499761916
 20
4.078470275344996
 10
0.4733293177303351
 20
4.076600094360628
  0
LWPOLYLINE
  5
310
330
18
100
AcDbEntity
  8
ADP1DETAIL
100
AcDbPolyline
 90
        2
 70
     0
 43
0.0
 10
0.5062642499761881
 20
4.078470275344994
 10
0.4733293177303333
 20
4.076600094360626
  0
LWPOLYLINE
  5
314
330
18
100
AcDbEntity
  8
ADP1DETAIL
100
AcDbPolyline
 90
        2
 70
     0
 43
0.0
 10
0.6110468850785536
 20
4.209718556054765
 10
0.6058864268546343
 20
4.177136705127097
  0
LWPOLYLINE
  5
318
330
18
100
AcDbEntity
  8
ADP1DETAIL
100
AcDbPolyline
 90
        2
 70
     0
 43
0.0
 10
0.6436594942048624
 20
4.202735038211121
 10
0.6114849136371677
 20
4.210015402504636
  0
LWPOLYLINE
  5
31C
330
18
100
AcDbEntity
  8
ADP1DETAIL
100
AcDbPolyline
 90
        2
 70
     0
 43
0.0
 10
0.61104688507855
 20
4.209718556054761
 10
0.6058864268546325
 20
4.177136705127095
  0
LWPOLYLINE
  5
320
330
18
100
AcDbEntity
  8
ADP1DETAIL
100
AcDbPolyline
 90
        2
 70
     0
 43
0.0
 10
0.61104688507855
 20
4.209718556054762
 10
0.6058864268546307
 20
4.177136705127094
  0
LWPOLYLINE
  5
324
330
18
100
AcDbEntity
  8
ADP1DETAIL
100
AcDbPolyline
 90
        2
 70
     0
 43
0.0
 10
0.6436594942048606
 20
4.20273503821112
 10
0.6114849136371641
 20
4.210015402504634
  0
LWPOLYLINE
  5
328
330
18
100
AcDbEntity
  8
ADP1DETAIL
100
AcDbPolyline
 90
        2
 70
     0
 43
0.0
 10
0.5731170324537862
 20
4.180037663463529
 10
0.5702419398755092
 20
4.147175204918559
  0
LWPOLYLINE
  5
32C
330
18
100
AcDbEntity
  8
ADP1DETAIL
100
AcDbPolyline
 90
        2
 70
     0
 43
0.0
 10
0.5731170324537845
 20
4.180037663463527
 10
0.5702419398755075
 20
4.147175204918557
  0
LWPOLYLINE
  5
330
330
18
100
AcDbEntity
  8
ADP1DETAIL
100
AcDbPolyline
 90
        2
 70
     0
 43
0.0
 10
0.5731170324537845
 20
4.180037663463528
 10
0.5702419398755057
 20
4.147175204918556
  0
LWPOLYLINE
  5
334
330
18
100
AcDbEntity
  8
ADP1DETAIL
100
AcDbPolyline
 90
        2
 70
     0
 43
0.0
 10
0.6061373444824723
 20
4.175346097730611
 10
0.5735332870352617
 20
4.180364342138018
  0
LWPOLYLINE
  5
338
330
18
100
AcDbEntity
  8
ADP1DETAIL
100
AcDbPolyline
 90
        2
 70
     0
 43
0.0
 10
0.6061373444824687
 20
4.175346097730609
 10
0.5735332870352581
 20
4.180364342138014
  0
LWPOLYLINE
  5
33C
330
18
100
AcDbEntity
  8
ADP1DETAIL
100
AcDbPolyline
 90
        2
 70
     0
 43
0.0
 10
0.6926462806609779
 20
4.260794519690765
 10
0.6830015264331353
 20
4.229247950069995
  0
LWPOLYLINE
  5
340
330
18
100
AcDbEntity
  8
ADP1DETAIL
100
AcDbPolyline
 90
        2
 70
     0
 43
0.0
 10
0.6926462806609761
 20
4.260794519690763
 10
0.6830015264331335
 20
4.229247950069994
  0
LWPOLYLINE
  5
344
330
18
100
AcDbEntity
  8
ADP1DETAIL
100
AcDbPolyline
 90
        2
 70
     0
 43
0.0
 10
0.6926462806609761
 20
4.260794519690763
 10
0.6830015264331318
 20
4.229247950069993
  0
LWPOLYLINE
  5
348
330
18
100
AcDbEntity
  8
ADP1DETAIL
100
AcDbPolyline
 90
        2
 70
     0
 43
0.0
 10
1.112564879134381
 20
4.335169390556362
 10
1.086219500673981
 20
4.315316723916038
  0
LWPOLYLINE
  5
34C
330
18
100
AcDbEntity
  8
ADP1DETAIL
100
AcDbPolyline
 90
        2
 70
     0
 43
0.0
 10
1.112564879134377
 20
4.335169390556361
 10
1.086219500673979
 20
4.315316723916039
  0
LWPOLYLINE
  5
350
330
18
100
AcDbEntity
  8
ADP1DETAIL
100
AcDbPolyline
 90
        2
 70
     0
 43
0.0
 10
1.112564879134379
 20
4.335169390556363
 10
1.086219500673977
 20
4.315316723916039
  0
LWPOLYLINE
  5
354
330
18
100
AcDbEntity
  8
ADP1DETAIL
100
AcDbPolyline
 90
        2
 70
     0
 43
0.0
 10
1.064662346039212
 20
4.34016703282198
 10
1.039765995615872
 20
4.318524965578951
  0
LWPOLYLINE
  5
358
330
18
100
AcDbEntity
  8
ADP1DETAIL
100
AcDbPolyline
 90
        2
 70
     0
 43
0.0
 10
1.085156135294114
 20
4.313854366718494
 10
1.065188704602422
 20
4.340112871065199
  0
LWPOLYLINE
  5
35C
330
18
100
AcDbEntity
  8
ADP1DETAIL
100
AcDbPolyline
 90
        2
 70
     0
 43
0.0
 10
1.064662346039209
 20
4.34016703282198
 10
1.03976599561587
 20
4.31852496557895
  0
LWPOLYLINE
  5
360
330
18
100
AcDbEntity
  8
ADP1DETAIL
100
AcDbPolyline
 90
        2
 70
     0
 43
0.0
 10
1.064662346039209
 20
4.340167032821982
 10
1.039765995615868
 20
4.31852496557895
  0
LWPOLYLINE
  5
364
330
18
100
AcDbEntity
  8
ADP1DETAIL
100
AcDbPolyline
 90
        2
 70
     0
 43
0.0
 10
1.085156135294112
 20
4.313854366718495
 10
1.065188704602419
 20
4.340112871065199
  0
LWPOLYLINE
  5
368
330
18
100
AcDbEntity
  8
ADP1DETAIL
100
AcDbPolyline
 90
        2
 70
     0
 43
0.0
 10
1.016527883205605
 20
4.34181098929009
 10
0.9932018533360187
 20
4.318484959420507
  0
LWPOLYLINE
  5
36C
330
18
100
AcDbEntity
  8
ADP1DETAIL
100
AcDbPolyline
 90
        2
 70
     0
 43
0.0
 10
1.016527883205601
 20
4.341810989290091
 10
0.9932018533360169
 20
4.318484959420507
  0
LWPOLYLINE
  5
370
330
18
100
AcDbEntity
  8
ADP1DETAIL
100
AcDbPolyline
 90
        2
 70
     0
 43
0.0
 10
1.016527883205601
 20
4.341810989290091
 10
0.9932018533360151
 20
4.318484959420507
  0
LWPOLYLINE
  5
374
330
18
100
AcDbEntity
  8
ADP1DETAIL
100
AcDbPolyline
 90
        2
 70
     0
 43
0.0
 10
1.038807229422084
 20
4.316991993990838
 10
1.017056737718976
 20
4.34179367638592
  0
LWPOLYLINE
  5
378
330
18
100
AcDbEntity
  8
ADP1DETAIL
100
AcDbPolyline
 90
        2
 70
     0
 43
0.0
 10
1.03880722942208
 20
4.316991993990839
 10
1.017056737718973
 20
4.34179367638592
  0
LWPOLYLINE
  5
37C
330
18
100
AcDbEntity
  8
ADP1DETAIL
100
AcDbPolyline
 90
        2
 70
     0
 43
0.0
 10
0.8546111469024557
 20
4.297218587322905
 10
0.8268669622052415
 20
4.315064246583361
  0
LWPOLYLINE
  5
380
330
18
100
AcDbEntity
  8
ADP1DETAIL
100
AcDbPolyline
 90
        2
 70
     0
 43
0.0
 10
0.8263538225356876
 20
4.314935116755307
 10
0.8103609286987003
 20
4.286083172528401
  0
LWPOLYLINE
  5
384
330
18
100
AcDbEntity
  8
ADP1DETAIL
100
AcDbPolyline
 90
        2
 70
     0
 43
0.0
 10
0.8263538225356876
 20
4.314935116755307
 10
0.8103609286987021
 20
4.286083172528402
  0
LWPOLYLINE
  5
388
330
18
100
AcDbEntity
  8
ADP1DETAIL
100
AcDbPolyline
 90
        2
 70
     0
 43
0.0
 10
0.8546111469024593
 20
4.297218587322907
 10
0.8268669622052451
 20
4.315064246583362
  0
LWPOLYLINE
  5
38C
330
18
100
AcDbEntity
  8
ADP1DETAIL
100
AcDbPolyline
 90
        2
 70
     0
 43
0.0
 10
0.8263538225356912
 20
4.314935116755309
 10
0.8103609286987039
 20
4.286083172528403
  0
LWPOLYLINE
  5
390
330
18
100
AcDbEntity
  8
ADP1DETAIL
100
AcDbPolyline
 90
        2
 70
     0
 43
0.0
 10
0.9000294220507791
 20
4.306977996269447
 10
0.8735976710547186
 20
4.326715520892246
  0
LWPOLYLINE
  5
394
330
18
100
AcDbEntity
  8
ADP1DETAIL
100
AcDbPolyline
 90
        2
 70
     0
 43
0.0
 10
0.8730767737261482
 20
4.326622500431851
 10
0.8551102278848174
 20
4.29895644597002
  0
LWPOLYLINE
  5
398
330
18
100
AcDbEntity
  8
ADP1DETAIL
100
AcDbPolyline
 90
        2
 70
     0
 43
0.0
 10
0.8730767737261482
 20
4.326622500431851
 10
0.8551102278848192
 20
4.29895644597002
  0
LWPOLYLINE
  5
39C
330
18
100
AcDbEntity
  8
ADP1DETAIL
100
AcDbPolyline
 90
        2
 70
     0
 43
0.0
 10
0.9000294220507827
 20
4.306977996269447
 10
0.8735976710547221
 20
4.326715520892246
  0
LWPOLYLINE
  5
3A0
330
18
100
AcDbEntity
  8
ADP1DETAIL
100
AcDbPolyline
 90
        2
 70
     0
 43
0.0
 10
0.8730767737261517
 20
4.326622500431851
 10
0.855110227884821
 20
4.298956445970022
  0
LWPOLYLINE
  5
3A4
330
18
100
AcDbEntity
  8
ADP1DETAIL
100
AcDbPolyline
 90
        2
 70
     0
 43
0.0
 10
0.9460178425174907
 20
4.313545413068412
 10
0.9210272980565248
 20
4.335078643817604
  0
LWPOLYLINE
  5
3A8
330
18
100
AcDbEntity
  8
ADP1DETAIL
100
AcDbPolyline
 90
        2
 70
     0
 43
0.0
 10
0.9205011808283645
 20
4.335022185911199
 10
0.9006485141880373
 20
4.308676807450799
  0
LWPOLYLINE
  5
3AC
330
18
100
AcDbEntity
  8
ADP1DETAIL
100
AcDbPolyline
 90
        2
 70
     0
 43
0.0
 10
0.9205011808283645
 20
4.335022185911197
 10
0.9006485141880391
 20
4.308676807450799
  0
LWPOLYLINE
  5
3B0
330
18
100
AcDbEntity
  8
ADP1DETAIL
100
AcDbPolyline
 90
        2
 70
     0
 43
0.0
 10
0.9460178425174943
 20
4.313545413068413
 10
0.9210272980565283
 20
4.335078643817604
  0
LWPOLYLINE
  5
3B4
330
18
100
AcDbEntity
  8
ADP1DETAIL
100
AcDbPolyline
 90
        2
 70
     0
 43
0.0
 10
0.920501180828368
 20
4.335022185911199
 10
0.9006485141880409
 20
4.308676807450801
  0
LWPOLYLINE
  5
3B8
330
18
100
AcDbEntity
  8
ADP1DETAIL
100
AcDbPolyline
 90
        2
 70
     0
 43
0.0
 10
0.9923523573408212
 20
4.316888841925313
 10
0.9689247708355237
 20
4.340112871065199
  0
LWPOLYLINE
  5
3BC
330
18
100
AcDbEntity
  8
ADP1DETAIL
100
AcDbPolyline
 90
        2
 70
     0
 43
0.0
 10
0.968395996898022
 20
4.34009325077003
 10
0.9467539296549878
 20
4.315196900346692
  0
LWPOLYLINE
  5
3C0
330
18
100
AcDbEntity
  8
ADP1DETAIL
100
AcDbPolyline
 90
        2
 70
     0
 43
0.0
 10
0.968395996898022
 20
4.340093250770028
 10
0.9467539296549896
 20
4.315196900346692
  0
LWPOLYLINE
  5
3C4
330
18
100
AcDbEntity
  8
ADP1DETAIL
100
AcDbPolyline
 90
        2
 70
     0
 43
0.0
 10
0.9923523573408248
 20
4.316888841925314
 10
0.9689247708355273
 20
4.340112871065199
  0
LWPOLYLINE
  5
3C8
330
18
100
AcDbEntity
  8
ADP1DETAIL
100
AcDbPolyline
 90
        2
 70
     0
 43
0.0
 10
0.9683959968980255
 20
4.34009325077003
 10
0.9467539296549913
 20
4.315196900346693
  0
LWPOLYLINE
  5
3CC
330
18
100
AcDbEntity
  8
ADP1DETAIL
100
AcDbPolyline
 90
        2
 70
     0
 43
0.0
 10
1.016527883205603
 20
4.341810989290091
 10
0.9932018533360169
 20
4.318484959420507
  0
LWPOLYLINE
  5
3D0
330
18
100
AcDbEntity
  8
ADP1DETAIL
100
AcDbPolyline
 90
        2
 70
     0
 43
0.0
 10
1.038807229422082
 20
4.316991993990839
 10
1.017056737718974
 20
4.34179367638592
  0
LWPOLYLINE
  5
3D4
330
18
100
AcDbEntity
  8
ADP1DETAIL
100
AcDbPolyline
 90
        2
 70
     0
 43
0.0
 10
1.0165278832056
 20
4.34181098929009
 10
0.9932018533360151
 20
4.318484959420507
  0
LWPOLYLINE
  5
3D8
330
18
100
AcDbEntity
  8
ADP1DETAIL
100
AcDbPolyline
 90
        2
 70
     0
 43
0.0
 10
1.0165278832056
 20
4.341810989290092
 10
0.9932018533360134
 20
4.318484959420507
  0
LWPOLYLINE
  5
3DC
330
18
100
AcDbEntity
  8
ADP1DETAIL
100
AcDbPolyline
 90
        2
 70
     0
 43
0.0
 10
1.038807229422078
 20
4.316991993990839
 10
1.017056737718971
 20
4.34179367638592
  0
LWPOLYLINE
  5
3E0
330
18
100
AcDbEntity
  8
ADP1DETAIL
100
AcDbPolyline
 90
        2
 70
     0
 43
0.0
 10
0.7805599567786095
 20
4.300016974640029
 10
0.766618630717141
 20
4.270119704420133
  0
LWPOLYLINE
  5
3E4
330
18
100
AcDbEntity
  8
ADP1DETAIL
100
AcDbPolyline
 90
        2
 70
     0
 43
0.0
 10
0.7805599567786095
 20
4.300016974640028
 10
0.7666186307171428
 20
4.270119704420133
  0
LWPOLYLINE
  5
3E8
330
18
100
AcDbEntity
  8
ADP1DETAIL
100
AcDbPolyline
 90
        2
 70
     0
 43
0.0
 10
0.780559956778613
 20
4.30001697464003
 10
0.7666186307171446
 20
4.270119704420135
  0
LWPOLYLINE
  5
3EC
330
18
100
AcDbEntity
  8
ADP1DETAIL
100
AcDbPolyline
 90
        2
 70
     0
 43
0.0
 10
0.7805599567786095
 20
4.300016974640029
 10
0.766618630717141
 20
4.270119704420133
  0
LWPOLYLINE
  5
3F0
330
18
100
AcDbEntity
  8
ADP1DETAIL
100
AcDbPolyline
 90
        2
 70
     0
 43
0.0
 10
0.7805599567786095
 20
4.300016974640028
 10
0.7666186307171428
 20
4.270119704420133
  0
LWPOLYLINE
  5
3F4
330
18
100
AcDbEntity
  8
ADP1DETAIL
100
AcDbPolyline
 90
        2
 70
     0
 43
0.0
 10
0.780559956778613
 20
4.30001697464003
 10
0.7666186307171446
 20
4.270119704420135
  0
LWPOLYLINE
  5
3F8
330
18
100
AcDbEntity
  8
ADP1DETAIL
100
AcDbPolyline
 90
        2
 70
     0
 43
0.0
 10
0.8099842903436185
 20
4.284314733088164
 10
0.7810628388242593
 20
4.300181584728197
  0
LWPOLYLINE
  5
3FC
330
18
100
AcDbEntity
  8
ADP1DETAIL
100
AcDbPolyline
 90
        2
 70
     0
 43
0.0
 10
0.809984290343622
 20
4.284314733088166
 10
0.7810628388242629
 20
4.300181584728198
  0
LWPOLYLINE
  5
400
330
18
100
AcDbEntity
  8
ADP1DETAIL
100
AcDbPolyline
 90
        2
 70
     0
 43
0.0
 10
0.8099842903436185
 20
4.284314733088164
 10
0.7810628388242593
 20
4.300181584728197
  0
LWPOLYLINE
  5
404
330
18
100
AcDbEntity
  8
ADP1DETAIL
100
AcDbPolyline
 90
        2
 70
     0
 43
0.0
 10
0.809984290343622
 20
4.284314733088166
 10
0.7810628388242629
 20
4.300181584728198
  0
LWPOLYLINE
  5
408
330
18
100
AcDbEntity
  8
ADP1DETAIL
100
AcDbPolyline
 90
        2
 70
     0
 43
0.0
 10
1.554631105083744
 20
4.044191032628427
 10
1.560784157707611
 20
4.076600094360624
  0
LWPOLYLINE
  5
40C
330
18
100
AcDbEntity
  8
ADP1DETAIL
100
AcDbPolyline
 90
        2
 70
     0
 43
0.0
 10
1.55463110508374
 20
4.04419103262843
 10
1.560784157707609
 20
4.076600094360626
  0
LWPOLYLINE
  5
410
330
18
100
AcDbEntity
  8
ADP1DETAIL
100
AcDbPolyline
 90
        2
 70
     0
 43
0.0
 10
1.463496322699485
 20
3.158180890291228
 10
1.496371013335674
 20
3.15544921415225
  0
LWPOLYLINE
  5
414
330
18
100
AcDbEntity
  8
ADP1DETAIL
100
AcDbPolyline
 90
        2
 70
     0
 43
0.0
 10
1.463496322699486
 20
3.15818089029123
 10
1.496371013335676
 20
3.155449214152252
  0
LWPOLYLINE
  5
418
330
18
100
AcDbEntity
  8
ADP1DETAIL
100
AcDbPolyline
 90
        2
 70
     0
 43
0.0
 10
1.427976130955472
 20
3.128241255041232
 10
1.460580188402682
 20
3.123223010633826
  0
LWPOLYLINE
  5
41C
330
18
100
AcDbEntity
  8
ADP1DETAIL
100
AcDbPolyline
 90
        2
 70
     0
 43
0.0
 10
1.42797613095547
 20
3.12824125504123
 10
1.460580188402681
 20
3.123223010633824
  0
LWPOLYLINE
  5
420
330
18
100
AcDbEntity
  8
ADP1DETAIL
100
AcDbPolyline
 90
        2
 70
     0
 43
0.0
 10
1.423066590359391
 20
3.093868796717079
 10
1.42822704858331
 20
3.126450647644748
  0
LWPOLYLINE
  5
424
330
18
100
AcDbEntity
  8
ADP1DETAIL
100
AcDbPolyline
 90
        2
 70
     0
 43
0.0
 10
1.423066590359391
 20
3.09386879671708
 10
1.428227048583308
 20
3.126450647644746
  0
LWPOLYLINE
  5
428
330
18
100
AcDbEntity
  8
ADP1DETAIL
100
AcDbPolyline
 90
        2
 70
     0
 43
0.0
 10
1.423066590359389
 20
3.093868796717077
 10
1.428227048583306
 20
3.126450647644745
  0
LWPOLYLINE
  5
42C
330
18
100
AcDbEntity
  8
ADP1DETAIL
100
AcDbPolyline
 90
        2
 70
     0
 43
0.0
 10
1.427976130955468
 20
3.128241255041229
 10
1.460580188402677
 20
3.123223010633823
  0
LWPOLYLINE
  5
430
330
18
100
AcDbEntity
  8
ADP1DETAIL
100
AcDbPolyline
 90
        2
 70
     0
 43
0.0
 10
1.42797613095547
 20
3.128241255041232
 10
1.460580188402681
 20
3.123223010633826
  0
ARC
  5
434
330
18
100
AcDbEntity
  8
ADP1DETAIL
100
AcDbCircle
 10
1.390002774612857
 20
3.139160561054953
 30
0.0
 40
0.0553725525634547
100
AcDbArc
 50
210.5781967027702
 51
304.5827782367261
  0
LWPOLYLINE
  5
435
330
18
100
AcDbEntity
  8
ADP1DETAIL
100
AcDbPolyline
 90
        2
 70
     0
 43
0.0
 10
1.460996442984154
 20
3.123549689308314
 10
1.463871535562431
 20
3.156412147853285
  0
LWPOLYLINE
  5
439
330
18
100
AcDbEntity
  8
ADP1DETAIL
100
AcDbPolyline
 90
        2
 70
     0
 43
0.0
 10
1.460996442984154
 20
3.123549689308314
 10
1.46387153556243
 20
3.156412147853284
  0
LWPOLYLINE
  5
43D
330
18
100
AcDbEntity
  8
ADP1DETAIL
100
AcDbPolyline
 90
        2
 70
     0
 43
0.0
 10
1.460996442984153
 20
3.123549689308312
 10
1.46387153556243
 20
3.156412147853282
  0
LWPOLYLINE
  5
441
330
18
100
AcDbEntity
  8
ADP1DETAIL
100
AcDbPolyline
 90
        2
 70
     0
 43
0.0
 10
1.460996442984154
 20
3.123549689308312
 10
1.463871535562433
 20
3.156412147853282
  0
LWPOLYLINE
  5
445
330
18
100
AcDbEntity
  8
ADP1DETAIL
100
AcDbPolyline
 90
        2
 70
     0
 43
0.0
 10
1.460996442984158
 20
3.123549689308315
 10
1.463871535562433
 20
3.156412147853285
  0
LWPOLYLINE
  5
449
330
18
100
AcDbEntity
  8
ADP1DETAIL
100
AcDbPolyline
 90
        2
 70
     0
 43
0.0
 10
1.460996442984158
 20
3.123549689308314
 10
1.463871535562435
 20
3.156412147853285
  0
ARC
  5
44D
330
18
100
AcDbEntity
  8
ADP1DETAIL
100
AcDbCircle
 10
1.387073396718686
 20
3.150747431113765
 30
0.0
 40
0.0599999999999962
100
AcDbArc
 50
135.8767852779088
 51
221.5949538319253
  0
LWPOLYLINE
  5
44E
330
18
100
AcDbEntity
  8
ADP1DETAIL
100
AcDbPolyline
 90
        2
 70
     0
 43
0.0
 10
1.588811284139155
 20
4.038084901295885
 10
1.556429378589508
 20
4.044379306107096
  0
LWPOLYLINE
  5
452
330
18
100
AcDbEntity
  8
ADP1DETAIL
100
AcDbPolyline
 90
        2
 70
     0
 43
0.0
 10
1.588811284139151
 20
4.038084901295887
 10
1.556429378589506
 20
4.044379306107096
  0
LWPOLYLINE
  5
456
330
18
100
AcDbEntity
  8
ADP1DETAIL
100
AcDbPolyline
 90
        2
 70
     0
 43
0.0
 10
1.588811284139153
 20
4.038084901295889
 10
1.556429378589505
 20
4.044379306107098
  0
LWPOLYLINE
  5
45A
330
18
100
AcDbEntity
  8
ADP1DETAIL
100
AcDbPolyline
 90
        2
 70
     0
 43
0.0
 10
1.604010625171055
 20
3.965556356828686
 10
1.614614266330234
 20
3.99679367638592
  0
LWPOLYLINE
  5
45E
330
18
100
AcDbEntity
  8
ADP1DETAIL
100
AcDbPolyline
 90
        2
 70
     0
 43
0.0
 10
1.614364832488374
 20
3.997260334281492
 10
1.582500883117085
 20
4.005798253783196
  0
LWPOLYLINE
  5
462
330
18
100
AcDbEntity
  8
ADP1DETAIL
100
AcDbPolyline
 90
        2
 70
     0
 43
0.0
 10
1.614364832488374
 20
3.997260334281491
 10
1.582500883117087
 20
4.005798253783195
  0
LWPOLYLINE
  5
466
330
18
100
AcDbEntity
  8
ADP1DETAIL
100
AcDbPolyline
 90
        2
 70
     0
 43
0.0
 10
1.604010625171057
 20
3.965556356828683
 10
1.614614266330236
 20
3.996793676385918
  0
LWPOLYLINE
  5
46A
330
18
100
AcDbEntity
  8
ADP1DETAIL
100
AcDbPolyline
 90
        2
 70
     0
 43
0.0
 10
1.614364832488376
 20
3.997260334281489
 10
1.582500883117087
 20
4.005798253783193
  0
LWPOLYLINE
  5
46E
330
18
100
AcDbEntity
  8
ADP1DETAIL
100
AcDbPolyline
 90
        2
 70
     0
 43
0.0
 10
1.675926131434574
 20
3.745884099164074
 10
1.696574087297393
 20
3.771610918976101
  0
LWPOLYLINE
  5
472
330
18
100
AcDbEntity
  8
ADP1DETAIL
100
AcDbPolyline
 90
        2
 70
     0
 43
0.0
 10
1.696499302557151
 20
3.772134745355344
 10
1.669477124915531
 20
3.79105587783885
  0
LWPOLYLINE
  5
476
330
18
100
AcDbEntity
  8
ADP1DETAIL
100
AcDbPolyline
 90
        2
 70
     0
 43
0.0
 10
1.696499302557149
 20
3.772134745355344
 10
1.669477124915531
 20
3.791055877838848
  0
LWPOLYLINE
  5
47A
330
18
100
AcDbEntity
  8
ADP1DETAIL
100
AcDbPolyline
 90
        2
 70
     0
 43
0.0
 10
1.675926131434576
 20
3.74588409916407
 10
1.696574087297393
 20
3.771610918976098
  0
LWPOLYLINE
  5
47E
330
18
100
AcDbEntity
  8
ADP1DETAIL
100
AcDbPolyline
 90
        2
 70
     0
 43
0.0
 10
1.696499302557149
 20
3.772134745355341
 10
1.669477124915531
 20
3.791055877838847
  0
LWPOLYLINE
  5
482
330
18
100
AcDbEntity
  8
ADP1DETAIL
100
AcDbPolyline
 90
        2
 70
     0
 43
0.0
 10
1.686449645999963
 20
3.819237117994429
 10
1.658173421543655
 20
3.836227187725011
  0
LWPOLYLINE
  5
486
330
18
100
AcDbEntity
  8
ADP1DETAIL
100
AcDbPolyline
 90
        2
 70
     0
 43
0.0
 10
1.667757742600046
 20
3.791615305186682
 10
1.686560788849408
 20
3.818719784349688
  0
LWPOLYLINE
  5
48A
330
18
100
AcDbEntity
  8
ADP1DETAIL
100
AcDbPolyline
 90
        2
 70
     0
 43
0.0
 10
1.686449645999961
 20
3.819237117994432
 10
1.658173421543655
 20
3.836227187725013
  0
LWPOLYLINE
  5
48E
330
18
100
AcDbEntity
  8
ADP1DETAIL
100
AcDbPolyline
 90
        2
 70
     0
 43
0.0
 10
1.686449645999963
 20
3.819237117994433
 10
1.658173421543653
 20
3.836227187725015
  0
LWPOLYLINE
  5
492
330
18
100
AcDbEntity
  8
ADP1DETAIL
100
AcDbPolyline
 90
        2
 70
     0
 43
0.0
 10
1.667757742600046
 20
3.791615305186685
 10
1.686560788849408
 20
3.818719784349691
  0
LWPOLYLINE
  5
496
330
18
100
AcDbEntity
  8
ADP1DETAIL
100
AcDbPolyline
 90
        2
 70
     0
 43
0.0
 10
1.673138774480771
 20
3.865523723017354
 10
1.643746262133007
 20
3.880499956083122
  0
LWPOLYLINE
  5
49A
330
18
100
AcDbEntity
  8
ADP1DETAIL
100
AcDbPolyline
 90
        2
 70
     0
 43
0.0
 10
1.656419203877972
 20
3.836665314288597
 10
1.673285733962626
 20
3.865015402504631
  0
LWPOLYLINE
  5
49E
330
18
100
AcDbEntity
  8
ADP1DETAIL
100
AcDbPolyline
 90
        2
 70
     0
 43
0.0
 10
1.673138774480768
 20
3.865523723017358
 10
1.643746262133006
 20
3.880499956083124
  0
LWPOLYLINE
  5
4A2
330
18
100
AcDbEntity
  8
ADP1DETAIL
100
AcDbPolyline
 90
        2
 70
     0
 43
0.0
 10
1.673138774480769
 20
3.865523723017358
 10
1.643746262133006
 20
3.880499956083125
  0
LWPOLYLINE
  5
4A6
330
18
100
AcDbEntity
  8
ADP1DETAIL
100
AcDbPolyline
 90
        2
 70
     0
 43
0.0
 10
1.656419203877972
 20
3.8366653142886
 10
1.673285733962626
 20
3.865015402504635
  0
LWPOLYLINE
  5
4AA
330
18
100
AcDbEntity
  8
ADP1DETAIL
100
AcDbPolyline
 90
        2
 70
     0
 43
0.0
 10
1.656631537227609
 20
3.91076905673716
 10
1.626265934354026
 20
3.923658490436022
  0
LWPOLYLINE
  5
4AE
330
18
100
AcDbEntity
  8
ADP1DETAIL
100
AcDbPolyline
 90
        2
 70
     0
 43
0.0
 10
1.641965755489263
 20
3.88081464735388
 10
1.656813597370054
 20
3.910272225842894
  0
LWPOLYLINE
  5
4B2
330
18
100
AcDbEntity
  8
ADP1DETAIL
100
AcDbPolyline
 90
        2
 70
     0
 43
0.0
 10
1.656631537227609
 20
3.910769056737164
 10
1.626265934354024
 20
3.923658490436022
  0
LWPOLYLINE
  5
4B6
330
18
100
AcDbEntity
  8
ADP1DETAIL
100
AcDbPolyline
 90
        2
 70
     0
 43
0.0
 10
1.656631537227609
 20
3.910769056737164
 10
1.626265934354024
 20
3.923658490436024
  0
LWPOLYLINE
  5
4BA
330
18
100
AcDbEntity
  8
ADP1DETAIL
100
AcDbPolyline
 90
        2
 70
     0
 43
0.0
 10
1.641965755489263
 20
3.880814647353884
 10
1.656813597370054
 20
3.910272225842898
  0
LWPOLYLINE
  5
4BE
330
18
100
AcDbEntity
  8
ADP1DETAIL
100
AcDbPolyline
 90
        2
 70
     0
 43
0.0
 10
1.637008355841079
 20
3.954752688436011
 10
1.605817600606532
 20
3.965492526742627
  0
LWPOLYLINE
  5
4C2
330
18
100
AcDbEntity
  8
ADP1DETAIL
100
AcDbPolyline
 90
        2
 70
     0
 43
0.0
 10
1.624467813181612
 20
3.923848213269718
 10
1.637224629665397
 20
3.95426976767038
  0
LWPOLYLINE
  5
4C6
330
18
100
AcDbEntity
  8
ADP1DETAIL
100
AcDbPolyline
 90
        2
 70
     0
 43
0.0
 10
1.637008355841076
 20
3.954752688436014
 10
1.60581760060653
 20
3.965492526742629
  0
LWPOLYLINE
  5
4CA
330
18
100
AcDbEntity
  8
ADP1DETAIL
100
AcDbPolyline
 90
        2
 70
     0
 43
0.0
 10
1.637008355841076
 20
3.954752688436014
 10
1.60581760060653
 20
3.965492526742631
  0
LWPOLYLINE
  5
4CE
330
18
100
AcDbEntity
  8
ADP1DETAIL
100
AcDbPolyline
 90
        2
 70
     0
 43
0.0
 10
1.624467813181611
 20
3.923848213269721
 10
1.637224629665396
 20
3.954269767670384
  0
LWPOLYLINE
  5
4D2
330
18
100
AcDbEntity
  8
ADP1DETAIL
100
AcDbPolyline
 90
        2
 70
     0
 43
0.0
 10
1.614364832488374
 20
3.997260334281488
 10
1.582500883117085
 20
4.005798253783193
  0
LWPOLYLINE
  5
4D6
330
18
100
AcDbEntity
  8
ADP1DETAIL
100
AcDbPolyline
 90
        2
 70
     0
 43
0.0
 10
1.61436483248837
 20
3.997260334281491
 10
1.582500883117083
 20
4.005798253783193
  0
LWPOLYLINE
  5
4DA
330
18
100
AcDbEntity
  8
ADP1DETAIL
100
AcDbPolyline
 90
        2
 70
     0
 43
0.0
 10
1.61436483248837
 20
3.997260334281491
 10
1.582500883117083
 20
4.005798253783195
  0
LWPOLYLINE
  5
4DE
330
18
100
AcDbEntity
  8
ADP1DETAIL
100
AcDbPolyline
 90
        2
 70
     0
 43
0.0
 10
1.604010625171055
 20
3.965556356828682
 10
1.614614266330234
 20
3.996793676385917
  0
LWPOLYLINE
  5
4E2
330
18
100
AcDbEntity
  8
ADP1DETAIL
100
AcDbPolyline
 90
        2
 70
     0
 43
0.0
 10
1.604010625171052
 20
3.965556356828686
 10
1.614614266330232
 20
3.99679367638592
  0
LWPOLYLINE
  5
4E6
330
18
100
AcDbEntity
  8
ADP1DETAIL
100
AcDbPolyline
 90
        2
 70
     0
 43
0.0
 10
1.668372264939368
 20
3.51486314788567
 10
1.696574087297395
 20
3.531976433795738
  0
LWPOLYLINE
  5
4EA
330
18
100
AcDbEntity
  8
ADP1DETAIL
100
AcDbPolyline
 90
        2
 70
     0
 43
0.0
 10
1.696682971802148
 20
3.532494247466462
 10
1.677761839318644
 20
3.559516425108084
  0
LWPOLYLINE
  5
4EE
330
18
100
AcDbEntity
  8
ADP1DETAIL
100
AcDbPolyline
 90
        2
 70
     0
 43
0.0
 10
1.696682971802146
 20
3.532494247466463
 10
1.677761839318644
 20
3.559516425108082
  0
LWPOLYLINE
  5
4F2
330
18
100
AcDbEntity
  8
ADP1DETAIL
100
AcDbPolyline
 90
        2
 70
     0
 43
0.0
 10
1.668372264939367
 20
3.514863147885667
 10
1.696574087297393
 20
3.531976433795735
  0
LWPOLYLINE
  5
4F6
330
18
100
AcDbEntity
  8
ADP1DETAIL
100
AcDbPolyline
 90
        2
 70
     0
 43
0.0
 10
1.696682971802146
 20
3.532494247466459
 10
1.677761839318644
 20
3.55951642510808
  0
LWPOLYLINE
  5
4FA
330
18
100
AcDbEntity
  8
ADP1DETAIL
100
AcDbPolyline
 90
        2
 70
     0
 43
0.0
 10
1.703349343934925
 20
3.580193184432981
 10
1.682589330554011
 20
3.605829665926702
  0
LWPOLYLINE
  5
4FE
330
18
100
AcDbEntity
  8
ADP1DETAIL
100
AcDbPolyline
 90
        2
 70
     0
 43
0.0
 10
1.676337483866158
 20
3.56063017824468
 10
1.70327684552308
 20
3.579669036731237
  0
LWPOLYLINE
  5
502
330
18
100
AcDbEntity
  8
ADP1DETAIL
100
AcDbPolyline
 90
        2
 70
     0
 43
0.0
 10
1.703349343934923
 20
3.580193184432984
 10
1.682589330554013
 20
3.605829665926704
  0
LWPOLYLINE
  5
506
330
18
100
AcDbEntity
  8
ADP1DETAIL
100
AcDbPolyline
 90
        2
 70
     0
 43
0.0
 10
1.703349343934925
 20
3.580193184432984
 10
1.682589330554013
 20
3.605829665926706
  0
LWPOLYLINE
  5
50A
330
18
100
AcDbEntity
  8
ADP1DETAIL
100
AcDbPolyline
 90
        2
 70
     0
 43
0.0
 10
1.67633748386616
 20
3.560630178244684
 10
1.70327684552308
 20
3.579669036731241
  0
LWPOLYLINE
  5
50E
330
18
100
AcDbEntity
  8
ADP1DETAIL
100
AcDbPolyline
 90
        2
 70
     0
 43
0.0
 10
1.706672167476109
 20
3.62824095179904
 10
1.684174413896191
 20
3.652366838783994
  0
LWPOLYLINE
  5
512
330
18
100
AcDbEntity
  8
ADP1DETAIL
100
AcDbPolyline
 90
        2
 70
     0
 43
0.0
 10
1.681090753268391
 20
3.606841348002916
 10
1.706636408362148
 20
3.627713023661192
  0
LWPOLYLINE
  5
516
330
18
100
AcDbEntity
  8
ADP1DETAIL
100
AcDbPolyline
 90
        2
 70
     0
 43
0.0
 10
1.706672167476109
 20
3.628240951799043
 10
1.684174413896189
 20
3.652366838783997
  0
LWPOLYLINE
  5
51A
330
18
100
AcDbEntity
  8
ADP1DETAIL
100
AcDbPolyline
 90
        2
 70
     0
 43
0.0
 10
1.706672167476111
 20
3.628240951799043
 10
1.684174413896189
 20
3.652366838783998
  0
LWPOLYLINE
  5
51E
330
18
100
AcDbEntity
  8
ADP1DETAIL
100
AcDbPolyline
 90
        2
 70
     0
 43
0.0
 10
1.681090753268391
 20
3.606841348002919
 10
1.706636408362148
 20
3.627713023661196
  0
LWPOLYLINE
  5
522
330
18
100
AcDbEntity
  8
ADP1DETAIL
100
AcDbPolyline
 90
        2
 70
     0
 43
0.0
 10
1.706635253963418
 20
3.676403465671774
 10
1.682509366978467
 20
3.698901219251697
  0
LWPOLYLINE
  5
526
330
18
100
AcDbEntity
  8
ADP1DETAIL
100
AcDbPolyline
 90
        2
 70
     0
 43
0.0
 10
1.682608915695332
 20
3.653271520986438
 10
1.706636408362146
 20
3.675874329110641
  0
LWPOLYLINE
  5
52A
330
18
100
AcDbEntity
  8
ADP1DETAIL
100
AcDbPolyline
 90
        2
 70
     0
 43
0.0
 10
1.706635253963418
 20
3.676403465671778
 10
1.682509366978465
 20
3.698901219251698
  0
LWPOLYLINE
  5
52E
330
18
100
AcDbEntity
  8
ADP1DETAIL
100
AcDbPolyline
 90
        2
 70
     0
 43
0.0
 10
1.706635253963418
 20
3.676403465671778
 10
1.682509366978465
 20
3.6989012192517
  0
LWPOLYLINE
  5
532
330
18
100
AcDbEntity
  8
ADP1DETAIL
100
AcDbPolyline
 90
        2
 70
     0
 43
0.0
 10
1.682608915695333
 20
3.653271520986441
 10
1.706636408362148
 20
3.675874329110644
  0
LWPOLYLINE
  5
536
330
18
100
AcDbEntity
  8
ADP1DETAIL
100
AcDbPolyline
 90
        2
 70
     0
 43
0.0
 10
1.703238783235776
 20
3.724446083124876
 10
1.677602301742056
 20
3.745206096505793
  0
LWPOLYLINE
  5
53A
330
18
100
AcDbEntity
  8
ADP1DETAIL
100
AcDbPolyline
 90
        2
 70
     0
 43
0.0
 10
1.680884574812245
 20
3.699694494059621
 10
1.703276845523082
 20
3.723918316040597
  0
LWPOLYLINE
  5
53E
330
18
100
AcDbEntity
  8
ADP1DETAIL
100
AcDbPolyline
 90
        2
 70
     0
 43
0.0
 10
1.703238783235774
 20
3.72444608312488
 10
1.677602301742056
 20
3.745206096505794
  0
LWPOLYLINE
  5
542
330
18
100
AcDbEntity
  8
ADP1DETAIL
100
AcDbPolyline
 90
        2
 70
     0
 43
0.0
 10
1.703238783235774
 20
3.72444608312488
 10
1.677602301742056
 20
3.745206096505796
  0
LWPOLYLINE
  5
546
330
18
100
AcDbEntity
  8
ADP1DETAIL
100
AcDbPolyline
 90
        2
 70
     0
 43
0.0
 10
1.680884574812243
 20
3.699694494059625
 10
1.70327684552308
 20
3.723918316040601
  0
LWPOLYLINE
  5
54A
330
18
100
AcDbEntity
  8
ADP1DETAIL
100
AcDbPolyline
 90
        2
 70
     0
 43
0.0
 10
1.696499302557152
 20
3.772134745355342
 10
1.669477124915533
 20
3.791055877838847
  0
LWPOLYLINE
  5
54E
330
18
100
AcDbEntity
  8
ADP1DETAIL
100
AcDbPolyline
 90
        2
 70
     0
 43
0.0
 10
1.696499302557151
 20
3.772134745355345
 10
1.669477124915531
 20
3.79105587783885
  0
LWPOLYLINE
  5
552
330
18
100
AcDbEntity
  8
ADP1DETAIL
100
AcDbPolyline
 90
        2
 70
     0
 43
0.0
 10
1.696499302557151
 20
3.772134745355345
 10
1.669477124915531
 20
3.791055877838851
  0
LWPOLYLINE
  5
556
330
18
100
AcDbEntity
  8
ADP1DETAIL
100
AcDbPolyline
 90
        2
 70
     0
 43
0.0
 10
1.675926131434578
 20
3.74588409916407
 10
1.696574087297395
 20
3.771610918976099
  0
LWPOLYLINE
  5
55A
330
18
100
AcDbEntity
  8
ADP1DETAIL
100
AcDbPolyline
 90
        2
 70
     0
 43
0.0
 10
1.675926131434576
 20
3.745884099164074
 10
1.696574087297396
 20
3.771610918976103
  0
LWPOLYLINE
  5
55E
330
18
100
AcDbEntity
  8
ADP1DETAIL
100
AcDbPolyline
 90
        2
 70
     0
 43
0.0
 10
1.696682971802144
 20
3.53249424746646
 10
1.677761839318642
 20
3.559516425108081
  0
LWPOLYLINE
  5
562
330
18
100
AcDbEntity
  8
ADP1DETAIL
100
AcDbPolyline
 90
        2
 70
     0
 43
0.0
 10
1.696682971802144
 20
3.532494247466464
 10
1.677761839318642
 20
3.559516425108083
  0
LWPOLYLINE
  5
566
330
18
100
AcDbEntity
  8
ADP1DETAIL
100
AcDbPolyline
 90
        2
 70
     0
 43
0.0
 10
1.696682971802144
 20
3.532494247466464
 10
1.677761839318642
 20
3.559516425108085
  0
LWPOLYLINE
  5
56A
330
18
100
AcDbEntity
  8
ADP1DETAIL
100
AcDbPolyline
 90
        2
 70
     0
 43
0.0
 10
1.668372264939367
 20
3.514863147885667
 10
1.696574087297393
 20
3.531976433795736
  0
LWPOLYLINE
  5
56E
330
18
100
AcDbEntity
  8
ADP1DETAIL
100
AcDbPolyline
 90
        2
 70
     0
 43
0.0
 10
1.668372264939367
 20
3.51486314788567
 10
1.696574087297395
 20
3.531976433795739
  0
LWPOLYLINE
  5
572
330
18
100
AcDbEntity
  8
ADP1DETAIL
100
AcDbPolyline
 90
        2
 70
     0
 43
0.0
 10
1.580693856821231
 20
4.005735880147847
 10
1.589092662781951
 20
4.037636779780735
  0
LWPOLYLINE
  5
576
330
18
100
AcDbEntity
  8
ADP1DETAIL
100
AcDbPolyline
 90
        2
 70
     0
 43
0.0
 10
1.580693856821228
 20
4.005735880147849
 10
1.58909266278195
 20
4.037636779780737
  0
LWPOLYLINE
  5
57A
330
18
100
AcDbEntity
  8
ADP1DETAIL
100
AcDbPolyline
 90
        2
 70
     0
 43
0.0
 10
1.582260133467944
 20
3.300358039223767
 10
1.614614266330232
 20
3.306793676385921
  0
LWPOLYLINE
  5
57E
330
18
100
AcDbEntity
  8
ADP1DETAIL
100
AcDbPolyline
 90
        2
 70
     0
 43
0.0
 10
1.614893687001743
 20
3.30724302137732
 10
1.606355767500041
 20
3.33910697074861
  0
LWPOLYLINE
  5
582
330
18
100
AcDbEntity
  8
ADP1DETAIL
100
AcDbPolyline
 90
        2
 70
     0
 43
0.0
 10
1.614893687001742
 20
3.307243021377321
 10
1.60635576750004
 20
3.339106970748608
  0
LWPOLYLINE
  5
586
330
18
100
AcDbEntity
  8
ADP1DETAIL
100
AcDbPolyline
 90
        2
 70
     0
 43
0.0
 10
1.582260133467943
 20
3.300358039223764
 10
1.614614266330231
 20
3.306793676385917
  0
LWPOLYLINE
  5
58A
330
18
100
AcDbEntity
  8
ADP1DETAIL
100
AcDbPolyline
 90
        2
 70
     0
 43
0.0
 10
1.61489368700174
 20
3.307243021377318
 10
1.60635576750004
 20
3.339106970748606
  0
LWPOLYLINE
  5
58E
330
18
100
AcDbEntity
  8
ADP1DETAIL
100
AcDbPolyline
 90
        2
 70
     0
 43
0.0
 10
1.637472024960097
 20
3.349785326911775
 10
1.626732186653486
 20
3.380976082146323
  0
LWPOLYLINE
  5
592
330
18
100
AcDbEntity
  8
ADP1DETAIL
100
AcDbPolyline
 90
        2
 70
     0
 43
0.0
 10
1.605398237199373
 20
3.340640714608452
 10
1.637224629665394
 20
3.349317585101455
  0
LWPOLYLINE
  5
596
330
18
100
AcDbEntity
  8
ADP1DETAIL
100
AcDbPolyline
 90
        2
 70
     0
 43
0.0
 10
1.637472024960097
 20
3.34978532691178
 10
1.626732186653486
 20
3.380976082146324
  0
LWPOLYLINE
  5
59A
330
18
100
AcDbEntity
  8
ADP1DETAIL
100
AcDbPolyline
 90
        2
 70
     0
 43
0.0
 10
1.637472024960099
 20
3.349785326911779
 10
1.626732186653488
 20
3.380976082146325
  0
LWPOLYLINE
  5
59E
330
18
100
AcDbEntity
  8
ADP1DETAIL
100
AcDbPolyline
 90
        2
 70
     0
 43
0.0
 10
1.605398237199374
 20
3.340640714608456
 10
1.637224629665396
 20
3.349317585101458
  0
LWPOLYLINE
  5
5A2
330
18
100
AcDbEntity
  8
ADP1DETAIL
100
AcDbPolyline
 90
        2
 70
     0
 43
0.0
 10
1.65702776200294
 20
3.393798986767097
 10
1.644138328304085
 20
3.424164589640684
  0
LWPOLYLINE
  5
5A6
330
18
100
AcDbEntity
  8
ADP1DETAIL
100
AcDbPolyline
 90
        2
 70
     0
 43
0.0
 10
1.625670000285217
 20
3.382439295945934
 10
1.656813597370052
 20
3.393315126928939
  0
LWPOLYLINE
  5
5AA
330
18
100
AcDbEntity
  8
ADP1DETAIL
100
AcDbPolyline
 90
        2
 70
     0
 43
0.0
 10
1.65702776200294
 20
3.393798986767101
 10
1.644138328304083
 20
3.424164589640686
  0
LWPOLYLINE
  5
5AE
330
18
100
AcDbEntity
  8
ADP1DETAIL
100
AcDbPolyline
 90
        2
 70
     0
 43
0.0
 10
1.657027762002942
 20
3.3937989867671
 10
1.644138328304085
 20
3.424164589640687
  0
LWPOLYLINE
  5
5B2
330
18
100
AcDbEntity
  8
ADP1DETAIL
100
AcDbPolyline
 90
        2
 70
     0
 43
0.0
 10
1.625670000285219
 20
3.382439295945937
 10
1.656813597370054
 20
3.393315126928942
  0
LWPOLYLINE
  5
5B6
330
18
100
AcDbEntity
  8
ADP1DETAIL
100
AcDbPolyline
 90
        2
 70
     0
 43
0.0
 10
1.673465624545134
 20
3.439069570816706
 10
1.658489391479371
 20
3.468462083164471
  0
LWPOLYLINE
  5
5BA
330
18
100
AcDbEntity
  8
ADP1DETAIL
100
AcDbPolyline
 90
        2
 70
     0
 43
0.0
 10
1.642976660733427
 20
3.425550144749509
 10
1.673285733962623
 20
3.438571950267203
  0
LWPOLYLINE
  5
5BE
330
18
100
AcDbEntity
  8
ADP1DETAIL
100
AcDbPolyline
 90
        2
 70
     0
 43
0.0
 10
1.673465624545136
 20
3.439069570816709
 10
1.658489391479371
 20
3.468462083164473
  0
LWPOLYLINE
  5
5C2
330
18
100
AcDbEntity
  8
ADP1DETAIL
100
AcDbPolyline
 90
        2
 70
     0
 43
0.0
 10
1.673465624545136
 20
3.439069570816709
 10
1.658489391479371
 20
3.468462083164475
  0
LWPOLYLINE
  5
5C6
330
18
100
AcDbEntity
  8
ADP1DETAIL
100
AcDbPolyline
 90
        2
 70
     0
 43
0.0
 10
1.642976660733428
 20
3.425550144749513
 10
1.673285733962624
 20
3.438571950267206
  0
LWPOLYLINE
  5
5CA
330
18
100
AcDbEntity
  8
ADP1DETAIL
100
AcDbPolyline
 90
        2
 70
     0
 43
0.0
 10
1.657233902233964
 20
3.469763229297299
 10
1.686560788849408
 20
3.484867568422146
  0
LWPOLYLINE
  5
5CE
330
18
100
AcDbEntity
  8
ADP1DETAIL
100
AcDbPolyline
 90
        2
 70
     0
 43
0.0
 10
1.657233902233964
 20
3.469763229297303
 10
1.686560788849408
 20
3.48486756842215
  0
LWPOLYLINE
  5
5D2
330
18
100
AcDbEntity
  8
ADP1DETAIL
100
AcDbPolyline
 90
        2
 70
     0
 43
0.0
 10
1.530193406034723
 20
3.190474988899284
 10
1.528466948148792
 20
3.223417767806378
  0
LWPOLYLINE
  5
5D6
330
18
100
AcDbEntity
  8
ADP1DETAIL
100
AcDbPolyline
 90
        2
 70
     0
 43
0.0
 10
1.496841505661426
 20
3.190525357417294
 10
1.529826667298368
 20
3.190093557998308
  0
LWPOLYLINE
  5
5DA
330
18
100
AcDbEntity
  8
ADP1DETAIL
100
AcDbPolyline
 90
        2
 70
     0
 43
0.0
 10
1.530193406034725
 20
3.190474988899286
 10
1.528466948148794
 20
3.22341776780638
  0
LWPOLYLINE
  5
5DE
330
18
100
AcDbEntity
  8
ADP1DETAIL
100
AcDbPolyline
 90
        2
 70
     0
 43
0.0
 10
1.530193406034725
 20
3.190474988899286
 10
1.528466948148795
 20
3.22341776780638
  0
LWPOLYLINE
  5
5E2
330
18
100
AcDbEntity
  8
ADP1DETAIL
100
AcDbPolyline
 90
        2
 70
     0
 43
0.0
 10
1.496841505661429
 20
3.190525357417297
 10
1.52982666729837
 20
3.19009355799831
  0
LWPOLYLINE
  5
5E6
330
18
100
AcDbEntity
  8
ADP1DETAIL
100
AcDbPolyline
 90
        2
 70
     0
 43
0.0
 10
1.5611233958122
 20
3.22739334256672
 10
1.557103171399016
 20
3.260135442905904
  0
LWPOLYLINE
  5
5EA
330
18
100
AcDbEntity
  8
ADP1DETAIL
100
AcDbPolyline
 90
        2
 70
     0
 43
0.0
 10
1.527849225461747
 20
3.225117077426845
 10
1.560784157707602
 20
3.226987258411213
  0
LWPOLYLINE
  5
5EE
330
18
100
AcDbEntity
  8
ADP1DETAIL
100
AcDbPolyline
 90
        2
 70
     0
 43
0.0
 10
1.561123395812201
 20
3.227393342566723
 10
1.557103171399018
 20
3.260135442905906
  0
LWPOLYLINE
  5
5F2
330
18
100
AcDbEntity
  8
ADP1DETAIL
100
AcDbPolyline
 90
        2
 70
     0
 43
0.0
 10
1.561123395812203
 20
3.227393342566722
 10
1.557103171399018
 20
3.260135442905907
  0
LWPOLYLINE
  5
5F6
330
18
100
AcDbEntity
  8
ADP1DETAIL
100
AcDbPolyline
 90
        2
 70
     0
 43
0.0
 10
1.527849225461749
 20
3.225117077426848
 10
1.560784157707606
 20
3.226987258411216
  0
LWPOLYLINE
  5
5FA
330
18
100
AcDbEntity
  8
ADP1DETAIL
100
AcDbPolyline
 90
        2
 70
     0
 43
0.0
 10
1.589402747520836
 20
3.266379331999952
 10
1.583108342709631
 20
3.298761237549598
  0
LWPOLYLINE
  5
5FE
330
18
100
AcDbEntity
  8
ADP1DETAIL
100
AcDbPolyline
 90
        2
 70
     0
 43
0.0
 10
1.556368415606468
 20
3.261787522937146
 10
1.589092662781944
 20
3.265950572991103
  0
LWPOLYLINE
  5
602
330
18
100
AcDbEntity
  8
ADP1DETAIL
100
AcDbPolyline
 90
        2
 70
     0
 43
0.0
 10
1.589402747520838
 20
3.266379331999956
 10
1.583108342709631
 20
3.298761237549601
  0
LWPOLYLINE
  5
606
330
18
100
AcDbEntity
  8
ADP1DETAIL
100
AcDbPolyline
 90
        2
 70
     0
 43
0.0
 10
1.58940274752084
 20
3.266379331999954
 10
1.583108342709633
 20
3.298761237549602
  0
LWPOLYLINE
  5
60A
330
18
100
AcDbEntity
  8
ADP1DETAIL
100
AcDbPolyline
 90
        2
 70
     0
 43
0.0
 10
1.556368415606471
 20
3.261787522937147
 10
1.589092662781946
 20
3.265950572991106
  0
LWPOLYLINE
  5
60E
330
18
100
AcDbEntity
  8
ADP1DETAIL
100
AcDbPolyline
 90
        2
 70
     0
 43
0.0
 10
1.61489368700174
 20
3.307243021377319
 10
1.606355767500038
 20
3.339106970748606
  0
LWPOLYLINE
  5
612
330
18
100
AcDbEntity
  8
ADP1DETAIL
100
AcDbPolyline
 90
        2
 70
     0
 43
0.0
 10
1.614893687001742
 20
3.307243021377322
 10
1.60635576750004
 20
3.339106970748609
  0
LWPOLYLINE
  5
616
330
18
100
AcDbEntity
  8
ADP1DETAIL
100
AcDbPolyline
 90
        2
 70
     0
 43
0.0
 10
1.614893687001742
 20
3.307243021377322
 10
1.60635576750004
 20
3.33910697074861
  0
LWPOLYLINE
  5
61A
330
18
100
AcDbEntity
  8
ADP1DETAIL
100
AcDbPolyline
 90
        2
 70
     0
 43
0.0
 10
1.582260133467941
 20
3.300358039223765
 10
1.614614266330229
 20
3.306793676385918
  0
LWPOLYLINE
  5
61E
330
18
100
AcDbEntity
  8
ADP1DETAIL
100
AcDbPolyline
 90
        2
 70
     0
 43
0.0
 10
1.582260133467943
 20
3.300358039223767
 10
1.614614266330231
 20
3.306793676385922
  0
LWPOLYLINE
  5
622
330
18
100
AcDbEntity
  8
ADP1DETAIL
100
AcDbPolyline
 90
        2
 70
     0
 43
0.0
 10
1.49676346598953
 20
3.155804133505689
 10
1.497339185760128
 20
3.188787097073254
  0
LWPOLYLINE
  5
626
330
18
100
AcDbEntity
  8
ADP1DETAIL
100
AcDbPolyline
 90
        2
 70
     0
 43
0.0
 10
1.496763465989531
 20
3.155804133505692
 10
1.49733918576013
 20
3.188787097073256
  0
LWPOLYLINE
  5
62A
330
18
100
AcDbEntity
  8
ADP1DETAIL
100
AcDbPolyline
 90
        2
 70
     0
 43
0.0
 10
1.496763465989531
 20
3.155804133505692
 10
1.497339185760131
 20
3.188787097073257
  0
LWPOLYLINE
  5
62E
330
18
100
AcDbEntity
  8
ADP1DETAIL
100
AcDbPolyline
 90
        2
 70
     0
 43
0.0
 10
1.686705528972704
 20
3.485376525325696
 10
1.669715459242126
 20
3.513652749782008
  0
LWPOLYLINE
  5
632
330
18
100
AcDbEntity
  8
ADP1DETAIL
100
AcDbPolyline
 90
        2
 70
     0
 43
0.0
 10
1.686705528972704
 20
3.4853765253257
 10
1.669715459242124
 20
3.51365274978201
  0
LWPOLYLINE
  5
636
330
18
100
AcDbEntity
  8
ADP1DETAIL
100
AcDbPolyline
 90
        2
 70
     0
 43
0.0
 10
1.686705528972704
 20
3.4853765253257
 10
1.669715459242126
 20
3.513652749782012
  0
LWPOLYLINE
  5
63A
330
18
100
AcDbEntity
  8
ADP1DETAIL
100
AcDbPolyline
 90
        2
 70
     0
 43
0.0
 10
1.496002613789426
 20
4.148517965695085
 10
1.46301965022186
 20
4.147942245924491
  0
LWPOLYLINE
  5
63E
330
18
100
AcDbEntity
  8
ADP1DETAIL
100
AcDbPolyline
 90
        2
 70
     0
 43
0.0
 10
1.496002613789422
 20
4.148517965695088
 10
1.46301965022186
 20
4.147942245924492
  0
LWPOLYLINE
  5
642
330
18
100
AcDbEntity
  8
ADP1DETAIL
100
AcDbPolyline
 90
        2
 70
     0
 43
0.0
 10
1.496002613789422
 20
4.148517965695088
 10
1.463019650221856
 20
4.147942245924493
  0
LWPOLYLINE
  5
646
330
18
100
AcDbEntity
  8
ADP1DETAIL
100
AcDbPolyline
 90
        2
 70
     0
 43
0.0
 10
1.265006738198077
 20
4.269436520508763
 10
1.253050636613685
 20
4.300181584728196
  0
LWPOLYLINE
  5
64A
330
18
100
AcDbEntity
  8
ADP1DETAIL
100
AcDbPolyline
 90
        2
 70
     0
 43
0.0
 10
1.252559597291965
 20
4.300378732432951
 10
1.222662327072069
 20
4.286437406371486
  0
LWPOLYLINE
  5
64E
330
18
100
AcDbEntity
  8
ADP1DETAIL
100
AcDbPolyline
 90
        2
 70
     0
 43
0.0
 10
1.252559597291965
 20
4.300378732432951
 10
1.222662327072071
 20
4.286437406371485
  0
LWPOLYLINE
  5
652
330
18
100
AcDbEntity
  8
ADP1DETAIL
100
AcDbPolyline
 90
        2
 70
     0
 43
0.0
 10
1.26500673819808
 20
4.269436520508762
 10
1.253050636613688
 20
4.300181584728195
  0
LWPOLYLINE
  5
656
330
18
100
AcDbEntity
  8
ADP1DETAIL
100
AcDbPolyline
 90
        2
 70
     0
 43
0.0
 10
1.252559597291969
 20
4.30037873243295
 10
1.222662327072073
 20
4.286437406371486
  0
LWPOLYLINE
  5
65A
330
18
100
AcDbEntity
  8
ADP1DETAIL
100
AcDbPolyline
 90
        2
 70
     0
 43
0.0
 10
1.206742917729404
 20
4.31522666087466
 10
1.177890973502496
 20
4.299233767037678
  0
LWPOLYLINE
  5
65E
330
18
100
AcDbEntity
  8
ADP1DETAIL
100
AcDbPolyline
 90
        2
 70
     0
 43
0.0
 10
1.221318157619534
 20
4.285228091281376
 10
1.207246513232704
 20
4.315064246583359
  0
LWPOLYLINE
  5
662
330
18
100
AcDbEntity
  8
ADP1DETAIL
100
AcDbPolyline
 90
        2
 70
     0
 43
0.0
 10
1.206742917729401
 20
4.315226660874662
 10
1.177890973502495
 20
4.299233767037678
  0
LWPOLYLINE
  5
666
330
18
100
AcDbEntity
  8
ADP1DETAIL
100
AcDbPolyline
 90
        2
 70
     0
 43
0.0
 10
1.206742917729401
 20
4.315226660874662
 10
1.177890973502493
 20
4.299233767037678
  0
LWPOLYLINE
  5
66A
330
18
100
AcDbEntity
  8
ADP1DETAIL
100
AcDbPolyline
 90
        2
 70
     0
 43
0.0
 10
1.22131815761953
 20
4.285228091281377
 10
1.207246513232701
 20
4.315064246583361
  0
LWPOLYLINE
  5
66E
330
18
100
AcDbEntity
  8
ADP1DETAIL
100
AcDbPolyline
 90
        2
 70
     0
 43
0.0
 10
1.176634435935517
 20
4.297933633257224
 10
1.160515804383229
 20
4.326715520892244
  0
LWPOLYLINE
  5
672
330
18
100
AcDbEntity
  8
ADP1DETAIL
100
AcDbPolyline
 90
        2
 70
     0
 43
0.0
 10
1.176634435935514
 20
4.297933633257225
 10
1.160515804383225
 20
4.326715520892245
  0
LWPOLYLINE
  5
676
330
18
100
AcDbEntity
  8
ADP1DETAIL
100
AcDbPolyline
 90
        2
 70
     0
 43
0.0
 10
1.340533293137863
 20
4.261291084000516
 10
1.308986723517093
 20
4.251646329772679
  0
LWPOLYLINE
  5
67A
330
18
100
AcDbEntity
  8
ADP1DETAIL
100
AcDbPolyline
 90
        2
 70
     0
 43
0.0
 10
1.340533293137862
 20
4.261291084000519
 10
1.308986723517091
 20
4.251646329772678
  0
LWPOLYLINE
  5
67E
330
18
100
AcDbEntity
  8
ADP1DETAIL
100
AcDbPolyline
 90
        2
 70
     0
 43
0.0
 10
1.340533293137862
 20
4.261291084000519
 10
1.308986723517089
 20
4.251646329772681
  0
LWPOLYLINE
  5
682
330
18
100
AcDbEntity
  8
ADP1DETAIL
100
AcDbPolyline
 90
        2
 70
     0
 43
0.0
 10
1.297228930595358
 20
4.28237096279372
 10
1.266431990877721
 20
4.270549125246967
  0
LWPOLYLINE
  5
686
330
18
100
AcDbEntity
  8
ADP1DETAIL
100
AcDbPolyline
 90
        2
 70
     0
 43
0.0
 10
1.307487331298136
 20
4.250635855884823
 10
1.297705021441278
 20
4.282140042159313
  0
LWPOLYLINE
  5
68A
330
18
100
AcDbEntity
  8
ADP1DETAIL
100
AcDbPolyline
 90
        2
 70
     0
 43
0.0
 10
1.297228930595355
 20
4.28237096279372
 10
1.266431990877717
 20
4.270549125246969
  0
LWPOLYLINE
  5
68E
330
18
100
AcDbEntity
  8
ADP1DETAIL
100
AcDbPolyline
 90
        2
 70
     0
 43
0.0
 10
1.297228930595355
 20
4.28237096279372
 10
1.266431990877717
 20
4.270549125246969
  0
LWPOLYLINE
  5
692
330
18
100
AcDbEntity
  8
ADP1DETAIL
100
AcDbPolyline
 90
        2
 70
     0
 43
0.0
 10
1.307487331298132
 20
4.250635855884825
 10
1.297705021441275
 20
4.282140042159314
  0
LWPOLYLINE
  5
696
330
18
100
AcDbEntity
  8
ADP1DETAIL
100
AcDbPolyline
 90
        2
 70
     0
 43
0.0
 10
1.252559597291967
 20
4.30037873243295
 10
1.222662327072073
 20
4.286437406371485
  0
LWPOLYLINE
  5
69A
330
18
100
AcDbEntity
  8
ADP1DETAIL
100
AcDbPolyline
 90
        2
 70
     0
 43
0.0
 10
1.252559597291964
 20
4.300378732432951
 10
1.222662327072067
 20
4.286437406371486
  0
LWPOLYLINE
  5
69E
330
18
100
AcDbEntity
  8
ADP1DETAIL
100
AcDbPolyline
 90
        2
 70
     0
 43
0.0
 10
1.252559597291964
 20
4.300378732432951
 10
1.222662327072067
 20
4.286437406371486
  0
LWPOLYLINE
  5
6A2
330
18
100
AcDbEntity
  8
ADP1DETAIL
100
AcDbPolyline
 90
        2
 70
     0
 43
0.0
 10
1.265006738198079
 20
4.269436520508761
 10
1.253050636613687
 20
4.300181584728195
  0
LWPOLYLINE
  5
6A6
330
18
100
AcDbEntity
  8
ADP1DETAIL
100
AcDbPolyline
 90
        2
 70
     0
 43
0.0
 10
1.265006738198075
 20
4.269436520508762
 10
1.253050636613683
 20
4.300181584728196
  0
LWPOLYLINE
  5
6AA
330
18
100
AcDbEntity
  8
ADP1DETAIL
100
AcDbPolyline
 90
        2
 70
     0
 43
0.0
 10
1.160002106165017
 20
4.326842410503992
 10
1.132336051703185
 20
4.308875864662665
  0
LWPOLYLINE
  5
6AE
330
18
100
AcDbEntity
  8
ADP1DETAIL
100
AcDbPolyline
 90
        2
 70
     0
 43
0.0
 10
1.160002106165014
 20
4.326842410503993
 10
1.132336051703183
 20
4.308875864662665
  0
LWPOLYLINE
  5
6B2
330
18
100
AcDbEntity
  8
ADP1DETAIL
100
AcDbPolyline
 90
        2
 70
     0
 43
0.0
 10
1.160002106165014
 20
4.326842410503993
 10
1.132336051703181
 20
4.308875864662667
  0
LWPOLYLINE
  5
6B6
330
18
100
AcDbEntity
  8
ADP1DETAIL
100
AcDbPolyline
 90
        2
 70
     0
 43
0.0
 10
1.382261710418117
 20
4.237241795103884
 10
1.350119202610355
 20
4.22982111246807
  0
LWPOLYLINE
  5
6BA
330
18
100
AcDbEntity
  8
ADP1DETAIL
100
AcDbPolyline
 90
        2
 70
     0
 43
0.0
 10
1.388003603832623
 20
4.204387838637206
 10
1.382701030039885
 20
4.236946862733853
  0
LWPOLYLINE
  5
6BE
330
18
100
AcDbEntity
  8
ADP1DETAIL
100
AcDbPolyline
 90
        2
 70
     0
 43
0.0
 10
1.382261710418114
 20
4.237241795103885
 10
1.350119202610353
 20
4.229821112468069
  0
LWPOLYLINE
  5
6C2
330
18
100
AcDbEntity
  8
ADP1DETAIL
100
AcDbPolyline
 90
        2
 70
     0
 43
0.0
 10
1.382261710418116
 20
4.237241795103886
 10
1.35011920261035
 20
4.229821112468071
  0
LWPOLYLINE
  5
6C6
330
18
100
AcDbEntity
  8
ADP1DETAIL
100
AcDbPolyline
 90
        2
 70
     0
 43
0.0
 10
1.388003603832621
 20
4.204387838637208
 10
1.382701030039881
 20
4.236946862733855
  0
LWPOLYLINE
  5
6CA
330
18
100
AcDbEntity
  8
ADP1DETAIL
100
AcDbPolyline
 90
        2
 70
     0
 43
0.0
 10
1.461299817564015
 20
4.147384204587913
 10
1.460580188402684
 20
4.180364342138013
  0
LWPOLYLINE
  5
6CE
330
18
100
AcDbEntity
  8
ADP1DETAIL
100
AcDbPolyline
 90
        2
 70
     0
 43
0.0
 10
1.460186190861786
 20
4.180717545720571
 10
1.427323732316813
 20
4.177842453142297
  0
LWPOLYLINE
  5
6D2
330
18
100
AcDbEntity
  8
ADP1DETAIL
100
AcDbPolyline
 90
        2
 70
     0
 43
0.0
 10
1.460186190861784
 20
4.18071754572057
 10
1.427323732316817
 20
4.177842453142295
  0
LWPOLYLINE
  5
6D6
330
18
100
AcDbEntity
  8
ADP1DETAIL
100
AcDbPolyline
 90
        2
 70
     0
 43
0.0
 10
1.461299817564017
 20
4.147384204587911
 10
1.460580188402686
 20
4.180364342138011
  0
LWPOLYLINE
  5
6DA
330
18
100
AcDbEntity
  8
ADP1DETAIL
100
AcDbPolyline
 90
        2
 70
     0
 43
0.0
 10
1.460186190861787
 20
4.180717545720567
 10
1.427323732316817
 20
4.177842453142295
  0
LWPOLYLINE
  5
6DE
330
18
100
AcDbEntity
  8
ADP1DETAIL
100
AcDbPolyline
 90
        2
 70
     0
 43
0.0
 10
1.422210885781658
 20
4.210340261821896
 10
1.389629034853988
 20
4.205179803597982
  0
LWPOLYLINE
  5
6E2
330
18
100
AcDbEntity
  8
ADP1DETAIL
100
AcDbPolyline
 90
        2
 70
     0
 43
0.0
 10
1.425647016080735
 20
4.177165801704724
 10
1.42262856180078
 20
4.210015402504632
  0
LWPOLYLINE
  5
6E6
330
18
100
AcDbEntity
  8
ADP1DETAIL
100
AcDbPolyline
 90
        2
 70
     0
 43
0.0
 10
1.422210885781654
 20
4.210340261821896
 10
1.389629034853988
 20
4.205179803597982
  0
LWPOLYLINE
  5
6EA
330
18
100
AcDbEntity
  8
ADP1DETAIL
100
AcDbPolyline
 90
        2
 70
     0
 43
0.0
 10
1.422210885781654
 20
4.210340261821897
 10
1.389629034853984
 20
4.205179803597983
  0
LWPOLYLINE
  5
6EE
330
18
100
AcDbEntity
  8
ADP1DETAIL
100
AcDbPolyline
 90
        2
 70
     0
 43
0.0
 10
1.425647016080733
 20
4.177165801704726
 10
1.422628561800777
 20
4.210015402504634
  0
LWPOLYLINE
  5
6F2
330
18
100
AcDbEntity
  8
ADP1DETAIL
100
AcDbPolyline
 90
        2
 70
     0
 43
0.0
 10
1.460186190861789
 20
4.18071754572057
 10
1.427323732316819
 20
4.177842453142297
  0
LWPOLYLINE
  5
6F6
330
18
100
AcDbEntity
  8
ADP1DETAIL
100
AcDbPolyline
 90
        2
 70
     0
 43
0.0
 10
1.460186190861786
 20
4.180717545720572
 10
1.427323732316815
 20
4.177842453142297
  0
LWPOLYLINE
  5
6FA
330
18
100
AcDbEntity
  8
ADP1DETAIL
100
AcDbPolyline
 90
        2
 70
     0
 43
0.0
 10
1.460186190861787
 20
4.180717545720573
 10
1.427323732316815
 20
4.177842453142298
  0
LWPOLYLINE
  5
6FE
330
18
100
AcDbEntity
  8
ADP1DETAIL
100
AcDbPolyline
 90
        2
 70
     0
 43
0.0
 10
1.461299817564019
 20
4.147384204587913
 10
1.460580188402686
 20
4.180364342138014
  0
LWPOLYLINE
  5
702
330
18
100
AcDbEntity
  8
ADP1DETAIL
100
AcDbPolyline
 90
        2
 70
     0
 43
0.0
 10
1.461299817564015
 20
4.147384204587915
 10
1.460580188402682
 20
4.180364342138016
  0
LWPOLYLINE
  5
706
330
18
100
AcDbEntity
  8
ADP1DETAIL
100
AcDbPolyline
 90
        2
 70
     0
 43
0.0
 10
1.348552975740259
 20
4.228917692357768
 10
1.340992116041241
 20
4.261027515458575
  0
LWPOLYLINE
  5
70A
330
18
100
AcDbEntity
  8
ADP1DETAIL
100
AcDbPolyline
 90
        2
 70
     0
 43
0.0
 10
1.348552975740257
 20
4.228917692357771
 10
1.340992116041237
 20
4.261027515458577
  0
LWPOLYLINE
  5
70E
330
18
100
AcDbEntity
  8
ADP1DETAIL
100
AcDbPolyline
 90
        2
 70
     0
 43
0.0
 10
1.560472205112341
 20
4.077027496292377
 10
1.527730104773156
 20
4.081047720705565
  0
LWPOLYLINE
  5
712
330
18
100
AcDbEntity
  8
ADP1DETAIL
100
AcDbPolyline
 90
        2
 70
     0
 43
0.0
 10
1.560472205112337
 20
4.077027496292378
 10
1.527730104773154
 20
4.081047720705566
  0
LWPOLYLINE
  5
716
330
18
100
AcDbEntity
  8
ADP1DETAIL
100
AcDbPolyline
 90
        2
 70
     0
 43
0.0
 10
1.560472205112339
 20
4.077027496292379
 10
1.527730104773152
 20
4.081047720705567
  0
LWPOLYLINE
  5
71A
330
18
100
AcDbEntity
  8
ADP1DETAIL
100
AcDbPolyline
 90
        2
 70
     0
 43
0.0
 10
1.529485660552317
 20
4.113898394862637
 10
1.496542881645225
 20
4.115624852748572
  0
LWPOLYLINE
  5
71E
330
18
100
AcDbEntity
  8
ADP1DETAIL
100
AcDbPolyline
 90
        2
 70
     0
 43
0.0
 10
1.525949345065241
 20
4.080734464633036
 10
1.529826667298377
 20
4.113493794773529
  0
LWPOLYLINE
  5
722
330
18
100
AcDbEntity
  8
ADP1DETAIL
100
AcDbPolyline
 90
        2
 70
     0
 43
0.0
 10
1.529485660552315
 20
4.11389839486264
 10
1.496542881645221
 20
4.115624852748573
  0
LWPOLYLINE
  5
726
330
18
100
AcDbEntity
  8
ADP1DETAIL
100
AcDbPolyline
 90
        2
 70
     0
 43
0.0
 10
1.529485660552315
 20
4.11389839486264
 10
1.496542881645221
 20
4.115624852748575
  0
LWPOLYLINE
  5
72A
330
18
100
AcDbEntity
  8
ADP1DETAIL
100
AcDbPolyline
 90
        2
 70
     0
 43
0.0
 10
1.52594934506524
 20
4.080734464633039
 10
1.529826667298375
 20
4.113493794773532
  0
LWPOLYLINE
  5
72E
330
18
100
AcDbEntity
  8
ADP1DETAIL
100
AcDbPolyline
 90
        2
 70
     0
 43
0.0
 10
1.494788311417456
 20
4.115188140234286
 10
1.496371013335683
 20
4.148138138619588
  0
LWPOLYLINE
  5
732
330
18
100
AcDbEntity
  8
ADP1DETAIL
100
AcDbPolyline
 90
        2
 70
     0
 43
0.0
 10
1.494788311417452
 20
4.115188140234288
 10
1.496371013335681
 20
4.148138138619591
  0
LINE
  5
736
330
18
100
AcDbEntity
  8
ADP1DETAIL
100
AcDbLine
 10
2.045915524050752
 20
3.085083776506029
 30
0.0
 11
2.04591552405075
 21
4.339526390325076
 31
0.0
  0
LINE
  5
737
330
18
100
AcDbEntity
  8
ADP1DETAIL
100
AcDbLine
 10
1.983415524050751
 20
3.147583776506029
 30
0.0
 11
1.98341552405075
 21
4.277026390325076
 31
0.0
  0
LINE
  5
738
330
18
100
AcDbEntity
  8
ADP1DETAIL
100
AcDbLine
 10
1.983415524050751
 20
3.147583776506029
 30
0.0
 11
2.045915524050752
 21
3.085083776506029
 31
0.0
  0
LINE
  5
739
330
18
100
AcDbEntity
  8
ADP1DETAIL
100
AcDbLine
 10
2.04591552405075
 20
4.339526390325076
 30
0.0
 11
1.98341552405075
 21
4.277026390325076
 31
0.0
  0
LINE
  5
73A
330
18
100
AcDbEntity
  8
ADP1DETAIL
100
AcDbLine
 10
6.92091552405075
 20
4.339526390325076
 30
0.0
 11
6.92091552405075
 21
3.085083776506029
 31
0.0
  0
LINE
  5
73B
330
18
100
AcDbEntity
  8
ADP1DETAIL
100
AcDbLine
 10
6.98341552405075
 20
4.277026390325076
 30
0.0
 11
6.98341552405075
 21
3.147583776506029
 31
0.0
  0
LINE
  5
73C
330
18
100
AcDbEntity
  8
ADP1DETAIL
100
AcDbLine
 10
6.98341552405075
 20
3.147583776506029
 30
0.0
 11
6.92091552405075
 21
3.085083776506029
 31
0.0
  0
LINE
  5
73D
330
18
100
AcDbEntity
  8
ADP1DETAIL
100
AcDbLine
 10
6.92091552405075
 20
4.339526390325076
 30
0.0
 11
6.98341552405075
 21
4.277026390325076
 31
0.0
  0
TEXT
  5
74B
330
18
100
AcDbEntity
  8
ADPDIM
100
AcDbText
 10
-3.176414995987576
 20
2.36132648034171
 30
0.0
 40
0.125
  1
J U L I U S  B L U M  &  C O . ,  I N C .      ( 8 0 0 )  5 2 6 - 6 2 9 3        W W W . J U L I U S B L U M . C O M        P A R T  N o .  7 4 6 3
 41
1.25
  7
ARIAL_WIDE
 72
     1
 11
3.34931402856904
 21
2.48632648034171
 31
0.0
100
AcDbText
 73
     3
  0
ENDSEC
  0
SECTION
  2
OBJECTS
  0
DICTIONARY
  5
C
330
0
100
AcDbDictionary
  3
ACAD_GROUP
350
D
  3
ACAD_LAYOUT
350
744
  3
ACAD_MLINESTYLE
350
E
  3
ACAD_PLOTSETTINGS
350
745
  3
ACAD_PLOTSTYLENAME
350
742
  3
ACDBHEADERROUNDTRIPXREC
350
88F
  3
ACDBVARIABLEDICTIONARY
350
7A5
  0
DICTIONARY
  5
79F
330
18
100
AcDbDictionary
280
     1
  3
ACAD_LAYOUTSELFREF
360
8B0
  0
DICTIONARY
  5
79D
330
15
100
AcDbDictionary
280
     1
  3
ACAD_LAYOUTSELFREF
360
8AF
  0
DICTIONARY
  5
D
102
{ACAD_REACTORS
330
C
102
}
330
C
100
AcDbDictionary
  0
DICTIONARY
  5
744
102
{ACAD_REACTORS
330
C
102
}
330
C
100
AcDbDictionary
  0
DICTIONARY
  5
E
102
{ACAD_REACTORS
330
C
102
}
330
C
100
AcDbDictionary
  3
STANDARD
350
1B
  0
DICTIONARY
  5
745
102
{ACAD_REACTORS
330
C
102
}
330
C
100
AcDbDictionary
  0
ACDBDICTIONARYWDFLT
  5
742
102
{ACAD_REACTORS
330
C
102
}
330
C
100
AcDbDictionary
281
     1
  3
Normal
350
743
100
AcDbDictionaryWithDefault
340
743
  0
DICTIONARY
  5
88F
102
{ACAD_REACTORS
330
C
102
}
330
C
100
AcDbDictionary
  3
CEPSNTYPE
350
899
  3
FINGERPRINTGUID
350
89A
  3
HYPERLINKBASE
350
892
  3
INSUNITS
350
898
  3
LAYOUTDICT
350
894
  3
LWETCUNION
350
897
  3
PLOTSETDICT
350
895
  3
PLOTSTYLNAMDICT
350
896
  3
PSVPSCALE
350
89C
  3
PUCSBASE
350
89F
  3
PUCSORGBACK
350
8A5
  3
PUCSORGBOTTOM
350
8A1
  3
PUCSORGFRONT
350
8A4
  3
PUCSORGLEFT
350
8A2
  3
PUCSORGRIGHT
350
8A3
  3
PUCSORGTOP
350
8A0
  3
PUCSORTHOREF
350
89D
  3
PUCSORTHOVIEW
350
89E
  3
STYLESHEET
350
893
  3
TSTACKALIGN
350
890
  3
TSTACKSIZE
350
891
  3
UCSBASE
350
8A8
  3
UCSORGBACK
350
8AE
  3
UCSORGBOTTOM
350
8AA
  3
UCSORGFRONT
350
8AD
  3
UCSORGLEFT
350
8AB
  3
UCSORGRIGHT
350
8AC
  3
UCSORGTOP
350
8A9
  3
UCSORTHOREF
350
8A6
  3
UCSORTHOVIEW
350
8A7
  3
VERSIONGUID
350
89B
  0
DICTIONARY
  5
7A5
102
{ACAD_REACTORS
330
C
102
}
330
C
100
AcDbDictionary
  3
DIMASSOC
350
7A6
  0
XRECORD
  5
8B0
102
{ACAD_REACTORS
330
79F
102
}
330
79F
100
AcDbXrecord
340
18
  0
XRECORD
  5
8AF
102
{ACAD_REACTORS
330
79D
102
}
330
79D
100
AcDbXrecord
340
15
  0
MLINESTYLE
  5
1B
102
{ACAD_REACTORS
330
E
102
}
330
E
100
AcDbMlineStyle
  2
STANDARD
 70
     0
  3

 62
     0
 51
90.0
 52
90.0
 71
     2
 49
0.5
 62
   256
  6
BYLAYER
 49
-0.5
 62
   256
  6
BYLAYER
  0
ACDBPLACEHOLDER
  5
743
102
{ACAD_REACTORS
330
742
102
}
330
742
100
AcDbPlaceHolder
280
     0
  0
XRECORD
  5
899
102
{ACAD_REACTORS
330
88F
102
}
330
88F
100
AcDbXrecord
 90
        0
  0
XRECORD
  5
89A
102
{ACAD_REACTORS
330
88F
102
}
330
88F
100
AcDbXrecord
  1
{B484714F-BA42-408C-BEB3-28A42B01F4C8}
  0
XRECORD
  5
892
102
{ACAD_REACTORS
330
88F
102
}
330
88F
100
AcDbXrecord
  1

  0
XRECORD
  5
898
102
{ACAD_REACTORS
330
88F
102
}
330
88F
100
AcDbXrecord
 90
        0
  0
XRECORD
  5
894
102
{ACAD_REACTORS
330
88F
102
}
330
88F
100
AcDbXrecord
340
744
  0
XRECORD
  5
897
102
{ACAD_REACTORS
330
88F
102
}
330
88F
100
AcDbXrecord
 90
    14877
  0
XRECORD
  5
895
102
{ACAD_REACTORS
330
88F
102
}
330
88F
100
AcDbXrecord
340
745
  0
XRECORD
  5
896
102
{ACAD_REACTORS
330
88F
102
}
330
88F
100
AcDbXrecord
340
742
  0
XRECORD
  5
89C
102
{ACAD_REACTORS
330
88F
102
}
330
88F
100
AcDbXrecord
 40
0.0
  0
XRECORD
  5
89F
102
{ACAD_REACTORS
330
88F
102
}
330
88F
100
AcDbXrecord
340
0
  0
XRECORD
  5
8A5
102
{ACAD_REACTORS
330
88F
102
}
330
88F
100
AcDbXrecord
 10
0.0
 20
0.0
 30
0.0
  0
XRECORD
  5
8A1
102
{ACAD_REACTORS
330
88F
102
}
330
88F
100
AcDbXrecord
 10
0.0
 20
0.0
 30
0.0
  0
XRECORD
  5
8A4
102
{ACAD_REACTORS
330
88F
102
}
330
88F
100
AcDbXrecord
 10
0.0
 20
0.0
 30
0.0
  0
XRECORD
  5
8A2
102
{ACAD_REACTORS
330
88F
102
}
330
88F
100
AcDbXrecord
 10
0.0
 20
0.0
 30
0.0
  0
XRECORD
  5
8A3
102
{ACAD_REACTORS
330
88F
102
}
330
88F
100
AcDbXrecord
 10
0.0
 20
0.0
 30
0.0
  0
XRECORD
  5
8A0
102
{ACAD_REACTORS
330
88F
102
}
330
88F
100
AcDbXrecord
 10
0.0
 20
0.0
 30
0.0
  0
XRECORD
  5
89D
102
{ACAD_REACTORS
330
88F
102
}
330
88F
100
AcDbXrecord
340
0
  0
XRECORD
  5
89E
102
{ACAD_REACTORS
330
88F
102
}
330
88F
100
AcDbXrecord
 70
     0
  0
XRECORD
  5
893
102
{ACAD_REACTORS
330
88F
102
}
330
88F
100
AcDbXrecord
  1

  0
XRECORD
  5
890
102
{ACAD_REACTORS
330
88F
102
}
330
88F
100
AcDbXrecord
 90
        1
  0
XRECORD
  5
891
102
{ACAD_REACTORS
330
88F
102
}
330
88F
100
AcDbXrecord
 90
       70
  0
XRECORD
  5
8A8
102
{ACAD_REACTORS
330
88F
102
}
330
88F
100
AcDbXrecord
340
0
  0
XRECORD
  5
8AE
102
{ACAD_REACTORS
330
88F
102
}
330
88F
100
AcDbXrecord
 10
0.0
 20
0.0
 30
0.0
  0
XRECORD
  5
8AA
102
{ACAD_REACTORS
330
88F
102
}
330
88F
100
AcDbXrecord
 10
0.0
 20
0.0
 30
0.0
  0
XRECORD
  5
8AD
102
{ACAD_REACTORS
330
88F
102
}
330
88F
100
AcDbXrecord
 10
0.0
 20
0.0
 30
0.0
  0
XRECORD
  5
8AB
102
{ACAD_REACTORS
330
88F
102
}
330
88F
100
AcDbXrecord
 10
0.0
 20
0.0
 30
0.0
  0
XRECORD
  5
8AC
102
{ACAD_REACTORS
330
88F
102
}
330
88F
100
AcDbXrecord
 10
0.0
 20
0.0
 30
0.0
  0
XRECORD
  5
8A9
102
{ACAD_REACTORS
330
88F
102
}
330
88F
100
AcDbXrecord
 10
0.0
 20
0.0
 30
0.0
  0
XRECORD
  5
8A6
102
{ACAD_REACTORS
330
88F
102
}
330
88F
100
AcDbXrecord
340
0
  0
XRECORD
  5
8A7
102
{ACAD_REACTORS
330
88F
102
}
330
88F
100
AcDbXrecord
 70
     0
  0
XRECORD
  5
89B
102
{ACAD_REACTORS
330
88F
102
}
330
88F
100
AcDbXrecord
  1
{15FDF4CC-4D38-4A3A-ABB8-08364549B0D8}
  0
DICTIONARYVAR
  5
7A6
102
{ACAD_REACTORS
330
7A5
102
}
330
7A5
100
DictionaryVariables
280
     0
  1
1
  0
ENDSEC
  0
EOF
