  0
SECTION
  2
HEADER
  9
$ACADVER
  1
AC1014
  9
$ACADMAINTVER
 70
     9
  9
$DWGCODEPAGE
  3
ANSI_1252
  9
$INSBASE
 10
10.75610802626997
 20
3.551024590662843
 30
0.0
  9
$EXTMIN
 10
6.598295578442739
 20
-0.3044785657116791
 30
0.0
  9
$EXTMAX
 10
19.64975362755597
 20
5.211024590662843
 30
0.0
  9
$LIMMIN
 10
0.0
 20
0.0
  9
$LIMMAX
 10
36.0
 20
36.0
  9
$ORTHOMODE
 70
     1
  9
$REGENMODE
 70
     1
  9
$FILLMODE
 70
     1
  9
$QTEXTMODE
 70
     0
  9
$MIRRTEXT
 70
     1
  9
$DRAGMODE
 70
     0
  9
$LTSCALE
 40
1.0
  9
$OSMODE
 70
    37
  9
$ATTMODE
 70
     1
  9
$TEXTSIZE
 40
0.2
  9
$TRACEWID
 40
0.05
  9
$TEXTSTYLE
  7
STANDARD
  9
$CLAYER
  8
ADP1DETAIL
  9
$CELTYPE
  6
BYLAYER
  9
$CECOLOR
 62
   256
  9
$CELTSCALE
 40
1.0
  9
$DELOBJ
 70
     1
  9
$DISPSILH
 70
     0
  9
$DIMSCALE
 40
1.0
  9
$DIMASZ
 40
0.125
  9
$DIMEXO
 40
0.0625
  9
$DIMDLI
 40
0.38
  9
$DIMRND
 40
0.0
  9
$DIMDLE
 40
0.0
  9
$DIMEXE
 40
0.18
  9
$DIMTP
 40
0.0
  9
$DIMTM
 40
0.0
  9
$DIMTXT
 40
0.125
  9
$DIMCEN
 40
0.1875
  9
$DIMTSZ
 40
0.125
  9
$DIMTOL
 70
     0
  9
$DIMLIM
 70
     0
  9
$DIMTIH
 70
     0
  9
$DIMTOH
 70
     0
  9
$DIMSE1
 70
     0
  9
$DIMSE2
 70
     0
  9
$DIMTAD
 70
     0
  9
$DIMZIN
 70
     3
  9
$DIMBLK
  1

  9
$DIMASO
 70
     1
  9
$DIMSHO
 70
     1
  9
$DIMPOST
  1

  9
$DIMAPOST
  1

  9
$DIMALT
 70
     0
  9
$DIMALTD
 70
     1
  9
$DIMALTF
 40
25.4
  9
$DIMLFAC
 40
1.0
  9
$DIMTOFL
 70
     0
  9
$DIMTVP
 40
0.0
  9
$DIMTIX
 70
     0
  9
$DIMSOXD
 70
     0
  9
$DIMSAH
 70
     0
  9
$DIMBLK1
  1

  9
$DIMBLK2
  1

  9
$DIMSTYLE
  2
STANDARD
  9
$DIMCLRD
 70
     0
  9
$DIMCLRE
 70
     0
  9
$DIMCLRT
 70
     0
  9
$DIMTFAC
 40
1.0
  9
$DIMGAP
 40
0.125
  9
$DIMJUST
 70
     0
  9
$DIMSD1
 70
     0
  9
$DIMSD2
 70
     0
  9
$DIMTOLJ
 70
     1
  9
$DIMTZIN
 70
     0
  9
$DIMALTZ
 70
     0
  9
$DIMALTTZ
 70
     0
  9
$DIMFIT
 70
     3
  9
$DIMUPT
 70
     0
  9
$DIMUNIT
 70
     2
  9
$DIMDEC
 70
     4
  9
$DIMTDEC
 70
     4
  9
$DIMALTU
 70
     2
  9
$DIMALTTD
 70
     2
  9
$DIMTXSTY
  7
STANDARD
  9
$DIMAUNIT
 70
     0
  9
$LUNITS
 70
     5
  9
$LUPREC
 70
     4
  9
$SKETCHINC
 40
0.1
  9
$FILLETRAD
 40
0.062
  9
$AUNITS
 70
     0
  9
$AUPREC
 70
     0
  9
$MENU
  1
acad
  9
$ELEVATION
 40
0.0
  9
$PELEVATION
 40
0.0
  9
$THICKNESS
 40
0.0
  9
$LIMCHECK
 70
     0
  9
$BLIPMODE
 70
     0
  9
$CHAMFERA
 40
0.0
  9
$CHAMFERB
 40
0.0
  9
$CHAMFERC
 40
0.0
  9
$CHAMFERD
 40
0.0
  9
$SKPOLY
 70
     0
  9
$TDCREATE
 40
2450225.625258866
  9
$TDUPDATE
 40
2452297.101497026
  9
$TDINDWG
 40
0.0375791782
  9
$TDUSRTIMER
 40
0.0375791782
  9
$USRTIMER
 70
     1
  9
$ANGBASE
 50
0.0
  9
$ANGDIR
 70
     0
  9
$PDMODE
 70
     0
  9
$PDSIZE
 40
0.0
  9
$PLINEWID
 40
0.0
  9
$COORDS
 70
     2
  9
$SPLFRAME
 70
     0
  9
$SPLINETYPE
 70
     6
  9
$SPLINESEGS
 70
     8
  9
$ATTDIA
 70
     0
  9
$ATTREQ
 70
     1
  9
$HANDLING
 70
 22529
  9
$HANDSEED
  5
90F
  9
$SURFTAB1
 70
     6
  9
$SURFTAB2
 70
     6
  9
$SURFTYPE
 70
     6
  9
$SURFU
 70
     6
  9
$SURFV
 70
     6
  9
$UCSNAME
  2

  9
$UCSORG
 10
0.0
 20
0.0
 30
0.0
  9
$UCSXDIR
 10
1.0
 20
0.0
 30
0.0
  9
$UCSYDIR
 10
0.0
 20
1.0
 30
0.0
  9
$PUCSNAME
  2

  9
$PUCSORG
 10
0.0
 20
0.0
 30
0.0
  9
$PUCSXDIR
 10
1.0
 20
0.0
 30
0.0
  9
$PUCSYDIR
 10
0.0
 20
1.0
 30
0.0
  9
$USERI1
 70
     0
  9
$USERI2
 70
     0
  9
$USERI3
 70
     0
  9
$USERI4
 70
     0
  9
$USERI5
 70
     0
  9
$USERR1
 40
0.0
  9
$USERR2
 40
0.0
  9
$USERR3
 40
0.0
  9
$USERR4
 40
0.0
  9
$USERR5
 40
0.0
  9
$WORLDVIEW
 70
     1
  9
$SHADEDGE
 70
     3
  9
$SHADEDIF
 70
    70
  9
$TILEMODE
 70
     1
  9
$MAXACTVP
 70
    15
  9
$PINSBASE
 10
0.0008545056916773
 20
1.250276130627782
 30
0.0
  9
$PLIMCHECK
 70
     0
  9
$PEXTMIN
 10
1.000000000000000E+20
 20
1.000000000000000E+20
 30
1.000000000000000E+20
  9
$PEXTMAX
 10
-1.000000000000000E+20
 20
-1.000000000000000E+20
 30
-1.000000000000000E+20
  9
$PLIMMIN
 10
0.0
 20
0.0
  9
$PLIMMAX
 10
12.0
 20
9.0
  9
$UNITMODE
 70
     0
  9
$VISRETAIN
 70
     0
  9
$PLINEGEN
 70
     0
  9
$PSLTSCALE
 70
     1
  9
$TREEDEPTH
 70
  3020
  9
$PICKSTYLE
 70
     1
  9
$CMLSTYLE
  2
STANDARD
  9
$CMLJUST
 70
     0
  9
$CMLSCALE
 40
1.0
  9
$PROXYGRAPHICS
 70
     1
  9
$MEASUREMENT
 70
     0
  0
ENDSEC
  0
SECTION
  2
CLASSES
  0
CLASS
  1
ACDBDICTIONARYWDFLT
  2
AcDbDictionaryWithDefault
  3
AutoCAD 2000
 90
        0
280
     0
281
     0
  0
CLASS
  1
ACDBPLACEHOLDER
  2
AcDbPlaceHolder
  3
AutoCAD 2000
 90
        0
280
     0
281
     0
  0
CLASS
  1
LAYOUT
  2
AcDbLayout
  3
AutoCAD 2000
 90
        0
280
     0
281
     0
  0
CLASS
  1
DICTIONARYVAR
  2
AcDbDictionaryVar
  3
AutoCAD 2000
 90
        0
280
     0
281
     0
  0
CLASS
  1
LONG_TRANSACTION
  2
AcDbLongTransaction
  3
AutoCAD 2000
 90
        0
280
     0
281
     0
  0
CLASS
  1
LWPOLYLINE
  2
AcDbPolyline
  3
AutoCAD 2000
 90
        0
280
     0
281
     1
  0
CLASS
  1
HATCH
  2
AcDbHatch
  3
AutoCAD 2000
 90
        0
280
     0
281
     1
  0
CLASS
  1
XRECORD
  2
AcDbXrecord
  3
AutoCAD 2000
 90
        0
280
     0
281
     0
  0
CLASS
  1
LONG_TRANSACTION
  2
AcDbLongTransaction
  3
AutoCAD 2000
 90
        0
280
     0
281
     0
  0
CLASS
  1
LWPOLYLINE
  2
AcDbPolyline
  3
AutoCAD 2000
 90
        0
280
     0
281
     1
  0
CLASS
  1
HATCH
  2
AcDbHatch
  3
AutoCAD 2000
 90
        0
280
     0
281
     1
  0
CLASS
  1
XRECORD
  2
AcDbXrecord
  3
AutoCAD 2000
 90
        0
280
     0
281
     0
  0
CLASS
  1
LONG_TRANSACTION
  2
AcDbLongTransaction
  3
AutoCAD 2000
 90
        0
280
     0
281
     0
  0
CLASS
  1
LWPOLYLINE
  2
AcDbPolyline
  3
AutoCAD 2000
 90
        0
280
     0
281
     1
  0
CLASS
  1
HATCH
  2
AcDbHatch
  3
AutoCAD 2000
 90
        0
280
     0
281
     1
  0
CLASS
  1
XRECORD
  2
AcDbXrecord
  3
AutoCAD 2000
 90
        0
280
     0
281
     0
  0
CLASS
  1
LONG_TRANSACTION
  2
AcDbLongTransaction
  3
AutoCAD 2000
 90
        0
280
     0
281
     0
  0
CLASS
  1
LWPOLYLINE
  2
AcDbPolyline
  3
AutoCAD 2000
 90
        0
280
     0
281
     1
  0
CLASS
  1
HATCH
  2
AcDbHatch
  3
AutoCAD 2000
 90
        0
280
     0
281
     1
  0
CLASS
  1
XRECORD
  2
AcDbXrecord
  3
AutoCAD 2000
 90
        0
280
     0
281
     0
  0
CLASS
  1
LONG_TRANSACTION
  2
AcDbLongTransaction
  3
AutoCAD 2000
 90
        0
280
     0
281
     0
  0
CLASS
  1
LWPOLYLINE
  2
AcDbPolyline
  3
AutoCAD 2000
 90
        0
280
     0
281
     1
  0
CLASS
  1
HATCH
  2
AcDbHatch
  3
AutoCAD 2000
 90
        0
280
     0
281
     1
  0
CLASS
  1
XRECORD
  2
AcDbXrecord
  3
AutoCAD 2000
 90
        0
280
     0
281
     0
  0
ENDSEC
  0
SECTION
  2
TABLES
  0
TABLE
  2
VPORT
  5
8
330
0
100
AcDbSymbolTable
 70
     2
  0
VPORT
  5
8EC
330
8
100
AcDbSymbolTableRecord
100
AcDbViewportTableRecord
  2
*ACTIVE
 70
     0
 10
0.0
 20
0.0
 11
1.0
 21
1.0
 12
13.1339796965216
 22
2.453007711345863
 13
0.0
 23
0.0
 14
0.5740882589684922
 24
0.5740882589684922
 15
0.5
 25
0.5
 16
0.0
 26
0.0
 36
1.0
 17
0.0
 27
0.0
 37
0.0
 40
8.365595802020571
 41
1.570528967254408
 42
50.0
 43
0.0
 44
0.0
 50
0.0
 51
0.0
 71
     0
 72
   100
 73
     1
 74
     0
 75
     0
 76
     0
 77
     0
 78
     0
  0
ENDTAB
  0
TABLE
  2
LTYPE
  5
5
330
0
100
AcDbSymbolTable
 70
     3
  0
LTYPE
  5
12
330
5
100
AcDbSymbolTableRecord
100
AcDbLinetypeTableRecord
  2
BYBLOCK
 70
     0
  3

 72
    65
 73
     0
 40
0.0
  0
LTYPE
  5
13
330
5
100
AcDbSymbolTableRecord
100
AcDbLinetypeTableRecord
  2
BYLAYER
 70
     0
  3

 72
    65
 73
     0
 40
0.0
  0
LTYPE
  5
14
330
5
100
AcDbSymbolTableRecord
100
AcDbLinetypeTableRecord
  2
CONTINUOUS
 70
     0
  3
Solid line
 72
    65
 73
     0
 40
0.0
  0
LTYPE
  5
6D
330
5
100
AcDbSymbolTableRecord
100
AcDbLinetypeTableRecord
  2
CENTER2
 70
     0
  3
___ _ ___ _ ___ _ ___ _ ___ _ ___ _ ___ _ ___ _
 72
    65
 73
     4
 40
1.125
 49
0.75
 74
     0
 49
-0.125
 74
     0
 49
0.125
 74
     0
 49
-0.125
 74
     0
  0
LTYPE
  5
7C
330
5
100
AcDbSymbolTableRecord
100
AcDbLinetypeTableRecord
  2
HIDDEN2
 70
     0
  3
_ _ _ _ _ _ _ _ _ _ _ _ _ _ _ _ _ _ _ _ _ _ _ _
 72
    65
 73
     2
 40
0.1875
 49
0.125
 74
     0
 49
-0.0625
 74
     0
  0
ENDTAB
  0
TABLE
  2
LAYER
  5
2
330
0
100
AcDbSymbolTable
 70
     6
  0
LAYER
  5
F
330
2
100
AcDbSymbolTableRecord
100
AcDbLayerTableRecord
  2
0
 70
     0
 62
     7
  6
CONTINUOUS
  0
LAYER
  5
7D
330
2
100
AcDbSymbolTableRecord
100
AcDbLayerTableRecord
  2
ADP2DETAIL
 70
     0
 62
     5
  6
CONTINUOUS
  0
LAYER
  5
7E
330
2
100
AcDbSymbolTableRecord
100
AcDbLayerTableRecord
  2
ADPDIM
 70
     0
 62
     3
  6
CONTINUOUS
  0
LAYER
  5
80
330
2
100
AcDbSymbolTableRecord
100
AcDbLayerTableRecord
  2
ADP1DETAIL
 70
     0
 62
     7
  6
CONTINUOUS
  0
LAYER
  5
81
330
2
100
AcDbSymbolTableRecord
100
AcDbLayerTableRecord
  2
ADP3DETAIL
 70
     0
 62
     1
  6
CONTINUOUS
  0
LAYER
  5
82
330
2
100
AcDbSymbolTableRecord
100
AcDbLayerTableRecord
  2
DEFPOINTS
 70
     0
 62
     7
  6
CONTINUOUS
  0
ENDTAB
  0
TABLE
  2
STYLE
  5
3
330
0
100
AcDbSymbolTable
 70
     2
  0
STYLE
  5
10
330
3
100
AcDbSymbolTableRecord
100
AcDbTextStyleTableRecord
  2
STANDARD
 70
     0
 40
0.0
 41
1.0
 50
0.0
 71
     0
 42
0.2
  3
txt
  4

  0
STYLE
  5
7A8
330
3
100
AcDbSymbolTableRecord
100
AcDbTextStyleTableRecord
  2
ARIAL_WIDE
 70
     0
 40
0.0
 41
1.25
 50
0.0
 71
     0
 42
0.2
  3
ARIAL.TTF
  4

1001
ACAD
1000
Arial
1071
       34
  0
ENDTAB
  0
TABLE
  2
VIEW
  5
6
330
0
100
AcDbSymbolTable
 70
     0
  0
ENDTAB
  0
TABLE
  2
UCS
  5
7
330
0
100
AcDbSymbolTable
 70
     0
  0
ENDTAB
  0
TABLE
  2
APPID
  5
9
330
0
100
AcDbSymbolTable
 70
     1
  0
APPID
  5
11
330
9
100
AcDbSymbolTableRecord
100
AcDbRegAppTableRecord
  2
ACAD
 70
     0
  0
ENDTAB
  0
TABLE
  2
DIMSTYLE
  5
A
330
0
100
AcDbSymbolTable
 70
     1
  0
DIMSTYLE
105
79C
330
A
100
AcDbSymbolTableRecord
100
AcDbDimStyleTableRecord
  2
STANDARD
 70
     0
  3

  4

  5

  6

  7

 40
1.0
 41
0.18
 42
0.0625
 43
0.38
 44
0.18
 45
0.0
 46
0.0
 47
0.0
 48
0.0
140
0.18
141
0.09
142
0.0
143
25.4
144
1.0
145
0.0
146
1.0
147
0.09
 71
     0
 72
     0
 73
     1
 74
     1
 75
     0
 76
     0
 77
     0
 78
     0
170
     0
171
     2
172
     0
173
     0
174
     0
175
     0
176
     0
177
     0
178
     0
270
     2
271
     4
272
     4
273
     2
274
     2
340
10
275
     0
280
     0
281
     0
282
     0
283
     1
284
     0
285
     0
286
     0
287
     3
288
     0
  0
ENDTAB
  0
TABLE
  2
BLOCK_RECORD
  5
1
330
0
100
AcDbSymbolTable
 70
     2
  0
BLOCK_RECORD
  5
18
102
{ACAD_XDICTIONARY
360
7FD
102
}
330
1
100
AcDbSymbolTableRecord
100
AcDbBlockTableRecord
  2
*MODEL_SPACE
  0
BLOCK_RECORD
  5
15
102
{ACAD_XDICTIONARY
360
7FB
102
}
330
1
100
AcDbSymbolTableRecord
100
AcDbBlockTableRecord
  2
*PAPER_SPACE
  0
BLOCK_RECORD
  5
28
330
1
100
AcDbSymbolTableRecord
100
AcDbBlockTableRecord
  2
7463X
  0
BLOCK_RECORD
  5
68
330
1
100
AcDbSymbolTableRecord
100
AcDbBlockTableRecord
  2
*D1
  0
ENDTAB
  0
ENDSEC
  0
SECTION
  2
BLOCKS
  0
BLOCK
  5
85
330
18
100
AcDbEntity
  8
0
100
AcDbBlockBegin
  2
*MODEL_SPACE
 70
     0
 10
0.0
 20
0.0
 30
0.0
  3
*MODEL_SPACE
  1

  0
ENDBLK
  5
86
330
18
100
AcDbEntity
  8
0
100
AcDbBlockEnd
  0
BLOCK
  5
83
330
15
100
AcDbEntity
 67
     1
  8
0
100
AcDbBlockBegin
  2
*PAPER_SPACE
 70
     0
 10
0.0
 20
0.0
 30
0.0
  3
*PAPER_SPACE
  1

  0
ENDBLK
  5
84
330
15
100
AcDbEntity
 67
     1
  8
0
100
AcDbBlockEnd
  0
BLOCK
  5
88
330
28
100
AcDbEntity
  8
0
100
AcDbBlockBegin
  2
7463X
 70
     0
 10
0.0
 20
0.0
 30
0.0
  3
7463X
  1

  0
ARC
  5
89
330
28
100
AcDbEntity
  8
ADP1DETAIL
100
AcDbCircle
 10
0.3622337077477455
 20
0.5497098998798924
 30
0.0
 40
0.55
100
AcDbArc
 50
306.4732397847207
 51
232.5155412195496
  0
LWPOLYLINE
  5
8A
330
28
100
AcDbEntity
  8
ADP1DETAIL
100
AcDbPolyline
 90
        2
 70
     0
 43
0.0
 10
0.4763502377752582
 20
1.222407469806928
 10
0.458263147410194
 20
1.249994867311574
  0
LWPOLYLINE
  5
8E
330
28
100
AcDbEntity
  8
ADP1DETAIL
100
AcDbPolyline
 90
        2
 70
     0
 43
0.0
 10
0.4763502377752618
 20
1.222407469806927
 10
0.4582631474101975
 20
1.249994867311574
  0
LWPOLYLINE
  5
92
330
28
100
AcDbEntity
  8
ADP1DETAIL
100
AcDbPolyline
 90
        2
 70
     0
 43
0.0
 10
-0.2577179103743612
 20
0.2637508878297985
 10
-0.2265271551398156
 20
0.2530110495231823
  0
LWPOLYLINE
  5
96
330
28
100
AcDbEntity
  8
ADP1DETAIL
100
AcDbPolyline
 90
        2
 70
     0
 43
0.0
 10
-0.2577179103743612
 20
0.2637508878297985
 10
-0.2265271551398156
 20
0.2530110495231841
  0
LWPOLYLINE
  5
9A
330
28
100
AcDbEntity
  8
ADP1DETAIL
100
AcDbPolyline
 90
        2
 70
     0
 43
0.0
 10
-0.2577179103743648
 20
0.263750887829802
 10
-0.2265271551398174
 20
0.2530110495231859
  0
LWPOLYLINE
  5
9E
330
28
100
AcDbEntity
  8
ADP1DETAIL
100
AcDbPolyline
 90
        2
 70
     0
 43
0.0
 10
-0.2261077917326597
 20
0.8778628616573552
 10
-0.2579341841986791
 20
0.8691859911643536
  0
LWPOLYLINE
  5
A2
330
28
100
AcDbEntity
  8
ADP1DETAIL
100
AcDbPolyline
 90
        2
 70
     0
 43
0.0
 10
-0.2261077917326597
 20
0.8778628616573595
 10
-0.2579341841986773
 20
0.8691859911643561
  0
LWPOLYLINE
  5
A6
330
28
100
AcDbEntity
  8
ADP1DETAIL
100
AcDbPolyline
 90
        2
 70
     0
 43
0.0
 10
-0.2884672971333311
 20
0.4268882710791276
 10
-0.3072703433826929
 20
0.3997837919161213
  0
LWPOLYLINE
  5
AA
330
28
100
AcDbEntity
  8
ADP1DETAIL
100
AcDbPolyline
 90
        2
 70
     0
 43
0.0
 10
-0.2884672971333311
 20
0.4268882710791311
 10
-0.3072703433826929
 20
0.3997837919161249
  0
LWPOLYLINE
  5
AE
330
28
100
AcDbEntity
  8
ADP1DETAIL
100
AcDbPolyline
 90
        2
 70
     0
 43
0.0
 10
-0.2451773677148958
 20
0.294655362996092
 10
-0.2579341841986809
 20
0.2642338085954292
  0
LWPOLYLINE
  5
B2
330
28
100
AcDbEntity
  8
ADP1DETAIL
100
AcDbPolyline
 90
        2
 70
     0
 43
0.0
 10
-0.2451773677148976
 20
0.2946553629960946
 10
-0.2579341841986826
 20
0.2642338085954328
  0
LWPOLYLINE
  5
B6
330
28
100
AcDbEntity
  8
ADP1DETAIL
100
AcDbPolyline
 90
        2
 70
     0
 43
0.0
 10
-0.2626753100225487
 20
0.3376889289119291
 10
-0.2775231519033374
 20
0.3082313504229153
  0
LWPOLYLINE
  5
BA
330
28
100
AcDbEntity
  8
ADP1DETAIL
100
AcDbPolyline
 90
        2
 70
     0
 43
0.0
 10
-0.2773410917608947
 20
0.3077345195286489
 10
-0.2469754888873092
 20
0.2948450858297882
  0
LWPOLYLINE
  5
BE
330
28
100
AcDbEntity
  8
ADP1DETAIL
100
AcDbPolyline
 90
        2
 70
     0
 43
0.0
 10
-0.2773410917608947
 20
0.3077345195286489
 10
-0.2469754888873092
 20
0.29484508582979
  0
LWPOLYLINE
  5
C2
330
28
100
AcDbEntity
  8
ADP1DETAIL
100
AcDbPolyline
 90
        2
 70
     0
 43
0.0
 10
-0.2626753100225487
 20
0.3376889289119327
 10
-0.2775231519033392
 20
0.3082313504229188
  0
LWPOLYLINE
  5
C6
330
28
100
AcDbEntity
  8
ADP1DETAIL
100
AcDbPolyline
 90
        2
 70
     0
 43
0.0
 10
-0.2773410917608947
 20
0.3077345195286525
 10
-0.246975488887311
 20
0.2948450858297913
  0
LWPOLYLINE
  5
CA
330
28
100
AcDbEntity
  8
ADP1DETAIL
100
AcDbPolyline
 90
        2
 70
     0
 43
0.0
 10
-0.2771287584112576
 20
0.381838261977212
 10
-0.2939952884959114
 20
0.3534881737611779
  0
LWPOLYLINE
  5
CE
330
28
100
AcDbEntity
  8
ADP1DETAIL
100
AcDbPolyline
 90
        2
 70
     0
 43
0.0
 10
-0.2938483290140548
 20
0.3529798532484549
 10
-0.2644558166662909
 20
0.3380036201826875
  0
LWPOLYLINE
  5
D2
330
28
100
AcDbEntity
  8
ADP1DETAIL
100
AcDbPolyline
 90
        2
 70
     0
 43
0.0
 10
-0.293848329014053
 20
0.3529798532484549
 10
-0.2644558166662909
 20
0.3380036201826893
  0
LWPOLYLINE
  5
D6
330
28
100
AcDbEntity
  8
ADP1DETAIL
100
AcDbPolyline
 90
        2
 70
     0
 43
0.0
 10
-0.2771287584112576
 20
0.3818382619772156
 10
-0.2939952884959114
 20
0.3534881737611815
  0
LWPOLYLINE
  5
DA
330
28
100
AcDbEntity
  8
ADP1DETAIL
100
AcDbPolyline
 90
        2
 70
     0
 43
0.0
 10
-0.2938483290140565
 20
0.3529798532484585
 10
-0.2644558166662927
 20
0.338003620182691
  0
LWPOLYLINE
  5
DE
330
28
100
AcDbEntity
  8
ADP1DETAIL
100
AcDbPolyline
 90
        2
 70
     0
 43
0.0
 10
-0.3071592005332482
 20
0.3992664582713803
 10
-0.2788829760769387
 20
0.3822763885407983
  0
LWPOLYLINE
  5
E2
330
28
100
AcDbEntity
  8
ADP1DETAIL
100
AcDbPolyline
 90
        2
 70
     0
 43
0.0
 10
-0.3071592005332464
 20
0.3992664582713807
 10
-0.2788829760769387
 20
0.3822763885408
  0
LWPOLYLINE
  5
E6
330
28
100
AcDbEntity
  8
ADP1DETAIL
100
AcDbPolyline
 90
        2
 70
     0
 43
0.0
 10
-0.3071592005332482
 20
0.3992664582713839
 10
-0.2788829760769405
 20
0.3822763885408018
  0
LWPOLYLINE
  5
EA
330
28
100
AcDbEntity
  8
ADP1DETAIL
100
AcDbPolyline
 90
        2
 70
     0
 43
0.0
 10
-0.2890818194726501
 20
0.7036404283801408
 10
-0.3172836418306764
 20
0.6865271424700717
  0
LWPOLYLINE
  5
EE
330
28
100
AcDbEntity
  8
ADP1DETAIL
100
AcDbPolyline
 90
        2
 70
     0
 43
0.0
 10
-0.2890818194726501
 20
0.7036404283801448
 10
-0.3172836418306764
 20
0.6865271424700757
  0
LWPOLYLINE
  5
F2
330
28
100
AcDbEntity
  8
ADP1DETAIL
100
AcDbPolyline
 90
        2
 70
     0
 43
0.0
 10
-0.3173925263354294
 20
0.6860093287993485
 10
-0.2984713938519254
 20
0.6589871511577266
  0
LWPOLYLINE
  5
F6
330
28
100
AcDbEntity
  8
ADP1DETAIL
100
AcDbPolyline
 90
        2
 70
     0
 43
0.0
 10
-0.3173925263354294
 20
0.6860093287993477
 10
-0.2984713938519254
 20
0.6589871511577284
  0
LWPOLYLINE
  5
FA
330
28
100
AcDbEntity
  8
ADP1DETAIL
100
AcDbPolyline
 90
        2
 70
     0
 43
0.0
 10
-0.3173925263354276
 20
0.6860093287993517
 10
-0.2984713938519254
 20
0.6589871511577306
  0
LWPOLYLINE
  5
FE
330
28
100
AcDbEntity
  8
ADP1DETAIL
100
AcDbPolyline
 90
        2
 70
     0
 43
0.0
 10
-0.2779434567672494
 20
0.7487403469685084
 10
-0.3072703433826911
 20
0.733636007843661
  0
LWPOLYLINE
  5
102
330
28
100
AcDbEntity
  8
ADP1DETAIL
100
AcDbPolyline
 90
        2
 70
     0
 43
0.0
 10
-0.3074150835059877
 20
0.7331270509401114
 10
-0.2904250137754092
 20
0.7048508264837996
  0
LWPOLYLINE
  5
106
330
28
100
AcDbEntity
  8
ADP1DETAIL
100
AcDbPolyline
 90
        2
 70
     0
 43
0.0
 10
-0.3074150835059877
 20
0.7331270509401114
 10
-0.2904250137754092
 20
0.7048508264838023
  0
LWPOLYLINE
  5
10A
330
28
100
AcDbEntity
  8
ADP1DETAIL
100
AcDbPolyline
 90
        2
 70
     0
 43
0.0
 10
-0.2779434567672494
 20
0.7487403469685128
 10
-0.3072703433826893
 20
0.7336360078436646
  0
LWPOLYLINE
  5
10E
330
28
100
AcDbEntity
  8
ADP1DETAIL
100
AcDbPolyline
 90
        2
 70
     0
 43
0.0
 10
-0.3074150835059877
 20
0.7331270509401154
 10
-0.2904250137754092
 20
0.7048508264838041
  0
LWPOLYLINE
  5
112
330
28
100
AcDbEntity
  8
ADP1DETAIL
100
AcDbPolyline
 90
        2
 70
     0
 43
0.0
 10
-0.2636862152667136
 20
0.7929534315162985
 10
-0.2939952884959096
 20
0.7799316259986058
  0
LWPOLYLINE
  5
116
330
28
100
AcDbEntity
  8
ADP1DETAIL
100
AcDbPolyline
 90
        2
 70
     0
 43
0.0
 10
-0.2941751790784197
 20
0.7794340054491023
 10
-0.2791989460126567
 20
0.7500414931013366
  0
LWPOLYLINE
  5
11A
330
28
100
AcDbEntity
  8
ADP1DETAIL
100
AcDbPolyline
 90
        2
 70
     0
 43
0.0
 10
-0.2941751790784197
 20
0.7794340054491023
 10
-0.2791989460126549
 20
0.7500414931013384
  0
LWPOLYLINE
  5
11E
330
28
100
AcDbEntity
  8
ADP1DETAIL
100
AcDbPolyline
 90
        2
 70
     0
 43
0.0
 10
-0.2636862152667119
 20
0.7929534315163021
 10
-0.2939952884959078
 20
0.7799316259986085
  0
LWPOLYLINE
  5
122
330
28
100
AcDbEntity
  8
ADP1DETAIL
100
AcDbPolyline
 90
        2
 70
     0
 43
0.0
 10
-0.2941751790784179
 20
0.7794340054491054
 10
-0.2791989460126549
 20
0.7500414931013411
  0
LWPOLYLINE
  5
126
330
28
100
AcDbEntity
  8
ADP1DETAIL
100
AcDbPolyline
 90
        2
 70
     0
 43
0.0
 10
-0.2463795548185024
 20
0.8360642803198739
 10
-0.2775231519033374
 20
0.8251884493368692
  0
LWPOLYLINE
  5
12A
330
28
100
AcDbEntity
  8
ADP1DETAIL
100
AcDbPolyline
 90
        2
 70
     0
 43
0.0
 10
-0.2777373165362276
 20
0.8247045894987113
 10
-0.2648478828373681
 20
0.7943389866251241
  0
LWPOLYLINE
  5
12E
330
28
100
AcDbEntity
  8
ADP1DETAIL
100
AcDbPolyline
 90
        2
 70
     0
 43
0.0
 10
-0.2777373165362258
 20
0.8247045894987103
 10
-0.2648478828373681
 20
0.7943389866251254
  0
LWPOLYLINE
  5
132
330
28
100
AcDbEntity
  8
ADP1DETAIL
100
AcDbPolyline
 90
        2
 70
     0
 43
0.0
 10
-0.2463795548185024
 20
0.8360642803198778
 10
-0.2775231519033356
 20
0.825188449336872
  0
LWPOLYLINE
  5
136
330
28
100
AcDbEntity
  8
ADP1DETAIL
100
AcDbPolyline
 90
        2
 70
     0
 43
0.0
 10
-0.2777373165362258
 20
0.8247045894987138
 10
-0.2648478828373681
 20
0.7943389866251276
  0
LWPOLYLINE
  5
13A
330
28
100
AcDbEntity
  8
ADP1DETAIL
100
AcDbPolyline
 90
        2
 70
     0
 43
0.0
 10
-0.2581815794933844
 20
0.8687182493540323
 10
-0.24744174118677
 20
0.8375274941194849
  0
LWPOLYLINE
  5
13E
330
28
100
AcDbEntity
  8
ADP1DETAIL
100
AcDbPolyline
 90
        2
 70
     0
 43
0.0
 10
-0.2581815794933826
 20
0.8687182493540316
 10
-0.24744174118677
 20
0.8375274941194863
  0
LWPOLYLINE
  5
142
330
28
100
AcDbEntity
  8
ADP1DETAIL
100
AcDbPolyline
 90
        2
 70
     0
 43
0.0
 10
-0.2581815794933826
 20
0.8687182493540358
 10
-0.24744174118677
 20
0.8375274941194884
  0
LWPOLYLINE
  5
146
330
28
100
AcDbEntity
  8
ADP1DETAIL
100
AcDbPolyline
 90
        2
 70
     0
 43
0.0
 10
-0.2966356859678596
 20
0.4726194771017385
 10
-0.3172836418306781
 20
0.4468926572897103
  0
LWPOLYLINE
  5
14A
330
28
100
AcDbEntity
  8
ADP1DETAIL
100
AcDbPolyline
 90
        2
 70
     0
 43
0.0
 10
-0.2966356859678614
 20
0.4726194771017425
 10
-0.3172836418306781
 20
0.4468926572897139
  0
LWPOLYLINE
  5
14E
330
28
100
AcDbEntity
  8
ADP1DETAIL
100
AcDbPolyline
 90
        2
 70
     0
 43
0.0
 10
-0.3172088570904359
 20
0.4463688309104677
 10
-0.2901866794488148
 20
0.427447698426962
  0
LWPOLYLINE
  5
152
330
28
100
AcDbEntity
  8
ADP1DETAIL
100
AcDbPolyline
 90
        2
 70
     0
 43
0.0
 10
-0.3172088570904341
 20
0.4463688309104677
 10
-0.2901866794488148
 20
0.4274476984269633
  0
LWPOLYLINE
  5
156
330
28
100
AcDbEntity
  8
ADP1DETAIL
100
AcDbPolyline
 90
        2
 70
     0
 43
0.0
 10
-0.3172088570904359
 20
0.4463688309104712
 10
-0.2901866794488166
 20
0.4274476984269655
  0
LWPOLYLINE
  5
15A
330
28
100
AcDbEntity
  8
ADP1DETAIL
100
AcDbPolyline
 90
        2
 70
     0
 43
0.0
 10
-0.3015941293455269
 20
0.5188090822061877
 10
-0.3239864000563637
 20
0.4945852602252115
  0
LWPOLYLINE
  5
15E
330
28
100
AcDbEntity
  8
ADP1DETAIL
100
AcDbPolyline
 90
        2
 70
     0
 43
0.0
 10
-0.3239483377690577
 20
0.4940574931409328
 10
-0.2983118562753395
 20
0.4732974797600167
  0
LWPOLYLINE
  5
162
330
28
100
AcDbEntity
  8
ADP1DETAIL
100
AcDbPolyline
 90
        2
 70
     0
 43
0.0
 10
-0.3239483377690577
 20
0.4940574931409328
 10
-0.2983118562753413
 20
0.4732974797600185
  0
LWPOLYLINE
  5
166
330
28
100
AcDbEntity
  8
ADP1DETAIL
100
AcDbPolyline
 90
        2
 70
     0
 43
0.0
 10
-0.3015941293455286
 20
0.5188090822061917
 10
-0.3239864000563637
 20
0.494585260225215
  0
LWPOLYLINE
  5
16A
330
28
100
AcDbEntity
  8
ADP1DETAIL
100
AcDbPolyline
 90
        2
 70
     0
 43
0.0
 10
-0.3239483377690595
 20
0.4940574931409368
 10
-0.2983118562753413
 20
0.4732974797600203
  0
LWPOLYLINE
  5
16E
330
28
100
AcDbEntity
  8
ADP1DETAIL
100
AcDbPolyline
 90
        2
 70
     0
 43
0.0
 10
-0.3033184702286169
 20
0.5652320552793717
 10
-0.3273459628954312
 20
0.5426292471551686
  0
LWPOLYLINE
  5
172
330
28
100
AcDbEntity
  8
ADP1DETAIL
100
AcDbPolyline
 90
        2
 70
     0
 43
0.0
 10
-0.3273448084967017
 20
0.5421001105940353
 10
-0.3032189215117507
 20
0.5196023570141129
  0
LWPOLYLINE
  5
176
330
28
100
AcDbEntity
  8
ADP1DETAIL
100
AcDbPolyline
 90
        2
 70
     0
 43
0.0
 10
-0.3273448084967017
 20
0.5421001105940353
 10
-0.3032189215117489
 20
0.5196023570141147
  0
LWPOLYLINE
  5
17A
330
28
100
AcDbEntity
  8
ADP1DETAIL
100
AcDbPolyline
 90
        2
 70
     0
 43
0.0
 10
-0.3033184702286151
 20
0.5652320552793753
 10
-0.3273459628954312
 20
0.5426292471551717
  0
LWPOLYLINE
  5
17E
330
28
100
AcDbEntity
  8
ADP1DETAIL
100
AcDbPolyline
 90
        2
 70
     0
 43
0.0
 10
-0.3273448084967017
 20
0.5421001105940389
 10
-0.3032189215117507
 20
0.5196023570141164
  0
LWPOLYLINE
  5
182
330
28
100
AcDbEntity
  8
ADP1DETAIL
100
AcDbPolyline
 90
        2
 70
     0
 43
0.0
 10
-0.3018003078016749
 20
0.6116622282628943
 10
-0.3273459628954312
 20
0.5907905526046169
  0
LWPOLYLINE
  5
186
330
28
100
AcDbEntity
  8
ADP1DETAIL
100
AcDbPolyline
 90
        2
 70
     0
 43
0.0
 10
-0.3273817220093944
 20
0.5902626244667695
 10
-0.3048839684294728
 20
0.5661367374818145
  0
LWPOLYLINE
  5
18A
330
28
100
AcDbEntity
  8
ADP1DETAIL
100
AcDbPolyline
 90
        2
 70
     0
 43
0.0
 10
-0.3273817220093926
 20
0.5902626244667691
 10
-0.3048839684294728
 20
0.5661367374818158
  0
LWPOLYLINE
  5
18E
330
28
100
AcDbEntity
  8
ADP1DETAIL
100
AcDbPolyline
 90
        2
 70
     0
 43
0.0
 10
-0.3018003078016767
 20
0.6116622282628979
 10
-0.3273459628954312
 20
0.5907905526046205
  0
LWPOLYLINE
  5
192
330
28
100
AcDbEntity
  8
ADP1DETAIL
100
AcDbPolyline
 90
        2
 70
     0
 43
0.0
 10
-0.3273817220093944
 20
0.5902626244667731
 10
-0.3048839684294746
 20
0.5661367374818185
  0
LWPOLYLINE
  5
196
330
28
100
AcDbEntity
  8
ADP1DETAIL
100
AcDbPolyline
 90
        2
 70
     0
 43
0.0
 10
-0.2970470383994437
 20
0.6578733980211289
 10
-0.3239864000563637
 20
0.6388345395345723
  0
LWPOLYLINE
  5
19A
330
28
100
AcDbEntity
  8
ADP1DETAIL
100
AcDbPolyline
 90
        2
 70
     0
 43
0.0
 10
-0.32405889846821
 20
0.6383103918328286
 10
-0.3032988850872949
 20
0.6126739103391068
  0
LWPOLYLINE
  5
19E
330
28
100
AcDbEntity
  8
ADP1DETAIL
100
AcDbPolyline
 90
        2
 70
     0
 43
0.0
 10
-0.3240588984682082
 20
0.6383103918328286
 10
-0.3032988850872949
 20
0.6126739103391086
  0
LWPOLYLINE
  5
1A2
330
28
100
AcDbEntity
  8
ADP1DETAIL
100
AcDbPolyline
 90
        2
 70
     0
 43
0.0
 10
-0.2970470383994454
 20
0.6578733980211325
 10
-0.3239864000563637
 20
0.6388345395345758
  0
LWPOLYLINE
  5
1A6
330
28
100
AcDbEntity
  8
ADP1DETAIL
100
AcDbPolyline
 90
        2
 70
     0
 43
0.0
 10
-0.3240588984682082
 20
0.6383103918328322
 10
-0.3032988850872966
 20
0.6126739103391108
  0
LWPOLYLINE
  5
1AA
330
28
100
AcDbEntity
  8
ADP1DETAIL
100
AcDbPolyline
 90
        2
 70
     0
 43
0.0
 10
-0.3173925263354311
 20
0.6860093287993543
 10
-0.2984713938519272
 20
0.6589871511577328
  0
LWPOLYLINE
  5
1AE
330
28
100
AcDbEntity
  8
ADP1DETAIL
100
AcDbPolyline
 90
        2
 70
     0
 43
0.0
 10
-0.2890818194726519
 20
0.7036404283801461
 10
-0.3172836418306781
 20
0.6865271424700783
  0
LWPOLYLINE
  5
1B2
330
28
100
AcDbEntity
  8
ADP1DETAIL
100
AcDbPolyline
 90
        2
 70
     0
 43
0.0
 10
-0.3173925263354294
 20
0.6860093287993503
 10
-0.2984713938519272
 20
0.658987151157731
  0
LWPOLYLINE
  5
1B6
330
28
100
AcDbEntity
  8
ADP1DETAIL
100
AcDbPolyline
 90
        2
 70
     0
 43
0.0
 10
-0.3173925263354311
 20
0.6860093287993508
 10
-0.2984713938519272
 20
0.6589871511577293
  0
LWPOLYLINE
  5
1BA
330
28
100
AcDbEntity
  8
ADP1DETAIL
100
AcDbPolyline
 90
        2
 70
     0
 43
0.0
 10
-0.2890818194726519
 20
0.703640428380143
 10
-0.3172836418306781
 20
0.6865271424700748
  0
LWPOLYLINE
  5
1BE
330
28
100
AcDbEntity
  8
ADP1DETAIL
100
AcDbPolyline
 90
        2
 70
     0
 43
0.0
 10
-0.3172088570904341
 20
0.4463688309104721
 10
-0.2901866794488166
 20
0.4274476984269664
  0
LWPOLYLINE
  5
1C2
330
28
100
AcDbEntity
  8
ADP1DETAIL
100
AcDbPolyline
 90
        2
 70
     0
 43
0.0
 10
-0.2966356859678614
 20
0.4726194771017425
 10
-0.3172836418306781
 20
0.4468926572897148
  0
LWPOLYLINE
  5
1C6
330
28
100
AcDbEntity
  8
ADP1DETAIL
100
AcDbPolyline
 90
        2
 70
     0
 43
0.0
 10
-0.3172088570904341
 20
0.4463688309104686
 10
-0.2901866794488166
 20
0.4274476984269647
  0
LWPOLYLINE
  5
1CA
330
28
100
AcDbEntity
  8
ADP1DETAIL
100
AcDbPolyline
 90
        2
 70
     0
 43
0.0
 10
-0.3172088570904359
 20
0.4463688309104686
 10
-0.2901866794488166
 20
0.4274476984269629
  0
LWPOLYLINE
  5
1CE
330
28
100
AcDbEntity
  8
ADP1DETAIL
100
AcDbPolyline
 90
        2
 70
     0
 43
0.0
 10
-0.2966356859678596
 20
0.4726194771017389
 10
-0.3172836418306781
 20
0.4468926572897112
  0
LWPOLYLINE
  5
1D2
330
28
100
AcDbEntity
  8
ADP1DETAIL
100
AcDbPolyline
 90
        2
 70
     0
 43
0.0
 10
-0.1818329503454903
 20
0.9911102336990914
 10
-0.1778127259323066
 20
0.9583681333599066
  0
LWPOLYLINE
  5
1D6
330
28
100
AcDbEntity
  8
ADP1DETAIL
100
AcDbPolyline
 90
        2
 70
     0
 43
0.0
 10
-0.1818329503454903
 20
0.9911102336990914
 10
-0.1778127259323048
 20
0.9583681333599077
  0
LWPOLYLINE
  5
1DA
330
28
100
AcDbEntity
  8
ADP1DETAIL
100
AcDbPolyline
 90
        2
 70
     0
 43
0.0
 10
-0.1818329503454867
 20
0.9911102336990943
 10
-0.1778127259323048
 20
0.9583681333599102
  0
LWPOLYLINE
  5
1DE
330
28
100
AcDbEntity
  8
ADP1DETAIL
100
AcDbPolyline
 90
        2
 70
     0
 43
0.0
 10
-0.2350743870216556
 20
0.2212432419843222
 10
-0.2032104376503687
 20
0.2127053224826176
  0
LWPOLYLINE
  5
1E2
330
28
100
AcDbEntity
  8
ADP1DETAIL
100
AcDbPolyline
 90
        2
 70
     0
 43
0.0
 10
-0.2350743870216556
 20
0.2212432419843222
 10
-0.2032104376503687
 20
0.2127053224826194
  0
LWPOLYLINE
  5
1E6
330
28
100
AcDbEntity
  8
ADP1DETAIL
100
AcDbPolyline
 90
        2
 70
     0
 43
0.0
 10
-0.2350743870216574
 20
0.2212432419843253
 10
-0.2032104376503705
 20
0.2127053224826203
  0
LWPOLYLINE
  5
1EA
330
28
100
AcDbEntity
  8
ADP1DETAIL
100
AcDbPolyline
 90
        2
 70
     0
 43
0.0
 10
-0.2350743870216609
 20
0.2212432419843284
 10
-0.203210437650374
 20
0.212705322482623
  0
LWPOLYLINE
  5
1EE
330
28
100
AcDbEntity
  8
ADP1DETAIL
100
AcDbPolyline
 90
        2
 70
     0
 43
0.0
 10
-0.2350743870216592
 20
0.2212432419843249
 10
-0.2032104376503723
 20
0.2127053224826212
  0
LWPOLYLINE
  5
1F2
330
28
100
AcDbEntity
  8
ADP1DETAIL
100
AcDbPolyline
 90
        2
 70
     0
 43
0.0
 10
-0.2350743870216609
 20
0.221243241984324
 10
-0.2032104376503723
 20
0.2127053224826199
  0
LWPOLYLINE
  5
1F6
330
28
100
AcDbEntity
  8
ADP1DETAIL
100
AcDbPolyline
 90
        2
 70
     0
 43
0.0
 10
-0.2247201797043372
 20
0.2529472194371274
 10
-0.2353238208635178
 20
0.2217098998798925
  0
LWPOLYLINE
  5
1FA
330
28
100
AcDbEntity
  8
ADP1DETAIL
100
AcDbPolyline
 90
        2
 70
     0
 43
0.0
 10
-0.224720179704339
 20
0.2529472194371309
 10
-0.2353238208635195
 20
0.2217098998798961
  0
LWPOLYLINE
  5
1FE
330
28
100
AcDbEntity
  8
ADP1DETAIL
100
AcDbPolyline
 90
        2
 70
     0
 43
0.0
 10
-0.2247201797043425
 20
0.2529472194371327
 10
-0.2353238208635213
 20
0.2217098998798987
  0
LWPOLYLINE
  5
202
330
28
100
AcDbEntity
  8
ADP1DETAIL
100
AcDbPolyline
 90
        2
 70
     0
 43
0.0
 10
-0.2247201797043408
 20
0.25294721943713
 10
-0.2353238208635195
 20
0.2217098998798956
  0
LWPOLYLINE
  5
206
330
28
100
AcDbEntity
  8
ADP1DETAIL
100
AcDbPolyline
 90
        2
 70
     0
 43
0.0
 10
-0.1501952150856001
 20
0.1046051814031768
 10
-0.1172524361785063
 20
0.1028787235172417
  0
LWPOLYLINE
  5
20A
330
28
100
AcDbEntity
  8
ADP1DETAIL
100
AcDbPolyline
 90
        2
 70
     0
 43
0.0
 10
-0.1501952150856001
 20
0.1046051814031768
 10
-0.1172524361785063
 20
0.1028787235172435
  0
LWPOLYLINE
  5
20E
330
28
100
AcDbEntity
  8
ADP1DETAIL
100
AcDbPolyline
 90
        2
 70
     0
 43
0.0
 10
-0.1501952150856018
 20
0.1046051814031799
 10
-0.1172524361785099
 20
0.1028787235172444
  0
ARC
  5
212
330
28
100
AcDbEntity
  8
ADP1DETAIL
100
AcDbCircle
 10
-0.0089794822629523
 20
0.0656636546077372
 30
0.0
 40
0.06
100
AcDbArc
 50
318.4050461680787
 51
52.51554121954949
  0
LWPOLYLINE
  5
213
330
28
100
AcDbEntity
  8
ADP1DETAIL
100
AcDbPolyline
 90
        2
 70
     0
 43
0.0
 10
-0.1154978659507373
 20
0.103315436031528
 10
-0.1170805678689666
 20
0.0703654376462257
  0
LWPOLYLINE
  5
217
330
28
100
AcDbEntity
  8
ADP1DETAIL
100
AcDbPolyline
 90
        2
 70
     0
 43
0.0
 10
-0.1154978659507408
 20
0.1033154360315307
 10
-0.1170805678689684
 20
0.0703654376462279
  0
ARC
  5
21B
330
28
100
AcDbEntity
  8
ADP1DETAIL
100
AcDbCircle
 10
-0.011908860157118
 20
0.0540767845489243
 30
0.0
 40
0.0553725525634547
100
AcDbArc
 50
235.4172217632739
 51
329.4218032972297
  0
LWPOLYLINE
  5
21C
330
28
100
AcDbEntity
  8
ADP1DETAIL
100
AcDbPolyline
 90
        2
 70
     0
 43
0.0
 10
-0.082009372097299
 20
0.0711193716778986
 10
-0.081289742935966
 20
0.0381392341277978
  0
LWPOLYLINE
  5
220
330
28
100
AcDbEntity
  8
ADP1DETAIL
100
AcDbPolyline
 90
        2
 70
     0
 43
0.0
 10
-0.0808957453950692
 20
0.0377860305452407
 10
-0.0480332868500986
 20
0.0406611231235155
  0
LWPOLYLINE
  5
224
330
28
100
AcDbEntity
  8
ADP1DETAIL
100
AcDbPolyline
 90
        2
 70
     0
 43
0.0
 10
-0.0808957453950692
 20
0.037786030545242
 10
-0.0480332868500986
 20
0.0406611231235163
  0
LWPOLYLINE
  5
228
330
28
100
AcDbEntity
  8
ADP1DETAIL
100
AcDbPolyline
 90
        2
 70
     0
 43
0.0
 10
-0.0820093720973008
 20
0.0711193716779008
 10
-0.0812897429359696
 20
0.0381392341278
  0
LWPOLYLINE
  5
22C
330
28
100
AcDbEntity
  8
ADP1DETAIL
100
AcDbPolyline
 90
        2
 70
     0
 43
0.0
 10
-0.0808957453950727
 20
0.0377860305452429
 10
-0.0480332868501003
 20
0.0406611231235172
  0
LWPOLYLINE
  5
230
330
28
100
AcDbEntity
  8
ADP1DETAIL
100
AcDbPolyline
 90
        2
 70
     0
 43
0.0
 10
-0.0463565706140186
 20
0.0413377745610864
 10
-0.0433381163340636
 20
0.0084881737611799
  0
LWPOLYLINE
  5
234
330
28
100
AcDbEntity
  8
ADP1DETAIL
100
AcDbPolyline
 90
        2
 70
     0
 43
0.0
 10
-0.046356570614015
 20
0.041337774561085
 10
-0.0433381163340601
 20
0.0084881737611773
  0
LWPOLYLINE
  5
238
330
28
100
AcDbEntity
  8
ADP1DETAIL
100
AcDbPolyline
 90
        2
 70
     0
 43
0.0
 10
-0.116712168322711
 20
0.0699856105707313
 10
-0.0837292047551452
 20
0.070561330341326
  0
LWPOLYLINE
  5
23C
330
28
100
AcDbEntity
  8
ADP1DETAIL
100
AcDbPolyline
 90
        2
 70
     0
 43
0.0
 10
-0.1167121683227075
 20
0.0699856105707291
 10
-0.0837292047551435
 20
0.0705613303413251
  0
LWPOLYLINE
  5
240
330
28
100
AcDbEntity
  8
ADP1DETAIL
100
AcDbPolyline
 90
        2
 70
     0
 43
0.0
 10
-0.1167121683227075
 20
0.0699856105707291
 10
-0.0837292047551417
 20
0.0705613303413233
  0
LWPOLYLINE
  5
244
330
28
100
AcDbEntity
  8
ADP1DETAIL
100
AcDbPolyline
 90
        2
 70
     0
 43
0.0
 10
-0.0808957453950745
 20
0.0377860305452469
 10
-0.0480332868501039
 20
0.0406611231235203
  0
LWPOLYLINE
  5
248
330
28
100
AcDbEntity
  8
ADP1DETAIL
100
AcDbPolyline
 90
        2
 70
     0
 43
0.0
 10
-0.080895745395071
 20
0.0377860305452447
 10
-0.0480332868501003
 20
0.0406611231235199
  0
LWPOLYLINE
  5
24C
330
28
100
AcDbEntity
  8
ADP1DETAIL
100
AcDbPolyline
 90
        2
 70
     0
 43
0.0
 10
-0.080895745395071
 20
0.0377860305452447
 10
-0.0480332868501003
 20
0.0406611231235181
  0
LWPOLYLINE
  5
250
330
28
100
AcDbEntity
  8
ADP1DETAIL
100
AcDbPolyline
 90
        2
 70
     0
 43
0.0
 10
-0.0820093720973043
 20
0.071119371677904
 10
-0.0812897429359714
 20
0.0381392341278026
  0
LWPOLYLINE
  5
254
330
28
100
AcDbEntity
  8
ADP1DETAIL
100
AcDbPolyline
 90
        2
 70
     0
 43
0.0
 10
-0.0820093720973008
 20
0.0711193716779017
 10
-0.0812897429359696
 20
0.0381392341277995
  0
LWPOLYLINE
  5
258
330
28
100
AcDbEntity
  8
ADP1DETAIL
100
AcDbPolyline
 90
        2
 70
     0
 43
0.0
 10
-0.146658899598525
 20
0.1377691116327768
 10
-0.1505362218316604
 20
0.1050097814922846
  0
LWPOLYLINE
  5
25C
330
28
100
AcDbEntity
  8
ADP1DETAIL
100
AcDbPolyline
 90
        2
 70
     0
 43
0.0
 10
-0.1466588995985267
 20
0.1377691116327804
 10
-0.1505362218316621
 20
0.1050097814922872
  0
LWPOLYLINE
  5
260
330
28
100
AcDbEntity
  8
ADP1DETAIL
100
AcDbPolyline
 90
        2
 70
     0
 43
0.0
 10
-0.1753406596170253
 20
0.1743125436373867
 10
-0.1814937122408962
 20
0.1419034819051901
  0
LWPOLYLINE
  5
264
330
28
100
AcDbEntity
  8
ADP1DETAIL
100
AcDbPolyline
 90
        2
 70
     0
 43
0.0
 10
-0.1811817596456242
 20
0.1414760799734371
 10
-0.1484396593064394
 20
0.1374558555602499
  0
LWPOLYLINE
  5
268
330
28
100
AcDbEntity
  8
ADP1DETAIL
100
AcDbPolyline
 90
        2
 70
     0
 43
0.0
 10
-0.1811817596456224
 20
0.141476079973438
 10
-0.1484396593064394
 20
0.1374558555602512
  0
LWPOLYLINE
  5
26C
330
28
100
AcDbEntity
  8
ADP1DETAIL
100
AcDbPolyline
 90
        2
 70
     0
 43
0.0
 10
-0.175340659617027
 20
0.1743125436373898
 10
-0.1814937122408979
 20
0.1419034819051927
  0
LWPOLYLINE
  5
270
330
28
100
AcDbEntity
  8
ADP1DETAIL
100
AcDbPolyline
 90
        2
 70
     0
 43
0.0
 10
-0.181181759645626
 20
0.1414760799734398
 10
-0.1484396593064412
 20
0.1374558555602516
  0
LWPOLYLINE
  5
274
330
28
100
AcDbEntity
  8
ADP1DETAIL
100
AcDbPolyline
 90
        2
 70
     0
 43
0.0
 10
-0.2014034113545131
 20
0.2127676961179667
 10
-0.2098022173152367
 20
0.1808667964850792
  0
LWPOLYLINE
  5
278
330
28
100
AcDbEntity
  8
ADP1DETAIL
100
AcDbPolyline
 90
        2
 70
     0
 43
0.0
 10
-0.2095208386724385
 20
0.1804186749699283
 10
-0.1771389331227917
 20
0.174124270158718
  0
LWPOLYLINE
  5
27C
330
28
100
AcDbEntity
  8
ADP1DETAIL
100
AcDbPolyline
 90
        2
 70
     0
 43
0.0
 10
-0.2095208386724368
 20
0.1804186749699292
 10
-0.1771389331227935
 20
0.1741242701587193
  0
LWPOLYLINE
  5
280
330
28
100
AcDbEntity
  8
ADP1DETAIL
100
AcDbPolyline
 90
        2
 70
     0
 43
0.0
 10
-0.2014034113545149
 20
0.2127676961179703
 10
-0.2098022173152385
 20
0.1808667964850819
  0
LWPOLYLINE
  5
284
330
28
100
AcDbEntity
  8
ADP1DETAIL
100
AcDbPolyline
 90
        2
 70
     0
 43
0.0
 10
-0.2095208386724403
 20
0.1804186749699315
 10
-0.1771389331227935
 20
0.1741242701587207
  0
LWPOLYLINE
  5
288
330
28
100
AcDbEntity
  8
ADP1DETAIL
100
AcDbPolyline
 90
        2
 70
     0
 43
0.0
 10
-0.2029696880012315
 20
0.9181455370420458
 10
-0.2353238208635195
 20
0.9117098998798924
  0
LWPOLYLINE
  5
28C
330
28
100
AcDbEntity
  8
ADP1DETAIL
100
AcDbPolyline
 90
        2
 70
     0
 43
0.0
 10
-0.2029696880012297
 20
0.9181455370420493
 10
-0.235323820863516
 20
0.9117098998798955
  0
LWPOLYLINE
  5
290
330
28
100
AcDbEntity
  8
ADP1DETAIL
100
AcDbPolyline
 90
        2
 70
     0
 43
0.0
 10
-0.2029696880012262
 20
0.9181455370420469
 10
-0.2353238208635142
 20
0.9117098998798937
  0
LWPOLYLINE
  5
294
330
28
100
AcDbEntity
  8
ADP1DETAIL
100
AcDbPolyline
 90
        2
 70
     0
 43
0.0
 10
-0.2029696880012279
 20
0.918145537042044
 10
-0.235323820863516
 20
0.9117098998798907
  0
LWPOLYLINE
  5
298
330
28
100
AcDbEntity
  8
ADP1DETAIL
100
AcDbPolyline
 90
        2
 70
     0
 43
0.0
 10
-0.2356032415350286
 20
0.9112605548884925
 10
-0.2270653220333285
 20
0.8793966055172028
  0
LWPOLYLINE
  5
29C
330
28
100
AcDbEntity
  8
ADP1DETAIL
100
AcDbPolyline
 90
        2
 70
     0
 43
0.0
 10
-0.2356032415350286
 20
0.9112605548884914
 10
-0.2270653220333267
 20
0.8793966055172038
  0
LWPOLYLINE
  5
2A0
330
28
100
AcDbEntity
  8
ADP1DETAIL
100
AcDbPolyline
 90
        2
 70
     0
 43
0.0
 10
-0.2356032415350269
 20
0.911260554888495
 10
-0.2270653220333267
 20
0.8793966055172063
  0
LWPOLYLINE
  5
2A4
330
28
100
AcDbEntity
  8
ADP1DETAIL
100
AcDbPolyline
 90
        2
 70
     0
 43
0.0
 10
-0.2356032415350251
 20
0.9112605548884943
 10
-0.2270653220333232
 20
0.8793966055172045
  0
LWPOLYLINE
  5
2A8
330
28
100
AcDbEntity
  8
ADP1DETAIL
100
AcDbPolyline
 90
        2
 70
     0
 43
0.0
 10
-0.2356032415350251
 20
0.9112605548884896
 10
-0.227065322033325
 20
0.8793966055172028
  0
LWPOLYLINE
  5
2AC
330
28
100
AcDbEntity
  8
ADP1DETAIL
100
AcDbPolyline
 90
        2
 70
     0
 43
0.0
 10
-0.2356032415350269
 20
0.9112605548884907
 10
-0.227065322033325
 20
0.8793966055172015
  0
LWPOLYLINE
  5
2B0
330
28
100
AcDbEntity
  8
ADP1DETAIL
100
AcDbPolyline
 90
        2
 70
     0
 43
0.0
 10
-0.2101123020541271
 20
0.9521242442658589
 10
-0.2038178972429199
 20
0.9197423387162114
  0
LWPOLYLINE
  5
2B4
330
28
100
AcDbEntity
  8
ADP1DETAIL
100
AcDbPolyline
 90
        2
 70
     0
 43
0.0
 10
-0.2101123020541271
 20
0.9521242442658589
 10
-0.2038178972429199
 20
0.9197423387162132
  0
LWPOLYLINE
  5
2B8
330
28
100
AcDbEntity
  8
ADP1DETAIL
100
AcDbPolyline
 90
        2
 70
     0
 43
0.0
 10
-0.2101123020541253
 20
0.9521242442658625
 10
-0.2038178972429181
 20
0.919742338716215
  0
LWPOLYLINE
  5
2BC
330
28
100
AcDbEntity
  8
ADP1DETAIL
100
AcDbPolyline
 90
        2
 70
     0
 43
0.0
 10
-0.1770779701397585
 20
0.9567160533286656
 10
-0.209802217315235
 20
0.9525530032747081
  0
LWPOLYLINE
  5
2C0
330
28
100
AcDbEntity
  8
ADP1DETAIL
100
AcDbPolyline
 90
        2
 70
     0
 43
0.0
 10
-0.1770779701397567
 20
0.9567160533286692
 10
-0.2098022173152332
 20
0.9525530032747116
  0
LWPOLYLINE
  5
2C4
330
28
100
AcDbEntity
  8
ADP1DETAIL
100
AcDbPolyline
 90
        2
 70
     0
 43
0.0
 10
0.1115432399623168
 20
1.183245523339935
 10
0.0815854240254419
 20
1.197056265653286
  0
LWPOLYLINE
  5
2C8
330
28
100
AcDbEntity
  8
ADP1DETAIL
100
AcDbPolyline
 90
        2
 70
     0
 43
0.0
 10
0.1115432399623204
 20
1.183245523339937
 10
0.0815854240254455
 20
1.197056265653287
  0
LWPOLYLINE
  5
2CC
330
28
100
AcDbEntity
  8
ADP1DETAIL
100
AcDbPolyline
 90
        2
 70
     0
 43
0.0
 10
0.0378232506897502
 20
1.175710743184735
 10
0.0281784964619059
 20
1.144164173563964
  0
LWPOLYLINE
  5
2D0
330
28
100
AcDbEntity
  8
ADP1DETAIL
100
AcDbPolyline
 90
        2
 70
     0
 43
0.0
 10
0.0378232506897502
 20
1.175710743184735
 10
0.0281784964619076
 20
1.144164173563965
  0
LWPOLYLINE
  5
2D4
330
28
100
AcDbEntity
  8
ADP1DETAIL
100
AcDbPolyline
 90
        2
 70
     0
 43
0.0
 10
0.037823250689752
 20
1.175710743184736
 10
0.0281784964619094
 20
1.144164173563967
  0
LWPOLYLINE
  5
2D8
330
28
100
AcDbEntity
  8
ADP1DETAIL
100
AcDbPolyline
 90
        2
 70
     0
 43
0.0
 10
-0.0486856854887572
 20
1.09026232122458
 10
-0.0812897429359678
 20
1.095280565631985
  0
LWPOLYLINE
  5
2DC
330
28
100
AcDbEntity
  8
ADP1DETAIL
100
AcDbPolyline
 90
        2
 70
     0
 43
0.0
 10
-0.0486856854887536
 20
1.090262321224582
 10
-0.0812897429359643
 20
1.095280565631989
  0
LWPOLYLINE
  5
2E0
330
28
100
AcDbEntity
  8
ADP1DETAIL
100
AcDbPolyline
 90
        2
 70
     0
 43
0.0
 10
-0.0817059975174415
 20
1.094953886957499
 10
-0.0845810900957203
 20
1.062091428412527
  0
LWPOLYLINE
  5
2E4
330
28
100
AcDbEntity
  8
ADP1DETAIL
100
AcDbPolyline
 90
        2
 70
     0
 43
0.0
 10
-0.0817059975174415
 20
1.094953886957498
 10
-0.0845810900957185
 20
1.062091428412528
  0
LWPOLYLINE
  5
2E8
330
28
100
AcDbEntity
  8
ADP1DETAIL
100
AcDbPolyline
 90
        2
 70
     0
 43
0.0
 10
-0.0817059975174397
 20
1.094953886957501
 10
-0.0845810900957167
 20
1.06209142841253
  0
LWPOLYLINE
  5
2EC
330
28
100
AcDbEntity
  8
ADP1DETAIL
100
AcDbPolyline
 90
        2
 70
     0
 43
0.0
 10
-0.0111635357663653
 20
1.117651261705091
 10
-0.0433381163340618
 20
1.124931625998605
  0
LWPOLYLINE
  5
2F0
330
28
100
AcDbEntity
  8
ADP1DETAIL
100
AcDbPolyline
 90
        2
 70
     0
 43
0.0
 10
-0.0437761448926759
 20
1.124634779548733
 10
-0.0489366031165952
 20
1.092052928621065
  0
LWPOLYLINE
  5
2F4
330
28
100
AcDbEntity
  8
ADP1DETAIL
100
AcDbPolyline
 90
        2
 70
     0
 43
0.0
 10
-0.0437761448926759
 20
1.124634779548733
 10
-0.0489366031165934
 20
1.092052928621066
  0
LWPOLYLINE
  5
2F8
330
28
100
AcDbEntity
  8
ADP1DETAIL
100
AcDbPolyline
 90
        2
 70
     0
 43
0.0
 10
-0.0111635357663635
 20
1.117651261705093
 10
-0.0433381163340583
 20
1.124931625998607
  0
LWPOLYLINE
  5
2FC
330
28
100
AcDbEntity
  8
ADP1DETAIL
100
AcDbPolyline
 90
        2
 70
     0
 43
0.0
 10
-0.0437761448926724
 20
1.124634779548736
 10
-0.0489366031165917
 20
1.092052928621068
  0
LWPOLYLINE
  5
300
330
28
100
AcDbEntity
  8
ADP1DETAIL
100
AcDbPolyline
 90
        2
 70
     0
 43
0.0
 10
-0.1485587799950379
 20
0.9933864988389654
 10
-0.1814937122408926
 20
0.9915163178545981
  0
LWPOLYLINE
  5
304
330
28
100
AcDbEntity
  8
ADP1DETAIL
100
AcDbPolyline
 90
        2
 70
     0
 43
0.0
 10
-0.1485587799950343
 20
0.9933864988389679
 10
-0.1814937122408908
 20
0.9915163178545999
  0
LWPOLYLINE
  5
308
330
28
100
AcDbEntity
  8
ADP1DETAIL
100
AcDbPolyline
 90
        2
 70
     0
 43
0.0
 10
-0.1175510601947165
 20
1.027978218848516
 10
-0.1505362218316586
 20
1.028410018267504
  0
LWPOLYLINE
  5
30C
330
28
100
AcDbEntity
  8
ADP1DETAIL
100
AcDbPolyline
 90
        2
 70
     0
 43
0.0
 10
-0.1509029605680139
 20
1.028028587366529
 10
-0.1491765026820824
 20
0.9950858084594337
  0
LWPOLYLINE
  5
310
330
28
100
AcDbEntity
  8
ADP1DETAIL
100
AcDbPolyline
 90
        2
 70
     0
 43
0.0
 10
-0.1509029605680139
 20
1.028028587366527
 10
-0.1491765026820806
 20
0.9950858084594344
  0
LWPOLYLINE
  5
314
330
28
100
AcDbEntity
  8
ADP1DETAIL
100
AcDbPolyline
 90
        2
 70
     0
 43
0.0
 10
-0.1175510601947147
 20
1.027978218848519
 10
-0.1505362218316568
 20
1.028410018267507
  0
LWPOLYLINE
  5
318
330
28
100
AcDbEntity
  8
ADP1DETAIL
100
AcDbPolyline
 90
        2
 70
     0
 43
0.0
 10
-0.1509029605680121
 20
1.02802858736653
 10
-0.1491765026820806
 20
0.9950858084594372
  0
LWPOLYLINE
  5
31C
330
28
100
AcDbEntity
  8
ADP1DETAIL
100
AcDbPolyline
 90
        2
 70
     0
 43
0.0
 10
-0.0842058772327752
 20
1.060322685974583
 10
-0.1170805678689648
 20
1.063054362113561
  0
LWPOLYLINE
  5
320
330
28
100
AcDbEntity
  8
ADP1DETAIL
100
AcDbPolyline
 90
        2
 70
     0
 43
0.0
 10
-0.1174730205228203
 20
1.062699442760123
 10
-0.1180487402934185
 20
1.029716479192557
  0
LWPOLYLINE
  5
324
330
28
100
AcDbEntity
  8
ADP1DETAIL
100
AcDbPolyline
 90
        2
 70
     0
 43
0.0
 10
-0.1174730205228203
 20
1.062699442760121
 10
-0.1180487402934167
 20
1.029716479192558
  0
LWPOLYLINE
  5
328
330
28
100
AcDbEntity
  8
ADP1DETAIL
100
AcDbPolyline
 90
        2
 70
     0
 43
0.0
 10
-0.0842058772327716
 20
1.060322685974586
 10
-0.1170805678689613
 20
1.063054362113563
  0
LWPOLYLINE
  5
32C
330
28
100
AcDbEntity
  8
ADP1DETAIL
100
AcDbPolyline
 90
        2
 70
     0
 43
0.0
 10
-0.1174730205228185
 20
1.062699442760125
 10
-0.1180487402934167
 20
1.02971647919256
  0
LWPOLYLINE
  5
330
330
28
100
AcDbEntity
  8
ADP1DETAIL
100
AcDbPolyline
 90
        2
 70
     0
 43
0.0
 10
-0.0817059975174397
 20
1.094953886957501
 10
-0.0845810900957167
 20
1.062091428412531
  0
LWPOLYLINE
  5
334
330
28
100
AcDbEntity
  8
ADP1DETAIL
100
AcDbPolyline
 90
        2
 70
     0
 43
0.0
 10
-0.0486856854887554
 20
1.090262321224583
 10
-0.0812897429359643
 20
1.095280565631989
  0
LWPOLYLINE
  5
338
330
28
100
AcDbEntity
  8
ADP1DETAIL
100
AcDbPolyline
 90
        2
 70
     0
 43
0.0
 10
-0.0817059975174415
 20
1.094953886957499
 10
-0.0845810900957185
 20
1.06209142841253
  0
LWPOLYLINE
  5
33C
330
28
100
AcDbEntity
  8
ADP1DETAIL
100
AcDbPolyline
 90
        2
 70
     0
 43
0.0
 10
-0.0817059975174433
 20
1.094953886957501
 10
-0.0845810900957203
 20
1.062091428412528
  0
LWPOLYLINE
  5
340
330
28
100
AcDbEntity
  8
ADP1DETAIL
100
AcDbPolyline
 90
        2
 70
     0
 43
0.0
 10
-0.0486856854887572
 20
1.090262321224581
 10
-0.0812897429359678
 20
1.095280565631987
  0
LWPOLYLINE
  5
344
330
28
100
AcDbEntity
  8
ADP1DETAIL
100
AcDbPolyline
 90
        2
 70
     0
 43
0.0
 10
0.0281777677926671
 20
1.142356071251222
 10
-0.0034105845731647
 20
1.151863086227826
  0
LWPOLYLINE
  5
348
330
28
100
AcDbEntity
  8
ADP1DETAIL
100
AcDbPolyline
 90
        2
 70
     0
 43
0.0
 10
-0.0038682530778127
 20
1.151597518208635
 10
-0.0112889357136323
 20
1.119455010400872
  0
LWPOLYLINE
  5
34C
330
28
100
AcDbEntity
  8
ADP1DETAIL
100
AcDbPolyline
 90
        2
 70
     0
 43
0.0
 10
-0.0038682530778127
 20
1.151597518208633
 10
-0.0112889357136306
 20
1.119455010400872
  0
LWPOLYLINE
  5
350
330
28
100
AcDbEntity
  8
ADP1DETAIL
100
AcDbPolyline
 90
        2
 70
     0
 43
0.0
 10
0.0281777677926707
 20
1.142356071251224
 10
-0.0034105845731611
 20
1.151863086227827
  0
LWPOLYLINE
  5
354
330
28
100
AcDbEntity
  8
ADP1DETAIL
100
AcDbPolyline
 90
        2
 70
     0
 43
0.0
 10
-0.0038682530778091
 20
1.151597518208636
 10
-0.0112889357136288
 20
1.119455010400874
  0
LWPOLYLINE
  5
358
330
28
100
AcDbEntity
  8
ADP1DETAIL
100
AcDbPolyline
 90
        2
 70
     0
 43
0.0
 10
0.0691465583119753
 20
1.164256390514182
 10
0.0382983294254791
 20
1.17594373895255
  0
LWPOLYLINE
  5
35C
330
28
100
AcDbEntity
  8
ADP1DETAIL
100
AcDbPolyline
 90
        2
 70
     0
 43
0.0
 10
0.069146558311977
 20
1.164256390514184
 10
0.0382983294254826
 20
1.175943738952552
  0
LWPOLYLINE
  5
360
330
28
100
AcDbEntity
  8
ADP1DETAIL
100
AcDbPolyline
 90
        2
 70
     0
 43
0.0
 10
0.0810952495944735
 20
1.196856977268806
 10
0.0692734120477185
 20
1.166060037551169
  0
LWPOLYLINE
  5
364
330
28
100
AcDbEntity
  8
ADP1DETAIL
100
AcDbPolyline
 90
        2
 70
     0
 43
0.0
 10
0.0810952495944752
 20
1.196856977268804
 10
0.0692734120477203
 20
1.16606003755117
  0
LWPOLYLINE
  5
368
330
28
100
AcDbEntity
  8
ADP1DETAIL
100
AcDbPolyline
 90
        2
 70
     0
 43
0.0
 10
0.081095249594477
 20
1.196856977268807
 10
0.0692734120477221
 20
1.166060037551172
  0
LWPOLYLINE
  5
36C
330
28
100
AcDbEntity
  8
ADP1DETAIL
100
AcDbPolyline
 90
        2
 70
     0
 43
0.0
 10
0.1551612603723962
 20
1.199230956582137
 10
0.126239808853037
 20
1.215097808222169
  0
LWPOLYLINE
  5
370
330
28
100
AcDbEntity
  8
ADP1DETAIL
100
AcDbPolyline
 90
        2
 70
     0
 43
0.0
 10
0.1551612603723926
 20
1.199230956582135
 10
0.1262398088530334
 20
1.215097808222168
  0
LWPOLYLINE
  5
374
330
28
100
AcDbEntity
  8
ADP1DETAIL
100
AcDbPolyline
 90
        2
 70
     0
 43
0.0
 10
0.1551612603723962
 20
1.199230956582137
 10
0.126239808853037
 20
1.215097808222169
  0
LWPOLYLINE
  5
378
330
28
100
AcDbEntity
  8
ADP1DETAIL
100
AcDbPolyline
 90
        2
 70
     0
 43
0.0
 10
0.1551612603723926
 20
1.199230956582135
 10
0.1262398088530334
 20
1.215097808222168
  0
LWPOLYLINE
  5
37C
330
28
100
AcDbEntity
  8
ADP1DETAIL
100
AcDbPolyline
 90
        2
 70
     0
 43
0.0
 10
0.1257369268073871
 20
1.214933198134001
 10
0.1117956007459186
 20
1.185035927914106
  0
LWPOLYLINE
  5
380
330
28
100
AcDbEntity
  8
ADP1DETAIL
100
AcDbPolyline
 90
        2
 70
     0
 43
0.0
 10
0.1257369268073836
 20
1.214933198133999
 10
0.1117956007459169
 20
1.185035927914105
  0
LWPOLYLINE
  5
384
330
28
100
AcDbEntity
  8
ADP1DETAIL
100
AcDbPolyline
 90
        2
 70
     0
 43
0.0
 10
0.1257369268073836
 20
1.214933198134
 10
0.1117956007459151
 20
1.185035927914105
  0
LWPOLYLINE
  5
388
330
28
100
AcDbEntity
  8
ADP1DETAIL
100
AcDbPolyline
 90
        2
 70
     0
 43
0.0
 10
0.1257369268073871
 20
1.214933198134001
 10
0.1117956007459186
 20
1.185035927914106
  0
LWPOLYLINE
  5
38C
330
28
100
AcDbEntity
  8
ADP1DETAIL
100
AcDbPolyline
 90
        2
 70
     0
 43
0.0
 10
0.1257369268073836
 20
1.214933198133999
 10
0.1117956007459169
 20
1.185035927914105
  0
LWPOLYLINE
  5
390
330
28
100
AcDbEntity
  8
ADP1DETAIL
100
AcDbPolyline
 90
        2
 70
     0
 43
0.0
 10
0.1257369268073836
 20
1.214933198134
 10
0.1117956007459151
 20
1.185035927914105
  0
LWPOLYLINE
  5
394
330
28
100
AcDbEntity
  8
ADP1DETAIL
100
AcDbPolyline
 90
        2
 70
     0
 43
0.0
 10
0.383984199450853
 20
1.23190821748481
 10
0.3622337077477455
 20
1.256709899879891
  0
LWPOLYLINE
  5
398
330
28
100
AcDbEntity
  8
ADP1DETAIL
100
AcDbPolyline
 90
        2
 70
     0
 43
0.0
 10
0.3617048532343743
 20
1.256727212784063
 10
0.3383788233647875
 20
1.233401182914478
  0
LWPOLYLINE
  5
39C
330
28
100
AcDbEntity
  8
ADP1DETAIL
100
AcDbPolyline
 90
        2
 70
     0
 43
0.0
 10
0.3617048532343743
 20
1.256727212784061
 10
0.3383788233647893
 20
1.233401182914478
  0
LWPOLYLINE
  5
3A0
330
28
100
AcDbEntity
  8
ADP1DETAIL
100
AcDbPolyline
 90
        2
 70
     0
 43
0.0
 10
0.3839841994508566
 20
1.23190821748481
 10
0.3622337077477491
 20
1.256709899879891
  0
LWPOLYLINE
  5
3A4
330
28
100
AcDbEntity
  8
ADP1DETAIL
100
AcDbPolyline
 90
        2
 70
     0
 43
0.0
 10
0.3617048532343778
 20
1.256727212784062
 10
0.3383788233647911
 20
1.233401182914478
  0
LWPOLYLINE
  5
3A8
330
28
100
AcDbEntity
  8
ADP1DETAIL
100
AcDbPolyline
 90
        2
 70
     0
 43
0.0
 10
0.3135729669267997
 20
1.255009474264001
 10
0.2919308996837655
 20
1.230113123840664
  0
LWPOLYLINE
  5
3AC
330
28
100
AcDbEntity
  8
ADP1DETAIL
100
AcDbPolyline
 90
        2
 70
     0
 43
0.0
 10
0.3375293273695989
 20
1.231805065419286
 10
0.3141017408643014
 20
1.255029094559171
  0
LWPOLYLINE
  5
3B0
330
28
100
AcDbEntity
  8
ADP1DETAIL
100
AcDbPolyline
 90
        2
 70
     0
 43
0.0
 10
0.3135729669267961
 20
1.255009474263999
 10
0.2919308996837637
 20
1.230113123840663
  0
LWPOLYLINE
  5
3B4
330
28
100
AcDbEntity
  8
ADP1DETAIL
100
AcDbPolyline
 90
        2
 70
     0
 43
0.0
 10
0.3135729669267961
 20
1.255009474264001
 10
0.2919308996837619
 20
1.230113123840663
  0
LWPOLYLINE
  5
3B8
330
28
100
AcDbEntity
  8
ADP1DETAIL
100
AcDbPolyline
 90
        2
 70
     0
 43
0.0
 10
0.3375293273695954
 20
1.231805065419285
 10
0.3141017408642979
 20
1.255029094559171
  0
LWPOLYLINE
  5
3BC
330
28
100
AcDbEntity
  8
ADP1DETAIL
100
AcDbPolyline
 90
        2
 70
     0
 43
0.0
 10
0.2656781508571422
 20
1.24993840940517
 10
0.245825484216815
 20
1.223593030944772
  0
LWPOLYLINE
  5
3C0
330
28
100
AcDbEntity
  8
ADP1DETAIL
100
AcDbPolyline
 90
        2
 70
     0
 43
0.0
 10
0.2911948125462684
 20
1.228461636562384
 10
0.2662042680853025
 20
1.249994867311575
  0
LWPOLYLINE
  5
3C4
330
28
100
AcDbEntity
  8
ADP1DETAIL
100
AcDbPolyline
 90
        2
 70
     0
 43
0.0
 10
0.2656781508571386
 20
1.249938409405169
 10
0.2458254842168133
 20
1.22359303094477
  0
LWPOLYLINE
  5
3C8
330
28
100
AcDbEntity
  8
ADP1DETAIL
100
AcDbPolyline
 90
        2
 70
     0
 43
0.0
 10
0.2656781508571386
 20
1.24993840940517
 10
0.2458254842168115
 20
1.22359303094477
  0
LWPOLYLINE
  5
3CC
330
28
100
AcDbEntity
  8
ADP1DETAIL
100
AcDbPolyline
 90
        2
 70
     0
 43
0.0
 10
0.2911948125462649
 20
1.228461636562383
 10
0.266204268085299
 20
1.249994867311575
  0
LWPOLYLINE
  5
3D0
330
28
100
AcDbEntity
  8
ADP1DETAIL
100
AcDbPolyline
 90
        2
 70
     0
 43
0.0
 10
0.2182537437549259
 20
1.241538723925822
 10
0.2002871979135952
 20
1.213872669463993
  0
LWPOLYLINE
  5
3D4
330
28
100
AcDbEntity
  8
ADP1DETAIL
100
AcDbPolyline
 90
        2
 70
     0
 43
0.0
 10
0.2452063920795569
 20
1.221894219763418
 10
0.2187746410834963
 20
1.241631744386217
  0
LWPOLYLINE
  5
3D8
330
28
100
AcDbEntity
  8
ADP1DETAIL
100
AcDbPolyline
 90
        2
 70
     0
 43
0.0
 10
0.2182537437549223
 20
1.241538723925822
 10
0.2002871979135934
 20
1.213872669463991
  0
LWPOLYLINE
  5
3DC
330
28
100
AcDbEntity
  8
ADP1DETAIL
100
AcDbPolyline
 90
        2
 70
     0
 43
0.0
 10
0.2182537437549223
 20
1.241538723925822
 10
0.2002871979135916
 20
1.213872669463991
  0
LWPOLYLINE
  5
3E0
330
28
100
AcDbEntity
  8
ADP1DETAIL
100
AcDbPolyline
 90
        2
 70
     0
 43
0.0
 10
0.2452063920795533
 20
1.221894219763418
 10
0.2187746410834928
 20
1.241631744386217
  0
LWPOLYLINE
  5
3E4
330
28
100
AcDbEntity
  8
ADP1DETAIL
100
AcDbPolyline
 90
        2
 70
     0
 43
0.0
 10
0.1715307925644653
 20
1.22985134024928
 10
0.155537898727478
 20
1.200999396022374
  0
LWPOLYLINE
  5
3E8
330
28
100
AcDbEntity
  8
ADP1DETAIL
100
AcDbPolyline
 90
        2
 70
     0
 43
0.0
 10
0.1997881169312334
 20
1.212134810816878
 10
0.1720439322340193
 20
1.229980470077333
  0
LWPOLYLINE
  5
3EC
330
28
100
AcDbEntity
  8
ADP1DETAIL
100
AcDbPolyline
 90
        2
 70
     0
 43
0.0
 10
0.1715307925644618
 20
1.229851340249279
 10
0.1555378987274762
 20
1.200999396022373
  0
LWPOLYLINE
  5
3F0
330
28
100
AcDbEntity
  8
ADP1DETAIL
100
AcDbPolyline
 90
        2
 70
     0
 43
0.0
 10
0.1715307925644618
 20
1.229851340249279
 10
0.1555378987274745
 20
1.200999396022373
  0
LWPOLYLINE
  5
3F4
330
28
100
AcDbEntity
  8
ADP1DETAIL
100
AcDbPolyline
 90
        2
 70
     0
 43
0.0
 10
0.1997881169312299
 20
1.212134810816877
 10
0.1720439322340157
 20
1.229980470077332
  0
LWPOLYLINE
  5
3F8
330
28
100
AcDbEntity
  8
ADP1DETAIL
100
AcDbPolyline
 90
        2
 70
     0
 43
0.0
 10
0.3839841994508548
 20
1.23190821748481
 10
0.3622337077477473
 20
1.256709899879891
  0
LWPOLYLINE
  5
3FC
330
28
100
AcDbEntity
  8
ADP1DETAIL
100
AcDbPolyline
 90
        2
 70
     0
 43
0.0
 10
0.3839841994508584
 20
1.231908217484809
 10
0.3622337077477509
 20
1.256709899879891
  0
LWPOLYLINE
  5
400
330
28
100
AcDbEntity
  8
ADP1DETAIL
100
AcDbPolyline
 90
        2
 70
     0
 43
0.0
 10
0.3617048532343761
 20
1.256727212784062
 10
0.3383788233647893
 20
1.233401182914478
  0
LWPOLYLINE
  5
404
330
28
100
AcDbEntity
  8
ADP1DETAIL
100
AcDbPolyline
 90
        2
 70
     0
 43
0.0
 10
0.3617048532343761
 20
1.256727212784062
 10
0.3383788233647911
 20
1.233401182914478
  0
LWPOLYLINE
  5
408
330
28
100
AcDbEntity
  8
ADP1DETAIL
100
AcDbPolyline
 90
        2
 70
     0
 43
0.0
 10
0.3617048532343796
 20
1.256727212784061
 10
0.3383788233647929
 20
1.233401182914478
  0
LWPOLYLINE
  5
40C
330
28
100
AcDbEntity
  8
ADP1DETAIL
100
AcDbPolyline
 90
        2
 70
     0
 43
0.0
 10
0.4303331053228865
 20
1.228770590212466
 10
0.4103656746311933
 20
1.255029094559171
  0
LWPOLYLINE
  5
410
330
28
100
AcDbEntity
  8
ADP1DETAIL
100
AcDbPolyline
 90
        2
 70
     0
 43
0.0
 10
0.4098393160679832
 20
1.255083256315953
 10
0.384942965644643
 20
1.233441189072921
  0
LWPOLYLINE
  5
414
330
28
100
AcDbEntity
  8
ADP1DETAIL
100
AcDbPolyline
 90
        2
 70
     0
 43
0.0
 10
0.4098393160679832
 20
1.255083256315951
 10
0.3849429656446448
 20
1.233441189072921
  0
LWPOLYLINE
  5
418
330
28
100
AcDbEntity
  8
ADP1DETAIL
100
AcDbPolyline
 90
        2
 70
     0
 43
0.0
 10
0.4303331053228883
 20
1.228770590212465
 10
0.4103656746311968
 20
1.25502909455917
  0
LWPOLYLINE
  5
41C
330
28
100
AcDbEntity
  8
ADP1DETAIL
100
AcDbPolyline
 90
        2
 70
     0
 43
0.0
 10
0.4098393160679868
 20
1.255083256315951
 10
0.3849429656446466
 20
1.233441189072922
  0
LWPOLYLINE
  5
420
330
28
100
AcDbEntity
  8
ADP1DETAIL
100
AcDbPolyline
 90
        2
 70
     0
 43
0.0
 10
0.4577418491631536
 20
1.250085614050334
 10
0.4313964707027518
 20
1.23023294741001
  0
LWPOLYLINE
  5
424
330
28
100
AcDbEntity
  8
ADP1DETAIL
100
AcDbPolyline
 90
        2
 70
     0
 43
0.0
 10
0.4577418491631518
 20
1.250085614050333
 10
0.4313964707027536
 20
1.23023294741001
  0
LWPOLYLINE
  5
428
330
28
100
AcDbEntity
  8
ADP1DETAIL
100
AcDbPolyline
 90
        2
 70
     0
 43
0.0
 10
0.4577418491631553
 20
1.250085614050334
 10
0.4313964707027554
 20
1.230232947410009
  0
LWPOLYLINE
  5
42C
330
28
100
AcDbEntity
  8
ADP1DETAIL
100
AcDbPolyline
 90
        2
 70
     0
 43
0.0
 10
0.8998080751125145
 20
0.9591072561224013
 10
0.9059611277363837
 20
0.9915163178545981
  0
LWPOLYLINE
  5
430
330
28
100
AcDbEntity
  8
ADP1DETAIL
100
AcDbPolyline
 90
        2
 70
     0
 43
0.0
 10
0.8998080751125181
 20
0.9591072561223988
 10
0.9059611277363854
 20
0.9915163178545952
  0
LWPOLYLINE
  5
434
330
28
100
AcDbEntity
  8
ADP1DETAIL
100
AcDbPolyline
 90
        2
 70
     0
 43
0.0
 10
0.8086732927282609
 20
0.0730971137852015
 10
0.8415479833644505
 20
0.070365437646224
  0
LWPOLYLINE
  5
438
330
28
100
AcDbEntity
  8
ADP1DETAIL
100
AcDbPolyline
 90
        2
 70
     0
 43
0.0
 10
0.8086732927282591
 20
0.0730971137851992
 10
0.8415479833644488
 20
0.0703654376462217
  0
ARC
  5
43C
330
28
100
AcDbEntity
  8
ADP1DETAIL
100
AcDbCircle
 10
0.7322503667474605
 20
0.0656636546077372
 30
0.0
 40
0.0599999999999962
100
AcDbArc
 50
135.8767852779088
 51
221.5949538319253
  0
LWPOLYLINE
  5
43D
330
28
100
AcDbEntity
  8
ADP1DETAIL
100
AcDbPolyline
 90
        2
 70
     0
 43
0.0
 10
0.8061734130129325
 20
0.0384659128022853
 10
0.8090485055912095
 20
0.0713283713472568
  0
LWPOLYLINE
  5
441
330
28
100
AcDbEntity
  8
ADP1DETAIL
100
AcDbPolyline
 90
        2
 70
     0
 43
0.0
 10
0.8061734130129325
 20
0.0384659128022862
 10
0.8090485055912077
 20
0.0713283713472563
  0
LWPOLYLINE
  5
445
330
28
100
AcDbEntity
  8
ADP1DETAIL
100
AcDbPolyline
 90
        2
 70
     0
 43
0.0
 10
0.8061734130129289
 20
0.0384659128022835
 10
0.8090485055912077
 20
0.0713283713472541
  0
LWPOLYLINE
  5
449
330
28
100
AcDbEntity
  8
ADP1DETAIL
100
AcDbPolyline
 90
        2
 70
     0
 43
0.0
 10
0.8061734130129272
 20
0.0384659128022835
 10
0.8090485055912042
 20
0.0713283713472532
  0
LWPOLYLINE
  5
44D
330
28
100
AcDbEntity
  8
ADP1DETAIL
100
AcDbPolyline
 90
        2
 70
     0
 43
0.0
 10
0.8061734130129289
 20
0.0384659128022857
 10
0.8090485055912042
 20
0.0713283713472559
  0
LWPOLYLINE
  5
451
330
28
100
AcDbEntity
  8
ADP1DETAIL
100
AcDbPolyline
 90
        2
 70
     0
 43
0.0
 10
0.8061734130129289
 20
0.0384659128022857
 10
0.809048505591206
 20
0.0713283713472563
  0
ARC
  5
455
330
28
100
AcDbEntity
  8
ADP1DETAIL
100
AcDbCircle
 10
0.7351797446416315
 20
0.0540767845489243
 30
0.0
 40
0.0553725525634547
100
AcDbArc
 50
210.5781967027702
 51
304.5827782367261
  0
LWPOLYLINE
  5
456
330
28
100
AcDbEntity
  8
ADP1DETAIL
100
AcDbPolyline
 90
        2
 70
     0
 43
0.0
 10
0.7731531009842448
 20
0.0431574785352038
 10
0.8057571584314553
 20
0.0381392341277978
  0
LWPOLYLINE
  5
45A
330
28
100
AcDbEntity
  8
ADP1DETAIL
100
AcDbPolyline
 90
        2
 70
     0
 43
0.0
 10
0.773153100984243
 20
0.0431574785352011
 10
0.8057571584314517
 20
0.0381392341277951
  0
LWPOLYLINE
  5
45E
330
28
100
AcDbEntity
  8
ADP1DETAIL
100
AcDbPolyline
 90
        2
 70
     0
 43
0.0
 10
0.7682435603881635
 20
0.0087850202110484
 10
0.773404018612081
 20
0.0413668711387163
  0
LWPOLYLINE
  5
462
330
28
100
AcDbEntity
  8
ADP1DETAIL
100
AcDbPolyline
 90
        2
 70
     0
 43
0.0
 10
0.7682435603881653
 20
0.0087850202110515
 10
0.7734040186120828
 20
0.0413668711387181
  0
LWPOLYLINE
  5
466
330
28
100
AcDbEntity
  8
ADP1DETAIL
100
AcDbPolyline
 90
        2
 70
     0
 43
0.0
 10
0.7682435603881653
 20
0.0087850202110507
 10
0.7734040186120846
 20
0.0413668711387194
  0
LWPOLYLINE
  5
46A
330
28
100
AcDbEntity
  8
ADP1DETAIL
100
AcDbPolyline
 90
        2
 70
     0
 43
0.0
 10
0.7731531009842448
 20
0.043157478535202
 10
0.8057571584314553
 20
0.038139234127796
  0
LWPOLYLINE
  5
46E
330
28
100
AcDbEntity
  8
ADP1DETAIL
100
AcDbPolyline
 90
        2
 70
     0
 43
0.0
 10
0.7731531009842465
 20
0.0431574785352038
 10
0.8057571584314571
 20
0.0381392341277978
  0
LWPOLYLINE
  5
472
330
28
100
AcDbEntity
  8
ADP1DETAIL
100
AcDbPolyline
 90
        2
 70
     0
 43
0.0
 10
1.031882499001478
 20
0.4002927488196715
 10
1.0148924292709
 20
0.4285689732759832
  0
LWPOLYLINE
  5
476
330
28
100
AcDbEntity
  8
ADP1DETAIL
100
AcDbPolyline
 90
        2
 70
     0
 43
0.0
 10
1.031882499001478
 20
0.4002927488196715
 10
1.014892429270898
 20
0.4285689732759815
  0
LWPOLYLINE
  5
47A
330
28
100
AcDbEntity
  8
ADP1DETAIL
100
AcDbPolyline
 90
        2
 70
     0
 43
0.0
 10
1.031882499001478
 20
0.4002927488196675
 10
1.0148924292709
 20
0.4285689732759792
  0
LWPOLYLINE
  5
47E
330
28
100
AcDbEntity
  8
ADP1DETAIL
100
AcDbPolyline
 90
        2
 70
     0
 43
0.0
 10
0.841940436018306
 20
0.0707203569996633
 10
0.842516155788906
 20
0.1037033205672282
  0
LWPOLYLINE
  5
482
330
28
100
AcDbEntity
  8
ADP1DETAIL
100
AcDbPolyline
 90
        2
 70
     0
 43
0.0
 10
0.841940436018306
 20
0.0707203569996633
 10
0.8425161557889042
 20
0.1037033205672273
  0
LWPOLYLINE
  5
486
330
28
100
AcDbEntity
  8
ADP1DETAIL
100
AcDbPolyline
 90
        2
 70
     0
 43
0.0
 10
0.8419404360183042
 20
0.0707203569996611
 10
0.8425161557889024
 20
0.1037033205672255
  0
LWPOLYLINE
  5
48A
330
28
100
AcDbEntity
  8
ADP1DETAIL
100
AcDbPolyline
 90
        2
 70
     0
 43
0.0
 10
0.9274371034967172
 20
0.2152742627177391
 10
0.9597912363590053
 20
0.2217098998798934
  0
LWPOLYLINE
  5
48E
330
28
100
AcDbEntity
  8
ADP1DETAIL
100
AcDbPolyline
 90
        2
 70
     0
 43
0.0
 10
0.9274371034967154
 20
0.2152742627177369
 10
0.9597912363590035
 20
0.2217098998798899
  0
LWPOLYLINE
  5
492
330
28
100
AcDbEntity
  8
ADP1DETAIL
100
AcDbPolyline
 90
        2
 70
     0
 43
0.0
 10
0.9600706570305161
 20
0.2221592448712935
 10
0.9515327375288142
 20
0.2540231942425821
  0
LWPOLYLINE
  5
496
330
28
100
AcDbEntity
  8
ADP1DETAIL
100
AcDbPolyline
 90
        2
 70
     0
 43
0.0
 10
0.9600706570305161
 20
0.2221592448712935
 10
0.9515327375288142
 20
0.2540231942425808
  0
LWPOLYLINE
  5
49A
330
28
100
AcDbEntity
  8
ADP1DETAIL
100
AcDbPolyline
 90
        2
 70
     0
 43
0.0
 10
0.9600706570305144
 20
0.2221592448712903
 10
0.9515327375288125
 20
0.2540231942425781
  0
LWPOLYLINE
  5
49E
330
28
100
AcDbEntity
  8
ADP1DETAIL
100
AcDbPolyline
 90
        2
 70
     0
 43
0.0
 10
0.9015453856352459
 20
0.176703746431119
 10
0.9342696328107207
 20
0.1808667964850774
  0
LWPOLYLINE
  5
4A2
330
28
100
AcDbEntity
  8
ADP1DETAIL
100
AcDbPolyline
 90
        2
 70
     0
 43
0.0
 10
0.9345797175496146
 20
0.1812955554939259
 10
0.9282853127384074
 20
0.2136774610435737
  0
LWPOLYLINE
  5
4A6
330
28
100
AcDbEntity
  8
ADP1DETAIL
100
AcDbPolyline
 90
        2
 70
     0
 43
0.0
 10
0.9345797175496128
 20
0.1812955554939273
 10
0.9282853127384056
 20
0.2136774610435723
  0
LWPOLYLINE
  5
4AA
330
28
100
AcDbEntity
  8
ADP1DETAIL
100
AcDbPolyline
 90
        2
 70
     0
 43
0.0
 10
0.9015453856352424
 20
0.1767037464311172
 10
0.9342696328107189
 20
0.1808667964850748
  0
LWPOLYLINE
  5
4AE
330
28
100
AcDbEntity
  8
ADP1DETAIL
100
AcDbPolyline
 90
        2
 70
     0
 43
0.0
 10
0.9345797175496111
 20
0.1812955554939237
 10
0.9282853127384056
 20
0.2136774610435697
  0
LWPOLYLINE
  5
4B2
330
28
100
AcDbEntity
  8
ADP1DETAIL
100
AcDbPolyline
 90
        2
 70
     0
 43
0.0
 10
0.8730261954905236
 20
0.1400333009208201
 10
0.9059611277363801
 20
0.1419034819051879
  0
LWPOLYLINE
  5
4B6
330
28
100
AcDbEntity
  8
ADP1DETAIL
100
AcDbPolyline
 90
        2
 70
     0
 43
0.0
 10
0.9063003658409778
 20
0.1423095660606934
 10
0.9022801414277923
 20
0.1750516663998787
  0
LWPOLYLINE
  5
4BA
330
28
100
AcDbEntity
  8
ADP1DETAIL
100
AcDbPolyline
 90
        2
 70
     0
 43
0.0
 10
0.906300365840976
 20
0.1423095660606948
 10
0.9022801414277923
 20
0.1750516663998773
  0
LWPOLYLINE
  5
4BE
330
28
100
AcDbEntity
  8
ADP1DETAIL
100
AcDbPolyline
 90
        2
 70
     0
 43
0.0
 10
0.8730261954905218
 20
0.140033300920817
 10
0.9059611277363766
 20
0.1419034819051848
  0
LWPOLYLINE
  5
4C2
330
28
100
AcDbEntity
  8
ADP1DETAIL
100
AcDbPolyline
 90
        2
 70
     0
 43
0.0
 10
0.9063003658409742
 20
0.1423095660606912
 10
0.9022801414277905
 20
0.175051666399876
  0
LWPOLYLINE
  5
4C6
330
28
100
AcDbEntity
  8
ADP1DETAIL
100
AcDbPolyline
 90
        2
 70
     0
 43
0.0
 10
0.842018475690204
 20
0.1054415809112683
 10
0.8750036373271443
 20
0.1050097814922819
  0
LWPOLYLINE
  5
4CA
330
28
100
AcDbEntity
  8
ADP1DETAIL
100
AcDbPolyline
 90
        2
 70
     0
 43
0.0
 10
0.8753703760634996
 20
0.1053912123932577
 10
0.8736439181775699
 20
0.1383339913003518
  0
LWPOLYLINE
  5
4CE
330
28
100
AcDbEntity
  8
ADP1DETAIL
100
AcDbPolyline
 90
        2
 70
     0
 43
0.0
 10
0.8753703760634996
 20
0.1053912123932577
 10
0.8736439181775681
 20
0.1383339913003514
  0
LWPOLYLINE
  5
4D2
330
28
100
AcDbEntity
  8
ADP1DETAIL
100
AcDbPolyline
 90
        2
 70
     0
 43
0.0
 10
0.8420184756902004
 20
0.1054415809112661
 10
0.8750036373271425
 20
0.1050097814922792
  0
LWPOLYLINE
  5
4D6
330
28
100
AcDbEntity
  8
ADP1DETAIL
100
AcDbPolyline
 90
        2
 70
     0
 43
0.0
 10
0.8753703760634978
 20
0.1053912123932554
 10
0.8736439181775663
 20
0.1383339913003492
  0
LWPOLYLINE
  5
4DA
330
28
100
AcDbEntity
  8
ADP1DETAIL
100
AcDbPolyline
 90
        2
 70
     0
 43
0.0
 10
1.002410872262738
 20
0.3846794527912745
 10
1.031737758878182
 20
0.3997837919161218
  0
LWPOLYLINE
  5
4DE
330
28
100
AcDbEntity
  8
ADP1DETAIL
100
AcDbPolyline
 90
        2
 70
     0
 43
0.0
 10
1.002410872262738
 20
0.3846794527912705
 10
1.031737758878182
 20
0.3997837919161174
  0
LWPOLYLINE
  5
4E2
330
28
100
AcDbEntity
  8
ADP1DETAIL
100
AcDbPolyline
 90
        2
 70
     0
 43
0.0
 10
0.9881536307622029
 20
0.3404663682434843
 10
1.018462703991398
 20
0.3534881737611775
  0
LWPOLYLINE
  5
4E6
330
28
100
AcDbEntity
  8
ADP1DETAIL
100
AcDbPolyline
 90
        2
 70
     0
 43
0.0
 10
1.01864259457391
 20
0.3539857943106806
 10
1.003666361508146
 20
0.3833783066584462
  0
LWPOLYLINE
  5
4EA
330
28
100
AcDbEntity
  8
ADP1DETAIL
100
AcDbPolyline
 90
        2
 70
     0
 43
0.0
 10
1.01864259457391
 20
0.3539857943106806
 10
1.003666361508146
 20
0.3833783066584444
  0
LWPOLYLINE
  5
4EE
330
28
100
AcDbEntity
  8
ADP1DETAIL
100
AcDbPolyline
 90
        2
 70
     0
 43
0.0
 10
0.9881536307622011
 20
0.3404663682434807
 10
1.018462703991397
 20
0.3534881737611744
  0
LWPOLYLINE
  5
4F2
330
28
100
AcDbEntity
  8
ADP1DETAIL
100
AcDbPolyline
 90
        2
 70
     0
 43
0.0
 10
1.018642594573909
 20
0.3539857943106779
 10
1.003666361508146
 20
0.3833783066584422
  0
LWPOLYLINE
  5
4F6
330
28
100
AcDbEntity
  8
ADP1DETAIL
100
AcDbPolyline
 90
        2
 70
     0
 43
0.0
 10
0.9708469703139934
 20
0.2973555194399089
 10
1.001990567398828
 20
0.3082313504229139
  0
LWPOLYLINE
  5
4FA
330
28
100
AcDbEntity
  8
ADP1DETAIL
100
AcDbPolyline
 90
        2
 70
     0
 43
0.0
 10
1.002204732031716
 20
0.308715210261072
 10
0.9893152983328592
 20
0.3390808131346588
  0
LWPOLYLINE
  5
4FE
330
28
100
AcDbEntity
  8
ADP1DETAIL
100
AcDbPolyline
 90
        2
 70
     0
 43
0.0
 10
1.002204732031715
 20
0.3087152102610728
 10
0.9893152983328574
 20
0.3390808131346574
  0
LWPOLYLINE
  5
502
330
28
100
AcDbEntity
  8
ADP1DETAIL
100
AcDbPolyline
 90
        2
 70
     0
 43
0.0
 10
0.9708469703139916
 20
0.2973555194399058
 10
1.001990567398826
 20
0.3082313504229108
  0
LWPOLYLINE
  5
506
330
28
100
AcDbEntity
  8
ADP1DETAIL
100
AcDbPolyline
 90
        2
 70
     0
 43
0.0
 10
1.002204732031715
 20
0.3087152102610688
 10
0.9893152983328592
 20
0.3390808131346552
  0
LWPOLYLINE
  5
50A
330
28
100
AcDbEntity
  8
ADP1DETAIL
100
AcDbPolyline
 90
        2
 70
     0
 43
0.0
 10
0.950575207228149
 20
0.2555569381024276
 10
0.9824015996941701
 20
0.2642338085954297
  0
LWPOLYLINE
  5
50E
330
28
100
AcDbEntity
  8
ADP1DETAIL
100
AcDbPolyline
 90
        2
 70
     0
 43
0.0
 10
0.9826489949888737
 20
0.2647015504057504
 10
0.9719091566822628
 20
0.2958923056402969
  0
LWPOLYLINE
  5
512
330
28
100
AcDbEntity
  8
ADP1DETAIL
100
AcDbPolyline
 90
        2
 70
     0
 43
0.0
 10
0.9826489949888719
 20
0.2647015504057513
 10
0.971909156682261
 20
0.2958923056402955
  0
LWPOLYLINE
  5
516
330
28
100
AcDbEntity
  8
ADP1DETAIL
100
AcDbPolyline
 90
        2
 70
     0
 43
0.0
 10
0.9505752072281472
 20
0.2555569381024241
 10
0.9824015996941684
 20
0.2642338085954266
  0
LWPOLYLINE
  5
51A
330
28
100
AcDbEntity
  8
ADP1DETAIL
100
AcDbPolyline
 90
        2
 70
     0
 43
0.0
 10
0.9826489949888719
 20
0.2647015504057468
 10
0.971909156682261
 20
0.2958923056402942
  0
LWPOLYLINE
  5
51E
330
28
100
AcDbEntity
  8
ADP1DETAIL
100
AcDbPolyline
 90
        2
 70
     0
 43
0.0
 10
0.9600706570305144
 20
0.2221592448712899
 10
0.9515327375288142
 20
0.2540231942425781
  0
LWPOLYLINE
  5
522
330
28
100
AcDbEntity
  8
ADP1DETAIL
100
AcDbPolyline
 90
        2
 70
     0
 43
0.0
 10
0.9274371034967172
 20
0.215274262717736
 10
0.9597912363590053
 20
0.221709899879889
  0
LWPOLYLINE
  5
526
330
28
100
AcDbEntity
  8
ADP1DETAIL
100
AcDbPolyline
 90
        2
 70
     0
 43
0.0
 10
0.9600706570305161
 20
0.222159244871293
 10
0.9515327375288142
 20
0.2540231942425799
  0
LWPOLYLINE
  5
52A
330
28
100
AcDbEntity
  8
ADP1DETAIL
100
AcDbPolyline
 90
        2
 70
     0
 43
0.0
 10
0.9600706570305179
 20
0.2221592448712921
 10
0.951532737528816
 20
0.2540231942425812
  0
LWPOLYLINE
  5
52E
330
28
100
AcDbEntity
  8
ADP1DETAIL
100
AcDbPolyline
 90
        2
 70
     0
 43
0.0
 10
0.927437103496719
 20
0.2152742627177391
 10
0.959791236359007
 20
0.2217098998798925
  0
LWPOLYLINE
  5
532
330
28
100
AcDbEntity
  8
ADP1DETAIL
100
AcDbPolyline
 90
        2
 70
     0
 43
0.0
 10
0.9258708268500024
 20
0.9206521036418205
 10
0.9342696328107242
 20
0.9525530032747088
  0
LWPOLYLINE
  5
536
330
28
100
AcDbEntity
  8
ADP1DETAIL
100
AcDbPolyline
 90
        2
 70
     0
 43
0.0
 10
0.9258708268500059
 20
0.9206521036418187
 10
0.934269632810726
 20
0.9525530032747063
  0
LWPOLYLINE
  5
53A
330
28
100
AcDbEntity
  8
ADP1DETAIL
100
AcDbPolyline
 90
        2
 70
     0
 43
0.0
 10
1.013549234968141
 20
0.4297793713796421
 10
1.041751057326169
 20
0.4468926572897103
  0
LWPOLYLINE
  5
53E
330
28
100
AcDbEntity
  8
ADP1DETAIL
100
AcDbPolyline
 90
        2
 70
     0
 43
0.0
 10
1.013549234968141
 20
0.4297793713796385
 10
1.041751057326167
 20
0.4468926572897072
  0
LWPOLYLINE
  5
542
330
28
100
AcDbEntity
  8
ADP1DETAIL
100
AcDbPolyline
 90
        2
 70
     0
 43
0.0
 10
1.041859941830918
 20
0.4474104709604352
 10
1.022938809347416
 20
0.4744326486020563
  0
LWPOLYLINE
  5
546
330
28
100
AcDbEntity
  8
ADP1DETAIL
100
AcDbPolyline
 90
        2
 70
     0
 43
0.0
 10
1.041859941830918
 20
0.4474104709604352
 10
1.022938809347416
 20
0.4744326486020545
  0
LWPOLYLINE
  5
54A
330
28
100
AcDbEntity
  8
ADP1DETAIL
100
AcDbPolyline
 90
        2
 70
     0
 43
0.0
 10
1.041859941830918
 20
0.4474104709604312
 10
1.022938809347416
 20
0.4744326486020523
  0
LWPOLYLINE
  5
54E
330
28
100
AcDbEntity
  8
ADP1DETAIL
100
AcDbPolyline
 90
        2
 70
     0
 43
0.0
 10
1.02110310146335
 20
0.6608003226580462
 10
1.041751057326171
 20
0.6865271424700743
  0
LWPOLYLINE
  5
552
330
28
100
AcDbEntity
  8
ADP1DETAIL
100
AcDbPolyline
 90
        2
 70
     0
 43
0.0
 10
1.021103101463352
 20
0.6608003226580422
 10
1.041751057326169
 20
0.6865271424700708
  0
LWPOLYLINE
  5
556
330
28
100
AcDbEntity
  8
ADP1DETAIL
100
AcDbPolyline
 90
        2
 70
     0
 43
0.0
 10
1.041676272585925
 20
0.687050968849317
 10
1.014654094944305
 20
0.7059721013328227
  0
LWPOLYLINE
  5
55A
330
28
100
AcDbEntity
  8
ADP1DETAIL
100
AcDbPolyline
 90
        2
 70
     0
 43
0.0
 10
1.041676272585925
 20
0.687050968849317
 10
1.014654094944305
 20
0.7059721013328213
  0
LWPOLYLINE
  5
55E
330
28
100
AcDbEntity
  8
ADP1DETAIL
100
AcDbPolyline
 90
        2
 70
     0
 43
0.0
 10
1.041676272585926
 20
0.6870509688493134
 10
1.014654094944307
 20
0.7059721013328191
  0
LWPOLYLINE
  5
562
330
28
100
AcDbEntity
  8
ADP1DETAIL
100
AcDbPolyline
 90
        2
 70
     0
 43
0.0
 10
1.026061544841017
 20
0.6146107175535969
 10
1.048453815551854
 20
0.6388345395345732
  0
LWPOLYLINE
  5
566
330
28
100
AcDbEntity
  8
ADP1DETAIL
100
AcDbPolyline
 90
        2
 70
     0
 43
0.0
 10
1.048415753264548
 20
0.6393623066188519
 10
1.02277927177083
 20
0.6601223199997679
  0
LWPOLYLINE
  5
56A
330
28
100
AcDbEntity
  8
ADP1DETAIL
100
AcDbPolyline
 90
        2
 70
     0
 43
0.0
 10
1.048415753264548
 20
0.6393623066188519
 10
1.02277927177083
 20
0.6601223199997662
  0
LWPOLYLINE
  5
56E
330
28
100
AcDbEntity
  8
ADP1DETAIL
100
AcDbPolyline
 90
        2
 70
     0
 43
0.0
 10
1.026061544841019
 20
0.6146107175535929
 10
1.048453815551856
 20
0.6388345395345692
  0
LWPOLYLINE
  5
572
330
28
100
AcDbEntity
  8
ADP1DETAIL
100
AcDbPolyline
 90
        2
 70
     0
 43
0.0
 10
1.04841575326455
 20
0.6393623066188479
 10
1.02277927177083
 20
0.6601223199997644
  0
LWPOLYLINE
  5
576
330
28
100
AcDbEntity
  8
ADP1DETAIL
100
AcDbPolyline
 90
        2
 70
     0
 43
0.0
 10
1.027785885724108
 20
0.5681877444804129
 10
1.051813378390922
 20
0.590790552604616
  0
LWPOLYLINE
  5
57A
330
28
100
AcDbEntity
  8
ADP1DETAIL
100
AcDbPolyline
 90
        2
 70
     0
 43
0.0
 10
1.051812223992192
 20
0.5913196891657493
 10
1.027686337007239
 20
0.6138174427456718
  0
LWPOLYLINE
  5
57E
330
28
100
AcDbEntity
  8
ADP1DETAIL
100
AcDbPolyline
 90
        2
 70
     0
 43
0.0
 10
1.051812223992192
 20
0.5913196891657493
 10
1.027686337007239
 20
0.61381744274567
  0
LWPOLYLINE
  5
582
330
28
100
AcDbEntity
  8
ADP1DETAIL
100
AcDbPolyline
 90
        2
 70
     0
 43
0.0
 10
1.027785885724106
 20
0.5681877444804094
 10
1.05181337839092
 20
0.5907905526046129
  0
LWPOLYLINE
  5
586
330
28
100
AcDbEntity
  8
ADP1DETAIL
100
AcDbPolyline
 90
        2
 70
     0
 43
0.0
 10
1.051812223992192
 20
0.5913196891657458
 10
1.027686337007241
 20
0.6138174427456682
  0
LWPOLYLINE
  5
58A
330
28
100
AcDbEntity
  8
ADP1DETAIL
100
AcDbPolyline
 90
        2
 70
     0
 43
0.0
 10
1.026267723297165
 20
0.5217575714968903
 10
1.051813378390922
 20
0.5426292471551677
  0
LWPOLYLINE
  5
58E
330
28
100
AcDbEntity
  8
ADP1DETAIL
100
AcDbPolyline
 90
        2
 70
     0
 43
0.0
 10
1.051849137504885
 20
0.5431571752930151
 10
1.029351383924963
 20
0.5672830622779701
  0
LWPOLYLINE
  5
592
330
28
100
AcDbEntity
  8
ADP1DETAIL
100
AcDbPolyline
 90
        2
 70
     0
 43
0.0
 10
1.051849137504883
 20
0.5431571752930151
 10
1.029351383924963
 20
0.5672830622779688
  0
LWPOLYLINE
  5
596
330
28
100
AcDbEntity
  8
ADP1DETAIL
100
AcDbPolyline
 90
        2
 70
     0
 43
0.0
 10
1.026267723297165
 20
0.5217575714968872
 10
1.051813378390922
 20
0.5426292471551642
  0
LWPOLYLINE
  5
59A
330
28
100
AcDbEntity
  8
ADP1DETAIL
100
AcDbPolyline
 90
        2
 70
     0
 43
0.0
 10
1.051849137504883
 20
0.5431571752930116
 10
1.029351383924965
 20
0.5672830622779661
  0
LWPOLYLINE
  5
59E
330
28
100
AcDbEntity
  8
ADP1DETAIL
100
AcDbPolyline
 90
        2
 70
     0
 43
0.0
 10
1.021514453894934
 20
0.4755464017386557
 10
1.048453815551854
 20
0.4945852602252124
  0
LWPOLYLINE
  5
5A2
330
28
100
AcDbEntity
  8
ADP1DETAIL
100
AcDbPolyline
 90
        2
 70
     0
 43
0.0
 10
1.048526313963699
 20
0.4951094079269561
 10
1.027766300582787
 20
0.5207458894206774
  0
LWPOLYLINE
  5
5A6
330
28
100
AcDbEntity
  8
ADP1DETAIL
100
AcDbPolyline
 90
        2
 70
     0
 43
0.0
 10
1.048526313963697
 20
0.4951094079269561
 10
1.027766300582787
 20
0.5207458894206756
  0
LWPOLYLINE
  5
5AA
330
28
100
AcDbEntity
  8
ADP1DETAIL
100
AcDbPolyline
 90
        2
 70
     0
 43
0.0
 10
1.021514453894933
 20
0.4755464017386522
 10
1.048453815551854
 20
0.4945852602252088
  0
LWPOLYLINE
  5
5AE
330
28
100
AcDbEntity
  8
ADP1DETAIL
100
AcDbPolyline
 90
        2
 70
     0
 43
0.0
 10
1.048526313963699
 20
0.4951094079269525
 10
1.027766300582785
 20
0.5207458894206738
  0
LWPOLYLINE
  5
5B2
330
28
100
AcDbEntity
  8
ADP1DETAIL
100
AcDbPolyline
 90
        2
 70
     0
 43
0.0
 10
1.04185994183092
 20
0.4474104709604308
 10
1.022938809347418
 20
0.4744326486020518
  0
LWPOLYLINE
  5
5B6
330
28
100
AcDbEntity
  8
ADP1DETAIL
100
AcDbPolyline
 90
        2
 70
     0
 43
0.0
 10
1.013549234968141
 20
0.4297793713796385
 10
1.041751057326167
 20
0.4468926572897063
  0
LWPOLYLINE
  5
5BA
330
28
100
AcDbEntity
  8
ADP1DETAIL
100
AcDbPolyline
 90
        2
 70
     0
 43
0.0
 10
1.04185994183092
 20
0.4474104709604343
 10
1.022938809347418
 20
0.4744326486020536
  0
LWPOLYLINE
  5
5BE
330
28
100
AcDbEntity
  8
ADP1DETAIL
100
AcDbPolyline
 90
        2
 70
     0
 43
0.0
 10
1.041859941830922
 20
0.4474104709604339
 10
1.022938809347418
 20
0.4744326486020554
  0
LWPOLYLINE
  5
5C2
330
28
100
AcDbEntity
  8
ADP1DETAIL
100
AcDbPolyline
 90
        2
 70
     0
 43
0.0
 10
1.013549234968142
 20
0.4297793713796417
 10
1.041751057326169
 20
0.4468926572897099
  0
LWPOLYLINE
  5
5C6
330
28
100
AcDbEntity
  8
ADP1DETAIL
100
AcDbPolyline
 90
        2
 70
     0
 43
0.0
 10
0.9491875951998265
 20
0.880472580322657
 10
0.959791236359007
 20
0.9117098998798919
  0
LWPOLYLINE
  5
5CA
330
28
100
AcDbEntity
  8
ADP1DETAIL
100
AcDbPolyline
 90
        2
 70
     0
 43
0.0
 10
0.94918759519983
 20
0.8804725803226535
 10
0.9597912363590088
 20
0.9117098998798883
  0
LWPOLYLINE
  5
5CE
330
28
100
AcDbEntity
  8
ADP1DETAIL
100
AcDbPolyline
 90
        2
 70
     0
 43
0.0
 10
0.9595418025171449
 20
0.9121765577754622
 10
0.927677853145858
 20
0.920714477277167
  0
LWPOLYLINE
  5
5D2
330
28
100
AcDbEntity
  8
ADP1DETAIL
100
AcDbPolyline
 90
        2
 70
     0
 43
0.0
 10
0.9595418025171449
 20
0.9121765577754622
 10
0.927677853145858
 20
0.9207144772771652
  0
LWPOLYLINE
  5
5D6
330
28
100
AcDbEntity
  8
ADP1DETAIL
100
AcDbPolyline
 90
        2
 70
     0
 43
0.0
 10
0.9595418025171484
 20
0.9121765577754592
 10
0.9276778531458598
 20
0.9207144772771641
  0
LWPOLYLINE
  5
5DA
330
28
100
AcDbEntity
  8
ADP1DETAIL
100
AcDbPolyline
 90
        2
 70
     0
 43
0.0
 10
0.9696447832103851
 20
0.8387644367636927
 10
0.9824015996941701
 20
0.8691859911643554
  0
LWPOLYLINE
  5
5DE
330
28
100
AcDbEntity
  8
ADP1DETAIL
100
AcDbPolyline
 90
        2
 70
     0
 43
0.0
 10
0.9821853258698505
 20
0.8696689119299861
 10
0.9509945706353049
 20
0.8804087502366023
  0
LWPOLYLINE
  5
5E2
330
28
100
AcDbEntity
  8
ADP1DETAIL
100
AcDbPolyline
 90
        2
 70
     0
 43
0.0
 10
0.9821853258698505
 20
0.8696689119299861
 10
0.9509945706353049
 20
0.8804087502366005
  0
LWPOLYLINE
  5
5E6
330
28
100
AcDbEntity
  8
ADP1DETAIL
100
AcDbPolyline
 90
        2
 70
     0
 43
0.0
 10
0.9696447832103869
 20
0.8387644367636898
 10
0.9824015996941719
 20
0.8691859911643518
  0
LWPOLYLINE
  5
5EA
330
28
100
AcDbEntity
  8
ADP1DETAIL
100
AcDbPolyline
 90
        2
 70
     0
 43
0.0
 10
0.982185325869854
 20
0.8696689119299826
 10
0.9509945706353066
 20
0.8804087502365987
  0
LWPOLYLINE
  5
5EE
330
28
100
AcDbEntity
  8
ADP1DETAIL
100
AcDbPolyline
 90
        2
 70
     0
 43
0.0
 10
0.987142725518038
 20
0.7957308708478555
 10
1.001990567398828
 20
0.8251884493368692
  0
LWPOLYLINE
  5
5F2
330
28
100
AcDbEntity
  8
ADP1DETAIL
100
AcDbPolyline
 90
        2
 70
     0
 43
0.0
 10
1.001808507256384
 20
0.8256852802311357
 10
0.9714429043827985
 20
0.8385747139299958
  0
LWPOLYLINE
  5
5F6
330
28
100
AcDbEntity
  8
ADP1DETAIL
100
AcDbPolyline
 90
        2
 70
     0
 43
0.0
 10
1.001808507256384
 20
0.8256852802311357
 10
0.9714429043827985
 20
0.838574713929994
  0
LWPOLYLINE
  5
5FA
330
28
100
AcDbEntity
  8
ADP1DETAIL
100
AcDbPolyline
 90
        2
 70
     0
 43
0.0
 10
0.987142725518038
 20
0.7957308708478519
 10
1.001990567398828
 20
0.8251884493368656
  0
LWPOLYLINE
  5
5FE
330
28
100
AcDbEntity
  8
ADP1DETAIL
100
AcDbPolyline
 90
        2
 70
     0
 43
0.0
 10
1.001808507256384
 20
0.8256852802311321
 10
0.9714429043828003
 20
0.8385747139299933
  0
LWPOLYLINE
  5
602
330
28
100
AcDbEntity
  8
ADP1DETAIL
100
AcDbPolyline
 90
        2
 70
     0
 43
0.0
 10
1.001596173906746
 20
0.7515815377825721
 10
1.0184627039914
 20
0.7799316259986067
  0
LWPOLYLINE
  5
606
330
28
100
AcDbEntity
  8
ADP1DETAIL
100
AcDbPolyline
 90
        2
 70
     0
 43
0.0
 10
1.018315744509544
 20
0.7804399465113297
 10
0.9889232321617802
 20
0.7954161795770971
  0
LWPOLYLINE
  5
60A
330
28
100
AcDbEntity
  8
ADP1DETAIL
100
AcDbPolyline
 90
        2
 70
     0
 43
0.0
 10
1.018315744509542
 20
0.7804399465113297
 10
0.9889232321617802
 20
0.7954161795770954
  0
LWPOLYLINE
  5
60E
330
28
100
AcDbEntity
  8
ADP1DETAIL
100
AcDbPolyline
 90
        2
 70
     0
 43
0.0
 10
1.001596173906746
 20
0.7515815377825686
 10
1.0184627039914
 20
0.7799316259986031
  0
LWPOLYLINE
  5
612
330
28
100
AcDbEntity
  8
ADP1DETAIL
100
AcDbPolyline
 90
        2
 70
     0
 43
0.0
 10
1.018315744509545
 20
0.7804399465113261
 10
0.988923232161782
 20
0.7954161795770936
  0
LWPOLYLINE
  5
616
330
28
100
AcDbEntity
  8
ADP1DETAIL
100
AcDbPolyline
 90
        2
 70
     0
 43
0.0
 10
1.01293471262882
 20
0.7065315286806571
 10
1.031737758878182
 20
0.7336360078436628
  0
LWPOLYLINE
  5
61A
330
28
100
AcDbEntity
  8
ADP1DETAIL
100
AcDbPolyline
 90
        2
 70
     0
 43
0.0
 10
1.031626616028737
 20
0.7341533414884043
 10
1.003350391572428
 20
0.7511434112189864
  0
LWPOLYLINE
  5
61E
330
28
100
AcDbEntity
  8
ADP1DETAIL
100
AcDbPolyline
 90
        2
 70
     0
 43
0.0
 10
1.031626616028735
 20
0.7341533414884039
 10
1.003350391572429
 20
0.7511434112189846
  0
LWPOLYLINE
  5
622
330
28
100
AcDbEntity
  8
ADP1DETAIL
100
AcDbPolyline
 90
        2
 70
     0
 43
0.0
 10
1.01293471262882
 20
0.7065315286806535
 10
1.031737758878182
 20
0.7336360078436597
  0
LWPOLYLINE
  5
626
330
28
100
AcDbEntity
  8
ADP1DETAIL
100
AcDbPolyline
 90
        2
 70
     0
 43
0.0
 10
1.031626616028737
 20
0.7341533414884008
 10
1.003350391572429
 20
0.7511434112189828
  0
LWPOLYLINE
  5
62A
330
28
100
AcDbEntity
  8
ADP1DETAIL
100
AcDbPolyline
 90
        2
 70
     0
 43
0.0
 10
1.041676272585923
 20
0.6870509688493125
 10
1.014654094944305
 20
0.7059721013328182
  0
LWPOLYLINE
  5
62E
330
28
100
AcDbEntity
  8
ADP1DETAIL
100
AcDbPolyline
 90
        2
 70
     0
 43
0.0
 10
1.02110310146335
 20
0.6608003226580417
 10
1.041751057326167
 20
0.6865271424700694
  0
LWPOLYLINE
  5
632
330
28
100
AcDbEntity
  8
ADP1DETAIL
100
AcDbPolyline
 90
        2
 70
     0
 43
0.0
 10
1.041676272585923
 20
0.6870509688493161
 10
1.014654094944305
 20
0.70597210133282
  0
LWPOLYLINE
  5
636
330
28
100
AcDbEntity
  8
ADP1DETAIL
100
AcDbPolyline
 90
        2
 70
     0
 43
0.0
 10
1.041676272585925
 20
0.6870509688493161
 10
1.014654094944305
 20
0.7059721013328218
  0
LWPOLYLINE
  5
63A
330
28
100
AcDbEntity
  8
ADP1DETAIL
100
AcDbPolyline
 90
        2
 70
     0
 43
0.0
 10
1.021103101463348
 20
0.6608003226580453
 10
1.041751057326167
 20
0.686527142470073
  0
LWPOLYLINE
  5
63E
330
28
100
AcDbEntity
  8
ADP1DETAIL
100
AcDbPolyline
 90
        2
 70
     0
 43
0.0
 10
0.9595418025171502
 20
0.9121765577754604
 10
0.9276778531458615
 20
0.9207144772771652
  0
LWPOLYLINE
  5
642
330
28
100
AcDbEntity
  8
ADP1DETAIL
100
AcDbPolyline
 90
        2
 70
     0
 43
0.0
 10
0.9491875951998318
 20
0.8804725803226549
 10
0.9597912363590106
 20
0.9117098998798894
  0
LWPOLYLINE
  5
646
330
28
100
AcDbEntity
  8
ADP1DETAIL
100
AcDbPolyline
 90
        2
 70
     0
 43
0.0
 10
0.9595418025171484
 20
0.9121765577754628
 10
0.9276778531458615
 20
0.920714477277167
  0
LWPOLYLINE
  5
64A
330
28
100
AcDbEntity
  8
ADP1DETAIL
100
AcDbPolyline
 90
        2
 70
     0
 43
0.0
 10
0.9595418025171484
 20
0.9121765577754636
 10
0.9276778531458598
 20
0.9207144772771677
  0
LWPOLYLINE
  5
64E
330
28
100
AcDbEntity
  8
ADP1DETAIL
100
AcDbPolyline
 90
        2
 70
     0
 43
0.0
 10
0.94918759519983
 20
0.8804725803226581
 10
0.9597912363590088
 20
0.9117098998798919
  0
LWPOLYLINE
  5
652
330
28
100
AcDbEntity
  8
ADP1DETAIL
100
AcDbPolyline
 90
        2
 70
     0
 43
0.0
 10
0.9339882541679278
 20
0.9530011247898602
 10
0.9016063486182792
 20
0.9592955296010693
  0
LWPOLYLINE
  5
656
330
28
100
AcDbEntity
  8
ADP1DETAIL
100
AcDbPolyline
 90
        2
 70
     0
 43
0.0
 10
0.933988254167926
 20
0.9530011247898585
 10
0.901606348618281
 20
0.9592955296010675
  0
LWPOLYLINE
  5
65A
330
28
100
AcDbEntity
  8
ADP1DETAIL
100
AcDbPolyline
 90
        2
 70
     0
 43
0.0
 10
0.9339882541679296
 20
0.9530011247898567
 10
0.9016063486182828
 20
0.9592955296010675
  0
LWPOLYLINE
  5
65E
330
28
100
AcDbEntity
  8
ADP1DETAIL
100
AcDbPolyline
 90
        2
 70
     0
 43
0.0
 10
0.8411795838181967
 20
1.063434189189059
 10
0.8081966202506309
 20
1.062858469418464
  0
LWPOLYLINE
  5
662
330
28
100
AcDbEntity
  8
ADP1DETAIL
100
AcDbPolyline
 90
        2
 70
     0
 43
0.0
 10
0.8411795838181967
 20
1.063434189189059
 10
0.8081966202506345
 20
1.062858469418463
  0
LWPOLYLINE
  5
666
330
28
100
AcDbEntity
  8
ADP1DETAIL
100
AcDbPolyline
 90
        2
 70
     0
 43
0.0
 10
0.8411795838182003
 20
1.063434189189056
 10
0.8081966202506345
 20
1.062858469418462
  0
LWPOLYLINE
  5
66A
330
28
100
AcDbEntity
  8
ADP1DETAIL
100
AcDbPolyline
 90
        2
 70
     0
 43
0.0
 10
0.6937299457690314
 20
1.143833915851742
 10
0.6861690860700121
 20
1.175943738952548
  0
LWPOLYLINE
  5
66E
330
28
100
AcDbEntity
  8
ADP1DETAIL
100
AcDbPolyline
 90
        2
 70
     0
 43
0.0
 10
0.6937299457690332
 20
1.143833915851739
 10
0.6861690860700156
 20
1.175943738952546
  0
LWPOLYLINE
  5
672
330
28
100
AcDbEntity
  8
ADP1DETAIL
100
AcDbPolyline
 90
        2
 70
     0
 43
0.0
 10
0.80647678759279
 20
1.062300428081886
 10
0.8057571584314571
 20
1.095280565631987
  0
LWPOLYLINE
  5
676
330
28
100
AcDbEntity
  8
ADP1DETAIL
100
AcDbPolyline
 90
        2
 70
     0
 43
0.0
 10
0.8064767875927936
 20
1.062300428081884
 10
0.8057571584314606
 20
1.095280565631985
  0
LWPOLYLINE
  5
67A
330
28
100
AcDbEntity
  8
ADP1DETAIL
100
AcDbPolyline
 90
        2
 70
     0
 43
0.0
 10
0.805363160890562
 20
1.095633769214544
 10
0.7725007023455897
 20
1.09275867663627
  0
LWPOLYLINE
  5
67E
330
28
100
AcDbEntity
  8
ADP1DETAIL
100
AcDbPolyline
 90
        2
 70
     0
 43
0.0
 10
0.8053631608905602
 20
1.095633769214543
 10
0.7725007023455897
 20
1.092758676636268
  0
LWPOLYLINE
  5
682
330
28
100
AcDbEntity
  8
ADP1DETAIL
100
AcDbPolyline
 90
        2
 70
     0
 43
0.0
 10
0.8053631608905638
 20
1.095633769214541
 10
0.7725007023455932
 20
1.092758676636268
  0
LWPOLYLINE
  5
686
330
28
100
AcDbEntity
  8
ADP1DETAIL
100
AcDbPolyline
 90
        2
 70
     0
 43
0.0
 10
0.7708239861095079
 20
1.092082025198697
 10
0.7678055318295512
 20
1.124931625998605
  0
LWPOLYLINE
  5
68A
330
28
100
AcDbEntity
  8
ADP1DETAIL
100
AcDbPolyline
 90
        2
 70
     0
 43
0.0
 10
0.767387855810429
 20
1.125256485315869
 10
0.734806004882759
 20
1.120096027091955
  0
LWPOLYLINE
  5
68E
330
28
100
AcDbEntity
  8
ADP1DETAIL
100
AcDbPolyline
 90
        2
 70
     0
 43
0.0
 10
0.767387855810429
 20
1.125256485315867
 10
0.7348060048827625
 20
1.120096027091953
  0
LWPOLYLINE
  5
692
330
28
100
AcDbEntity
  8
ADP1DETAIL
100
AcDbPolyline
 90
        2
 70
     0
 43
0.0
 10
0.7708239861095097
 20
1.092082025198695
 10
0.7678055318295547
 20
1.124931625998603
  0
LWPOLYLINE
  5
696
330
28
100
AcDbEntity
  8
ADP1DETAIL
100
AcDbPolyline
 90
        2
 70
     0
 43
0.0
 10
0.7673878558104326
 20
1.125256485315867
 10
0.7348060048827625
 20
1.120096027091953
  0
LWPOLYLINE
  5
69A
330
28
100
AcDbEntity
  8
ADP1DETAIL
100
AcDbPolyline
 90
        2
 70
     0
 43
0.0
 10
0.805363160890562
 20
1.095633769214539
 10
0.7725007023455915
 20
1.092758676636266
  0
LWPOLYLINE
  5
69E
330
28
100
AcDbEntity
  8
ADP1DETAIL
100
AcDbPolyline
 90
        2
 70
     0
 43
0.0
 10
0.8064767875927918
 20
1.062300428081882
 10
0.8057571584314606
 20
1.095280565631982
  0
LWPOLYLINE
  5
6A2
330
28
100
AcDbEntity
  8
ADP1DETAIL
100
AcDbPolyline
 90
        2
 70
     0
 43
0.0
 10
0.8053631608905584
 20
1.095633769214541
 10
0.7725007023455915
 20
1.092758676636266
  0
LWPOLYLINE
  5
6A6
330
28
100
AcDbEntity
  8
ADP1DETAIL
100
AcDbPolyline
 90
        2
 70
     0
 43
0.0
 10
0.8053631608905602
 20
1.095633769214542
 10
0.7725007023455879
 20
1.092758676636268
  0
LWPOLYLINE
  5
6AA
330
28
100
AcDbEntity
  8
ADP1DETAIL
100
AcDbPolyline
 90
        2
 70
     0
 43
0.0
 10
0.80647678759279
 20
1.062300428081884
 10
0.8057571584314588
 20
1.095280565631985
  0
LWPOLYLINE
  5
6AE
330
28
100
AcDbEntity
  8
ADP1DETAIL
100
AcDbPolyline
 90
        2
 70
     0
 43
0.0
 10
0.7331805738613957
 20
1.119304062131179
 10
0.7278780000686558
 20
1.151863086227826
  0
LWPOLYLINE
  5
6B2
330
28
100
AcDbEntity
  8
ADP1DETAIL
100
AcDbPolyline
 90
        2
 70
     0
 43
0.0
 10
0.7274386804468902
 20
1.152158018597857
 10
0.6952961726391243
 20
1.144737335962042
  0
LWPOLYLINE
  5
6B6
330
28
100
AcDbEntity
  8
ADP1DETAIL
100
AcDbPolyline
 90
        2
 70
     0
 43
0.0
 10
0.7274386804468885
 20
1.152158018597857
 10
0.6952961726391278
 20
1.14473733596204
  0
LWPOLYLINE
  5
6BA
330
28
100
AcDbEntity
  8
ADP1DETAIL
100
AcDbPolyline
 90
        2
 70
     0
 43
0.0
 10
0.7331805738613975
 20
1.119304062131177
 10
0.7278780000686594
 20
1.151863086227824
  0
LWPOLYLINE
  5
6BE
330
28
100
AcDbEntity
  8
ADP1DETAIL
100
AcDbPolyline
 90
        2
 70
     0
 43
0.0
 10
0.727438680446892
 20
1.152158018597855
 10
0.6952961726391296
 20
1.144737335962041
  0
LWPOLYLINE
  5
6C2
330
28
100
AcDbEntity
  8
ADP1DETAIL
100
AcDbPolyline
 90
        2
 70
     0
 43
0.0
 10
0.5051790761937883
 20
1.241758633997964
 10
0.4775130217319559
 20
1.223792088156638
  0
LWPOLYLINE
  5
6C6
330
28
100
AcDbEntity
  8
ADP1DETAIL
100
AcDbPolyline
 90
        2
 70
     0
 43
0.0
 10
0.5051790761937883
 20
1.241758633997964
 10
0.4775130217319577
 20
1.223792088156636
  0
LWPOLYLINE
  5
6CA
330
28
100
AcDbEntity
  8
ADP1DETAIL
100
AcDbPolyline
 90
        2
 70
     0
 43
0.0
 10
0.5051790761937918
 20
1.241758633997963
 10
0.4775130217319595
 20
1.223792088156636
  0
LWPOLYLINE
  5
6CE
330
28
100
AcDbEntity
  8
ADP1DETAIL
100
AcDbPolyline
 90
        2
 70
     0
 43
0.0
 10
0.6101837082268498
 20
1.184352744002733
 10
0.5982276066424577
 20
1.215097808222167
  0
LWPOLYLINE
  5
6D2
330
28
100
AcDbEntity
  8
ADP1DETAIL
100
AcDbPolyline
 90
        2
 70
     0
 43
0.0
 10
0.6101837082268533
 20
1.184352744002732
 10
0.5982276066424613
 20
1.215097808222166
  0
LWPOLYLINE
  5
6D6
330
28
100
AcDbEntity
  8
ADP1DETAIL
100
AcDbPolyline
 90
        2
 70
     0
 43
0.0
 10
0.5977365673207382
 20
1.215294955926923
 10
0.5678392971008419
 20
1.201353629865457
  0
LWPOLYLINE
  5
6DA
330
28
100
AcDbEntity
  8
ADP1DETAIL
100
AcDbPolyline
 90
        2
 70
     0
 43
0.0
 10
0.5977365673207382
 20
1.215294955926923
 10
0.5678392971008419
 20
1.201353629865457
  0
LWPOLYLINE
  5
6DE
330
28
100
AcDbEntity
  8
ADP1DETAIL
100
AcDbPolyline
 90
        2
 70
     0
 43
0.0
 10
0.5977365673207418
 20
1.215294955926922
 10
0.5678392971008473
 20
1.201353629865456
  0
LWPOLYLINE
  5
6E2
330
28
100
AcDbEntity
  8
ADP1DETAIL
100
AcDbPolyline
 90
        2
 70
     0
 43
0.0
 10
0.6526643013269072
 20
1.165552079378796
 10
0.6428819914700492
 20
1.197056265653285
  0
LWPOLYLINE
  5
6E6
330
28
100
AcDbEntity
  8
ADP1DETAIL
100
AcDbPolyline
 90
        2
 70
     0
 43
0.0
 10
0.6424059006241292
 20
1.197287186287691
 10
0.6116089609064917
 20
1.18546534874094
  0
LWPOLYLINE
  5
6EA
330
28
100
AcDbEntity
  8
ADP1DETAIL
100
AcDbPolyline
 90
        2
 70
     0
 43
0.0
 10
0.6424059006241292
 20
1.197287186287691
 10
0.6116089609064917
 20
1.18546534874094
  0
LWPOLYLINE
  5
6EE
330
28
100
AcDbEntity
  8
ADP1DETAIL
100
AcDbPolyline
 90
        2
 70
     0
 43
0.0
 10
0.6526643013269107
 20
1.165552079378794
 10
0.6428819914700528
 20
1.197056265653284
  0
LWPOLYLINE
  5
6F2
330
28
100
AcDbEntity
  8
ADP1DETAIL
100
AcDbPolyline
 90
        2
 70
     0
 43
0.0
 10
0.6424059006241328
 20
1.197287186287691
 10
0.6116089609064952
 20
1.185465348740938
  0
LWPOLYLINE
  5
6F6
330
28
100
AcDbEntity
  8
ADP1DETAIL
100
AcDbPolyline
 90
        2
 70
     0
 43
0.0
 10
0.6857102631666363
 20
1.17620730749449
 10
0.6541636935458639
 20
1.166562553266652
  0
LWPOLYLINE
  5
6FA
330
28
100
AcDbEntity
  8
ADP1DETAIL
100
AcDbPolyline
 90
        2
 70
     0
 43
0.0
 10
0.6857102631666363
 20
1.17620730749449
 10
0.6541636935458657
 20
1.166562553266649
  0
LWPOLYLINE
  5
6FE
330
28
100
AcDbEntity
  8
ADP1DETAIL
100
AcDbPolyline
 90
        2
 70
     0
 43
0.0
 10
0.6857102631666381
 20
1.176207307494487
 10
0.6541636935458675
 20
1.16656255326665
  0
LWPOLYLINE
  5
702
330
28
100
AcDbEntity
  8
ADP1DETAIL
100
AcDbPolyline
 90
        2
 70
     0
 43
0.0
 10
0.5218114059642885
 20
1.212849856751196
 10
0.5056927744120002
 20
1.241631744386217
  0
LWPOLYLINE
  5
706
330
28
100
AcDbEntity
  8
ADP1DETAIL
100
AcDbPolyline
 90
        2
 70
     0
 43
0.0
 10
0.521811405964292
 20
1.212849856751196
 10
0.5056927744120037
 20
1.241631744386216
  0
LWPOLYLINE
  5
70A
330
28
100
AcDbEntity
  8
ADP1DETAIL
100
AcDbPolyline
 90
        2
 70
     0
 43
0.0
 10
0.566495127648305
 20
1.200144314775348
 10
0.5524234832614754
 20
1.229980470077332
  0
LWPOLYLINE
  5
70E
330
28
100
AcDbEntity
  8
ADP1DETAIL
100
AcDbPolyline
 90
        2
 70
     0
 43
0.0
 10
0.5519198877581753
 20
1.230142884368633
 10
0.5230679435312675
 20
1.214149990531649
  0
LWPOLYLINE
  5
712
330
28
100
AcDbEntity
  8
ADP1DETAIL
100
AcDbPolyline
 90
        2
 70
     0
 43
0.0
 10
0.5519198877581753
 20
1.230142884368633
 10
0.5230679435312693
 20
1.214149990531649
  0
LWPOLYLINE
  5
716
330
28
100
AcDbEntity
  8
ADP1DETAIL
100
AcDbPolyline
 90
        2
 70
     0
 43
0.0
 10
0.5664951276483086
 20
1.200144314775347
 10
0.552423483261479
 20
1.22998047007733
  0
LWPOLYLINE
  5
71A
330
28
100
AcDbEntity
  8
ADP1DETAIL
100
AcDbPolyline
 90
        2
 70
     0
 43
0.0
 10
0.5519198877581788
 20
1.230142884368631
 10
0.5230679435312711
 20
1.214149990531649
  0
LWPOLYLINE
  5
71E
330
28
100
AcDbEntity
  8
ADP1DETAIL
100
AcDbPolyline
 90
        2
 70
     0
 43
0.0
 10
0.5977365673207436
 20
1.215294955926921
 10
0.5678392971008473
 20
1.201353629865458
  0
LWPOLYLINE
  5
722
330
28
100
AcDbEntity
  8
ADP1DETAIL
100
AcDbPolyline
 90
        2
 70
     0
 43
0.0
 10
0.6101837082268551
 20
1.184352744002733
 10
0.598227606642463
 20
1.215097808222167
  0
LWPOLYLINE
  5
726
330
28
100
AcDbEntity
  8
ADP1DETAIL
100
AcDbPolyline
 90
        2
 70
     0
 43
0.0
 10
0.59773656732074
 20
1.215294955926923
 10
0.5678392971008455
 20
1.201353629865456
  0
LWPOLYLINE
  5
72A
330
28
100
AcDbEntity
  8
ADP1DETAIL
100
AcDbPolyline
 90
        2
 70
     0
 43
0.0
 10
0.59773656732074
 20
1.215294955926923
 10
0.5678392971008437
 20
1.201353629865458
  0
LWPOLYLINE
  5
72E
330
28
100
AcDbEntity
  8
ADP1DETAIL
100
AcDbPolyline
 90
        2
 70
     0
 43
0.0
 10
0.6101837082268516
 20
1.184352744002735
 10
0.5982276066424595
 20
1.215097808222167
  0
LWPOLYLINE
  5
732
330
28
100
AcDbEntity
  8
ADP1DETAIL
100
AcDbPolyline
 90
        2
 70
     0
 43
0.0
 10
0.8399652814462266
 20
1.03010436372826
 10
0.8415479833644559
 20
1.063054362113562
  0
LWPOLYLINE
  5
736
330
28
100
AcDbEntity
  8
ADP1DETAIL
100
AcDbPolyline
 90
        2
 70
     0
 43
0.0
 10
0.8399652814462301
 20
1.030104363728257
 10
0.8415479833644576
 20
1.063054362113559
  0
LWPOLYLINE
  5
73A
330
28
100
AcDbEntity
  8
ADP1DETAIL
100
AcDbPolyline
 90
        2
 70
     0
 43
0.0
 10
0.8711263150940142
 20
0.9956506881270104
 10
0.8750036373271496
 20
1.028410018267503
  0
LWPOLYLINE
  5
73E
330
28
100
AcDbEntity
  8
ADP1DETAIL
100
AcDbPolyline
 90
        2
 70
     0
 43
0.0
 10
0.8746626305810893
 20
1.028814618356611
 10
0.8417198516739956
 20
1.030541076242546
  0
LWPOLYLINE
  5
742
330
28
100
AcDbEntity
  8
ADP1DETAIL
100
AcDbPolyline
 90
        2
 70
     0
 43
0.0
 10
0.8746626305810893
 20
1.028814618356611
 10
0.8417198516739956
 20
1.030541076242544
  0
LWPOLYLINE
  5
746
330
28
100
AcDbEntity
  8
ADP1DETAIL
100
AcDbPolyline
 90
        2
 70
     0
 43
0.0
 10
0.871126315094016
 20
0.9956506881270076
 10
0.8750036373271514
 20
1.0284100182675
  0
LWPOLYLINE
  5
74A
330
28
100
AcDbEntity
  8
ADP1DETAIL
100
AcDbPolyline
 90
        2
 70
     0
 43
0.0
 10
0.8746626305810911
 20
1.028814618356608
 10
0.8417198516739992
 20
1.030541076242543
  0
LWPOLYLINE
  5
74E
330
28
100
AcDbEntity
  8
ADP1DETAIL
100
AcDbPolyline
 90
        2
 70
     0
 43
0.0
 10
0.9056491751411135
 20
0.9919437197863508
 10
0.8729070748019269
 20
0.9959639441995381
  0
LWPOLYLINE
  5
752
330
28
100
AcDbEntity
  8
ADP1DETAIL
100
AcDbPolyline
 90
        2
 70
     0
 43
0.0
 10
0.9056491751411117
 20
0.9919437197863501
 10
0.8729070748019287
 20
0.9959639441995374
  0
LWPOLYLINE
  5
756
330
28
100
AcDbEntity
  8
ADP1DETAIL
100
AcDbPolyline
 90
        2
 70
     0
 43
0.0
 10
0.9056491751411153
 20
0.9919437197863484
 10
0.8729070748019305
 20
0.9959639441995363
  0
ENDBLK
  5
75A
330
28
100
AcDbEntity
  8
0
100
AcDbBlockEnd
  0
BLOCK
  5
75B
330
68
100
AcDbEntity
  8
0
100
AcDbBlockBegin
  2
*D1
 70
     1
 10
0.0
 20
0.0
 30
0.0
  3
*D1
  1

  0
LINE
  5
75C
330
68
100
AcDbEntity
  8
0
  6
BYBLOCK
 62
     0
100
AcDbLine
 10
11.92610802626997
 20
1.057650804456076
 30
0.0
 11
11.92610802626997
 21
0.6988222592571035
 31
0.0
  0
LINE
  5
75D
330
68
100
AcDbEntity
  8
0
  6
BYBLOCK
 62
     0
100
AcDbLine
 10
9.926108026269975
 20
1.057650804456076
 30
0.0
 11
9.926108026269975
 21
0.6988222592571035
 31
0.0
  0
LINE
  5
75E
330
68
100
AcDbEntity
  8
0
  6
BYBLOCK
 62
     0
100
AcDbLine
 10
11.92610802626997
 20
0.8788222592571033
 30
0.0
 11
11.09277469293664
 21
0.8788222592571033
 31
0.0
  0
LINE
  5
75F
330
68
100
AcDbEntity
  8
0
  6
BYBLOCK
 62
     0
100
AcDbLine
 10
9.926108026269975
 20
0.8788222592571033
 30
0.0
 11
10.75944135960331
 21
0.8788222592571033
 31
0.0
  0
LINE
  5
760
330
68
100
AcDbEntity
  8
0
  6
BYBLOCK
 62
     0
100
AcDbLine
 10
11.80110802626997
 20
0.7538222592571034
 30
0.0
 11
12.05110802626997
 21
1.003822259257103
 31
0.0
  0
LINE
  5
761
330
68
100
AcDbEntity
  8
0
  6
BYBLOCK
 62
     0
100
AcDbLine
 10
9.801108026269975
 20
0.7538222592571034
 30
0.0
 11
10.05110802626997
 21
1.003822259257103
 31
0.0
  0
TEXT
  5
762
330
68
100
AcDbEntity
  8
0
  6
BYBLOCK
 62
     0
100
AcDbText
 10
10.8844413596033
 20
0.8163222592571033
 30
0.0
 40
0.125
  1
2
 72
     1
 11
10.92610802626997
 21
0.8788222592571033
 31
0.0
100
AcDbText
 73
     2
  0
POINT
  5
763
330
68
100
AcDbEntity
  8
DEFPOINTS
  6
BYBLOCK
 62
     0
100
AcDbPoint
 10
11.92610802626997
 20
1.120150804456076
 30
0.0
  0
POINT
  5
764
330
68
100
AcDbEntity
  8
DEFPOINTS
  6
BYBLOCK
 62
     0
100
AcDbPoint
 10
9.926108026269975
 20
1.120150804456076
 30
0.0
  0
POINT
  5
765
330
68
100
AcDbEntity
  8
DEFPOINTS
  6
BYBLOCK
 62
     0
100
AcDbPoint
 10
9.926108026269975
 20
0.8788222592571033
 30
0.0
  0
ENDBLK
  5
766
330
68
100
AcDbEntity
  8
0
100
AcDbBlockEnd
  0
ENDSEC
  0
SECTION
  2
ENTITIES
  0
LINE
  5
767
330
18
100
AcDbEntity
  8
ADP1DETAIL
100
AcDbLine
 10
11.92610802626997
 20
3.696024590662843
 30
0.0
 11
14.38060802626997
 21
3.696024590662843
 31
0.0
  0
LINE
  5
768
330
18
100
AcDbEntity
  8
ADP1DETAIL
100
AcDbLine
 10
11.92610802626997
 20
5.060057077595041
 30
0.0
 11
14.38060802626997
 21
5.060057077595041
 31
0.0
  0
LINE
  5
769
330
18
100
AcDbEntity
  8
ADP1DETAIL
100
AcDbLine
 10
11.92610802626997
 20
2.629183291388275
 30
0.0
 11
14.38060802626997
 21
2.629183291388275
 31
0.0
  0
LINE
  5
76A
330
18
100
AcDbEntity
  8
ADP1DETAIL
100
AcDbLine
 10
11.92610802626997
 20
1.374740677569228
 30
0.0
 11
14.38060802626997
 21
1.374740677569228
 31
0.0
  0
LINE
  5
76B
330
18
100
AcDbEntity
  8
ADP2DETAIL
  6
HIDDEN2
100
AcDbLine
 10
14.44310802626997
 20
2.472735323970749
 30
0.0
 11
11.06810802626997
 21
2.472735323970749
 31
0.0
  0
LINE
  5
76C
330
18
100
AcDbEntity
  8
ADP2DETAIL
  6
HIDDEN2
100
AcDbLine
 10
14.44310802626997
 20
1.474887314557877
 30
0.0
 11
11.06810802626997
 21
1.474887314557877
 31
0.0
  0
LINE
  5
76D
330
18
100
AcDbEntity
  8
ADP2DETAIL
  6
HIDDEN2
100
AcDbLine
 10
14.44310802626997
 20
4.903609110177516
 30
0.0
 11
11.06810802626997
 21
4.903609110177516
 31
0.0
  0
LINE
  5
76E
330
18
100
AcDbEntity
  8
ADP2DETAIL
  6
HIDDEN2
100
AcDbLine
 10
14.44310802626997
 20
3.852472558080368
 30
0.0
 11
11.13060802626997
 21
3.852472558080368
 31
0.0
  0
LINE
  5
76F
330
18
100
AcDbEntity
  8
ADP3DETAIL
  6
CENTER2
100
AcDbLine
 10
9.926108026269975
 20
2.780150804456076
 30
0.0
 11
9.926108026269975
 21
1.120150804456076
 31
0.0
  0
ARC
  5
770
330
18
100
AcDbEntity
  8
ADP1DETAIL
100
AcDbCircle
 10
9.926108026269975
 20
1.950150804456076
 30
0.0
 40
0.8440000000000001
100
AcDbArc
 50
280.4503921322851
 51
79.54960786771483
  0
LINE
  5
771
330
18
100
AcDbEntity
  8
ADP1DETAIL
100
AcDbLine
 10
11.92610802626997
 20
1.120150804456076
 30
0.0
 11
11.92610802626997
 21
2.780150804456076
 31
0.0
  0
DIMENSION
  5
772
330
18
100
AcDbEntity
  8
ADPDIM
100
AcDbDimension
  2
*D1
 10
9.926108026269975
 20
0.8788222592571033
 30
0.0
 11
10.92610802626997
 21
0.8788222592571033
 31
0.0
100
AcDbAlignedDimension
 13
11.92610802626997
 23
1.120150804456076
 33
0.0
 14
9.926108026269975
 24
1.120150804456076
 34
0.0
100
AcDbRotatedDimension
  0
LINE
  5
773
330
18
100
AcDbEntity
  8
ADP1DETAIL
100
AcDbLine
 10
10.07919623613605
 20
1.120150804456076
 30
0.0
 11
11.92610802626997
 21
1.120150804456076
 31
0.0
  0
LINE
  5
774
330
18
100
AcDbEntity
  8
ADP1DETAIL
100
AcDbLine
 10
10.75610802626997
 20
3.551024590662842
 30
0.0
 11
10.11399138318874
 21
4.292264768113884
 31
0.0
  0
LINE
  5
775
330
18
100
AcDbEntity
  8
ADP1DETAIL
100
AcDbLine
 10
11.92610802626997
 20
3.551024590662843
 30
0.0
 11
11.92610802626997
 21
5.211024590662843
 31
0.0
  0
LINE
  5
776
330
18
100
AcDbEntity
  8
ADP2DETAIL
  6
HIDDEN2
100
AcDbLine
 10
10.88110802626997
 20
3.696024590662843
 30
0.0
 11
10.88110802626997
 21
5.066024590662843
 31
0.0
  0
LINE
  5
777
330
18
100
AcDbEntity
  8
ADP2DETAIL
  6
HIDDEN2
100
AcDbLine
 10
11.06810802626997
 20
3.868114463775995
 30
0.0
 11
11.06810802626997
 21
4.997557077595041
 31
0.0
  0
LINE
  5
778
330
18
100
AcDbEntity
  8
ADP2DETAIL
  6
HIDDEN2
100
AcDbLine
 10
11.06810802626997
 20
3.696024590662843
 30
0.0
 11
11.06810802626997
 21
5.066024590662843
 31
0.0
  0
LINE
  5
779
330
18
100
AcDbEntity
  8
ADP2DETAIL
  6
HIDDEN2
100
AcDbLine
 10
11.13060802626997
 20
3.697724226293727
 30
0.0
 11
11.13060802626997
 21
5.060057077595041
 31
0.0
  0
LINE
  5
77A
330
18
100
AcDbEntity
  8
ADP1DETAIL
100
AcDbLine
 10
11.92610802626997
 20
2.780150804456076
 30
0.0
 11
10.07919623613605
 21
2.780150804456076
 31
0.0
  0
LINE
  5
77B
330
18
100
AcDbEntity
  8
ADP2DETAIL
  6
HIDDEN2
100
AcDbLine
 10
11.06810802626997
 20
1.810150804456076
 30
0.0
 11
10.88110802626997
 21
1.810150804456076
 31
0.0
  0
LINE
  5
77C
330
18
100
AcDbEntity
  8
ADP2DETAIL
  6
HIDDEN2
100
AcDbLine
 10
10.88110802626997
 20
2.090150804456076
 30
0.0
 11
11.06810802626997
 21
2.090150804456076
 31
0.0
  0
LINE
  5
77D
330
18
100
AcDbEntity
  8
ADP2DETAIL
  6
HIDDEN2
100
AcDbLine
 10
11.92610802626997
 20
2.635150804456076
 30
0.0
 11
10.39480302304293
 21
2.635150804456076
 31
0.0
  0
LINE
  5
77E
330
18
100
AcDbEntity
  8
ADP2DETAIL
  6
HIDDEN2
100
AcDbLine
 10
10.39480302304293
 20
1.265150804456076
 30
0.0
 11
11.92610802626997
 21
1.265150804456076
 31
0.0
  0
LINE
  5
77F
330
18
100
AcDbEntity
  8
ADP2DETAIL
  6
HIDDEN2
100
AcDbLine
 10
10.60084013040353
 20
3.696024590662843
 30
0.0
 11
11.92610802626997
 21
3.696024590662843
 31
0.0
  0
LINE
  5
780
330
18
100
AcDbEntity
  8
ADP1DETAIL
100
AcDbLine
 10
10.75610802626997
 20
3.551024590662843
 30
0.0
 11
11.92610802626997
 21
3.551024590662843
 31
0.0
  0
LINE
  5
781
330
18
100
AcDbEntity
  8
ADP2DETAIL
  6
HIDDEN2
100
AcDbLine
 10
10.88110802626997
 20
1.265150804456076
 30
0.0
 11
10.88110802626997
 21
2.635150804456076
 31
0.0
  0
LINE
  5
782
330
18
100
AcDbEntity
  8
ADP2DETAIL
  6
HIDDEN2
100
AcDbLine
 10
11.06810802626997
 20
1.265150804456076
 30
0.0
 11
11.06810802626997
 21
2.635150804456076
 31
0.0
  0
LINE
  5
783
330
18
100
AcDbEntity
  8
ADP2DETAIL
  6
HIDDEN2
100
AcDbLine
 10
11.06810802626997
 20
1.437240677569228
 30
0.0
 11
11.06810802626997
 21
2.566683291388275
 31
0.0
  0
LINE
  5
784
330
18
100
AcDbEntity
  8
ADP2DETAIL
  6
HIDDEN2
100
AcDbLine
 10
11.13060802626997
 20
1.374740677569228
 30
0.0
 11
11.13060802626997
 21
2.629183291388275
 31
0.0
  0
LINE
  5
785
330
18
100
AcDbEntity
  8
ADP2DETAIL
  6
HIDDEN2
100
AcDbLine
 10
11.92610802626997
 20
1.374740677569228
 30
0.0
 11
11.13060802626997
 21
1.374740677569228
 31
0.0
  0
LINE
  5
786
330
18
100
AcDbEntity
  8
ADP2DETAIL
  6
HIDDEN2
100
AcDbLine
 10
11.06810802626997
 20
1.437240677569228
 30
0.0
 11
11.13060802626997
 21
1.374740677569228
 31
0.0
  0
LINE
  5
787
330
18
100
AcDbEntity
  8
ADP2DETAIL
  6
HIDDEN2
100
AcDbLine
 10
11.13060802626997
 20
2.629183291388275
 30
0.0
 11
11.06810802626997
 21
2.566683291388275
 31
0.0
  0
LINE
  5
788
330
18
100
AcDbEntity
  8
ADP2DETAIL
  6
HIDDEN2
100
AcDbLine
 10
11.06810802626997
 20
3.760224226293727
 30
0.0
 11
11.13060802626997
 21
3.697724226293727
 31
0.0
  0
LINE
  5
789
330
18
100
AcDbEntity
  8
ADP2DETAIL
  6
HIDDEN2
100
AcDbLine
 10
10.88110802626997
 20
4.521024590662843
 30
0.0
 11
11.06810802626997
 21
4.521024590662843
 31
0.0
  0
LINE
  5
78A
330
18
100
AcDbEntity
  8
ADP2DETAIL
  6
HIDDEN2
100
AcDbLine
 10
11.06810802626997
 20
4.241024590662842
 30
0.0
 11
10.88110802626997
 21
4.241024590662842
 31
0.0
  0
LINE
  5
78B
330
18
100
AcDbEntity
  8
ADP2DETAIL
  6
HIDDEN2
100
AcDbLine
 10
11.92610802626997
 20
5.066024590662843
 30
0.0
 11
10.6008401300192
 21
5.066024590662843
 31
0.0
  0
LINE
  5
78C
330
18
100
AcDbEntity
  8
ADP1DETAIL
100
AcDbLine
 10
11.92610802626997
 20
5.211024590662843
 30
0.0
 11
10.75610802626997
 21
5.211024590662843
 31
0.0
  0
LINE
  5
78D
330
18
100
AcDbEntity
  8
ADP1DETAIL
100
AcDbLine
 10
10.75610802626997
 20
5.211024590662843
 30
0.0
 11
10.11399138318874
 21
4.469784415046602
 31
0.0
  0
ARC
  5
78E
330
18
100
AcDbEntity
  8
ADP1DETAIL
100
AcDbCircle
 10
10.20200668718879
 20
4.381024591580243
 30
0.0
 40
0.125
100
AcDbArc
 50
134.7586901982504
 51
225.2413098017496
  0
LINE
  5
78F
330
18
100
AcDbEntity
  8
ADP2DETAIL
  6
HIDDEN2
100
AcDbLine
 10
11.13060802626997
 20
5.060057077595041
 30
0.0
 11
11.06810802626997
 21
4.997557077595041
 31
0.0
  0
CIRCLE
  5
790
330
18
100
AcDbEntity
  8
ADP1DETAIL
100
AcDbCircle
 10
16.17421167799182
 20
1.941450577449119
 30
0.0
 40
0.8299999999999998
  0
LINE
  5
791
330
18
100
AcDbEntity
  8
ADP1DETAIL
100
AcDbLine
 10
14.38060802626997
 20
5.060057077595041
 30
0.0
 11
14.38060802626997
 21
3.696024590662843
 31
0.0
  0
LINE
  5
792
330
18
100
AcDbEntity
  8
ADP1DETAIL
100
AcDbLine
 10
14.44310802626997
 20
4.997557077595041
 30
0.0
 11
14.44310802626997
 21
3.758524590662843
 31
0.0
  0
LINE
  5
793
330
18
100
AcDbEntity
  8
ADP1DETAIL
100
AcDbLine
 10
14.44310802626997
 20
2.566683291388275
 30
0.0
 11
14.44310802626997
 21
1.437240677569228
 31
0.0
  0
LINE
  5
794
330
18
100
AcDbEntity
  8
ADP1DETAIL
100
AcDbLine
 10
14.38060802626997
 20
2.629183291388275
 30
0.0
 11
14.38060802626997
 21
1.374740677569228
 31
0.0
  0
LINE
  5
795
330
18
100
AcDbEntity
  8
ADP1DETAIL
100
AcDbLine
 10
14.44310802626997
 20
1.437240677569228
 30
0.0
 11
14.38060802626997
 21
1.374740677569228
 31
0.0
  0
LINE
  5
796
330
18
100
AcDbEntity
  8
ADP1DETAIL
100
AcDbLine
 10
14.38060802626997
 20
2.629183291388275
 30
0.0
 11
14.44310802626997
 21
2.566683291388275
 31
0.0
  0
LINE
  5
797
330
18
100
AcDbEntity
  8
ADP1DETAIL
100
AcDbLine
 10
14.44310802626997
 20
3.758524590662843
 30
0.0
 11
14.38060802626997
 21
3.696024590662843
 31
0.0
  0
LINE
  5
798
330
18
100
AcDbEntity
  8
ADP1DETAIL
100
AcDbLine
 10
14.38060802626997
 20
5.060057077595041
 30
0.0
 11
14.44310802626997
 21
4.997557077595041
 31
0.0
  0
CIRCLE
  5
799
330
18
100
AcDbEntity
  8
ADP1DETAIL
100
AcDbCircle
 10
16.17421167799182
 20
1.941450577449119
 30
0.0
 40
0.6900000000000004
  0
INSERT
  5
79A
330
18
100
AcDbEntity
  8
ADP1DETAIL
100
AcDbBlockReference
  2
7463X
 10
15.81658928649179
 20
1.381955021549822
 30
0.0
 41
0.9872697759786387
 42
0.9872697759786387
 43
0.9872697759786387
  0
CIRCLE
  5
79B
330
18
100
AcDbEntity
  8
ADP1DETAIL
100
AcDbCircle
 10
16.17421167799182
 20
1.941450577449119
 30
0.0
 40
0.14
  0
TEXT
  5
7A9
330
18
100
AcDbEntity
  8
ADPDIM
100
AcDbText
 10
6.598295578442739
 20
-0.2674731086857582
 30
0.0
 40
0.125
  1
J U L I U S  B L U M  &  C O . ,  I N C .      ( 8 0 0 )  5 2 6 - 6 2 9 3        W W W . J U L I U S B L U M . C O M        P A R T  N o .  7 4 4 0
 41
1.25
  7
ARIAL_WIDE
 72
     1
 11
13.12402460299935
 21
-0.1424731086857582
 31
0.0
100
AcDbText
 73
     3
  0
ENDSEC
  0
SECTION
  2
OBJECTS
  0
DICTIONARY
  5
C
330
0
100
AcDbDictionary
  3
ACAD_GROUP
350
D
  3
ACAD_LAYOUT
350
7A2
  3
ACAD_MLINESTYLE
350
E
  3
ACAD_PLOTSETTINGS
350
7A3
  3
ACAD_PLOTSTYLENAME
350
7A0
  3
ACDBHEADERROUNDTRIPXREC
350
8ED
  3
ACDBVARIABLEDICTIONARY
350
803
  0
DICTIONARY
  5
7FD
330
18
100
AcDbDictionary
280
     1
  3
ACAD_LAYOUTSELFREF
360
90E
  0
DICTIONARY
  5
7FB
330
15
100
AcDbDictionary
280
     1
  3
ACAD_LAYOUTSELFREF
360
90D
  0
DICTIONARY
  5
D
102
{ACAD_REACTORS
330
C
102
}
330
C
100
AcDbDictionary
  0
DICTIONARY
  5
7A2
102
{ACAD_REACTORS
330
C
102
}
330
C
100
AcDbDictionary
  0
DICTIONARY
  5
E
102
{ACAD_REACTORS
330
C
102
}
330
C
100
AcDbDictionary
  3
STANDARD
350
1B
  0
DICTIONARY
  5
7A3
102
{ACAD_REACTORS
330
C
102
}
330
C
100
AcDbDictionary
  0
ACDBDICTIONARYWDFLT
  5
7A0
102
{ACAD_REACTORS
330
C
102
}
330
C
100
AcDbDictionary
281
     1
  3
Normal
350
7A1
100
AcDbDictionaryWithDefault
340
7A1
  0
DICTIONARY
  5
8ED
102
{ACAD_REACTORS
330
C
102
}
330
C
100
AcDbDictionary
  3
CEPSNTYPE
350
8F7
  3
FINGERPRINTGUID
350
8F8
  3
HYPERLINKBASE
350
8F0
  3
INSUNITS
350
8F6
  3
LAYOUTDICT
350
8F2
  3
LWETCUNION
350
8F5
  3
PLOTSETDICT
350
8F3
  3
PLOTSTYLNAMDICT
350
8F4
  3
PSVPSCALE
350
8FA
  3
PUCSBASE
350
8FD
  3
PUCSORGBACK
350
903
  3
PUCSORGBOTTOM
350
8FF
  3
PUCSORGFRONT
350
902
  3
PUCSORGLEFT
350
900
  3
PUCSORGRIGHT
350
901
  3
PUCSORGTOP
350
8FE
  3
PUCSORTHOREF
350
8FB
  3
PUCSORTHOVIEW
350
8FC
  3
STYLESHEET
350
8F1
  3
TSTACKALIGN
350
8EE
  3
TSTACKSIZE
350
8EF
  3
UCSBASE
350
906
  3
UCSORGBACK
350
90C
  3
UCSORGBOTTOM
350
908
  3
UCSORGFRONT
350
90B
  3
UCSORGLEFT
350
909
  3
UCSORGRIGHT
350
90A
  3
UCSORGTOP
350
907
  3
UCSORTHOREF
350
904
  3
UCSORTHOVIEW
350
905
  3
VERSIONGUID
350
8F9
  0
DICTIONARY
  5
803
102
{ACAD_REACTORS
330
C
102
}
330
C
100
AcDbDictionary
  3
DIMASSOC
350
804
  0
XRECORD
  5
90E
102
{ACAD_REACTORS
330
7FD
102
}
330
7FD
100
AcDbXrecord
340
18
  0
XRECORD
  5
90D
102
{ACAD_REACTORS
330
7FB
102
}
330
7FB
100
AcDbXrecord
340
15
  0
MLINESTYLE
  5
1B
102
{ACAD_REACTORS
330
E
102
}
330
E
100
AcDbMlineStyle
  2
STANDARD
 70
     0
  3

 62
     0
 51
90.0
 52
90.0
 71
     2
 49
0.5
 62
   256
  6
BYLAYER
 49
-0.5
 62
   256
  6
BYLAYER
  0
ACDBPLACEHOLDER
  5
7A1
102
{ACAD_REACTORS
330
7A0
102
}
330
7A0
100
AcDbPlaceHolder
280
     0
  0
XRECORD
  5
8F7
102
{ACAD_REACTORS
330
8ED
102
}
330
8ED
100
AcDbXrecord
 90
        0
  0
XRECORD
  5
8F8
102
{ACAD_REACTORS
330
8ED
102
}
330
8ED
100
AcDbXrecord
  1
{B525CE3C-38E4-4F85-AB0E-98C7104C7550}
  0
XRECORD
  5
8F0
102
{ACAD_REACTORS
330
8ED
102
}
330
8ED
100
AcDbXrecord
  1

  0
XRECORD
  5
8F6
102
{ACAD_REACTORS
330
8ED
102
}
330
8ED
100
AcDbXrecord
 90
        0
  0
XRECORD
  5
8F2
102
{ACAD_REACTORS
330
8ED
102
}
330
8ED
100
AcDbXrecord
340
7A2
  0
XRECORD
  5
8F5
102
{ACAD_REACTORS
330
8ED
102
}
330
8ED
100
AcDbXrecord
 90
    14877
  0
XRECORD
  5
8F3
102
{ACAD_REACTORS
330
8ED
102
}
330
8ED
100
AcDbXrecord
340
7A3
  0
XRECORD
  5
8F4
102
{ACAD_REACTORS
330
8ED
102
}
330
8ED
100
AcDbXrecord
340
7A0
  0
XRECORD
  5
8FA
102
{ACAD_REACTORS
330
8ED
102
}
330
8ED
100
AcDbXrecord
 40
0.0
  0
XRECORD
  5
8FD
102
{ACAD_REACTORS
330
8ED
102
}
330
8ED
100
AcDbXrecord
340
0
  0
XRECORD
  5
903
102
{ACAD_REACTORS
330
8ED
102
}
330
8ED
100
AcDbXrecord
 10
0.0
 20
0.0
 30
0.0
  0
XRECORD
  5
8FF
102
{ACAD_REACTORS
330
8ED
102
}
330
8ED
100
AcDbXrecord
 10
0.0
 20
0.0
 30
0.0
  0
XRECORD
  5
902
102
{ACAD_REACTORS
330
8ED
102
}
330
8ED
100
AcDbXrecord
 10
0.0
 20
0.0
 30
0.0
  0
XRECORD
  5
900
102
{ACAD_REACTORS
330
8ED
102
}
330
8ED
100
AcDbXrecord
 10
0.0
 20
0.0
 30
0.0
  0
XRECORD
  5
901
102
{ACAD_REACTORS
330
8ED
102
}
330
8ED
100
AcDbXrecord
 10
0.0
 20
0.0
 30
0.0
  0
XRECORD
  5
8FE
102
{ACAD_REACTORS
330
8ED
102
}
330
8ED
100
AcDbXrecord
 10
0.0
 20
0.0
 30
0.0
  0
XRECORD
  5
8FB
102
{ACAD_REACTORS
330
8ED
102
}
330
8ED
100
AcDbXrecord
340
0
  0
XRECORD
  5
8FC
102
{ACAD_REACTORS
330
8ED
102
}
330
8ED
100
AcDbXrecord
 70
     0
  0
XRECORD
  5
8F1
102
{ACAD_REACTORS
330
8ED
102
}
330
8ED
100
AcDbXrecord
  1

  0
XRECORD
  5
8EE
102
{ACAD_REACTORS
330
8ED
102
}
330
8ED
100
AcDbXrecord
 90
        1
  0
XRECORD
  5
8EF
102
{ACAD_REACTORS
330
8ED
102
}
330
8ED
100
AcDbXrecord
 90
       70
  0
XRECORD
  5
906
102
{ACAD_REACTORS
330
8ED
102
}
330
8ED
100
AcDbXrecord
340
0
  0
XRECORD
  5
90C
102
{ACAD_REACTORS
330
8ED
102
}
330
8ED
100
AcDbXrecord
 10
0.0
 20
0.0
 30
0.0
  0
XRECORD
  5
908
102
{ACAD_REACTORS
330
8ED
102
}
330
8ED
100
AcDbXrecord
 10
0.0
 20
0.0
 30
0.0
  0
XRECORD
  5
90B
102
{ACAD_REACTORS
330
8ED
102
}
330
8ED
100
AcDbXrecord
 10
0.0
 20
0.0
 30
0.0
  0
XRECORD
  5
909
102
{ACAD_REACTORS
330
8ED
102
}
330
8ED
100
AcDbXrecord
 10
0.0
 20
0.0
 30
0.0
  0
XRECORD
  5
90A
102
{ACAD_REACTORS
330
8ED
102
}
330
8ED
100
AcDbXrecord
 10
0.0
 20
0.0
 30
0.0
  0
XRECORD
  5
907
102
{ACAD_REACTORS
330
8ED
102
}
330
8ED
100
AcDbXrecord
 10
0.0
 20
0.0
 30
0.0
  0
XRECORD
  5
904
102
{ACAD_REACTORS
330
8ED
102
}
330
8ED
100
AcDbXrecord
340
0
  0
XRECORD
  5
905
102
{ACAD_REACTORS
330
8ED
102
}
330
8ED
100
AcDbXrecord
 70
     0
  0
XRECORD
  5
8F9
102
{ACAD_REACTORS
330
8ED
102
}
330
8ED
100
AcDbXrecord
  1
{8F7B285B-D7AA-404F-9A90-8D23E7E275A8}
  0
DICTIONARYVAR
  5
804
102
{ACAD_REACTORS
330
803
102
}
330
803
100
DictionaryVariables
280
     0
  1
1
  0
ENDSEC
  0
EOF
