  0
SECTION
  2
HEADER
  9
$ACADVER
  1
AC1014
  9
$ACADMAINTVER
 70
     9
  9
$DWGCODEPAGE
  3
ANSI_1252
  9
$INSBASE
 10
78.18075361615207
 20
-3.84573829087361
 30
0.0
  9
$EXTMIN
 10
67.98923470209465
 20
-7.247632656524706
 30
0.0
  9
$EXTMAX
 10
87.5664217757645
 20
2.039597510378745
 30
0.0
  9
$LIMMIN
 10
0.0
 20
0.0
  9
$LIMMAX
 10
36.0
 20
36.0
  9
$ORTHOMODE
 70
     1
  9
$REGENMODE
 70
     1
  9
$FILLMODE
 70
     1
  9
$QTEXTMODE
 70
     0
  9
$MIRRTEXT
 70
     1
  9
$DRAGMODE
 70
     0
  9
$LTSCALE
 40
1.0
  9
$OSMODE
 70
    37
  9
$ATTMODE
 70
     1
  9
$TEXTSIZE
 40
0.2
  9
$TRACEWID
 40
0.05
  9
$TEXTSTYLE
  7
STANDARD
  9
$CLAYER
  8
0
  9
$CELTYPE
  6
BYLAYER
  9
$CECOLOR
 62
   256
  9
$CELTSCALE
 40
1.0
  9
$DELOBJ
 70
     1
  9
$DISPSILH
 70
     0
  9
$DIMSCALE
 40
1.0
  9
$DIMASZ
 40
0.125
  9
$DIMEXO
 40
0.0625
  9
$DIMDLI
 40
0.38
  9
$DIMRND
 40
0.0
  9
$DIMDLE
 40
0.0
  9
$DIMEXE
 40
0.18
  9
$DIMTP
 40
0.0
  9
$DIMTM
 40
0.0
  9
$DIMTXT
 40
0.125
  9
$DIMCEN
 40
0.1875
  9
$DIMTSZ
 40
0.125
  9
$DIMTOL
 70
     0
  9
$DIMLIM
 70
     0
  9
$DIMTIH
 70
     0
  9
$DIMTOH
 70
     0
  9
$DIMSE1
 70
     0
  9
$DIMSE2
 70
     0
  9
$DIMTAD
 70
     0
  9
$DIMZIN
 70
     3
  9
$DIMBLK
  1

  9
$DIMASO
 70
     1
  9
$DIMSHO
 70
     1
  9
$DIMPOST
  1

  9
$DIMAPOST
  1

  9
$DIMALT
 70
     0
  9
$DIMALTD
 70
     1
  9
$DIMALTF
 40
25.4
  9
$DIMLFAC
 40
1.0
  9
$DIMTOFL
 70
     0
  9
$DIMTVP
 40
0.0
  9
$DIMTIX
 70
     0
  9
$DIMSOXD
 70
     0
  9
$DIMSAH
 70
     0
  9
$DIMBLK1
  1

  9
$DIMBLK2
  1

  9
$DIMSTYLE
  2
STANDARD
  9
$DIMCLRD
 70
     0
  9
$DIMCLRE
 70
     0
  9
$DIMCLRT
 70
     0
  9
$DIMTFAC
 40
1.0
  9
$DIMGAP
 40
0.125
  9
$DIMJUST
 70
     0
  9
$DIMSD1
 70
     0
  9
$DIMSD2
 70
     0
  9
$DIMTOLJ
 70
     1
  9
$DIMTZIN
 70
     0
  9
$DIMALTZ
 70
     0
  9
$DIMALTTZ
 70
     0
  9
$DIMFIT
 70
     3
  9
$DIMUPT
 70
     0
  9
$DIMUNIT
 70
     2
  9
$DIMDEC
 70
     4
  9
$DIMTDEC
 70
     4
  9
$DIMALTU
 70
     2
  9
$DIMALTTD
 70
     2
  9
$DIMTXSTY
  7
STANDARD
  9
$DIMAUNIT
 70
     0
  9
$LUNITS
 70
     5
  9
$LUPREC
 70
     4
  9
$SKETCHINC
 40
0.1
  9
$FILLETRAD
 40
0.062
  9
$AUNITS
 70
     0
  9
$AUPREC
 70
     0
  9
$MENU
  1
acad
  9
$ELEVATION
 40
0.0
  9
$PELEVATION
 40
0.0
  9
$THICKNESS
 40
0.0
  9
$LIMCHECK
 70
     0
  9
$BLIPMODE
 70
     0
  9
$CHAMFERA
 40
0.0
  9
$CHAMFERB
 40
0.0
  9
$CHAMFERC
 40
0.0
  9
$CHAMFERD
 40
0.0
  9
$SKPOLY
 70
     0
  9
$TDCREATE
 40
2450387.494701771
  9
$TDUPDATE
 40
2452297.101351088
  9
$TDINDWG
 40
0.0392738889
  9
$TDUSRTIMER
 40
0.0392738889
  9
$USRTIMER
 70
     1
  9
$ANGBASE
 50
0.0
  9
$ANGDIR
 70
     0
  9
$PDMODE
 70
     0
  9
$PDSIZE
 40
0.0
  9
$PLINEWID
 40
0.0
  9
$COORDS
 70
     2
  9
$SPLFRAME
 70
     0
  9
$SPLINETYPE
 70
     6
  9
$SPLINESEGS
 70
     8
  9
$ATTDIA
 70
     0
  9
$ATTREQ
 70
     1
  9
$HANDLING
 70
 22529
  9
$HANDSEED
  5
265
  9
$SURFTAB1
 70
     6
  9
$SURFTAB2
 70
     6
  9
$SURFTYPE
 70
     6
  9
$SURFU
 70
     6
  9
$SURFV
 70
     6
  9
$UCSNAME
  2

  9
$UCSORG
 10
0.0
 20
0.0
 30
0.0
  9
$UCSXDIR
 10
1.0
 20
0.0
 30
0.0
  9
$UCSYDIR
 10
0.0
 20
1.0
 30
0.0
  9
$PUCSNAME
  2

  9
$PUCSORG
 10
0.0
 20
0.0
 30
0.0
  9
$PUCSXDIR
 10
1.0
 20
0.0
 30
0.0
  9
$PUCSYDIR
 10
0.0
 20
1.0
 30
0.0
  9
$USERI1
 70
     0
  9
$USERI2
 70
     0
  9
$USERI3
 70
     0
  9
$USERI4
 70
     0
  9
$USERI5
 70
     0
  9
$USERR1
 40
0.0
  9
$USERR2
 40
0.0
  9
$USERR3
 40
0.0
  9
$USERR4
 40
0.0
  9
$USERR5
 40
0.0
  9
$WORLDVIEW
 70
     1
  9
$SHADEDGE
 70
     3
  9
$SHADEDIF
 70
    70
  9
$TILEMODE
 70
     1
  9
$MAXACTVP
 70
    15
  9
$PINSBASE
 10
0.0
 20
0.0
 30
0.0
  9
$PLIMCHECK
 70
     0
  9
$PEXTMIN
 10
1.000000000000000E+20
 20
1.000000000000000E+20
 30
1.000000000000000E+20
  9
$PEXTMAX
 10
-1.000000000000000E+20
 20
-1.000000000000000E+20
 30
-1.000000000000000E+20
  9
$PLIMMIN
 10
0.0
 20
0.0
  9
$PLIMMAX
 10
12.0
 20
9.0
  9
$UNITMODE
 70
     0
  9
$VISRETAIN
 70
     0
  9
$PLINEGEN
 70
     0
  9
$PSLTSCALE
 70
     1
  9
$TREEDEPTH
 70
  3020
  9
$PICKSTYLE
 70
     1
  9
$CMLSTYLE
  2
STANDARD
  9
$CMLJUST
 70
     0
  9
$CMLSCALE
 40
1.0
  9
$PROXYGRAPHICS
 70
     1
  9
$MEASUREMENT
 70
     0
  0
ENDSEC
  0
SECTION
  2
CLASSES
  0
CLASS
  1
ACDBDICTIONARYWDFLT
  2
AcDbDictionaryWithDefault
  3
AutoCAD 2000
 90
        0
280
     0
281
     0
  0
CLASS
  1
ACDBPLACEHOLDER
  2
AcDbPlaceHolder
  3
AutoCAD 2000
 90
        0
280
     0
281
     0
  0
CLASS
  1
LAYOUT
  2
AcDbLayout
  3
AutoCAD 2000
 90
        0
280
     0
281
     0
  0
CLASS
  1
DICTIONARYVAR
  2
AcDbDictionaryVar
  3
AutoCAD 2000
 90
        0
280
     0
281
     0
  0
CLASS
  1
LONG_TRANSACTION
  2
AcDbLongTransaction
  3
AutoCAD 2000
 90
        0
280
     0
281
     0
  0
CLASS
  1
LWPOLYLINE
  2
AcDbPolyline
  3
AutoCAD 2000
 90
        0
280
     0
281
     1
  0
CLASS
  1
HATCH
  2
AcDbHatch
  3
AutoCAD 2000
 90
        0
280
     0
281
     1
  0
CLASS
  1
XRECORD
  2
AcDbXrecord
  3
AutoCAD 2000
 90
        0
280
     0
281
     0
  0
CLASS
  1
LONG_TRANSACTION
  2
AcDbLongTransaction
  3
AutoCAD 2000
 90
        0
280
     0
281
     0
  0
CLASS
  1
LWPOLYLINE
  2
AcDbPolyline
  3
AutoCAD 2000
 90
        0
280
     0
281
     1
  0
CLASS
  1
HATCH
  2
AcDbHatch
  3
AutoCAD 2000
 90
        0
280
     0
281
     1
  0
CLASS
  1
XRECORD
  2
AcDbXrecord
  3
AutoCAD 2000
 90
        0
280
     0
281
     0
  0
CLASS
  1
LONG_TRANSACTION
  2
AcDbLongTransaction
  3
AutoCAD 2000
 90
        0
280
     0
281
     0
  0
CLASS
  1
LWPOLYLINE
  2
AcDbPolyline
  3
AutoCAD 2000
 90
        0
280
     0
281
     1
  0
CLASS
  1
HATCH
  2
AcDbHatch
  3
AutoCAD 2000
 90
        0
280
     0
281
     1
  0
CLASS
  1
XRECORD
  2
AcDbXrecord
  3
AutoCAD 2000
 90
        0
280
     0
281
     0
  0
CLASS
  1
LONG_TRANSACTION
  2
AcDbLongTransaction
  3
AutoCAD 2000
 90
        0
280
     0
281
     0
  0
CLASS
  1
LWPOLYLINE
  2
AcDbPolyline
  3
AutoCAD 2000
 90
        0
280
     0
281
     1
  0
CLASS
  1
HATCH
  2
AcDbHatch
  3
AutoCAD 2000
 90
        0
280
     0
281
     1
  0
CLASS
  1
XRECORD
  2
AcDbXrecord
  3
AutoCAD 2000
 90
        0
280
     0
281
     0
  0
CLASS
  1
LONG_TRANSACTION
  2
AcDbLongTransaction
  3
AutoCAD 2000
 90
        0
280
     0
281
     0
  0
CLASS
  1
LWPOLYLINE
  2
AcDbPolyline
  3
AutoCAD 2000
 90
        0
280
     0
281
     1
  0
CLASS
  1
HATCH
  2
AcDbHatch
  3
AutoCAD 2000
 90
        0
280
     0
281
     1
  0
CLASS
  1
XRECORD
  2
AcDbXrecord
  3
AutoCAD 2000
 90
        0
280
     0
281
     0
  0
ENDSEC
  0
SECTION
  2
TABLES
  0
TABLE
  2
VPORT
  5
8
330
0
100
AcDbSymbolTable
 70
     2
  0
VPORT
  5
242
330
8
100
AcDbSymbolTableRecord
100
AcDbViewportTableRecord
  2
*ACTIVE
 70
     0
 10
0.0
 20
0.0
 11
1.0
 21
1.0
 12
77.79494319707612
 22
-2.603151014782011
 13
0.0
 23
0.0
 14
0.5740882589684922
 24
0.5740882589684922
 15
0.5
 25
0.5
 16
0.0
 26
0.0
 36
1.0
 17
0.0
 27
0.0
 37
0.0
 40
12.5482774384354
 41
1.570528967254408
 42
50.0
 43
0.0
 44
0.0
 50
0.0
 51
0.0
 71
     0
 72
   100
 73
     1
 74
     0
 75
     0
 76
     0
 77
     0
 78
     0
  0
ENDTAB
  0
TABLE
  2
LTYPE
  5
5
330
0
100
AcDbSymbolTable
 70
     2
  0
LTYPE
  5
12
330
5
100
AcDbSymbolTableRecord
100
AcDbLinetypeTableRecord
  2
BYBLOCK
 70
     0
  3

 72
    65
 73
     0
 40
0.0
  0
LTYPE
  5
13
330
5
100
AcDbSymbolTableRecord
100
AcDbLinetypeTableRecord
  2
BYLAYER
 70
     0
  3

 72
    65
 73
     0
 40
0.0
  0
LTYPE
  5
14
330
5
100
AcDbSymbolTableRecord
100
AcDbLinetypeTableRecord
  2
CONTINUOUS
 70
     0
  3
Solid line
 72
    65
 73
     0
 40
0.0
  0
LTYPE
  5
9D
330
5
100
AcDbSymbolTableRecord
100
AcDbLinetypeTableRecord
  2
CENTER2
 70
     0
  3
___ _ ___ _ ___ _ ___ _ ___ _ ___ _ ___ _ ___ _
 72
    65
 73
     4
 40
1.125
 49
0.75
 74
     0
 49
-0.125
 74
     0
 49
0.125
 74
     0
 49
-0.125
 74
     0
  0
ENDTAB
  0
TABLE
  2
LAYER
  5
2
330
0
100
AcDbSymbolTable
 70
     5
  0
LAYER
  5
F
330
2
100
AcDbSymbolTableRecord
100
AcDbLayerTableRecord
  2
0
 70
     0
 62
     7
  6
CONTINUOUS
  0
LAYER
  5
9E
330
2
100
AcDbSymbolTableRecord
100
AcDbLayerTableRecord
  2
ADP1DETAIL
 70
     0
 62
     7
  6
CONTINUOUS
  0
LAYER
  5
9F
330
2
100
AcDbSymbolTableRecord
100
AcDbLayerTableRecord
  2
DEFPOINTS
 70
     0
 62
     7
  6
CONTINUOUS
  0
LAYER
  5
A2
330
2
100
AcDbSymbolTableRecord
100
AcDbLayerTableRecord
  2
ADPDIM
 70
     0
 62
     3
  6
CONTINUOUS
  0
LAYER
  5
A3
330
2
100
AcDbSymbolTableRecord
100
AcDbLayerTableRecord
  2
ADP3DETAIL
 70
     0
 62
     1
  6
CONTINUOUS
  0
ENDTAB
  0
TABLE
  2
STYLE
  5
3
330
0
100
AcDbSymbolTable
 70
     2
  0
STYLE
  5
10
330
3
100
AcDbSymbolTableRecord
100
AcDbTextStyleTableRecord
  2
STANDARD
 70
     0
 40
0.0
 41
1.0
 50
0.0
 71
     0
 42
0.2
  3
txt
  4

  0
STYLE
  5
FE
330
3
100
AcDbSymbolTableRecord
100
AcDbTextStyleTableRecord
  2
ARIAL_WIDE
 70
     0
 40
0.0
 41
1.25
 50
0.0
 71
     0
 42
0.2
  3
ARIAL.TTF
  4

1001
ACAD
1000
Arial
1071
       34
  0
ENDTAB
  0
TABLE
  2
VIEW
  5
6
330
0
100
AcDbSymbolTable
 70
     0
  0
ENDTAB
  0
TABLE
  2
UCS
  5
7
330
0
100
AcDbSymbolTable
 70
     0
  0
ENDTAB
  0
TABLE
  2
APPID
  5
9
330
0
100
AcDbSymbolTable
 70
     1
  0
APPID
  5
11
330
9
100
AcDbSymbolTableRecord
100
AcDbRegAppTableRecord
  2
ACAD
 70
     0
  0
ENDTAB
  0
TABLE
  2
DIMSTYLE
  5
A
330
0
100
AcDbSymbolTable
 70
     1
  0
DIMSTYLE
105
F2
330
A
100
AcDbSymbolTableRecord
100
AcDbDimStyleTableRecord
  2
STANDARD
 70
     0
  3

  4

  5

  6

  7

 40
1.0
 41
0.18
 42
0.0625
 43
0.38
 44
0.18
 45
0.0
 46
0.0
 47
0.0
 48
0.0
140
0.18
141
0.09
142
0.0
143
25.4
144
1.0
145
0.0
146
1.0
147
0.09
 71
     0
 72
     0
 73
     1
 74
     1
 75
     0
 76
     0
 77
     0
 78
     0
170
     0
171
     2
172
     0
173
     0
174
     0
175
     0
176
     0
177
     0
178
     0
270
     2
271
     4
272
     4
273
     2
274
     2
340
10
275
     0
280
     0
281
     0
282
     0
283
     1
284
     0
285
     0
286
     0
287
     3
288
     0
  0
ENDTAB
  0
TABLE
  2
BLOCK_RECORD
  5
1
330
0
100
AcDbSymbolTable
 70
     5
  0
BLOCK_RECORD
  5
18
102
{ACAD_XDICTIONARY
360
153
102
}
330
1
100
AcDbSymbolTableRecord
100
AcDbBlockTableRecord
  2
*MODEL_SPACE
  0
BLOCK_RECORD
  5
15
102
{ACAD_XDICTIONARY
360
151
102
}
330
1
100
AcDbSymbolTableRecord
100
AcDbBlockTableRecord
  2
*PAPER_SPACE
  0
BLOCK_RECORD
  5
96
330
1
100
AcDbSymbolTableRecord
100
AcDbBlockTableRecord
  2
*D0
  0
BLOCK_RECORD
  5
97
330
1
100
AcDbSymbolTableRecord
100
AcDbBlockTableRecord
  2
*D1
  0
BLOCK_RECORD
  5
99
330
1
100
AcDbSymbolTableRecord
100
AcDbBlockTableRecord
  2
*D2
  0
BLOCK_RECORD
  5
9A
330
1
100
AcDbSymbolTableRecord
100
AcDbBlockTableRecord
  2
*D3
  0
BLOCK_RECORD
  5
9B
330
1
100
AcDbSymbolTableRecord
100
AcDbBlockTableRecord
  2
*D4
  0
ENDTAB
  0
ENDSEC
  0
SECTION
  2
BLOCKS
  0
BLOCK
  5
A6
330
18
100
AcDbEntity
  8
0
100
AcDbBlockBegin
  2
*MODEL_SPACE
 70
     0
 10
0.0
 20
0.0
 30
0.0
  3
*MODEL_SPACE
  1

  0
ENDBLK
  5
A7
330
18
100
AcDbEntity
  8
0
100
AcDbBlockEnd
  0
BLOCK
  5
A4
330
15
100
AcDbEntity
 67
     1
  8
0
100
AcDbBlockBegin
  2
*PAPER_SPACE
 70
     0
 10
0.0
 20
0.0
 30
0.0
  3
*PAPER_SPACE
  1

  0
ENDBLK
  5
A5
330
15
100
AcDbEntity
 67
     1
  8
0
100
AcDbBlockEnd
  0
BLOCK
  5
A9
330
96
100
AcDbEntity
  8
0
100
AcDbBlockBegin
  2
*D0
 70
     1
 10
0.0
 20
0.0
 30
0.0
  3
*D0
  1

  0
LINE
  5
AA
330
96
100
AcDbEntity
  8
0
  6
BYBLOCK
 62
     0
100
AcDbLine
 10
76.45825361615208
 20
-3.78323829087361
 30
0.0
 11
75.86332950747156
 21
-3.78323829087361
 31
0.0
  0
LINE
  5
AB
330
96
100
AcDbEntity
  8
0
  6
BYBLOCK
 62
     0
100
AcDbLine
 10
77.03166502251395
 20
-0.7832382908736108
 30
0.0
 11
75.86332950747156
 21
-0.7832382908736108
 31
0.0
  0
LINE
  5
AC
330
96
100
AcDbEntity
  8
0
  6
BYBLOCK
 62
     0
100
AcDbLine
 10
76.04332950747156
 20
-3.78323829087361
 30
0.0
 11
76.04332950747156
 21
-2.449904957540276
 31
0.0
  0
LINE
  5
AD
330
96
100
AcDbEntity
  8
0
  6
BYBLOCK
 62
     0
100
AcDbLine
 10
76.04332950747156
 20
-0.7832382908736108
 30
0.0
 11
76.04332950747156
 21
-2.116571624206943
 31
0.0
  0
LINE
  5
AE
330
96
100
AcDbEntity
  8
0
  6
BYBLOCK
 62
     0
100
AcDbLine
 10
76.16832950747157
 20
-3.90823829087361
 30
0.0
 11
75.91832950747157
 21
-3.65823829087361
 31
0.0
  0
LINE
  5
AF
330
96
100
AcDbEntity
  8
0
  6
BYBLOCK
 62
     0
100
AcDbLine
 10
76.16832950747157
 20
-0.9082382908736107
 30
0.0
 11
75.91832950747157
 21
-0.6582382908736108
 31
0.0
  0
TEXT
  5
B0
330
96
100
AcDbEntity
  8
0
  6
BYBLOCK
 62
     0
100
AcDbText
 10
76.10582950747157
 20
-2.324904957540276
 30
0.0
 40
0.125
  1
3
 50
90.0
 72
     1
 11
76.04332950747156
 21
-2.28323829087361
 31
0.0
100
AcDbText
 73
     2
  0
POINT
  5
B1
330
96
100
AcDbEntity
  8
DEFPOINTS
  6
BYBLOCK
 62
     0
100
AcDbPoint
 10
76.52075361615207
 20
-3.78323829087361
 30
0.0
  0
POINT
  5
B2
330
96
100
AcDbEntity
  8
DEFPOINTS
  6
BYBLOCK
 62
     0
100
AcDbPoint
 10
77.09416502251395
 20
-0.7832382908736109
 30
0.0
  0
POINT
  5
B3
330
96
100
AcDbEntity
  8
DEFPOINTS
  6
BYBLOCK
 62
     0
100
AcDbPoint
 10
76.04332950747156
 20
-0.7832382908736108
 30
0.0
  0
ENDBLK
  5
B4
330
96
100
AcDbEntity
  8
0
100
AcDbBlockEnd
  0
BLOCK
  5
B5
330
97
100
AcDbEntity
  8
0
100
AcDbBlockBegin
  2
*D1
 70
     1
 10
0.0
 20
0.0
 30
0.0
  3
*D1
  1

  0
LINE
  5
B6
330
97
100
AcDbEntity
  8
0
  6
BYBLOCK
 62
     0
100
AcDbLine
 10
78.02848855854657
 20
-5.688159617435035
 30
0.0
 11
78.02848855854657
 21
-5.570659617435035
 31
0.0
  0
LINE
  5
B7
330
97
100
AcDbEntity
  8
0
  6
BYBLOCK
 62
     0
100
AcDbLine
 10
78.17348855854658
 20
-5.688159617435035
 30
0.0
 11
78.17348855854658
 21
-5.570659617435035
 31
0.0
  0
LINE
  5
B8
330
97
100
AcDbEntity
  8
0
  6
BYBLOCK
 62
     0
100
AcDbLine
 10
78.02848855854657
 20
-5.750659617435035
 30
0.0
 11
77.77848855854657
 21
-5.750659617435035
 31
0.0
  0
LINE
  5
B9
330
97
100
AcDbEntity
  8
0
  6
BYBLOCK
 62
     0
100
AcDbLine
 10
78.17348855854658
 20
-5.750659617435035
 30
0.0
 11
78.42348855854658
 21
-5.750659617435035
 31
0.0
  0
LINE
  5
BA
330
97
100
AcDbEntity
  8
0
  6
BYBLOCK
 62
     0
100
AcDbLine
 10
77.90348855854657
 20
-5.875659617435035
 30
0.0
 11
78.15348855854657
 21
-5.625659617435035
 31
0.0
  0
LINE
  5
BB
330
97
100
AcDbEntity
  8
0
  6
BYBLOCK
 62
     0
100
AcDbLine
 10
78.04848855854658
 20
-5.875659617435035
 30
0.0
 11
78.29848855854658
 21
-5.625659617435035
 31
0.0
  0
TEXT
  5
BC
330
97
100
AcDbEntity
  8
0
  6
BYBLOCK
 62
     0
100
AcDbText
 10
78.54848855854658
 20
-5.813159617435035
 30
0.0
 40
0.125
  1
0.145
 72
     1
 11
78.76723855854658
 21
-5.750659617435035
 31
0.0
100
AcDbText
 73
     2
  0
POINT
  5
BD
330
97
100
AcDbEntity
  8
DEFPOINTS
  6
BYBLOCK
 62
     0
100
AcDbPoint
 10
78.02848855854657
 20
-5.750659617435035
 30
0.0
  0
POINT
  5
BE
330
97
100
AcDbEntity
  8
DEFPOINTS
  6
BYBLOCK
 62
     0
100
AcDbPoint
 10
78.17348855854658
 20
-5.750659617435035
 30
0.0
  0
POINT
  5
BF
330
97
100
AcDbEntity
  8
DEFPOINTS
  6
BYBLOCK
 62
     0
100
AcDbPoint
 10
78.17348855854658
 20
-5.750659617435035
 30
0.0
  0
ENDBLK
  5
C0
330
97
100
AcDbEntity
  8
0
100
AcDbBlockEnd
  0
BLOCK
  5
C1
330
99
100
AcDbEntity
  8
0
100
AcDbBlockBegin
  2
*D2
 70
     1
 10
0.0
 20
0.0
 30
0.0
  3
*D2
  1

  0
LINE
  5
C2
330
99
100
AcDbEntity
  8
0
  6
BYBLOCK
 62
     0
100
AcDbLine
 10
76.52075361615207
 20
-3.84573829087361
 30
0.0
 11
76.52075361615207
 21
-4.436399390144518
 31
0.0
  0
LINE
  5
C3
330
99
100
AcDbEntity
  8
0
  6
BYBLOCK
 62
     0
100
AcDbLine
 10
78.18075361615207
 20
-3.84573829087361
 30
0.0
 11
78.18075361615207
 21
-4.436399390144518
 31
0.0
  0
LINE
  5
C4
330
99
100
AcDbEntity
  8
0
  6
BYBLOCK
 62
     0
100
AcDbLine
 10
76.52075361615207
 20
-4.256399390144518
 30
0.0
 11
77.00700361615208
 21
-4.256399390144518
 31
0.0
  0
LINE
  5
C5
330
99
100
AcDbEntity
  8
0
  6
BYBLOCK
 62
     0
100
AcDbLine
 10
78.18075361615207
 20
-4.256399390144518
 30
0.0
 11
77.69450361615207
 21
-4.256399390144518
 31
0.0
  0
LINE
  5
C6
330
99
100
AcDbEntity
  8
0
  6
BYBLOCK
 62
     0
100
AcDbLine
 10
76.39575361615207
 20
-4.381399390144518
 30
0.0
 11
76.64575361615208
 21
-4.131399390144518
 31
0.0
  0
LINE
  5
C7
330
99
100
AcDbEntity
  8
0
  6
BYBLOCK
 62
     0
100
AcDbLine
 10
78.05575361615208
 20
-4.381399390144518
 30
0.0
 11
78.30575361615207
 21
-4.131399390144518
 31
0.0
  0
TEXT
  5
C8
330
99
100
AcDbEntity
  8
0
  6
BYBLOCK
 62
     0
100
AcDbText
 10
77.13200361615207
 20
-4.318899390144518
 30
0.0
 40
0.125
  1
1.660
 72
     1
 11
77.35075361615208
 21
-4.256399390144518
 31
0.0
100
AcDbText
 73
     2
  0
POINT
  5
C9
330
99
100
AcDbEntity
  8
DEFPOINTS
  6
BYBLOCK
 62
     0
100
AcDbPoint
 10
76.52075361615207
 20
-3.78323829087361
 30
0.0
  0
POINT
  5
CA
330
99
100
AcDbEntity
  8
DEFPOINTS
  6
BYBLOCK
 62
     0
100
AcDbPoint
 10
78.18075361615207
 20
-3.78323829087361
 30
0.0
  0
POINT
  5
CB
330
99
100
AcDbEntity
  8
DEFPOINTS
  6
BYBLOCK
 62
     0
100
AcDbPoint
 10
78.18075361615207
 20
-4.256399390144518
 30
0.0
  0
ENDBLK
  5
CC
330
99
100
AcDbEntity
  8
0
100
AcDbBlockEnd
  0
BLOCK
  5
CD
330
9A
100
AcDbEntity
  8
0
100
AcDbBlockBegin
  2
*D3
 70
     1
 10
0.0
 20
0.0
 30
0.0
  3
*D3
  1

  0
LINE
  5
CE
330
9A
100
AcDbEntity
  8
0
  6
BYBLOCK
 62
     0
100
AcDbLine
 10
79.86177795060678
 20
0.8595225078357755
 30
0.0
 11
79.13663097743125
 21
2.020000247638197
 31
0.0
  0
LINE
  5
CF
330
9A
100
AcDbEntity
  8
0
  6
BYBLOCK
 62
     0
100
AcDbLine
 10
77.31763366213751
 20
-0.7302352848638369
 30
0.0
 11
76.59248668896196
 21
0.4302424549385855
 31
0.0
  0
LINE
  5
D0
330
9A
100
AcDbEntity
  8
0
  6
BYBLOCK
 62
     0
100
AcDbLine
 10
79.23201644499322
 20
1.867351590330041
 30
0.0
 11
78.10128565011798
 21
1.160792571352438
 31
0.0
  0
LINE
  5
D1
330
9A
100
AcDbEntity
  8
0
  6
BYBLOCK
 62
     0
100
AcDbLine
 10
76.68787215652393
 20
0.2775937976304289
 30
0.0
 11
77.81860295139917
 21
0.9841528166080319
 31
0.0
  0
LINE
  5
D2
330
9A
100
AcDbEntity
  8
0
  6
BYBLOCK
 62
     0
100
AcDbLine
 10
79.19225034100282
 20
1.695105670281337
 30
0.0
 11
79.27178254898362
 21
2.039597510378745
 31
0.0
  0
LINE
  5
D3
330
9A
100
AcDbEntity
  8
0
  6
BYBLOCK
 62
     0
100
AcDbLine
 10
76.64810605253354
 20
0.1053478775817251
 30
0.0
 11
76.72763826051434
 21
0.4498397176791328
 31
0.0
  0
TEXT
  5
D4
330
9A
100
AcDbEntity
  8
0
  6
BYBLOCK
 62
     0
100
AcDbText
 10
77.95772891743331
 20
0.9973897186274081
 30
0.0
 40
0.125
  1
3
 50
31.99999999999994
 72
     1
 11
77.95994430075857
 21
1.072472693980235
 31
0.0
100
AcDbText
 73
     2
  0
POINT
  5
D5
330
9A
100
AcDbEntity
  8
DEFPOINTS
  6
BYBLOCK
 62
     0
100
AcDbPoint
 10
79.89489790462136
 20
0.8065195018259988
 30
0.0
  0
POINT
  5
D6
330
9A
100
AcDbEntity
  8
DEFPOINTS
  6
BYBLOCK
 62
     0
100
AcDbPoint
 10
77.35075361615208
 20
-0.7832382908736136
 30
0.0
  0
POINT
  5
D7
330
9A
100
AcDbEntity
  8
DEFPOINTS
  6
BYBLOCK
 62
     0
100
AcDbPoint
 10
76.68787215652393
 20
0.2775937976304289
 30
0.0
  0
ENDBLK
  5
D8
330
9A
100
AcDbEntity
  8
0
100
AcDbBlockEnd
  0
BLOCK
  5
D9
330
9B
100
AcDbEntity
  8
0
100
AcDbBlockBegin
  2
*D4
 70
     1
 10
0.0
 20
0.0
 30
0.0
  3
*D4
  1

  0
LINE
  5
DA
330
9B
100
AcDbEntity
  8
0
  6
BYBLOCK
 62
     0
100
AcDbLine
 10
77.62605614436854
 20
-1.02851928909346
 30
0.0
 11
79.83819406993882
 21
-2.162572265477439
 31
0.0
  0
LINE
  5
DB
330
9B
100
AcDbEntity
  8
0
  6
BYBLOCK
 62
     0
100
AcDbLine
 10
77.45779668925877
 20
-1.082729581162032
 30
0.0
 11
77.79431559947832
 21
-0.9743089970248872
 31
0.0
  0
TEXT
  5
DC
330
9B
100
AcDbEntity
  8
0
  6
BYBLOCK
 62
     0
100
AcDbText
 10
79.92091665276769
 20
-2.275214283792629
 30
0.0
 40
0.125
  1
R2 1/2
 50
332.8580445993237
 72
     1
 11
80.24605527309914
 21
-2.371662397719651
 31
0.0
100
AcDbText
 73
     2
  0
POINT
  5
DD
330
9B
100
AcDbEntity
  8
DEFPOINTS
  6
BYBLOCK
 62
     0
100
AcDbPoint
 10
77.62605614436854
 20
-1.02851928909346
 30
0.0
  0
POINT
  5
DE
330
9B
100
AcDbEntity
  8
DEFPOINTS
  6
BYBLOCK
 62
     0
100
AcDbPoint
 10
79.85075361615208
 20
-2.169010919505533
 30
0.0
  0
ENDBLK
  5
DF
330
9B
100
AcDbEntity
  8
0
100
AcDbBlockEnd
  0
ENDSEC
  0
SECTION
  2
ENTITIES
  0
LINE
  5
E0
330
18
100
AcDbEntity
  8
ADP3DETAIL
  6
CENTER2
100
AcDbLine
 10
77.35075361615208
 20
-2.169010919505533
 30
0.0
 11
77.35075361615208
 21
-3.999178510628842
 31
0.0
  0
DIMENSION
  5
E1
330
18
100
AcDbEntity
  8
ADPDIM
100
AcDbDimension
  2
*D0
 10
76.04332950747156
 20
-0.7832382908736108
 30
0.0
 11
76.04332950747156
 21
-2.28323829087361
 31
0.0
100
AcDbAlignedDimension
 13
76.52075361615207
 23
-3.78323829087361
 33
0.0
 14
77.09416502251395
 24
-0.7832382908736109
 34
0.0
 50
90.0
100
AcDbRotatedDimension
  0
LINE
  5
E2
330
18
100
AcDbEntity
  8
ADP1DETAIL
100
AcDbLine
 10
78.18075361615207
 20
-2.185640191049122
 30
0.0
 11
78.18075361615207
 21
-3.78323829087361
 31
0.0
  0
LINE
  5
E3
330
18
100
AcDbEntity
  8
ADP1DETAIL
100
AcDbLine
 10
76.52075361615207
 20
-3.78323829087361
 30
0.0
 11
76.52075361615207
 21
-2.152381647961951
 31
0.0
  0
DIMENSION
  5
E4
330
18
100
AcDbEntity
  8
ADPDIM
100
AcDbDimension
  2
*D1
 10
78.17348855854658
 20
-5.750659617435035
 30
0.0
 11
78.76723855854658
 21
-5.750659617435035
 31
0.0
  1
0.145
100
AcDbAlignedDimension
 13
78.02848855854657
 23
-5.750659617435035
 33
0.0
 14
78.17348855854658
 24
-5.750659617435035
 34
0.0
100
AcDbRotatedDimension
  0
CIRCLE
  5
E5
330
18
100
AcDbEntity
  8
ADP1DETAIL
100
AcDbCircle
 10
77.35075361615208
 20
-5.750659617435035
 30
0.0
 40
0.6899999999999978
  0
CIRCLE
  5
E6
330
18
100
AcDbEntity
  8
ADP1DETAIL
100
AcDbCircle
 10
77.35075361615208
 20
-5.750659617435035
 30
0.0
 40
0.8299999999999998
  0
DIMENSION
  5
E7
330
18
100
AcDbEntity
  8
ADPDIM
100
AcDbDimension
  2
*D2
 10
78.18075361615207
 20
-4.256399390144518
 30
0.0
 11
77.35075361615208
 21
-4.256399390144518
 31
0.0
  1
1.660
100
AcDbAlignedDimension
 13
76.52075361615207
 23
-3.78323829087361
 33
0.0
 14
78.18075361615207
 24
-3.78323829087361
 34
0.0
100
AcDbRotatedDimension
  0
LINE
  5
E8
330
18
100
AcDbEntity
  8
ADP1DETAIL
100
AcDbLine
 10
78.18075361615207
 20
-3.78323829087361
 30
0.0
 11
76.52075361615207
 21
-3.78323829087361
 31
0.0
  0
LINE
  5
E9
330
18
100
AcDbEntity
  8
ADP3DETAIL
  6
CENTER2
100
AcDbLine
 10
80.41348275216646
 20
1.130567279421514
 30
0.0
 11
78.52595545556906
 21
-0.0488906791144666
 31
0.0
  0
DIMENSION
  5
EA
330
18
100
AcDbEntity
  8
ADPDIM
100
AcDbDimension
  2
*D4
 10
79.85075361615208
 20
-2.169010919505533
 30
0.0
 11
80.24605527309914
 21
-2.371662397719651
 31
0.0
 70
     4
100
AcDbRadialDimension
 15
77.62605614436854
 25
-1.02851928909346
 35
0.0
 40
-2.485886231304993
  0
DIMENSION
  5
EB
330
18
100
AcDbEntity
  8
ADPDIM
100
AcDbDimension
  2
*D3
 10
76.68787215652393
 20
0.2775937976304289
 30
0.0
 11
77.95994430075857
 21
1.072472693980235
 31
0.0
 70
     1
100
AcDbAlignedDimension
 13
79.89489790462136
 23
0.8065195018260013
 33
0.0
 14
77.35075361615208
 24
-0.7832382908736131
 34
0.0
  0
ARC
  5
EC
330
18
100
AcDbEntity
  8
ADP1DETAIL
100
AcDbCircle
 10
79.88075361615208
 20
-2.185640191049122
 30
0.0
 40
1.7
100
AcDbArc
 50
122.0
 51
180.0
  0
LINE
  5
ED
330
18
100
AcDbEntity
  8
ADP1DETAIL
100
AcDbLine
 10
78.07202004418249
 20
0.6461770693542533
 30
0.0
 11
79.45506491530778
 21
1.510399421635832
 31
0.0
  0
ARC
  5
EE
330
18
100
AcDbEntity
  8
ADP1DETAIL
100
AcDbCircle
 10
79.82075361615208
 20
-2.152381647961951
 30
0.0
 40
3.299999999999999
100
AcDbArc
 50
122.0
 51
180.0
  0
ARC
  5
EF
330
18
100
AcDbEntity
  8
ADP3DETAIL
  6
CENTER2
100
AcDbCircle
 10
79.85075361615208
 20
-2.169010919505533
 30
0.0
 40
2.5
100
AcDbArc
 50
122.0
 51
180.0
  0
LINE
  5
F0
330
18
100
AcDbEntity
  8
ADP1DETAIL
100
AcDbLine
 10
78.97989086695563
 20
-0.7439584275832006
 30
0.0
 11
80.3347308939349
 21
0.1026395820161681
 31
0.0
  0
LINE
  5
F1
330
18
100
AcDbEntity
  8
ADP1DETAIL
100
AcDbLine
 10
79.45506491530778
 20
1.510399421635832
 30
0.0
 11
80.3347308939349
 21
0.1026395820161681
 31
0.0
  0
TEXT
  5
FF
330
18
100
AcDbEntity
  8
ADPDIM
100
AcDbText
 10
67.98923470209465
 20
-7.192124470985824
 30
0.0
 40
0.1875
  1
J U L I U S  B L U M  &  C O . ,  I N C .      ( 8 0 0 )  5 2 6 - 6 2 9 3        W W W . J U L I U S B L U M . C O M        P A R T  N o .  7 4 2 2
 41
1.25
  7
ARIAL_WIDE
 72
     1
 11
77.77782823892957
 21
-7.004624470985824
 31
0.0
100
AcDbText
 73
     3
  0
ENDSEC
  0
SECTION
  2
OBJECTS
  0
DICTIONARY
  5
C
330
0
100
AcDbDictionary
  3
ACAD_GROUP
350
D
  3
ACAD_LAYOUT
350
F8
  3
ACAD_MLINESTYLE
350
E
  3
ACAD_PLOTSETTINGS
350
F9
  3
ACAD_PLOTSTYLENAME
350
F6
  3
ACDBHEADERROUNDTRIPXREC
350
243
  3
ACDBVARIABLEDICTIONARY
350
159
  0
DICTIONARY
  5
153
330
18
100
AcDbDictionary
280
     1
  3
ACAD_LAYOUTSELFREF
360
264
  0
DICTIONARY
  5
151
330
15
100
AcDbDictionary
280
     1
  3
ACAD_LAYOUTSELFREF
360
263
  0
DICTIONARY
  5
D
102
{ACAD_REACTORS
330
C
102
}
330
C
100
AcDbDictionary
  0
DICTIONARY
  5
F8
102
{ACAD_REACTORS
330
C
102
}
330
C
100
AcDbDictionary
  0
DICTIONARY
  5
E
102
{ACAD_REACTORS
330
C
102
}
330
C
100
AcDbDictionary
  3
STANDARD
350
1B
  0
DICTIONARY
  5
F9
102
{ACAD_REACTORS
330
C
102
}
330
C
100
AcDbDictionary
  0
ACDBDICTIONARYWDFLT
  5
F6
102
{ACAD_REACTORS
330
C
102
}
330
C
100
AcDbDictionary
281
     1
  3
Normal
350
F7
100
AcDbDictionaryWithDefault
340
F7
  0
DICTIONARY
  5
243
102
{ACAD_REACTORS
330
C
102
}
330
C
100
AcDbDictionary
  3
CEPSNTYPE
350
24D
  3
FINGERPRINTGUID
350
24E
  3
HYPERLINKBASE
350
246
  3
INSUNITS
350
24C
  3
LAYOUTDICT
350
248
  3
LWETCUNION
350
24B
  3
PLOTSETDICT
350
249
  3
PLOTSTYLNAMDICT
350
24A
  3
PSVPSCALE
350
250
  3
PUCSBASE
350
253
  3
PUCSORGBACK
350
259
  3
PUCSORGBOTTOM
350
255
  3
PUCSORGFRONT
350
258
  3
PUCSORGLEFT
350
256
  3
PUCSORGRIGHT
350
257
  3
PUCSORGTOP
350
254
  3
PUCSORTHOREF
350
251
  3
PUCSORTHOVIEW
350
252
  3
STYLESHEET
350
247
  3
TSTACKALIGN
350
244
  3
TSTACKSIZE
350
245
  3
UCSBASE
350
25C
  3
UCSORGBACK
350
262
  3
UCSORGBOTTOM
350
25E
  3
UCSORGFRONT
350
261
  3
UCSORGLEFT
350
25F
  3
UCSORGRIGHT
350
260
  3
UCSORGTOP
350
25D
  3
UCSORTHOREF
350
25A
  3
UCSORTHOVIEW
350
25B
  3
VERSIONGUID
350
24F
  0
DICTIONARY
  5
159
102
{ACAD_REACTORS
330
C
102
}
330
C
100
AcDbDictionary
  3
DIMASSOC
350
15A
  0
XRECORD
  5
264
102
{ACAD_REACTORS
330
153
102
}
330
153
100
AcDbXrecord
340
18
  0
XRECORD
  5
263
102
{ACAD_REACTORS
330
151
102
}
330
151
100
AcDbXrecord
340
15
  0
MLINESTYLE
  5
1B
102
{ACAD_REACTORS
330
E
102
}
330
E
100
AcDbMlineStyle
  2
STANDARD
 70
     0
  3

 62
     0
 51
90.0
 52
90.0
 71
     2
 49
0.5
 62
   256
  6
BYLAYER
 49
-0.5
 62
   256
  6
BYLAYER
  0
ACDBPLACEHOLDER
  5
F7
102
{ACAD_REACTORS
330
F6
102
}
330
F6
100
AcDbPlaceHolder
280
     0
  0
XRECORD
  5
24D
102
{ACAD_REACTORS
330
243
102
}
330
243
100
AcDbXrecord
 90
        0
  0
XRECORD
  5
24E
102
{ACAD_REACTORS
330
243
102
}
330
243
100
AcDbXrecord
  1
{29B46FDD-427D-4B76-B4BE-AF77BC3641D7}
  0
XRECORD
  5
246
102
{ACAD_REACTORS
330
243
102
}
330
243
100
AcDbXrecord
  1

  0
XRECORD
  5
24C
102
{ACAD_REACTORS
330
243
102
}
330
243
100
AcDbXrecord
 90
        0
  0
XRECORD
  5
248
102
{ACAD_REACTORS
330
243
102
}
330
243
100
AcDbXrecord
340
F8
  0
XRECORD
  5
24B
102
{ACAD_REACTORS
330
243
102
}
330
243
100
AcDbXrecord
 90
    14877
  0
XRECORD
  5
249
102
{ACAD_REACTORS
330
243
102
}
330
243
100
AcDbXrecord
340
F9
  0
XRECORD
  5
24A
102
{ACAD_REACTORS
330
243
102
}
330
243
100
AcDbXrecord
340
F6
  0
XRECORD
  5
250
102
{ACAD_REACTORS
330
243
102
}
330
243
100
AcDbXrecord
 40
0.0
  0
XRECORD
  5
253
102
{ACAD_REACTORS
330
243
102
}
330
243
100
AcDbXrecord
340
0
  0
XRECORD
  5
259
102
{ACAD_REACTORS
330
243
102
}
330
243
100
AcDbXrecord
 10
0.0
 20
0.0
 30
0.0
  0
XRECORD
  5
255
102
{ACAD_REACTORS
330
243
102
}
330
243
100
AcDbXrecord
 10
0.0
 20
0.0
 30
0.0
  0
XRECORD
  5
258
102
{ACAD_REACTORS
330
243
102
}
330
243
100
AcDbXrecord
 10
0.0
 20
0.0
 30
0.0
  0
XRECORD
  5
256
102
{ACAD_REACTORS
330
243
102
}
330
243
100
AcDbXrecord
 10
0.0
 20
0.0
 30
0.0
  0
XRECORD
  5
257
102
{ACAD_REACTORS
330
243
102
}
330
243
100
AcDbXrecord
 10
0.0
 20
0.0
 30
0.0
  0
XRECORD
  5
254
102
{ACAD_REACTORS
330
243
102
}
330
243
100
AcDbXrecord
 10
0.0
 20
0.0
 30
0.0
  0
XRECORD
  5
251
102
{ACAD_REACTORS
330
243
102
}
330
243
100
AcDbXrecord
340
0
  0
XRECORD
  5
252
102
{ACAD_REACTORS
330
243
102
}
330
243
100
AcDbXrecord
 70
     0
  0
XRECORD
  5
247
102
{ACAD_REACTORS
330
243
102
}
330
243
100
AcDbXrecord
  1

  0
XRECORD
  5
244
102
{ACAD_REACTORS
330
243
102
}
330
243
100
AcDbXrecord
 90
        1
  0
XRECORD
  5
245
102
{ACAD_REACTORS
330
243
102
}
330
243
100
AcDbXrecord
 90
       70
  0
XRECORD
  5
25C
102
{ACAD_REACTORS
330
243
102
}
330
243
100
AcDbXrecord
340
0
  0
XRECORD
  5
262
102
{ACAD_REACTORS
330
243
102
}
330
243
100
AcDbXrecord
 10
0.0
 20
0.0
 30
0.0
  0
XRECORD
  5
25E
102
{ACAD_REACTORS
330
243
102
}
330
243
100
AcDbXrecord
 10
0.0
 20
0.0
 30
0.0
  0
XRECORD
  5
261
102
{ACAD_REACTORS
330
243
102
}
330
243
100
AcDbXrecord
 10
0.0
 20
0.0
 30
0.0
  0
XRECORD
  5
25F
102
{ACAD_REACTORS
330
243
102
}
330
243
100
AcDbXrecord
 10
0.0
 20
0.0
 30
0.0
  0
XRECORD
  5
260
102
{ACAD_REACTORS
330
243
102
}
330
243
100
AcDbXrecord
 10
0.0
 20
0.0
 30
0.0
  0
XRECORD
  5
25D
102
{ACAD_REACTORS
330
243
102
}
330
243
100
AcDbXrecord
 10
0.0
 20
0.0
 30
0.0
  0
XRECORD
  5
25A
102
{ACAD_REACTORS
330
243
102
}
330
243
100
AcDbXrecord
340
0
  0
XRECORD
  5
25B
102
{ACAD_REACTORS
330
243
102
}
330
243
100
AcDbXrecord
 70
     0
  0
XRECORD
  5
24F
102
{ACAD_REACTORS
330
243
102
}
330
243
100
AcDbXrecord
  1
{CACC8387-5E0A-4DA1-9230-D71E4E08AE50}
  0
DICTIONARYVAR
  5
15A
102
{ACAD_REACTORS
330
159
102
}
330
159
100
DictionaryVariables
280
     0
  1
1
  0
ENDSEC
  0
EOF
