  0
SECTION
  2
HEADER
  9
$ACADVER
  1
AC1014
  9
$ACADMAINTVER
 70
     9
  9
$DWGCODEPAGE
  3
ANSI_1252
  9
$INSBASE
 10
77.93005913293161
 20
12.00697403076577
 30
0.0
  9
$EXTMIN
 10
67.99522338107485
 20
8.377758572997988
 30
0.0
  9
$EXTMAX
 10
87.5724104547447
 20
18.52042640868137
 30
0.0
  9
$LIMMIN
 10
0.0
 20
0.0
  9
$LIMMAX
 10
36.0
 20
36.0
  9
$ORTHOMODE
 70
     1
  9
$REGENMODE
 70
     1
  9
$FILLMODE
 70
     1
  9
$QTEXTMODE
 70
     0
  9
$MIRRTEXT
 70
     1
  9
$DRAGMODE
 70
     0
  9
$LTSCALE
 40
1.0
  9
$OSMODE
 70
    37
  9
$ATTMODE
 70
     1
  9
$TEXTSIZE
 40
0.2
  9
$TRACEWID
 40
0.05
  9
$TEXTSTYLE
  7
STANDARD
  9
$CLAYER
  8
0
  9
$CELTYPE
  6
BYLAYER
  9
$CECOLOR
 62
   256
  9
$CELTSCALE
 40
1.0
  9
$DELOBJ
 70
     1
  9
$DISPSILH
 70
     0
  9
$DIMSCALE
 40
1.0
  9
$DIMASZ
 40
0.125
  9
$DIMEXO
 40
0.0625
  9
$DIMDLI
 40
0.38
  9
$DIMRND
 40
0.0
  9
$DIMDLE
 40
0.0
  9
$DIMEXE
 40
0.18
  9
$DIMTP
 40
0.0
  9
$DIMTM
 40
0.0
  9
$DIMTXT
 40
0.125
  9
$DIMCEN
 40
0.1875
  9
$DIMTSZ
 40
0.125
  9
$DIMTOL
 70
     0
  9
$DIMLIM
 70
     0
  9
$DIMTIH
 70
     0
  9
$DIMTOH
 70
     0
  9
$DIMSE1
 70
     0
  9
$DIMSE2
 70
     0
  9
$DIMTAD
 70
     0
  9
$DIMZIN
 70
     3
  9
$DIMBLK
  1

  9
$DIMASO
 70
     1
  9
$DIMSHO
 70
     1
  9
$DIMPOST
  1

  9
$DIMAPOST
  1

  9
$DIMALT
 70
     0
  9
$DIMALTD
 70
     1
  9
$DIMALTF
 40
25.4
  9
$DIMLFAC
 40
1.0
  9
$DIMTOFL
 70
     0
  9
$DIMTVP
 40
0.0
  9
$DIMTIX
 70
     0
  9
$DIMSOXD
 70
     0
  9
$DIMSAH
 70
     0
  9
$DIMBLK1
  1

  9
$DIMBLK2
  1

  9
$DIMSTYLE
  2
STANDARD
  9
$DIMCLRD
 70
     0
  9
$DIMCLRE
 70
     0
  9
$DIMCLRT
 70
     0
  9
$DIMTFAC
 40
1.0
  9
$DIMGAP
 40
0.125
  9
$DIMJUST
 70
     0
  9
$DIMSD1
 70
     0
  9
$DIMSD2
 70
     0
  9
$DIMTOLJ
 70
     1
  9
$DIMTZIN
 70
     0
  9
$DIMALTZ
 70
     0
  9
$DIMALTTZ
 70
     0
  9
$DIMFIT
 70
     3
  9
$DIMUPT
 70
     0
  9
$DIMUNIT
 70
     2
  9
$DIMDEC
 70
     4
  9
$DIMTDEC
 70
     4
  9
$DIMALTU
 70
     2
  9
$DIMALTTD
 70
     2
  9
$DIMTXSTY
  7
STANDARD
  9
$DIMAUNIT
 70
     0
  9
$LUNITS
 70
     5
  9
$LUPREC
 70
     4
  9
$SKETCHINC
 40
0.1
  9
$FILLETRAD
 40
0.062
  9
$AUNITS
 70
     0
  9
$AUPREC
 70
     0
  9
$MENU
  1
acad
  9
$ELEVATION
 40
0.0
  9
$PELEVATION
 40
0.0
  9
$THICKNESS
 40
0.0
  9
$LIMCHECK
 70
     0
  9
$BLIPMODE
 70
     0
  9
$CHAMFERA
 40
0.0
  9
$CHAMFERB
 40
0.0
  9
$CHAMFERC
 40
0.0
  9
$CHAMFERD
 40
0.0
  9
$SKPOLY
 70
     0
  9
$TDCREATE
 40
2450387.494032407
  9
$TDUPDATE
 40
2452297.101321250
  9
$TDINDWG
 40
0.0396041204
  9
$TDUSRTIMER
 40
0.0396041204
  9
$USRTIMER
 70
     1
  9
$ANGBASE
 50
0.0
  9
$ANGDIR
 70
     0
  9
$PDMODE
 70
     0
  9
$PDSIZE
 40
0.0
  9
$PLINEWID
 40
0.0
  9
$COORDS
 70
     2
  9
$SPLFRAME
 70
     0
  9
$SPLINETYPE
 70
     6
  9
$SPLINESEGS
 70
     8
  9
$ATTDIA
 70
     0
  9
$ATTREQ
 70
     1
  9
$HANDLING
 70
 22529
  9
$HANDSEED
  5
25A
  9
$SURFTAB1
 70
     6
  9
$SURFTAB2
 70
     6
  9
$SURFTYPE
 70
     6
  9
$SURFU
 70
     6
  9
$SURFV
 70
     6
  9
$UCSNAME
  2

  9
$UCSORG
 10
0.0
 20
0.0
 30
0.0
  9
$UCSXDIR
 10
1.0
 20
0.0
 30
0.0
  9
$UCSYDIR
 10
0.0
 20
1.0
 30
0.0
  9
$PUCSNAME
  2

  9
$PUCSORG
 10
0.0
 20
0.0
 30
0.0
  9
$PUCSXDIR
 10
1.0
 20
0.0
 30
0.0
  9
$PUCSYDIR
 10
0.0
 20
1.0
 30
0.0
  9
$USERI1
 70
     0
  9
$USERI2
 70
     0
  9
$USERI3
 70
     0
  9
$USERI4
 70
     0
  9
$USERI5
 70
     0
  9
$USERR1
 40
0.0
  9
$USERR2
 40
0.0
  9
$USERR3
 40
0.0
  9
$USERR4
 40
0.0
  9
$USERR5
 40
0.0
  9
$WORLDVIEW
 70
     1
  9
$SHADEDGE
 70
     3
  9
$SHADEDIF
 70
    70
  9
$TILEMODE
 70
     1
  9
$MAXACTVP
 70
    15
  9
$PINSBASE
 10
0.0
 20
0.0
 30
0.0
  9
$PLIMCHECK
 70
     0
  9
$PEXTMIN
 10
1.000000000000000E+20
 20
1.000000000000000E+20
 30
1.000000000000000E+20
  9
$PEXTMAX
 10
-1.000000000000000E+20
 20
-1.000000000000000E+20
 30
-1.000000000000000E+20
  9
$PLIMMIN
 10
0.0
 20
0.0
  9
$PLIMMAX
 10
12.0
 20
9.0
  9
$UNITMODE
 70
     0
  9
$VISRETAIN
 70
     0
  9
$PLINEGEN
 70
     0
  9
$PSLTSCALE
 70
     1
  9
$TREEDEPTH
 70
  3020
  9
$PICKSTYLE
 70
     1
  9
$CMLSTYLE
  2
STANDARD
  9
$CMLJUST
 70
     0
  9
$CMLSCALE
 40
1.0
  9
$PROXYGRAPHICS
 70
     1
  9
$MEASUREMENT
 70
     0
  0
ENDSEC
  0
SECTION
  2
CLASSES
  0
CLASS
  1
ACDBDICTIONARYWDFLT
  2
AcDbDictionaryWithDefault
  3
AutoCAD 2000
 90
        0
280
     0
281
     0
  0
CLASS
  1
ACDBPLACEHOLDER
  2
AcDbPlaceHolder
  3
AutoCAD 2000
 90
        0
280
     0
281
     0
  0
CLASS
  1
LAYOUT
  2
AcDbLayout
  3
AutoCAD 2000
 90
        0
280
     0
281
     0
  0
CLASS
  1
DICTIONARYVAR
  2
AcDbDictionaryVar
  3
AutoCAD 2000
 90
        0
280
     0
281
     0
  0
CLASS
  1
LONG_TRANSACTION
  2
AcDbLongTransaction
  3
AutoCAD 2000
 90
        0
280
     0
281
     0
  0
CLASS
  1
LWPOLYLINE
  2
AcDbPolyline
  3
AutoCAD 2000
 90
        0
280
     0
281
     1
  0
CLASS
  1
HATCH
  2
AcDbHatch
  3
AutoCAD 2000
 90
        0
280
     0
281
     1
  0
CLASS
  1
XRECORD
  2
AcDbXrecord
  3
AutoCAD 2000
 90
        0
280
     0
281
     0
  0
CLASS
  1
LONG_TRANSACTION
  2
AcDbLongTransaction
  3
AutoCAD 2000
 90
        0
280
     0
281
     0
  0
CLASS
  1
LWPOLYLINE
  2
AcDbPolyline
  3
AutoCAD 2000
 90
        0
280
     0
281
     1
  0
CLASS
  1
HATCH
  2
AcDbHatch
  3
AutoCAD 2000
 90
        0
280
     0
281
     1
  0
CLASS
  1
XRECORD
  2
AcDbXrecord
  3
AutoCAD 2000
 90
        0
280
     0
281
     0
  0
CLASS
  1
LONG_TRANSACTION
  2
AcDbLongTransaction
  3
AutoCAD 2000
 90
        0
280
     0
281
     0
  0
CLASS
  1
LWPOLYLINE
  2
AcDbPolyline
  3
AutoCAD 2000
 90
        0
280
     0
281
     1
  0
CLASS
  1
HATCH
  2
AcDbHatch
  3
AutoCAD 2000
 90
        0
280
     0
281
     1
  0
CLASS
  1
XRECORD
  2
AcDbXrecord
  3
AutoCAD 2000
 90
        0
280
     0
281
     0
  0
CLASS
  1
LONG_TRANSACTION
  2
AcDbLongTransaction
  3
AutoCAD 2000
 90
        0
280
     0
281
     0
  0
CLASS
  1
LWPOLYLINE
  2
AcDbPolyline
  3
AutoCAD 2000
 90
        0
280
     0
281
     1
  0
CLASS
  1
HATCH
  2
AcDbHatch
  3
AutoCAD 2000
 90
        0
280
     0
281
     1
  0
CLASS
  1
XRECORD
  2
AcDbXrecord
  3
AutoCAD 2000
 90
        0
280
     0
281
     0
  0
CLASS
  1
LONG_TRANSACTION
  2
AcDbLongTransaction
  3
AutoCAD 2000
 90
        0
280
     0
281
     0
  0
CLASS
  1
LWPOLYLINE
  2
AcDbPolyline
  3
AutoCAD 2000
 90
        0
280
     0
281
     1
  0
CLASS
  1
HATCH
  2
AcDbHatch
  3
AutoCAD 2000
 90
        0
280
     0
281
     1
  0
CLASS
  1
XRECORD
  2
AcDbXrecord
  3
AutoCAD 2000
 90
        0
280
     0
281
     0
  0
ENDSEC
  0
SECTION
  2
TABLES
  0
TABLE
  2
VPORT
  5
8
330
0
100
AcDbSymbolTable
 70
     2
  0
VPORT
  5
237
330
8
100
AcDbSymbolTableRecord
100
AcDbViewportTableRecord
  2
*ACTIVE
 70
     0
 10
0.0
 20
0.0
 11
1.0
 21
1.0
 12
77.79994703885283
 22
13.44891365273962
 13
0.0
 23
0.0
 14
0.5740882589684922
 24
0.5740882589684922
 15
0.5
 25
0.5
 16
0.0
 26
0.0
 36
1.0
 17
0.0
 27
0.0
 37
0.0
 40
12.54908455509736
 41
1.570528967254408
 42
50.0
 43
0.0
 44
0.0
 50
0.0
 51
0.0
 71
     0
 72
   100
 73
     1
 74
     0
 75
     0
 76
     0
 77
     0
 78
     0
  0
ENDTAB
  0
TABLE
  2
LTYPE
  5
5
330
0
100
AcDbSymbolTable
 70
     2
  0
LTYPE
  5
12
330
5
100
AcDbSymbolTableRecord
100
AcDbLinetypeTableRecord
  2
BYBLOCK
 70
     0
  3

 72
    65
 73
     0
 40
0.0
  0
LTYPE
  5
13
330
5
100
AcDbSymbolTableRecord
100
AcDbLinetypeTableRecord
  2
BYLAYER
 70
     0
  3

 72
    65
 73
     0
 40
0.0
  0
LTYPE
  5
14
330
5
100
AcDbSymbolTableRecord
100
AcDbLinetypeTableRecord
  2
CONTINUOUS
 70
     0
  3
Solid line
 72
    65
 73
     0
 40
0.0
  0
LTYPE
  5
A2
330
5
100
AcDbSymbolTableRecord
100
AcDbLinetypeTableRecord
  2
CENTER2
 70
     0
  3
___ _ ___ _ ___ _ ___ _ ___ _ ___ _ ___ _ ___ _
 72
    65
 73
     4
 40
1.125
 49
0.75
 74
     0
 49
-0.125
 74
     0
 49
0.125
 74
     0
 49
-0.125
 74
     0
  0
ENDTAB
  0
TABLE
  2
LAYER
  5
2
330
0
100
AcDbSymbolTable
 70
     5
  0
LAYER
  5
F
330
2
100
AcDbSymbolTableRecord
100
AcDbLayerTableRecord
  2
0
 70
     0
 62
     7
  6
CONTINUOUS
  0
LAYER
  5
A3
330
2
100
AcDbSymbolTableRecord
100
AcDbLayerTableRecord
  2
ADP1DETAIL
 70
     0
 62
     7
  6
CONTINUOUS
  0
LAYER
  5
A4
330
2
100
AcDbSymbolTableRecord
100
AcDbLayerTableRecord
  2
DEFPOINTS
 70
     0
 62
     7
  6
CONTINUOUS
  0
LAYER
  5
A7
330
2
100
AcDbSymbolTableRecord
100
AcDbLayerTableRecord
  2
ADPDIM
 70
     0
 62
     3
  6
CONTINUOUS
  0
LAYER
  5
A8
330
2
100
AcDbSymbolTableRecord
100
AcDbLayerTableRecord
  2
ADP3DETAIL
 70
     0
 62
     1
  6
CONTINUOUS
  0
ENDTAB
  0
TABLE
  2
STYLE
  5
3
330
0
100
AcDbSymbolTable
 70
     2
  0
STYLE
  5
10
330
3
100
AcDbSymbolTableRecord
100
AcDbTextStyleTableRecord
  2
STANDARD
 70
     0
 40
0.0
 41
1.0
 50
0.0
 71
     0
 42
0.2
  3
txt
  4

  0
STYLE
  5
F3
330
3
100
AcDbSymbolTableRecord
100
AcDbTextStyleTableRecord
  2
ARIAL_WIDE
 70
     0
 40
0.0
 41
1.25
 50
0.0
 71
     0
 42
0.2
  3
ARIAL.TTF
  4

1001
ACAD
1000
Arial
1071
       34
  0
ENDTAB
  0
TABLE
  2
VIEW
  5
6
330
0
100
AcDbSymbolTable
 70
     0
  0
ENDTAB
  0
TABLE
  2
UCS
  5
7
330
0
100
AcDbSymbolTable
 70
     0
  0
ENDTAB
  0
TABLE
  2
APPID
  5
9
330
0
100
AcDbSymbolTable
 70
     1
  0
APPID
  5
11
330
9
100
AcDbSymbolTableRecord
100
AcDbRegAppTableRecord
  2
ACAD
 70
     0
  0
ENDTAB
  0
TABLE
  2
DIMSTYLE
  5
A
330
0
100
AcDbSymbolTable
 70
     1
  0
DIMSTYLE
105
E7
330
A
100
AcDbSymbolTableRecord
100
AcDbDimStyleTableRecord
  2
STANDARD
 70
     0
  3

  4

  5

  6

  7

 40
1.0
 41
0.18
 42
0.0625
 43
0.38
 44
0.18
 45
0.0
 46
0.0
 47
0.0
 48
0.0
140
0.18
141
0.09
142
0.0
143
25.4
144
1.0
145
0.0
146
1.0
147
0.09
 71
     0
 72
     0
 73
     1
 74
     1
 75
     0
 76
     0
 77
     0
 78
     0
170
     0
171
     2
172
     0
173
     0
174
     0
175
     0
176
     0
177
     0
178
     0
270
     2
271
     4
272
     4
273
     2
274
     2
340
10
275
     0
280
     0
281
     0
282
     0
283
     1
284
     0
285
     0
286
     0
287
     3
288
     0
  0
ENDTAB
  0
TABLE
  2
BLOCK_RECORD
  5
1
330
0
100
AcDbSymbolTable
 70
     4
  0
BLOCK_RECORD
  5
18
102
{ACAD_XDICTIONARY
360
148
102
}
330
1
100
AcDbSymbolTableRecord
100
AcDbBlockTableRecord
  2
*MODEL_SPACE
  0
BLOCK_RECORD
  5
15
102
{ACAD_XDICTIONARY
360
146
102
}
330
1
100
AcDbSymbolTableRecord
100
AcDbBlockTableRecord
  2
*PAPER_SPACE
  0
BLOCK_RECORD
  5
9C
330
1
100
AcDbSymbolTableRecord
100
AcDbBlockTableRecord
  2
*D0
  0
BLOCK_RECORD
  5
9E
330
1
100
AcDbSymbolTableRecord
100
AcDbBlockTableRecord
  2
*D1
  0
BLOCK_RECORD
  5
9F
330
1
100
AcDbSymbolTableRecord
100
AcDbBlockTableRecord
  2
*D2
  0
BLOCK_RECORD
  5
A0
330
1
100
AcDbSymbolTableRecord
100
AcDbBlockTableRecord
  2
*D3
  0
ENDTAB
  0
ENDSEC
  0
SECTION
  2
BLOCKS
  0
BLOCK
  5
AB
330
18
100
AcDbEntity
  8
0
100
AcDbBlockBegin
  2
*MODEL_SPACE
 70
     0
 10
0.0
 20
0.0
 30
0.0
  3
*MODEL_SPACE
  1

  0
ENDBLK
  5
AC
330
18
100
AcDbEntity
  8
0
100
AcDbBlockEnd
  0
BLOCK
  5
A9
330
15
100
AcDbEntity
 67
     1
  8
0
100
AcDbBlockBegin
  2
*PAPER_SPACE
 70
     0
 10
0.0
 20
0.0
 30
0.0
  3
*PAPER_SPACE
  1

  0
ENDBLK
  5
AA
330
15
100
AcDbEntity
 67
     1
  8
0
100
AcDbBlockEnd
  0
BLOCK
  5
AE
330
9C
100
AcDbEntity
  8
0
100
AcDbBlockBegin
  2
*D0
 70
     1
 10
0.0
 20
0.0
 30
0.0
  3
*D0
  1

  0
LINE
  5
AF
330
9C
100
AcDbEntity
  8
0
  6
BYBLOCK
 62
     0
100
AcDbLine
 10
77.78070405229169
 20
16.22160142193555
 30
0.0
 11
79.60913927299258
 21
14.49841657157055
 31
0.0
  0
LINE
  5
B0
330
9C
100
AcDbEntity
  8
0
  6
BYBLOCK
 62
     0
100
AcDbLine
 10
77.6040049287012
 20
16.21636503746204
 30
0.0
 11
77.95740317588218
 21
16.22683780640906
 31
0.0
  0
TEXT
  5
B1
330
9C
100
AcDbEntity
  8
0
  6
BYBLOCK
 62
     0
100
AcDbText
 10
79.65724134224533
 20
14.36720132499606
 30
0.0
 40
0.125
  1
R2 1/2
 50
316.6974331483505
 72
     1
 11
79.94268770444323
 21
14.18406821652276
 31
0.0
100
AcDbText
 73
     2
  0
POINT
  5
B2
330
9C
100
AcDbEntity
  8
DEFPOINTS
  6
BYBLOCK
 62
     0
100
AcDbPoint
 10
77.78070405229169
 20
16.22160142193555
 30
0.0
  0
POINT
  5
B3
330
9C
100
AcDbEntity
  8
DEFPOINTS
  6
BYBLOCK
 62
     0
100
AcDbPoint
 10
79.60005913293162
 20
14.50697403076577
 30
0.0
  0
ENDBLK
  5
B4
330
9C
100
AcDbEntity
  8
0
100
AcDbBlockEnd
  0
BLOCK
  5
B5
330
9E
100
AcDbEntity
  8
0
100
AcDbBlockBegin
  2
*D1
 70
     1
 10
0.0
 20
0.0
 30
0.0
  3
*D1
  1

  0
LINE
  5
B6
330
9E
100
AcDbEntity
  8
0
  6
BYBLOCK
 62
     0
100
AcDbLine
 10
77.9925591329316
 20
12.00697403076577
 30
0.0
 11
79.16206608754144
 21
12.00697403076577
 31
0.0
  0
LINE
  5
B7
330
9E
100
AcDbEntity
  8
0
  6
BYBLOCK
 62
     0
100
AcDbLine
 10
79.54663927299256
 20
14.49841657157055
 30
0.0
 11
78.80206608754143
 21
14.49841657157055
 31
0.0
  0
LINE
  5
B8
330
9E
100
AcDbEntity
  8
0
  6
BYBLOCK
 62
     0
100
AcDbLine
 10
78.98206608754144
 20
12.00697403076577
 30
0.0
 11
78.98206608754144
 21
12.85686196783482
 31
0.0
  0
LINE
  5
B9
330
9E
100
AcDbEntity
  8
0
  6
BYBLOCK
 62
     0
100
AcDbLine
 10
78.98206608754144
 20
14.49841657157055
 30
0.0
 11
78.98206608754144
 21
13.64852863450149
 31
0.0
  0
LINE
  5
BA
330
9E
100
AcDbEntity
  8
0
  6
BYBLOCK
 62
     0
100
AcDbLine
 10
79.10706608754144
 20
11.88197403076576
 30
0.0
 11
78.85706608754144
 21
12.13197403076577
 31
0.0
  0
LINE
  5
BB
330
9E
100
AcDbEntity
  8
0
  6
BYBLOCK
 62
     0
100
AcDbLine
 10
79.10706608754144
 20
14.37341657157055
 30
0.0
 11
78.85706608754144
 21
14.62341657157055
 31
0.0
  0
TEXT
  5
BC
330
9E
100
AcDbEntity
  8
0
  6
BYBLOCK
 62
     0
100
AcDbText
 10
79.04456608754144
 20
12.98186196783482
 30
0.0
 40
0.125
  1
2 1/2
 50
90.0
 72
     1
 11
78.98206608754144
 21
13.25269530116816
 31
0.0
100
AcDbText
 73
     2
  0
POINT
  5
BD
330
9E
100
AcDbEntity
  8
DEFPOINTS
  6
BYBLOCK
 62
     0
100
AcDbPoint
 10
77.93005913293161
 20
12.00697403076577
 30
0.0
  0
POINT
  5
BE
330
9E
100
AcDbEntity
  8
DEFPOINTS
  6
BYBLOCK
 62
     0
100
AcDbPoint
 10
79.60913927299256
 20
14.49841657157055
 30
0.0
  0
POINT
  5
BF
330
9E
100
AcDbEntity
  8
DEFPOINTS
  6
BYBLOCK
 62
     0
100
AcDbPoint
 10
78.98206608754144
 20
14.49841657157055
 30
0.0
  0
ENDBLK
  5
C0
330
9E
100
AcDbEntity
  8
0
100
AcDbBlockEnd
  0
BLOCK
  5
C1
330
9F
100
AcDbEntity
  8
0
100
AcDbBlockBegin
  2
*D2
 70
     1
 10
0.0
 20
0.0
 30
0.0
  3
*D2
  1

  0
LINE
  5
C2
330
9F
100
AcDbEntity
  8
0
  6
BYBLOCK
 62
     0
100
AcDbLine
 10
76.2700591329316
 20
11.94447403076577
 30
0.0
 11
76.2700591329316
 21
11.19842617337001
 31
0.0
  0
LINE
  5
C3
330
9F
100
AcDbEntity
  8
0
  6
BYBLOCK
 62
     0
100
AcDbLine
 10
77.93005913293161
 20
11.94447403076577
 30
0.0
 11
77.93005913293161
 21
11.19842617337001
 31
0.0
  0
LINE
  5
C4
330
9F
100
AcDbEntity
  8
0
  6
BYBLOCK
 62
     0
100
AcDbLine
 10
76.2700591329316
 20
11.37842617337001
 30
0.0
 11
76.75630913293161
 21
11.37842617337001
 31
0.0
  0
LINE
  5
C5
330
9F
100
AcDbEntity
  8
0
  6
BYBLOCK
 62
     0
100
AcDbLine
 10
77.93005913293161
 20
11.37842617337001
 30
0.0
 11
77.4438091329316
 21
11.37842617337001
 31
0.0
  0
LINE
  5
C6
330
9F
100
AcDbEntity
  8
0
  6
BYBLOCK
 62
     0
100
AcDbLine
 10
76.14505913293161
 20
11.25342617337001
 30
0.0
 11
76.3950591329316
 21
11.50342617337001
 31
0.0
  0
LINE
  5
C7
330
9F
100
AcDbEntity
  8
0
  6
BYBLOCK
 62
     0
100
AcDbLine
 10
77.8050591329316
 20
11.25342617337001
 30
0.0
 11
78.0550591329316
 21
11.50342617337001
 31
0.0
  0
TEXT
  5
C8
330
9F
100
AcDbEntity
  8
0
  6
BYBLOCK
 62
     0
100
AcDbText
 10
76.88130913293161
 20
11.31592617337001
 30
0.0
 40
0.125
  1
1.660
 72
     1
 11
77.1000591329316
 21
11.37842617337001
 31
0.0
100
AcDbText
 73
     2
  0
POINT
  5
C9
330
9F
100
AcDbEntity
  8
DEFPOINTS
  6
BYBLOCK
 62
     0
100
AcDbPoint
 10
76.2700591329316
 20
12.00697403076577
 30
0.0
  0
POINT
  5
CA
330
9F
100
AcDbEntity
  8
DEFPOINTS
  6
BYBLOCK
 62
     0
100
AcDbPoint
 10
77.93005913293161
 20
12.00697403076577
 30
0.0
  0
POINT
  5
CB
330
9F
100
AcDbEntity
  8
DEFPOINTS
  6
BYBLOCK
 62
     0
100
AcDbPoint
 10
77.93005913293161
 20
11.37842617337001
 30
0.0
  0
ENDBLK
  5
CC
330
9F
100
AcDbEntity
  8
0
100
AcDbBlockEnd
  0
BLOCK
  5
CD
330
A0
100
AcDbEntity
  8
0
100
AcDbBlockBegin
  2
*D3
 70
     1
 10
0.0
 20
0.0
 30
0.0
  3
*D3
  1

  0
LINE
  5
CE
330
A0
100
AcDbEntity
  8
0
  6
BYBLOCK
 62
     0
100
AcDbLine
 10
77.83045770598817
 20
9.941792735174823
 30
0.0
 11
77.83045770598817
 21
9.769003972275044
 31
0.0
  0
LINE
  5
CF
330
A0
100
AcDbEntity
  8
0
  6
BYBLOCK
 62
     0
100
AcDbLine
 10
77.97045770598817
 20
9.941792735174823
 30
0.0
 11
77.97045770598817
 21
9.769003972275044
 31
0.0
  0
LINE
  5
D0
330
A0
100
AcDbEntity
  8
0
  6
BYBLOCK
 62
     0
100
AcDbLine
 10
77.83045770598817
 20
9.949003972275043
 30
0.0
 11
77.58045770598816
 21
9.949003972275043
 31
0.0
  0
LINE
  5
D1
330
A0
100
AcDbEntity
  8
0
  6
BYBLOCK
 62
     0
100
AcDbLine
 10
77.97045770598817
 20
9.949003972275043
 30
0.0
 11
78.22045770598816
 21
9.949003972275043
 31
0.0
  0
LINE
  5
D2
330
A0
100
AcDbEntity
  8
0
  6
BYBLOCK
 62
     0
100
AcDbLine
 10
77.70545770598817
 20
9.824003972275043
 30
0.0
 11
77.95545770598817
 21
10.07400397227504
 31
0.0
  0
LINE
  5
D3
330
A0
100
AcDbEntity
  8
0
  6
BYBLOCK
 62
     0
100
AcDbLine
 10
77.84545770598817
 20
9.824003972275043
 30
0.0
 11
78.09545770598816
 21
10.07400397227504
 31
0.0
  0
TEXT
  5
D4
330
A0
100
AcDbEntity
  8
0
  6
BYBLOCK
 62
     0
100
AcDbText
 10
78.34545770598817
 20
9.886503972275043
 30
0.0
 40
0.125
  1
0.140
 72
     1
 11
78.5537910393215
 21
9.949003972275043
 31
0.0
100
AcDbText
 73
     2
  0
POINT
  5
D5
330
A0
100
AcDbEntity
  8
DEFPOINTS
  6
BYBLOCK
 62
     0
100
AcDbPoint
 10
77.83045770598817
 20
10.00429273517482
 30
0.0
  0
POINT
  5
D6
330
A0
100
AcDbEntity
  8
DEFPOINTS
  6
BYBLOCK
 62
     0
100
AcDbPoint
 10
77.97045770598817
 20
10.00429273517482
 30
0.0
  0
POINT
  5
D7
330
A0
100
AcDbEntity
  8
DEFPOINTS
  6
BYBLOCK
 62
     0
100
AcDbPoint
 10
77.97045770598817
 20
9.949003972275043
 30
0.0
  0
ENDBLK
  5
D8
330
A0
100
AcDbEntity
  8
0
100
AcDbBlockEnd
  0
ENDSEC
  0
SECTION
  2
ENTITIES
  0
ARC
  5
D9
330
18
100
AcDbEntity
  8
ADP3DETAIL
  6
CENTER2
100
AcDbCircle
 10
79.6000591329316
 20
14.50697403076577
 30
0.0
 40
2.5
100
AcDbArc
 50
90.0
 51
180.0
  0
DIMENSION
  5
DA
330
18
100
AcDbEntity
  8
ADPDIM
100
AcDbDimension
  2
*D0
 10
79.60005913293162
 20
14.50697403076577
 30
0.0
 11
79.94268770444323
 21
14.18406821652276
 31
0.0
 70
     4
100
AcDbRadialDimension
 15
77.78070405229169
 25
16.22160142193555
 35
0.0
 40
-2.51247714115511
  0
DIMENSION
  5
DB
330
18
100
AcDbEntity
  8
ADPDIM
100
AcDbDimension
  2
*D1
 10
78.98206608754144
 20
14.49841657157055
 30
0.0
 11
78.98206608754144
 21
13.25269530116816
 31
0.0
100
AcDbAlignedDimension
 13
77.93005913293161
 23
12.00697403076577
 33
0.0
 14
79.60913927299256
 24
14.49841657157055
 34
0.0
 50
90.0
100
AcDbRotatedDimension
  0
ARC
  5
DC
330
18
100
AcDbEntity
  8
ADP1DETAIL
100
AcDbCircle
 10
79.5700591329316
 20
14.53697403076576
 30
0.0
 40
3.299999999999999
100
AcDbArc
 50
90.0
 51
180.0
  0
ARC
  5
DD
330
18
100
AcDbEntity
  8
ADP1DETAIL
100
AcDbCircle
 10
79.6300591329316
 20
14.47697403076577
 30
0.0
 40
1.7
100
AcDbArc
 50
90.0
 51
180.0
  0
LINE
  5
DE
330
18
100
AcDbEntity
  8
ADP3DETAIL
  6
CENTER2
100
AcDbLine
 10
77.1000591329316
 20
14.50697403076577
 30
0.0
 11
77.1000591329316
 21
11.67476982175398
 31
0.0
  0
LINE
  5
DF
330
18
100
AcDbEntity
  8
ADP1DETAIL
100
AcDbLine
 10
76.2700591329316
 20
12.00697403076577
 30
0.0
 11
76.2700591329316
 21
14.53697403076576
 31
0.0
  0
LINE
  5
E0
330
18
100
AcDbEntity
  8
ADP1DETAIL
100
AcDbLine
 10
77.93005913293161
 20
14.47697403076577
 30
0.0
 11
77.93005913293161
 21
12.00697403076577
 31
0.0
  0
DIMENSION
  5
E1
330
18
100
AcDbEntity
  8
ADPDIM
100
AcDbDimension
  2
*D2
 10
77.93005913293161
 20
11.37842617337001
 30
0.0
 11
77.1000591329316
 21
11.37842617337001
 31
0.0
  1
1.660
100
AcDbAlignedDimension
 13
76.2700591329316
 23
12.00697403076577
 33
0.0
 14
77.93005913293161
 24
12.00697403076577
 34
0.0
100
AcDbRotatedDimension
  0
CIRCLE
  5
E2
330
18
100
AcDbEntity
  8
ADP1DETAIL
100
AcDbCircle
 10
77.13500356278827
 20
10.00429273517482
 30
0.0
 40
0.6899999999999978
  0
CIRCLE
  5
E3
330
18
100
AcDbEntity
  8
ADP1DETAIL
100
AcDbCircle
 10
77.13500356278827
 20
10.00429273517482
 30
0.0
 40
0.8299999999999998
  0
LINE
  5
E4
330
18
100
AcDbEntity
  8
ADP1DETAIL
100
AcDbLine
 10
77.93005913293161
 20
12.00697403076577
 30
0.0
 11
76.2700591329316
 21
12.00697403076577
 31
0.0
  0
DIMENSION
  5
E5
330
18
100
AcDbEntity
  8
ADPDIM
100
AcDbDimension
  2
*D3
 10
77.97045770598817
 20
9.949003972275043
 30
0.0
 11
78.5537910393215
 21
9.949003972275043
 31
0.0
  1
0.140
100
AcDbAlignedDimension
 13
77.83045770598817
 23
10.00429273517482
 33
0.0
 14
77.97045770598817
 24
10.00429273517482
 34
0.0
100
AcDbRotatedDimension
  0
LINE
  5
E6
330
18
100
AcDbEntity
  8
ADP1DETAIL
100
AcDbLine
 10
79.6300591329316
 20
17.83697403076576
 30
0.0
 11
79.6300591329316
 21
16.17697403076577
 31
0.0
  0
TEXT
  5
F4
330
18
100
AcDbEntity
  8
ADPDIM
100
AcDbText
 10
67.99522338107485
 20
8.43326675853687
 30
0.0
 40
0.1875
  1
J U L I U S  B L U M  &  C O . ,  I N C .      ( 8 0 0 )  5 2 6 - 6 2 9 3        W W W . J U L I U S B L U M . C O M        P A R T  N o .  7 4 2 0
 41
1.25
  7
ARIAL_WIDE
 72
     1
 11
77.78381691790977
 21
8.62076675853687
 31
0.0
100
AcDbText
 73
     3
  0
ENDSEC
  0
SECTION
  2
OBJECTS
  0
DICTIONARY
  5
C
330
0
100
AcDbDictionary
  3
ACAD_GROUP
350
D
  3
ACAD_LAYOUT
350
ED
  3
ACAD_MLINESTYLE
350
E
  3
ACAD_PLOTSETTINGS
350
EE
  3
ACAD_PLOTSTYLENAME
350
EB
  3
ACDBHEADERROUNDTRIPXREC
350
238
  3
ACDBVARIABLEDICTIONARY
350
14E
  0
DICTIONARY
  5
148
330
18
100
AcDbDictionary
280
     1
  3
ACAD_LAYOUTSELFREF
360
259
  0
DICTIONARY
  5
146
330
15
100
AcDbDictionary
280
     1
  3
ACAD_LAYOUTSELFREF
360
258
  0
DICTIONARY
  5
D
102
{ACAD_REACTORS
330
C
102
}
330
C
100
AcDbDictionary
  0
DICTIONARY
  5
ED
102
{ACAD_REACTORS
330
C
102
}
330
C
100
AcDbDictionary
  0
DICTIONARY
  5
E
102
{ACAD_REACTORS
330
C
102
}
330
C
100
AcDbDictionary
  3
STANDARD
350
1B
  0
DICTIONARY
  5
EE
102
{ACAD_REACTORS
330
C
102
}
330
C
100
AcDbDictionary
  0
ACDBDICTIONARYWDFLT
  5
EB
102
{ACAD_REACTORS
330
C
102
}
330
C
100
AcDbDictionary
281
     1
  3
Normal
350
EC
100
AcDbDictionaryWithDefault
340
EC
  0
DICTIONARY
  5
238
102
{ACAD_REACTORS
330
C
102
}
330
C
100
AcDbDictionary
  3
CEPSNTYPE
350
242
  3
FINGERPRINTGUID
350
243
  3
HYPERLINKBASE
350
23B
  3
INSUNITS
350
241
  3
LAYOUTDICT
350
23D
  3
LWETCUNION
350
240
  3
PLOTSETDICT
350
23E
  3
PLOTSTYLNAMDICT
350
23F
  3
PSVPSCALE
350
245
  3
PUCSBASE
350
248
  3
PUCSORGBACK
350
24E
  3
PUCSORGBOTTOM
350
24A
  3
PUCSORGFRONT
350
24D
  3
PUCSORGLEFT
350
24B
  3
PUCSORGRIGHT
350
24C
  3
PUCSORGTOP
350
249
  3
PUCSORTHOREF
350
246
  3
PUCSORTHOVIEW
350
247
  3
STYLESHEET
350
23C
  3
TSTACKALIGN
350
239
  3
TSTACKSIZE
350
23A
  3
UCSBASE
350
251
  3
UCSORGBACK
350
257
  3
UCSORGBOTTOM
350
253
  3
UCSORGFRONT
350
256
  3
UCSORGLEFT
350
254
  3
UCSORGRIGHT
350
255
  3
UCSORGTOP
350
252
  3
UCSORTHOREF
350
24F
  3
UCSORTHOVIEW
350
250
  3
VERSIONGUID
350
244
  0
DICTIONARY
  5
14E
102
{ACAD_REACTORS
330
C
102
}
330
C
100
AcDbDictionary
  3
DIMASSOC
350
14F
  0
XRECORD
  5
259
102
{ACAD_REACTORS
330
148
102
}
330
148
100
AcDbXrecord
340
18
  0
XRECORD
  5
258
102
{ACAD_REACTORS
330
146
102
}
330
146
100
AcDbXrecord
340
15
  0
MLINESTYLE
  5
1B
102
{ACAD_REACTORS
330
E
102
}
330
E
100
AcDbMlineStyle
  2
STANDARD
 70
     0
  3

 62
     0
 51
90.0
 52
90.0
 71
     2
 49
0.5
 62
   256
  6
BYLAYER
 49
-0.5
 62
   256
  6
BYLAYER
  0
ACDBPLACEHOLDER
  5
EC
102
{ACAD_REACTORS
330
EB
102
}
330
EB
100
AcDbPlaceHolder
280
     0
  0
XRECORD
  5
242
102
{ACAD_REACTORS
330
238
102
}
330
238
100
AcDbXrecord
 90
        0
  0
XRECORD
  5
243
102
{ACAD_REACTORS
330
238
102
}
330
238
100
AcDbXrecord
  1
{FB4EE70B-8DB1-4096-A512-009A8390DBA2}
  0
XRECORD
  5
23B
102
{ACAD_REACTORS
330
238
102
}
330
238
100
AcDbXrecord
  1

  0
XRECORD
  5
241
102
{ACAD_REACTORS
330
238
102
}
330
238
100
AcDbXrecord
 90
        0
  0
XRECORD
  5
23D
102
{ACAD_REACTORS
330
238
102
}
330
238
100
AcDbXrecord
340
ED
  0
XRECORD
  5
240
102
{ACAD_REACTORS
330
238
102
}
330
238
100
AcDbXrecord
 90
    14877
  0
XRECORD
  5
23E
102
{ACAD_REACTORS
330
238
102
}
330
238
100
AcDbXrecord
340
EE
  0
XRECORD
  5
23F
102
{ACAD_REACTORS
330
238
102
}
330
238
100
AcDbXrecord
340
EB
  0
XRECORD
  5
245
102
{ACAD_REACTORS
330
238
102
}
330
238
100
AcDbXrecord
 40
0.0
  0
XRECORD
  5
248
102
{ACAD_REACTORS
330
238
102
}
330
238
100
AcDbXrecord
340
0
  0
XRECORD
  5
24E
102
{ACAD_REACTORS
330
238
102
}
330
238
100
AcDbXrecord
 10
0.0
 20
0.0
 30
0.0
  0
XRECORD
  5
24A
102
{ACAD_REACTORS
330
238
102
}
330
238
100
AcDbXrecord
 10
0.0
 20
0.0
 30
0.0
  0
XRECORD
  5
24D
102
{ACAD_REACTORS
330
238
102
}
330
238
100
AcDbXrecord
 10
0.0
 20
0.0
 30
0.0
  0
XRECORD
  5
24B
102
{ACAD_REACTORS
330
238
102
}
330
238
100
AcDbXrecord
 10
0.0
 20
0.0
 30
0.0
  0
XRECORD
  5
24C
102
{ACAD_REACTORS
330
238
102
}
330
238
100
AcDbXrecord
 10
0.0
 20
0.0
 30
0.0
  0
XRECORD
  5
249
102
{ACAD_REACTORS
330
238
102
}
330
238
100
AcDbXrecord
 10
0.0
 20
0.0
 30
0.0
  0
XRECORD
  5
246
102
{ACAD_REACTORS
330
238
102
}
330
238
100
AcDbXrecord
340
0
  0
XRECORD
  5
247
102
{ACAD_REACTORS
330
238
102
}
330
238
100
AcDbXrecord
 70
     0
  0
XRECORD
  5
23C
102
{ACAD_REACTORS
330
238
102
}
330
238
100
AcDbXrecord
  1

  0
XRECORD
  5
239
102
{ACAD_REACTORS
330
238
102
}
330
238
100
AcDbXrecord
 90
        1
  0
XRECORD
  5
23A
102
{ACAD_REACTORS
330
238
102
}
330
238
100
AcDbXrecord
 90
       70
  0
XRECORD
  5
251
102
{ACAD_REACTORS
330
238
102
}
330
238
100
AcDbXrecord
340
0
  0
XRECORD
  5
257
102
{ACAD_REACTORS
330
238
102
}
330
238
100
AcDbXrecord
 10
0.0
 20
0.0
 30
0.0
  0
XRECORD
  5
253
102
{ACAD_REACTORS
330
238
102
}
330
238
100
AcDbXrecord
 10
0.0
 20
0.0
 30
0.0
  0
XRECORD
  5
256
102
{ACAD_REACTORS
330
238
102
}
330
238
100
AcDbXrecord
 10
0.0
 20
0.0
 30
0.0
  0
XRECORD
  5
254
102
{ACAD_REACTORS
330
238
102
}
330
238
100
AcDbXrecord
 10
0.0
 20
0.0
 30
0.0
  0
XRECORD
  5
255
102
{ACAD_REACTORS
330
238
102
}
330
238
100
AcDbXrecord
 10
0.0
 20
0.0
 30
0.0
  0
XRECORD
  5
252
102
{ACAD_REACTORS
330
238
102
}
330
238
100
AcDbXrecord
 10
0.0
 20
0.0
 30
0.0
  0
XRECORD
  5
24F
102
{ACAD_REACTORS
330
238
102
}
330
238
100
AcDbXrecord
340
0
  0
XRECORD
  5
250
102
{ACAD_REACTORS
330
238
102
}
330
238
100
AcDbXrecord
 70
     0
  0
XRECORD
  5
244
102
{ACAD_REACTORS
330
238
102
}
330
238
100
AcDbXrecord
  1
{0286A0E7-90AA-433F-86A5-3F3A48420F0E}
  0
DICTIONARYVAR
  5
14F
102
{ACAD_REACTORS
330
14E
102
}
330
14E
100
DictionaryVariables
280
     0
  1
1
  0
ENDSEC
  0
EOF
