  0
SECTION
  2
HEADER
  9
$ACADVER
  1
AC1014
  9
$ACADMAINTVER
 70
     9
  9
$DWGCODEPAGE
  3
ANSI_1252
  9
$INSBASE
 10
50.85505268603874
 20
-33.60919483269253
 30
0.0
  9
$EXTMIN
 10
40.94963708869895
 20
-37.24383970757752
 30
0.0
  9
$EXTMAX
 10
60.5268241623688
 20
-27.94586353890282
 30
0.0
  9
$LIMMIN
 10
0.0
 20
0.0
  9
$LIMMAX
 10
36.0
 20
36.0
  9
$ORTHOMODE
 70
     1
  9
$REGENMODE
 70
     1
  9
$FILLMODE
 70
     1
  9
$QTEXTMODE
 70
     0
  9
$MIRRTEXT
 70
     1
  9
$DRAGMODE
 70
     0
  9
$LTSCALE
 40
1.0
  9
$OSMODE
 70
    37
  9
$ATTMODE
 70
     1
  9
$TEXTSIZE
 40
0.2
  9
$TRACEWID
 40
0.05
  9
$TEXTSTYLE
  7
STANDARD
  9
$CLAYER
  8
0
  9
$CELTYPE
  6
BYLAYER
  9
$CECOLOR
 62
   256
  9
$CELTSCALE
 40
1.0
  9
$DELOBJ
 70
     1
  9
$DISPSILH
 70
     0
  9
$DIMSCALE
 40
1.0
  9
$DIMASZ
 40
0.125
  9
$DIMEXO
 40
0.0625
  9
$DIMDLI
 40
0.38
  9
$DIMRND
 40
0.0
  9
$DIMDLE
 40
0.0
  9
$DIMEXE
 40
0.18
  9
$DIMTP
 40
0.0
  9
$DIMTM
 40
0.0
  9
$DIMTXT
 40
0.125
  9
$DIMCEN
 40
0.1875
  9
$DIMTSZ
 40
0.125
  9
$DIMTOL
 70
     0
  9
$DIMLIM
 70
     0
  9
$DIMTIH
 70
     0
  9
$DIMTOH
 70
     0
  9
$DIMSE1
 70
     0
  9
$DIMSE2
 70
     0
  9
$DIMTAD
 70
     0
  9
$DIMZIN
 70
     3
  9
$DIMBLK
  1

  9
$DIMASO
 70
     1
  9
$DIMSHO
 70
     1
  9
$DIMPOST
  1

  9
$DIMAPOST
  1

  9
$DIMALT
 70
     0
  9
$DIMALTD
 70
     1
  9
$DIMALTF
 40
25.4
  9
$DIMLFAC
 40
1.0
  9
$DIMTOFL
 70
     0
  9
$DIMTVP
 40
0.0
  9
$DIMTIX
 70
     0
  9
$DIMSOXD
 70
     0
  9
$DIMSAH
 70
     0
  9
$DIMBLK1
  1

  9
$DIMBLK2
  1

  9
$DIMSTYLE
  2
STANDARD
  9
$DIMCLRD
 70
     0
  9
$DIMCLRE
 70
     0
  9
$DIMCLRT
 70
     0
  9
$DIMTFAC
 40
1.0
  9
$DIMGAP
 40
0.125
  9
$DIMJUST
 70
     0
  9
$DIMSD1
 70
     0
  9
$DIMSD2
 70
     0
  9
$DIMTOLJ
 70
     1
  9
$DIMTZIN
 70
     0
  9
$DIMALTZ
 70
     0
  9
$DIMALTTZ
 70
     0
  9
$DIMFIT
 70
     3
  9
$DIMUPT
 70
     0
  9
$DIMUNIT
 70
     2
  9
$DIMDEC
 70
     4
  9
$DIMTDEC
 70
     4
  9
$DIMALTU
 70
     2
  9
$DIMALTTD
 70
     2
  9
$DIMTXSTY
  7
STANDARD
  9
$DIMAUNIT
 70
     0
  9
$LUNITS
 70
     5
  9
$LUPREC
 70
     4
  9
$SKETCHINC
 40
0.1
  9
$FILLETRAD
 40
0.062
  9
$AUNITS
 70
     0
  9
$AUPREC
 70
     0
  9
$MENU
  1
acad
  9
$ELEVATION
 40
0.0
  9
$PELEVATION
 40
0.0
  9
$THICKNESS
 40
0.0
  9
$LIMCHECK
 70
     0
  9
$BLIPMODE
 70
     0
  9
$CHAMFERA
 40
0.0
  9
$CHAMFERB
 40
0.0
  9
$CHAMFERC
 40
0.0
  9
$CHAMFERD
 40
0.0
  9
$SKPOLY
 70
     0
  9
$TDCREATE
 40
2450387.493287616
  9
$TDUPDATE
 40
2452297.101291771
  9
$TDINDWG
 40
0.0400750463
  9
$TDUSRTIMER
 40
0.0400750463
  9
$USRTIMER
 70
     1
  9
$ANGBASE
 50
0.0
  9
$ANGDIR
 70
     0
  9
$PDMODE
 70
     0
  9
$PDSIZE
 40
0.0
  9
$PLINEWID
 40
0.0
  9
$COORDS
 70
     2
  9
$SPLFRAME
 70
     0
  9
$SPLINETYPE
 70
     6
  9
$SPLINESEGS
 70
     8
  9
$ATTDIA
 70
     0
  9
$ATTREQ
 70
     1
  9
$HANDLING
 70
 22529
  9
$HANDSEED
  5
270
  9
$SURFTAB1
 70
     6
  9
$SURFTAB2
 70
     6
  9
$SURFTYPE
 70
     6
  9
$SURFU
 70
     6
  9
$SURFV
 70
     6
  9
$UCSNAME
  2

  9
$UCSORG
 10
0.0
 20
0.0
 30
0.0
  9
$UCSXDIR
 10
1.0
 20
0.0
 30
0.0
  9
$UCSYDIR
 10
0.0
 20
1.0
 30
0.0
  9
$PUCSNAME
  2

  9
$PUCSORG
 10
0.0
 20
0.0
 30
0.0
  9
$PUCSXDIR
 10
1.0
 20
0.0
 30
0.0
  9
$PUCSYDIR
 10
0.0
 20
1.0
 30
0.0
  9
$USERI1
 70
     0
  9
$USERI2
 70
     0
  9
$USERI3
 70
     0
  9
$USERI4
 70
     0
  9
$USERI5
 70
     0
  9
$USERR1
 40
0.0
  9
$USERR2
 40
0.0
  9
$USERR3
 40
0.0
  9
$USERR4
 40
0.0
  9
$USERR5
 40
0.0
  9
$WORLDVIEW
 70
     1
  9
$SHADEDGE
 70
     3
  9
$SHADEDIF
 70
    70
  9
$TILEMODE
 70
     1
  9
$MAXACTVP
 70
    15
  9
$PINSBASE
 10
0.0
 20
0.0
 30
0.0
  9
$PLIMCHECK
 70
     0
  9
$PEXTMIN
 10
1.000000000000000E+20
 20
1.000000000000000E+20
 30
1.000000000000000E+20
  9
$PEXTMAX
 10
-1.000000000000000E+20
 20
-1.000000000000000E+20
 30
-1.000000000000000E+20
  9
$PLIMMIN
 10
0.0
 20
0.0
  9
$PLIMMAX
 10
12.0
 20
9.0
  9
$UNITMODE
 70
     0
  9
$VISRETAIN
 70
     0
  9
$PLINEGEN
 70
     0
  9
$PSLTSCALE
 70
     1
  9
$TREEDEPTH
 70
  3020
  9
$PICKSTYLE
 70
     1
  9
$CMLSTYLE
  2
STANDARD
  9
$CMLJUST
 70
     0
  9
$CMLSCALE
 40
1.0
  9
$PROXYGRAPHICS
 70
     1
  9
$MEASUREMENT
 70
     0
  0
ENDSEC
  0
SECTION
  2
CLASSES
  0
CLASS
  1
ACDBDICTIONARYWDFLT
  2
AcDbDictionaryWithDefault
  3
AutoCAD 2000
 90
        0
280
     0
281
     0
  0
CLASS
  1
ACDBPLACEHOLDER
  2
AcDbPlaceHolder
  3
AutoCAD 2000
 90
        0
280
     0
281
     0
  0
CLASS
  1
LAYOUT
  2
AcDbLayout
  3
AutoCAD 2000
 90
        0
280
     0
281
     0
  0
CLASS
  1
DICTIONARYVAR
  2
AcDbDictionaryVar
  3
AutoCAD 2000
 90
        0
280
     0
281
     0
  0
CLASS
  1
LONG_TRANSACTION
  2
AcDbLongTransaction
  3
AutoCAD 2000
 90
        0
280
     0
281
     0
  0
CLASS
  1
LWPOLYLINE
  2
AcDbPolyline
  3
AutoCAD 2000
 90
        0
280
     0
281
     1
  0
CLASS
  1
HATCH
  2
AcDbHatch
  3
AutoCAD 2000
 90
        0
280
     0
281
     1
  0
CLASS
  1
XRECORD
  2
AcDbXrecord
  3
AutoCAD 2000
 90
        0
280
     0
281
     0
  0
CLASS
  1
LONG_TRANSACTION
  2
AcDbLongTransaction
  3
AutoCAD 2000
 90
        0
280
     0
281
     0
  0
CLASS
  1
LWPOLYLINE
  2
AcDbPolyline
  3
AutoCAD 2000
 90
        0
280
     0
281
     1
  0
CLASS
  1
HATCH
  2
AcDbHatch
  3
AutoCAD 2000
 90
        0
280
     0
281
     1
  0
CLASS
  1
XRECORD
  2
AcDbXrecord
  3
AutoCAD 2000
 90
        0
280
     0
281
     0
  0
CLASS
  1
LONG_TRANSACTION
  2
AcDbLongTransaction
  3
AutoCAD 2000
 90
        0
280
     0
281
     0
  0
CLASS
  1
LWPOLYLINE
  2
AcDbPolyline
  3
AutoCAD 2000
 90
        0
280
     0
281
     1
  0
CLASS
  1
HATCH
  2
AcDbHatch
  3
AutoCAD 2000
 90
        0
280
     0
281
     1
  0
CLASS
  1
XRECORD
  2
AcDbXrecord
  3
AutoCAD 2000
 90
        0
280
     0
281
     0
  0
CLASS
  1
LONG_TRANSACTION
  2
AcDbLongTransaction
  3
AutoCAD 2000
 90
        0
280
     0
281
     0
  0
CLASS
  1
LWPOLYLINE
  2
AcDbPolyline
  3
AutoCAD 2000
 90
        0
280
     0
281
     1
  0
CLASS
  1
HATCH
  2
AcDbHatch
  3
AutoCAD 2000
 90
        0
280
     0
281
     1
  0
CLASS
  1
XRECORD
  2
AcDbXrecord
  3
AutoCAD 2000
 90
        0
280
     0
281
     0
  0
CLASS
  1
LONG_TRANSACTION
  2
AcDbLongTransaction
  3
AutoCAD 2000
 90
        0
280
     0
281
     0
  0
CLASS
  1
LWPOLYLINE
  2
AcDbPolyline
  3
AutoCAD 2000
 90
        0
280
     0
281
     1
  0
CLASS
  1
HATCH
  2
AcDbHatch
  3
AutoCAD 2000
 90
        0
280
     0
281
     1
  0
CLASS
  1
XRECORD
  2
AcDbXrecord
  3
AutoCAD 2000
 90
        0
280
     0
281
     0
  0
ENDSEC
  0
SECTION
  2
TABLES
  0
TABLE
  2
VPORT
  5
8
330
0
100
AcDbSymbolTable
 70
     2
  0
VPORT
  5
24D
330
8
100
AcDbSymbolTableRecord
100
AcDbViewportTableRecord
  2
*ACTIVE
 70
     0
 10
0.0
 20
0.0
 11
1.0
 21
1.0
 12
50.75326973302213
 22
-32.59309216507476
 13
0.0
 23
0.0
 14
0.5740882589684922
 24
0.5740882589684922
 15
0.5
 25
0.5
 16
0.0
 26
0.0
 36
1.0
 17
0.0
 27
0.0
 37
0.0
 40
12.54780634514848
 41
1.570528967254408
 42
50.0
 43
0.0
 44
0.0
 50
0.0
 51
0.0
 71
     0
 72
   100
 73
     1
 74
     0
 75
     0
 76
     0
 77
     0
 78
     0
  0
ENDTAB
  0
TABLE
  2
LTYPE
  5
5
330
0
100
AcDbSymbolTable
 70
     2
  0
LTYPE
  5
12
330
5
100
AcDbSymbolTableRecord
100
AcDbLinetypeTableRecord
  2
BYBLOCK
 70
     0
  3

 72
    65
 73
     0
 40
0.0
  0
LTYPE
  5
13
330
5
100
AcDbSymbolTableRecord
100
AcDbLinetypeTableRecord
  2
BYLAYER
 70
     0
  3

 72
    65
 73
     0
 40
0.0
  0
LTYPE
  5
14
330
5
100
AcDbSymbolTableRecord
100
AcDbLinetypeTableRecord
  2
CONTINUOUS
 70
     0
  3
Solid line
 72
    65
 73
     0
 40
0.0
  0
LTYPE
  5
A8
330
5
100
AcDbSymbolTableRecord
100
AcDbLinetypeTableRecord
  2
CENTER2
 70
     0
  3
___ _ ___ _ ___ _ ___ _ ___ _ ___ _ ___ _ ___ _
 72
    65
 73
     4
 40
1.125
 49
0.75
 74
     0
 49
-0.125
 74
     0
 49
0.125
 74
     0
 49
-0.125
 74
     0
  0
ENDTAB
  0
TABLE
  2
LAYER
  5
2
330
0
100
AcDbSymbolTable
 70
     5
  0
LAYER
  5
F
330
2
100
AcDbSymbolTableRecord
100
AcDbLayerTableRecord
  2
0
 70
     0
 62
     7
  6
CONTINUOUS
  0
LAYER
  5
A9
330
2
100
AcDbSymbolTableRecord
100
AcDbLayerTableRecord
  2
ADP1DETAIL
 70
     0
 62
     7
  6
CONTINUOUS
  0
LAYER
  5
AA
330
2
100
AcDbSymbolTableRecord
100
AcDbLayerTableRecord
  2
DEFPOINTS
 70
     0
 62
     7
  6
CONTINUOUS
  0
LAYER
  5
AD
330
2
100
AcDbSymbolTableRecord
100
AcDbLayerTableRecord
  2
ADPDIM
 70
     0
 62
     3
  6
CONTINUOUS
  0
LAYER
  5
AE
330
2
100
AcDbSymbolTableRecord
100
AcDbLayerTableRecord
  2
ADP3DETAIL
 70
     0
 62
     1
  6
CONTINUOUS
  0
ENDTAB
  0
TABLE
  2
STYLE
  5
3
330
0
100
AcDbSymbolTable
 70
     2
  0
STYLE
  5
10
330
3
100
AcDbSymbolTableRecord
100
AcDbTextStyleTableRecord
  2
STANDARD
 70
     0
 40
0.0
 41
1.0
 50
0.0
 71
     0
 42
0.2
  3
txt
  4

  0
STYLE
  5
109
330
3
100
AcDbSymbolTableRecord
100
AcDbTextStyleTableRecord
  2
ARIAL_WIDE
 70
     0
 40
0.0
 41
1.25
 50
0.0
 71
     0
 42
0.2
  3
ARIAL.TTF
  4

1001
ACAD
1000
Arial
1071
       34
  0
ENDTAB
  0
TABLE
  2
VIEW
  5
6
330
0
100
AcDbSymbolTable
 70
     0
  0
ENDTAB
  0
TABLE
  2
UCS
  5
7
330
0
100
AcDbSymbolTable
 70
     0
  0
ENDTAB
  0
TABLE
  2
APPID
  5
9
330
0
100
AcDbSymbolTable
 70
     1
  0
APPID
  5
11
330
9
100
AcDbSymbolTableRecord
100
AcDbRegAppTableRecord
  2
ACAD
 70
     0
  0
ENDTAB
  0
TABLE
  2
DIMSTYLE
  5
A
330
0
100
AcDbSymbolTable
 70
     1
  0
DIMSTYLE
105
FD
330
A
100
AcDbSymbolTableRecord
100
AcDbDimStyleTableRecord
  2
STANDARD
 70
     0
  3

  4

  5

  6

  7

 40
1.0
 41
0.18
 42
0.0625
 43
0.38
 44
0.18
 45
0.0
 46
0.0
 47
0.0
 48
0.0
140
0.18
141
0.09
142
0.0
143
25.4
144
1.0
145
0.0
146
1.0
147
0.09
 71
     0
 72
     0
 73
     1
 74
     1
 75
     0
 76
     0
 77
     0
 78
     0
170
     0
171
     2
172
     0
173
     0
174
     0
175
     0
176
     0
177
     0
178
     0
270
     2
271
     4
272
     4
273
     2
274
     2
340
10
275
     0
280
     0
281
     0
282
     0
283
     1
284
     0
285
     0
286
     0
287
     3
288
     0
  0
ENDTAB
  0
TABLE
  2
BLOCK_RECORD
  5
1
330
0
100
AcDbSymbolTable
 70
     5
  0
BLOCK_RECORD
  5
18
102
{ACAD_XDICTIONARY
360
15E
102
}
330
1
100
AcDbSymbolTableRecord
100
AcDbBlockTableRecord
  2
*MODEL_SPACE
  0
BLOCK_RECORD
  5
15
102
{ACAD_XDICTIONARY
360
15C
102
}
330
1
100
AcDbSymbolTableRecord
100
AcDbBlockTableRecord
  2
*PAPER_SPACE
  0
BLOCK_RECORD
  5
A1
330
1
100
AcDbSymbolTableRecord
100
AcDbBlockTableRecord
  2
*D0
  0
BLOCK_RECORD
  5
A2
330
1
100
AcDbSymbolTableRecord
100
AcDbBlockTableRecord
  2
*D1
  0
BLOCK_RECORD
  5
A4
330
1
100
AcDbSymbolTableRecord
100
AcDbBlockTableRecord
  2
*D2
  0
BLOCK_RECORD
  5
A5
330
1
100
AcDbSymbolTableRecord
100
AcDbBlockTableRecord
  2
*D3
  0
BLOCK_RECORD
  5
A6
330
1
100
AcDbSymbolTableRecord
100
AcDbBlockTableRecord
  2
*D4
  0
ENDTAB
  0
ENDSEC
  0
SECTION
  2
BLOCKS
  0
BLOCK
  5
B1
330
18
100
AcDbEntity
  8
0
100
AcDbBlockBegin
  2
*MODEL_SPACE
 70
     0
 10
0.0
 20
0.0
 30
0.0
  3
*MODEL_SPACE
  1

  0
ENDBLK
  5
B2
330
18
100
AcDbEntity
  8
0
100
AcDbBlockEnd
  0
BLOCK
  5
AF
330
15
100
AcDbEntity
 67
     1
  8
0
100
AcDbBlockBegin
  2
*PAPER_SPACE
 70
     0
 10
0.0
 20
0.0
 30
0.0
  3
*PAPER_SPACE
  1

  0
ENDBLK
  5
B0
330
15
100
AcDbEntity
 67
     1
  8
0
100
AcDbBlockEnd
  0
BLOCK
  5
B4
330
A1
100
AcDbEntity
  8
0
100
AcDbBlockBegin
  2
*D0
 70
     1
 10
0.0
 20
0.0
 30
0.0
  3
*D0
  1

  0
LINE
  5
B5
330
A1
100
AcDbEntity
  8
0
  6
BYBLOCK
 62
     0
100
AcDbLine
 10
49.13255268603875
 20
-33.60919483269253
 30
0.0
 11
48.53762857735825
 21
-33.60919483269253
 31
0.0
  0
LINE
  5
B6
330
A1
100
AcDbEntity
  8
0
  6
BYBLOCK
 62
     0
100
AcDbLine
 10
49.70596409240062
 20
-30.60919483269253
 30
0.0
 11
48.53762857735825
 21
-30.60919483269253
 31
0.0
  0
LINE
  5
B7
330
A1
100
AcDbEntity
  8
0
  6
BYBLOCK
 62
     0
100
AcDbLine
 10
48.71762857735824
 20
-33.60919483269253
 30
0.0
 11
48.71762857735824
 21
-32.27586149935919
 31
0.0
  0
LINE
  5
B8
330
A1
100
AcDbEntity
  8
0
  6
BYBLOCK
 62
     0
100
AcDbLine
 10
48.71762857735824
 20
-30.60919483269253
 30
0.0
 11
48.71762857735824
 21
-31.94252816602586
 31
0.0
  0
LINE
  5
B9
330
A1
100
AcDbEntity
  8
0
  6
BYBLOCK
 62
     0
100
AcDbLine
 10
48.84262857735825
 20
-33.73419483269253
 30
0.0
 11
48.59262857735824
 21
-33.48419483269253
 31
0.0
  0
LINE
  5
BA
330
A1
100
AcDbEntity
  8
0
  6
BYBLOCK
 62
     0
100
AcDbLine
 10
48.84262857735825
 20
-30.73419483269253
 30
0.0
 11
48.59262857735824
 21
-30.48419483269253
 31
0.0
  0
TEXT
  5
BB
330
A1
100
AcDbEntity
  8
0
  6
BYBLOCK
 62
     0
100
AcDbText
 10
48.78012857735825
 20
-32.15086149935919
 30
0.0
 40
0.125
  1
3
 50
90.0
 72
     1
 11
48.71762857735824
 21
-32.10919483269253
 31
0.0
100
AcDbText
 73
     2
  0
POINT
  5
BC
330
A1
100
AcDbEntity
  8
DEFPOINTS
  6
BYBLOCK
 62
     0
100
AcDbPoint
 10
49.19505268603875
 20
-33.60919483269253
 30
0.0
  0
POINT
  5
BD
330
A1
100
AcDbEntity
  8
DEFPOINTS
  6
BYBLOCK
 62
     0
100
AcDbPoint
 10
49.76846409240062
 20
-30.60919483269253
 30
0.0
  0
POINT
  5
BE
330
A1
100
AcDbEntity
  8
DEFPOINTS
  6
BYBLOCK
 62
     0
100
AcDbPoint
 10
48.71762857735824
 20
-30.60919483269253
 30
0.0
  0
ENDBLK
  5
BF
330
A1
100
AcDbEntity
  8
0
100
AcDbBlockEnd
  0
BLOCK
  5
C0
330
A2
100
AcDbEntity
  8
0
100
AcDbBlockBegin
  2
*D1
 70
     1
 10
0.0
 20
0.0
 30
0.0
  3
*D1
  1

  0
LINE
  5
C1
330
A2
100
AcDbEntity
  8
0
  6
BYBLOCK
 62
     0
100
AcDbLine
 10
50.70278762843324
 20
-35.51411615925395
 30
0.0
 11
50.70278762843324
 21
-35.39661615925396
 31
0.0
  0
LINE
  5
C2
330
A2
100
AcDbEntity
  8
0
  6
BYBLOCK
 62
     0
100
AcDbLine
 10
50.84778762843324
 20
-35.51411615925395
 30
0.0
 11
50.84778762843324
 21
-35.39661615925396
 31
0.0
  0
LINE
  5
C3
330
A2
100
AcDbEntity
  8
0
  6
BYBLOCK
 62
     0
100
AcDbLine
 10
50.70278762843324
 20
-35.57661615925395
 30
0.0
 11
50.45278762843324
 21
-35.57661615925395
 31
0.0
  0
LINE
  5
C4
330
A2
100
AcDbEntity
  8
0
  6
BYBLOCK
 62
     0
100
AcDbLine
 10
50.84778762843324
 20
-35.57661615925395
 30
0.0
 11
51.09778762843324
 21
-35.57661615925395
 31
0.0
  0
LINE
  5
C5
330
A2
100
AcDbEntity
  8
0
  6
BYBLOCK
 62
     0
100
AcDbLine
 10
50.57778762843324
 20
-35.70161615925396
 30
0.0
 11
50.82778762843324
 21
-35.45161615925396
 31
0.0
  0
LINE
  5
C6
330
A2
100
AcDbEntity
  8
0
  6
BYBLOCK
 62
     0
100
AcDbLine
 10
50.72278762843325
 20
-35.70161615925396
 30
0.0
 11
50.97278762843324
 21
-35.45161615925396
 31
0.0
  0
TEXT
  5
C7
330
A2
100
AcDbEntity
  8
0
  6
BYBLOCK
 62
     0
100
AcDbText
 10
51.22278762843325
 20
-35.63911615925396
 30
0.0
 40
0.125
  1
0.145
 72
     1
 11
51.44153762843324
 21
-35.57661615925395
 31
0.0
100
AcDbText
 73
     2
  0
POINT
  5
C8
330
A2
100
AcDbEntity
  8
DEFPOINTS
  6
BYBLOCK
 62
     0
100
AcDbPoint
 10
50.70278762843324
 20
-35.57661615925395
 30
0.0
  0
POINT
  5
C9
330
A2
100
AcDbEntity
  8
DEFPOINTS
  6
BYBLOCK
 62
     0
100
AcDbPoint
 10
50.84778762843324
 20
-35.57661615925395
 30
0.0
  0
POINT
  5
CA
330
A2
100
AcDbEntity
  8
DEFPOINTS
  6
BYBLOCK
 62
     0
100
AcDbPoint
 10
50.84778762843324
 20
-35.57661615925395
 30
0.0
  0
ENDBLK
  5
CB
330
A2
100
AcDbEntity
  8
0
100
AcDbBlockEnd
  0
BLOCK
  5
CC
330
A4
100
AcDbEntity
  8
0
100
AcDbBlockBegin
  2
*D2
 70
     1
 10
0.0
 20
0.0
 30
0.0
  3
*D2
  1

  0
LINE
  5
CD
330
A4
100
AcDbEntity
  8
0
  6
BYBLOCK
 62
     0
100
AcDbLine
 10
49.19505268603875
 20
-33.67169483269253
 30
0.0
 11
49.19505268603875
 21
-34.26235593196344
 31
0.0
  0
LINE
  5
CE
330
A4
100
AcDbEntity
  8
0
  6
BYBLOCK
 62
     0
100
AcDbLine
 10
50.85505268603874
 20
-33.67169483269253
 30
0.0
 11
50.85505268603874
 21
-34.26235593196344
 31
0.0
  0
LINE
  5
CF
330
A4
100
AcDbEntity
  8
0
  6
BYBLOCK
 62
     0
100
AcDbLine
 10
49.19505268603875
 20
-34.08235593196344
 30
0.0
 11
49.68130268603875
 21
-34.08235593196344
 31
0.0
  0
LINE
  5
D0
330
A4
100
AcDbEntity
  8
0
  6
BYBLOCK
 62
     0
100
AcDbLine
 10
50.85505268603874
 20
-34.08235593196344
 30
0.0
 11
50.36880268603875
 21
-34.08235593196344
 31
0.0
  0
LINE
  5
D1
330
A4
100
AcDbEntity
  8
0
  6
BYBLOCK
 62
     0
100
AcDbLine
 10
49.07005268603874
 20
-34.20735593196344
 30
0.0
 11
49.32005268603875
 21
-33.95735593196344
 31
0.0
  0
LINE
  5
D2
330
A4
100
AcDbEntity
  8
0
  6
BYBLOCK
 62
     0
100
AcDbLine
 10
50.73005268603875
 20
-34.20735593196344
 30
0.0
 11
50.98005268603874
 21
-33.95735593196344
 31
0.0
  0
TEXT
  5
D3
330
A4
100
AcDbEntity
  8
0
  6
BYBLOCK
 62
     0
100
AcDbText
 10
49.80630268603874
 20
-34.14485593196344
 30
0.0
 40
0.125
  1
1.660
 72
     1
 11
50.02505268603875
 21
-34.08235593196344
 31
0.0
100
AcDbText
 73
     2
  0
POINT
  5
D4
330
A4
100
AcDbEntity
  8
DEFPOINTS
  6
BYBLOCK
 62
     0
100
AcDbPoint
 10
49.19505268603875
 20
-33.60919483269253
 30
0.0
  0
POINT
  5
D5
330
A4
100
AcDbEntity
  8
DEFPOINTS
  6
BYBLOCK
 62
     0
100
AcDbPoint
 10
50.85505268603874
 20
-33.60919483269253
 30
0.0
  0
POINT
  5
D6
330
A4
100
AcDbEntity
  8
DEFPOINTS
  6
BYBLOCK
 62
     0
100
AcDbPoint
 10
50.85505268603874
 20
-34.08235593196344
 30
0.0
  0
ENDBLK
  5
D7
330
A4
100
AcDbEntity
  8
0
100
AcDbBlockEnd
  0
BLOCK
  5
D8
330
A5
100
AcDbEntity
  8
0
100
AcDbBlockBegin
  2
*D3
 70
     1
 10
0.0
 20
0.0
 30
0.0
  3
*D3
  1

  0
LINE
  5
D9
330
A5
100
AcDbEntity
  8
0
  6
BYBLOCK
 62
     0
100
AcDbLine
 10
52.61861120619153
 20
-29.1001022402573
 30
0.0
 11
51.98573351247184
 21
-27.95836065754094
 31
0.0
  0
LINE
  5
DA
330
A5
100
AcDbEntity
  8
0
  6
BYBLOCK
 62
     0
100
AcDbLine
 10
49.99475208477335
 20
-30.55453110099631
 30
0.0
 11
49.36187439105366
 21
-29.41278951827995
 31
0.0
  0
LINE
  5
DB
330
A5
100
AcDbEntity
  8
0
  6
BYBLOCK
 62
     0
100
AcDbLine
 10
52.07299924411618
 20
-28.11579220482603
 30
0.0
 11
50.90683963459699
 21
-28.76220503182114
 31
0.0
  0
LINE
  5
DC
330
A5
100
AcDbEntity
  8
0
  6
BYBLOCK
 62
     0
100
AcDbLine
 10
49.449140122698
 20
-29.57022106556504
 30
0.0
 11
50.61529973221719
 21
-28.92380823856993
 31
0.0
  0
LINE
  5
DD
330
A5
100
AcDbEntity
  8
0
  6
BYBLOCK
 62
     0
100
AcDbLine
 10
52.02427298325456
 20
-28.28572087074925
 30
0.0
 11
52.12172550497782
 21
-27.94586353890282
 31
0.0
  0
LINE
  5
DE
330
A5
100
AcDbEntity
  8
0
  6
BYBLOCK
 62
     0
100
AcDbLine
 10
49.40041386183636
 20
-29.74014973148826
 30
0.0
 11
49.49786638355963
 21
-29.40029239964183
 31
0.0
  0
TEXT
  5
DF
330
A5
100
AcDbEntity
  8
0
  6
BYBLOCK
 62
     0
100
AcDbText
 10
50.75492779687501
 20
-28.91787076773535
 30
0.0
 40
0.125
  1
3
 50
29.00000000000003
 72
     1
 11
50.7610696834071
 21
-28.84300663519554
 31
0.0
100
AcDbText
 73
     2
  0
POINT
  5
E0
330
A5
100
AcDbEntity
  8
DEFPOINTS
  6
BYBLOCK
 62
     0
100
AcDbPoint
 10
52.64891180745692
 20
-29.15476597195351
 30
0.0
  0
POINT
  5
E1
330
A5
100
AcDbEntity
  8
DEFPOINTS
  6
BYBLOCK
 62
     0
100
AcDbPoint
 10
50.02505268603875
 20
-30.60919483269252
 30
0.0
  0
POINT
  5
E2
330
A5
100
AcDbEntity
  8
DEFPOINTS
  6
BYBLOCK
 62
     0
100
AcDbPoint
 10
49.449140122698
 20
-29.57022106556504
 30
0.0
  0
ENDBLK
  5
E3
330
A5
100
AcDbEntity
  8
0
100
AcDbBlockEnd
  0
BLOCK
  5
E4
330
A6
100
AcDbEntity
  8
0
100
AcDbBlockBegin
  2
*D4
 70
     1
 10
0.0
 20
0.0
 30
0.0
  3
*D4
  1

  0
LINE
  5
E5
330
A6
100
AcDbEntity
  8
0
  6
BYBLOCK
 62
     0
100
AcDbLine
 10
50.3098731444246
 20
-30.92293740760702
 30
0.0
 11
52.51877416030915
 21
-32.07852276644099
 31
0.0
  0
LINE
  5
E6
330
A6
100
AcDbEntity
  8
0
  6
BYBLOCK
 62
     0
100
AcDbLine
 10
50.14117066903705
 20
-30.97575288638088
 30
0.0
 11
50.47857561981215
 21
-30.87012192883316
 31
0.0
  0
TEXT
  5
E7
330
A6
100
AcDbEntity
  8
0
  6
BYBLOCK
 62
     0
100
AcDbText
 10
52.60056138823644
 20
-32.19184575328819
 30
0.0
 40
0.125
  1
R2 1/2
 50
332.3837093624744
 72
     1
 11
52.92489040960508
 21
-32.29098226023276
 31
0.0
100
AcDbText
 73
     2
  0
POINT
  5
E8
330
A6
100
AcDbEntity
  8
DEFPOINTS
  6
BYBLOCK
 62
     0
100
AcDbPoint
 10
50.3098731444246
 20
-30.92293740760702
 30
0.0
  0
POINT
  5
E9
330
A6
100
AcDbEntity
  8
DEFPOINTS
  6
BYBLOCK
 62
     0
100
AcDbPoint
 10
52.52505268603876
 20
-32.0818073737439
 30
0.0
  0
ENDBLK
  5
EA
330
A6
100
AcDbEntity
  8
0
100
AcDbBlockEnd
  0
ENDSEC
  0
SECTION
  2
ENTITIES
  0
LINE
  5
EB
330
18
100
AcDbEntity
  8
ADP3DETAIL
  6
CENTER2
100
AcDbLine
 10
50.02505268603875
 20
-32.08180737374391
 30
0.0
 11
50.02505268603875
 21
-33.86800518399157
 31
0.0
  0
DIMENSION
  5
EC
330
18
100
AcDbEntity
  8
ADPDIM
100
AcDbDimension
  2
*D2
 10
50.85505268603874
 20
-34.08235593196344
 30
0.0
 11
50.02505268603875
 21
-34.08235593196344
 31
0.0
  1
1.660
100
AcDbAlignedDimension
 13
49.19505268603875
 23
-33.60919483269253
 33
0.0
 14
50.85505268603874
 24
-33.60919483269253
 34
0.0
100
AcDbRotatedDimension
  0
DIMENSION
  5
ED
330
18
100
AcDbEntity
  8
ADPDIM
100
AcDbDimension
  2
*D0
 10
48.71762857735824
 20
-30.60919483269253
 30
0.0
 11
48.71762857735824
 21
-32.10919483269253
 31
0.0
100
AcDbAlignedDimension
 13
49.19505268603875
 23
-33.60919483269253
 33
0.0
 14
49.76846409240062
 24
-30.60919483269253
 34
0.0
 50
90.0
100
AcDbRotatedDimension
  0
CIRCLE
  5
EE
330
18
100
AcDbEntity
  8
ADP1DETAIL
100
AcDbCircle
 10
50.02505268603875
 20
-35.57661615925395
 30
0.0
 40
0.8299999999999998
  0
CIRCLE
  5
EF
330
18
100
AcDbEntity
  8
ADP1DETAIL
100
AcDbCircle
 10
50.02505268603875
 20
-35.57661615925395
 30
0.0
 40
0.6899999999999978
  0
DIMENSION
  5
F0
330
18
100
AcDbEntity
  8
ADPDIM
100
AcDbDimension
  2
*D1
 10
50.84778762843324
 20
-35.57661615925395
 30
0.0
 11
51.44153762843324
 21
-35.57661615925395
 31
0.0
  1
0.145
100
AcDbAlignedDimension
 13
50.70278762843324
 23
-35.57661615925395
 33
0.0
 14
50.84778762843324
 24
-35.57661615925395
 34
0.0
100
AcDbRotatedDimension
  0
ARC
  5
F1
330
18
100
AcDbEntity
  8
ADP3DETAIL
  6
CENTER2
100
AcDbCircle
 10
52.52505268603875
 20
-32.08180737374391
 30
0.0
 40
2.5
100
AcDbArc
 50
118.9999999999999
 51
180.0
  0
DIMENSION
  5
F2
330
18
100
AcDbEntity
  8
ADPDIM
100
AcDbDimension
  2
*D3
 10
49.449140122698
 20
-29.57022106556504
 30
0.0
 11
50.7610696834071
 21
-28.84300663519554
 31
0.0
 70
     1
100
AcDbAlignedDimension
 13
52.64891180745693
 23
-29.15476597195352
 33
0.0
 14
50.02505268603875
 24
-30.60919483269253
 34
0.0
  0
ARC
  5
F3
330
18
100
AcDbEntity
  8
ADP1DETAIL
100
AcDbCircle
 10
52.49505268603875
 20
-32.06413602325129
 30
0.0
 40
3.299999999999999
100
AcDbArc
 50
119.0
 51
180.0
  0
LINE
  5
F4
330
18
100
AcDbEntity
  8
ADP1DETAIL
100
AcDbLine
 10
50.85505268603874
 20
-33.60919483269253
 30
0.0
 11
49.19505268603875
 21
-33.60919483269253
 31
0.0
  0
DIMENSION
  5
F5
330
18
100
AcDbEntity
  8
ADPDIM
100
AcDbDimension
  2
*D4
 10
52.52505268603876
 20
-32.0818073737439
 30
0.0
 11
52.92489040960508
 21
-32.29098226023276
 31
0.0
 70
     4
100
AcDbRadialDimension
 15
50.3098731444246
 25
-30.92293740760702
 35
0.0
 40
-2.492914202199358
  0
LINE
  5
F6
330
18
100
AcDbEntity
  8
ADP1DETAIL
100
AcDbLine
 10
49.19505268603875
 20
-33.60919483269253
 30
0.0
 11
49.19505268603875
 21
-32.06413602325129
 31
0.0
  0
ARC
  5
F7
330
18
100
AcDbEntity
  8
ADP1DETAIL
100
AcDbCircle
 10
52.55505268603875
 20
-32.09947872423652
 30
0.0
 40
1.7
100
AcDbArc
 50
119.0
 51
180.0
  0
LINE
  5
F8
330
18
100
AcDbEntity
  8
ADP1DETAIL
100
AcDbLine
 10
50.85505268603874
 20
-32.09947872423652
 30
0.0
 11
50.85505268603874
 21
-33.60919483269253
 31
0.0
  0
LINE
  5
F9
330
18
100
AcDbEntity
  8
ADP1DETAIL
100
AcDbLine
 10
51.73087633161998
 20
-30.61262522209954
 30
0.0
 11
53.05130379226139
 21
-29.88070032887921
 31
0.0
  0
LINE
  5
FA
330
18
100
AcDbEntity
  8
ADP1DETAIL
100
AcDbLine
 10
50.89518093922583
 20
-29.17789098969128
 30
0.0
 11
52.24651982265247
 21
-28.42883161502782
 31
0.0
  0
LINE
  5
FB
330
18
100
AcDbEntity
  8
ADP3DETAIL
  6
CENTER2
100
AcDbLine
 10
53.18374530280054
 20
-28.85830292446443
 30
0.0
 11
51.31302863542291
 21
-29.89525810589542
 31
0.0
  0
LINE
  5
FC
330
18
100
AcDbEntity
  8
ADP1DETAIL
100
AcDbLine
 10
52.24651982265247
 20
-28.42883161502782
 30
0.0
 11
53.05130379226139
 21
-29.88070032887921
 31
0.0
  0
TEXT
  5
10A
330
18
100
AcDbEntity
  8
ADPDIM
100
AcDbText
 10
40.94963708869895
 20
-37.18833152203864
 30
0.0
 40
0.1875
  1
J U L I U S  B L U M  &  C O . ,  I N C .      ( 8 0 0 )  5 2 6 - 6 2 9 3        W W W . J U L I U S B L U M . C O M        P A R T  N o .  7 4 1 9
 41
1.25
  7
ARIAL_WIDE
 72
     1
 11
50.73823062553387
 21
-37.00083152203864
 31
0.0
100
AcDbText
 73
     3
  0
ENDSEC
  0
SECTION
  2
OBJECTS
  0
DICTIONARY
  5
C
330
0
100
AcDbDictionary
  3
ACAD_GROUP
350
D
  3
ACAD_LAYOUT
350
103
  3
ACAD_MLINESTYLE
350
E
  3
ACAD_PLOTSETTINGS
350
104
  3
ACAD_PLOTSTYLENAME
350
101
  3
ACDBHEADERROUNDTRIPXREC
350
24E
  3
ACDBVARIABLEDICTIONARY
350
164
  0
DICTIONARY
  5
15E
330
18
100
AcDbDictionary
280
     1
  3
ACAD_LAYOUTSELFREF
360
26F
  0
DICTIONARY
  5
15C
330
15
100
AcDbDictionary
280
     1
  3
ACAD_LAYOUTSELFREF
360
26E
  0
DICTIONARY
  5
D
102
{ACAD_REACTORS
330
C
102
}
330
C
100
AcDbDictionary
  0
DICTIONARY
  5
103
102
{ACAD_REACTORS
330
C
102
}
330
C
100
AcDbDictionary
  0
DICTIONARY
  5
E
102
{ACAD_REACTORS
330
C
102
}
330
C
100
AcDbDictionary
  3
STANDARD
350
1B
  0
DICTIONARY
  5
104
102
{ACAD_REACTORS
330
C
102
}
330
C
100
AcDbDictionary
  0
ACDBDICTIONARYWDFLT
  5
101
102
{ACAD_REACTORS
330
C
102
}
330
C
100
AcDbDictionary
281
     1
  3
Normal
350
102
100
AcDbDictionaryWithDefault
340
102
  0
DICTIONARY
  5
24E
102
{ACAD_REACTORS
330
C
102
}
330
C
100
AcDbDictionary
  3
CEPSNTYPE
350
258
  3
FINGERPRINTGUID
350
259
  3
HYPERLINKBASE
350
251
  3
INSUNITS
350
257
  3
LAYOUTDICT
350
253
  3
LWETCUNION
350
256
  3
PLOTSETDICT
350
254
  3
PLOTSTYLNAMDICT
350
255
  3
PSVPSCALE
350
25B
  3
PUCSBASE
350
25E
  3
PUCSORGBACK
350
264
  3
PUCSORGBOTTOM
350
260
  3
PUCSORGFRONT
350
263
  3
PUCSORGLEFT
350
261
  3
PUCSORGRIGHT
350
262
  3
PUCSORGTOP
350
25F
  3
PUCSORTHOREF
350
25C
  3
PUCSORTHOVIEW
350
25D
  3
STYLESHEET
350
252
  3
TSTACKALIGN
350
24F
  3
TSTACKSIZE
350
250
  3
UCSBASE
350
267
  3
UCSORGBACK
350
26D
  3
UCSORGBOTTOM
350
269
  3
UCSORGFRONT
350
26C
  3
UCSORGLEFT
350
26A
  3
UCSORGRIGHT
350
26B
  3
UCSORGTOP
350
268
  3
UCSORTHOREF
350
265
  3
UCSORTHOVIEW
350
266
  3
VERSIONGUID
350
25A
  0
DICTIONARY
  5
164
102
{ACAD_REACTORS
330
C
102
}
330
C
100
AcDbDictionary
  3
DIMASSOC
350
165
  0
XRECORD
  5
26F
102
{ACAD_REACTORS
330
15E
102
}
330
15E
100
AcDbXrecord
340
18
  0
XRECORD
  5
26E
102
{ACAD_REACTORS
330
15C
102
}
330
15C
100
AcDbXrecord
340
15
  0
MLINESTYLE
  5
1B
102
{ACAD_REACTORS
330
E
102
}
330
E
100
AcDbMlineStyle
  2
STANDARD
 70
     0
  3

 62
     0
 51
90.0
 52
90.0
 71
     2
 49
0.5
 62
   256
  6
BYLAYER
 49
-0.5
 62
   256
  6
BYLAYER
  0
ACDBPLACEHOLDER
  5
102
102
{ACAD_REACTORS
330
101
102
}
330
101
100
AcDbPlaceHolder
280
     0
  0
XRECORD
  5
258
102
{ACAD_REACTORS
330
24E
102
}
330
24E
100
AcDbXrecord
 90
        0
  0
XRECORD
  5
259
102
{ACAD_REACTORS
330
24E
102
}
330
24E
100
AcDbXrecord
  1
{EFD5CB1A-3141-4E1D-9F0D-E610899A0389}
  0
XRECORD
  5
251
102
{ACAD_REACTORS
330
24E
102
}
330
24E
100
AcDbXrecord
  1

  0
XRECORD
  5
257
102
{ACAD_REACTORS
330
24E
102
}
330
24E
100
AcDbXrecord
 90
        0
  0
XRECORD
  5
253
102
{ACAD_REACTORS
330
24E
102
}
330
24E
100
AcDbXrecord
340
103
  0
XRECORD
  5
256
102
{ACAD_REACTORS
330
24E
102
}
330
24E
100
AcDbXrecord
 90
    14877
  0
XRECORD
  5
254
102
{ACAD_REACTORS
330
24E
102
}
330
24E
100
AcDbXrecord
340
104
  0
XRECORD
  5
255
102
{ACAD_REACTORS
330
24E
102
}
330
24E
100
AcDbXrecord
340
101
  0
XRECORD
  5
25B
102
{ACAD_REACTORS
330
24E
102
}
330
24E
100
AcDbXrecord
 40
0.0
  0
XRECORD
  5
25E
102
{ACAD_REACTORS
330
24E
102
}
330
24E
100
AcDbXrecord
340
0
  0
XRECORD
  5
264
102
{ACAD_REACTORS
330
24E
102
}
330
24E
100
AcDbXrecord
 10
0.0
 20
0.0
 30
0.0
  0
XRECORD
  5
260
102
{ACAD_REACTORS
330
24E
102
}
330
24E
100
AcDbXrecord
 10
0.0
 20
0.0
 30
0.0
  0
XRECORD
  5
263
102
{ACAD_REACTORS
330
24E
102
}
330
24E
100
AcDbXrecord
 10
0.0
 20
0.0
 30
0.0
  0
XRECORD
  5
261
102
{ACAD_REACTORS
330
24E
102
}
330
24E
100
AcDbXrecord
 10
0.0
 20
0.0
 30
0.0
  0
XRECORD
  5
262
102
{ACAD_REACTORS
330
24E
102
}
330
24E
100
AcDbXrecord
 10
0.0
 20
0.0
 30
0.0
  0
XRECORD
  5
25F
102
{ACAD_REACTORS
330
24E
102
}
330
24E
100
AcDbXrecord
 10
0.0
 20
0.0
 30
0.0
  0
XRECORD
  5
25C
102
{ACAD_REACTORS
330
24E
102
}
330
24E
100
AcDbXrecord
340
0
  0
XRECORD
  5
25D
102
{ACAD_REACTORS
330
24E
102
}
330
24E
100
AcDbXrecord
 70
     0
  0
XRECORD
  5
252
102
{ACAD_REACTORS
330
24E
102
}
330
24E
100
AcDbXrecord
  1

  0
XRECORD
  5
24F
102
{ACAD_REACTORS
330
24E
102
}
330
24E
100
AcDbXrecord
 90
        1
  0
XRECORD
  5
250
102
{ACAD_REACTORS
330
24E
102
}
330
24E
100
AcDbXrecord
 90
       70
  0
XRECORD
  5
267
102
{ACAD_REACTORS
330
24E
102
}
330
24E
100
AcDbXrecord
340
0
  0
XRECORD
  5
26D
102
{ACAD_REACTORS
330
24E
102
}
330
24E
100
AcDbXrecord
 10
0.0
 20
0.0
 30
0.0
  0
XRECORD
  5
269
102
{ACAD_REACTORS
330
24E
102
}
330
24E
100
AcDbXrecord
 10
0.0
 20
0.0
 30
0.0
  0
XRECORD
  5
26C
102
{ACAD_REACTORS
330
24E
102
}
330
24E
100
AcDbXrecord
 10
0.0
 20
0.0
 30
0.0
  0
XRECORD
  5
26A
102
{ACAD_REACTORS
330
24E
102
}
330
24E
100
AcDbXrecord
 10
0.0
 20
0.0
 30
0.0
  0
XRECORD
  5
26B
102
{ACAD_REACTORS
330
24E
102
}
330
24E
100
AcDbXrecord
 10
0.0
 20
0.0
 30
0.0
  0
XRECORD
  5
268
102
{ACAD_REACTORS
330
24E
102
}
330
24E
100
AcDbXrecord
 10
0.0
 20
0.0
 30
0.0
  0
XRECORD
  5
265
102
{ACAD_REACTORS
330
24E
102
}
330
24E
100
AcDbXrecord
340
0
  0
XRECORD
  5
266
102
{ACAD_REACTORS
330
24E
102
}
330
24E
100
AcDbXrecord
 70
     0
  0
XRECORD
  5
25A
102
{ACAD_REACTORS
330
24E
102
}
330
24E
100
AcDbXrecord
  1
{A5BF3E12-E43B-4E8D-BEFF-A85D05B33860}
  0
DICTIONARYVAR
  5
165
102
{ACAD_REACTORS
330
164
102
}
330
164
100
DictionaryVariables
280
     0
  1
1
  0
ENDSEC
  0
EOF
