  0
SECTION
  2
HEADER
  9
$ACADVER
  1
AC1014
  9
$ACADMAINTVER
 70
     9
  9
$DWGCODEPAGE
  3
ANSI_1252
  9
$INSBASE
 10
57.04589147087116
 20
14.72380319603232
 30
0.0
  9
$EXTMIN
 10
44.58730969417342
 20
11.28326348517829
 30
0.0
  9
$EXTMAX
 10
64.16449676784328
 20
17.18903813842682
 30
0.0
  9
$LIMMIN
 10
0.0
 20
0.0
  9
$LIMMAX
 10
36.0
 20
36.0
  9
$ORTHOMODE
 70
     1
  9
$REGENMODE
 70
     1
  9
$FILLMODE
 70
     1
  9
$QTEXTMODE
 70
     0
  9
$MIRRTEXT
 70
     1
  9
$DRAGMODE
 70
     0
  9
$LTSCALE
 40
1.0
  9
$OSMODE
 70
    37
  9
$ATTMODE
 70
     1
  9
$TEXTSIZE
 40
0.2
  9
$TRACEWID
 40
0.05
  9
$TEXTSTYLE
  7
STANDARD
  9
$CLAYER
  8
0
  9
$CELTYPE
  6
BYLAYER
  9
$CECOLOR
 62
   256
  9
$CELTSCALE
 40
1.0
  9
$DELOBJ
 70
     1
  9
$DISPSILH
 70
     0
  9
$DIMSCALE
 40
1.0
  9
$DIMASZ
 40
0.125
  9
$DIMEXO
 40
0.0625
  9
$DIMDLI
 40
0.38
  9
$DIMRND
 40
0.0
  9
$DIMDLE
 40
0.0
  9
$DIMEXE
 40
0.18
  9
$DIMTP
 40
0.0
  9
$DIMTM
 40
0.0
  9
$DIMTXT
 40
0.125
  9
$DIMCEN
 40
0.1875
  9
$DIMTSZ
 40
0.125
  9
$DIMTOL
 70
     0
  9
$DIMLIM
 70
     0
  9
$DIMTIH
 70
     0
  9
$DIMTOH
 70
     0
  9
$DIMSE1
 70
     0
  9
$DIMSE2
 70
     0
  9
$DIMTAD
 70
     0
  9
$DIMZIN
 70
     3
  9
$DIMBLK
  1

  9
$DIMASO
 70
     1
  9
$DIMSHO
 70
     1
  9
$DIMPOST
  1

  9
$DIMAPOST
  1

  9
$DIMALT
 70
     0
  9
$DIMALTD
 70
     1
  9
$DIMALTF
 40
25.4
  9
$DIMLFAC
 40
1.0
  9
$DIMTOFL
 70
     0
  9
$DIMTVP
 40
0.0
  9
$DIMTIX
 70
     0
  9
$DIMSOXD
 70
     0
  9
$DIMSAH
 70
     0
  9
$DIMBLK1
  1

  9
$DIMBLK2
  1

  9
$DIMSTYLE
  2
STANDARD
  9
$DIMCLRD
 70
     0
  9
$DIMCLRE
 70
     0
  9
$DIMCLRT
 70
     0
  9
$DIMTFAC
 40
1.0
  9
$DIMGAP
 40
0.125
  9
$DIMJUST
 70
     0
  9
$DIMSD1
 70
     0
  9
$DIMSD2
 70
     0
  9
$DIMTOLJ
 70
     1
  9
$DIMTZIN
 70
     0
  9
$DIMALTZ
 70
     0
  9
$DIMALTTZ
 70
     0
  9
$DIMFIT
 70
     3
  9
$DIMUPT
 70
     0
  9
$DIMUNIT
 70
     2
  9
$DIMDEC
 70
     4
  9
$DIMTDEC
 70
     4
  9
$DIMALTU
 70
     2
  9
$DIMALTTD
 70
     2
  9
$DIMTXSTY
  7
STANDARD
  9
$DIMAUNIT
 70
     0
  9
$LUNITS
 70
     5
  9
$LUPREC
 70
     4
  9
$SKETCHINC
 40
0.1
  9
$FILLETRAD
 40
0.062
  9
$AUNITS
 70
     0
  9
$AUPREC
 70
     0
  9
$MENU
  1
acad
  9
$ELEVATION
 40
0.0
  9
$PELEVATION
 40
0.0
  9
$THICKNESS
 40
0.0
  9
$LIMCHECK
 70
     0
  9
$BLIPMODE
 70
     0
  9
$CHAMFERA
 40
0.0
  9
$CHAMFERB
 40
0.0
  9
$CHAMFERC
 40
0.0
  9
$CHAMFERD
 40
0.0
  9
$SKPOLY
 70
     0
  9
$TDCREATE
 40
2450387.490105127
  9
$TDUPDATE
 40
2452297.101187060
  9
$TDINDWG
 40
0.0419336343
  9
$TDUSRTIMER
 40
0.0419336343
  9
$USRTIMER
 70
     1
  9
$ANGBASE
 50
0.0
  9
$ANGDIR
 70
     0
  9
$PDMODE
 70
     0
  9
$PDSIZE
 40
0.0
  9
$PLINEWID
 40
0.0
  9
$COORDS
 70
     2
  9
$SPLFRAME
 70
     0
  9
$SPLINETYPE
 70
     6
  9
$SPLINESEGS
 70
     8
  9
$ATTDIA
 70
     0
  9
$ATTREQ
 70
     1
  9
$HANDLING
 70
 22529
  9
$HANDSEED
  5
288
  9
$SURFTAB1
 70
     6
  9
$SURFTAB2
 70
     6
  9
$SURFTYPE
 70
     6
  9
$SURFU
 70
     6
  9
$SURFV
 70
     6
  9
$UCSNAME
  2

  9
$UCSORG
 10
0.0
 20
0.0
 30
0.0
  9
$UCSXDIR
 10
1.0
 20
0.0
 30
0.0
  9
$UCSYDIR
 10
0.0
 20
1.0
 30
0.0
  9
$PUCSNAME
  2

  9
$PUCSORG
 10
0.0
 20
0.0
 30
0.0
  9
$PUCSXDIR
 10
1.0
 20
0.0
 30
0.0
  9
$PUCSYDIR
 10
0.0
 20
1.0
 30
0.0
  9
$USERI1
 70
     0
  9
$USERI2
 70
     0
  9
$USERI3
 70
     0
  9
$USERI4
 70
     0
  9
$USERI5
 70
     0
  9
$USERR1
 40
0.0
  9
$USERR2
 40
0.0
  9
$USERR3
 40
0.0
  9
$USERR4
 40
0.0
  9
$USERR5
 40
0.0
  9
$WORLDVIEW
 70
     1
  9
$SHADEDGE
 70
     3
  9
$SHADEDIF
 70
    70
  9
$TILEMODE
 70
     1
  9
$MAXACTVP
 70
    15
  9
$PINSBASE
 10
0.0
 20
0.0
 30
0.0
  9
$PLIMCHECK
 70
     0
  9
$PEXTMIN
 10
1.000000000000000E+20
 20
1.000000000000000E+20
 30
1.000000000000000E+20
  9
$PEXTMAX
 10
-1.000000000000000E+20
 20
-1.000000000000000E+20
 30
-1.000000000000000E+20
  9
$PLIMMIN
 10
0.0
 20
0.0
  9
$PLIMMAX
 10
12.0
 20
9.0
  9
$UNITMODE
 70
     0
  9
$VISRETAIN
 70
     0
  9
$PLINEGEN
 70
     0
  9
$PSLTSCALE
 70
     1
  9
$TREEDEPTH
 70
  3020
  9
$PICKSTYLE
 70
     1
  9
$CMLSTYLE
  2
STANDARD
  9
$CMLJUST
 70
     0
  9
$CMLSCALE
 40
1.0
  9
$PROXYGRAPHICS
 70
     1
  9
$MEASUREMENT
 70
     0
  0
ENDSEC
  0
SECTION
  2
CLASSES
  0
CLASS
  1
ACDBDICTIONARYWDFLT
  2
AcDbDictionaryWithDefault
  3
AutoCAD 2000
 90
        0
280
     0
281
     0
  0
CLASS
  1
ACDBPLACEHOLDER
  2
AcDbPlaceHolder
  3
AutoCAD 2000
 90
        0
280
     0
281
     0
  0
CLASS
  1
LAYOUT
  2
AcDbLayout
  3
AutoCAD 2000
 90
        0
280
     0
281
     0
  0
CLASS
  1
DICTIONARYVAR
  2
AcDbDictionaryVar
  3
AutoCAD 2000
 90
        0
280
     0
281
     0
  0
CLASS
  1
LONG_TRANSACTION
  2
AcDbLongTransaction
  3
AutoCAD 2000
 90
        0
280
     0
281
     0
  0
CLASS
  1
LWPOLYLINE
  2
AcDbPolyline
  3
AutoCAD 2000
 90
        0
280
     0
281
     1
  0
CLASS
  1
HATCH
  2
AcDbHatch
  3
AutoCAD 2000
 90
        0
280
     0
281
     1
  0
CLASS
  1
XRECORD
  2
AcDbXrecord
  3
AutoCAD 2000
 90
        0
280
     0
281
     0
  0
CLASS
  1
LONG_TRANSACTION
  2
AcDbLongTransaction
  3
AutoCAD 2000
 90
        0
280
     0
281
     0
  0
CLASS
  1
LWPOLYLINE
  2
AcDbPolyline
  3
AutoCAD 2000
 90
        0
280
     0
281
     1
  0
CLASS
  1
HATCH
  2
AcDbHatch
  3
AutoCAD 2000
 90
        0
280
     0
281
     1
  0
CLASS
  1
XRECORD
  2
AcDbXrecord
  3
AutoCAD 2000
 90
        0
280
     0
281
     0
  0
CLASS
  1
LONG_TRANSACTION
  2
AcDbLongTransaction
  3
AutoCAD 2000
 90
        0
280
     0
281
     0
  0
CLASS
  1
LWPOLYLINE
  2
AcDbPolyline
  3
AutoCAD 2000
 90
        0
280
     0
281
     1
  0
CLASS
  1
HATCH
  2
AcDbHatch
  3
AutoCAD 2000
 90
        0
280
     0
281
     1
  0
CLASS
  1
XRECORD
  2
AcDbXrecord
  3
AutoCAD 2000
 90
        0
280
     0
281
     0
  0
CLASS
  1
LONG_TRANSACTION
  2
AcDbLongTransaction
  3
AutoCAD 2000
 90
        0
280
     0
281
     0
  0
CLASS
  1
LWPOLYLINE
  2
AcDbPolyline
  3
AutoCAD 2000
 90
        0
280
     0
281
     1
  0
CLASS
  1
HATCH
  2
AcDbHatch
  3
AutoCAD 2000
 90
        0
280
     0
281
     1
  0
CLASS
  1
XRECORD
  2
AcDbXrecord
  3
AutoCAD 2000
 90
        0
280
     0
281
     0
  0
CLASS
  1
LONG_TRANSACTION
  2
AcDbLongTransaction
  3
AutoCAD 2000
 90
        0
280
     0
281
     0
  0
CLASS
  1
LWPOLYLINE
  2
AcDbPolyline
  3
AutoCAD 2000
 90
        0
280
     0
281
     1
  0
CLASS
  1
HATCH
  2
AcDbHatch
  3
AutoCAD 2000
 90
        0
280
     0
281
     1
  0
CLASS
  1
XRECORD
  2
AcDbXrecord
  3
AutoCAD 2000
 90
        0
280
     0
281
     0
  0
ENDSEC
  0
SECTION
  2
TABLES
  0
TABLE
  2
VPORT
  5
8
330
0
100
AcDbSymbolTable
 70
     2
  0
VPORT
  5
265
330
8
100
AcDbSymbolTableRecord
100
AcDbViewportTableRecord
  2
*ACTIVE
 70
     0
 10
0.0
 20
0.0
 11
1.0
 21
1.0
 12
54.39367556703415
 22
14.23580940560881
 13
0.0
 23
0.0
 14
0.5740882589684922
 24
0.5740882589684922
 15
0.5
 25
0.5
 16
0.0
 26
0.0
 36
1.0
 17
0.0
 27
0.0
 37
0.0
 40
12.54869164378485
 41
1.570528967254408
 42
50.0
 43
0.0
 44
0.0
 50
0.0
 51
0.0
 71
     0
 72
   100
 73
     1
 74
     0
 75
     0
 76
     0
 77
     0
 78
     0
  0
ENDTAB
  0
TABLE
  2
LTYPE
  5
5
330
0
100
AcDbSymbolTable
 70
     2
  0
LTYPE
  5
12
330
5
100
AcDbSymbolTableRecord
100
AcDbLinetypeTableRecord
  2
BYBLOCK
 70
     0
  3

 72
    65
 73
     0
 40
0.0
  0
LTYPE
  5
13
330
5
100
AcDbSymbolTableRecord
100
AcDbLinetypeTableRecord
  2
BYLAYER
 70
     0
  3

 72
    65
 73
     0
 40
0.0
  0
LTYPE
  5
14
330
5
100
AcDbSymbolTableRecord
100
AcDbLinetypeTableRecord
  2
CONTINUOUS
 70
     0
  3
Solid line
 72
    65
 73
     0
 40
0.0
  0
LTYPE
  5
BF
330
5
100
AcDbSymbolTableRecord
100
AcDbLinetypeTableRecord
  2
CENTER2
 70
     0
  3
___ _ ___ _ ___ _ ___ _ ___ _ ___ _ ___ _ ___ _
 72
    65
 73
     4
 40
1.125
 49
0.75
 74
     0
 49
-0.125
 74
     0
 49
0.125
 74
     0
 49
-0.125
 74
     0
  0
ENDTAB
  0
TABLE
  2
LAYER
  5
2
330
0
100
AcDbSymbolTable
 70
     5
  0
LAYER
  5
F
330
2
100
AcDbSymbolTableRecord
100
AcDbLayerTableRecord
  2
0
 70
     0
 62
     7
  6
CONTINUOUS
  0
LAYER
  5
C0
330
2
100
AcDbSymbolTableRecord
100
AcDbLayerTableRecord
  2
ADP1DETAIL
 70
     0
 62
     7
  6
CONTINUOUS
  0
LAYER
  5
C1
330
2
100
AcDbSymbolTableRecord
100
AcDbLayerTableRecord
  2
DEFPOINTS
 70
     0
 62
     7
  6
CONTINUOUS
  0
LAYER
  5
C4
330
2
100
AcDbSymbolTableRecord
100
AcDbLayerTableRecord
  2
ADPDIM
 70
     0
 62
     3
  6
CONTINUOUS
  0
LAYER
  5
C5
330
2
100
AcDbSymbolTableRecord
100
AcDbLayerTableRecord
  2
ADP3DETAIL
 70
     0
 62
     1
  6
CONTINUOUS
  0
ENDTAB
  0
TABLE
  2
STYLE
  5
3
330
0
100
AcDbSymbolTable
 70
     2
  0
STYLE
  5
10
330
3
100
AcDbSymbolTableRecord
100
AcDbTextStyleTableRecord
  2
STANDARD
 70
     0
 40
0.0
 41
1.0
 50
0.0
 71
     0
 42
0.2
  3
txt
  4

  0
STYLE
  5
121
330
3
100
AcDbSymbolTableRecord
100
AcDbTextStyleTableRecord
  2
ARIAL_WIDE
 70
     0
 40
0.0
 41
1.25
 50
0.0
 71
     0
 42
0.2
  3
ARIAL.TTF
  4

1001
ACAD
1000
Arial
1071
       34
  0
ENDTAB
  0
TABLE
  2
VIEW
  5
6
330
0
100
AcDbSymbolTable
 70
     0
  0
ENDTAB
  0
TABLE
  2
UCS
  5
7
330
0
100
AcDbSymbolTable
 70
     0
  0
ENDTAB
  0
TABLE
  2
APPID
  5
9
330
0
100
AcDbSymbolTable
 70
     1
  0
APPID
  5
11
330
9
100
AcDbSymbolTableRecord
100
AcDbRegAppTableRecord
  2
ACAD
 70
     0
  0
ENDTAB
  0
TABLE
  2
DIMSTYLE
  5
A
330
0
100
AcDbSymbolTable
 70
     1
  0
DIMSTYLE
105
115
330
A
100
AcDbSymbolTableRecord
100
AcDbDimStyleTableRecord
  2
STANDARD
 70
     0
  3

  4

  5

  6

  7

 40
1.0
 41
0.18
 42
0.0625
 43
0.38
 44
0.18
 45
0.0
 46
0.0
 47
0.0
 48
0.0
140
0.18
141
0.09
142
0.0
143
25.4
144
1.0
145
0.0
146
1.0
147
0.09
 71
     0
 72
     0
 73
     1
 74
     1
 75
     0
 76
     0
 77
     0
 78
     0
170
     0
171
     2
172
     0
173
     0
174
     0
175
     0
176
     0
177
     0
178
     0
270
     2
271
     4
272
     4
273
     2
274
     2
340
10
275
     0
280
     0
281
     0
282
     0
283
     1
284
     0
285
     0
286
     0
287
     3
288
     0
  0
ENDTAB
  0
TABLE
  2
BLOCK_RECORD
  5
1
330
0
100
AcDbSymbolTable
 70
     5
  0
BLOCK_RECORD
  5
18
102
{ACAD_XDICTIONARY
360
176
102
}
330
1
100
AcDbSymbolTableRecord
100
AcDbBlockTableRecord
  2
*MODEL_SPACE
  0
BLOCK_RECORD
  5
15
102
{ACAD_XDICTIONARY
360
174
102
}
330
1
100
AcDbSymbolTableRecord
100
AcDbBlockTableRecord
  2
*PAPER_SPACE
  0
BLOCK_RECORD
  5
B9
330
1
100
AcDbSymbolTableRecord
100
AcDbBlockTableRecord
  2
*D0
  0
BLOCK_RECORD
  5
BA
330
1
100
AcDbSymbolTableRecord
100
AcDbBlockTableRecord
  2
*D1
  0
BLOCK_RECORD
  5
BB
330
1
100
AcDbSymbolTableRecord
100
AcDbBlockTableRecord
  2
*D2
  0
BLOCK_RECORD
  5
BC
330
1
100
AcDbSymbolTableRecord
100
AcDbBlockTableRecord
  2
*D3
  0
BLOCK_RECORD
  5
BD
330
1
100
AcDbSymbolTableRecord
100
AcDbBlockTableRecord
  2
*D4
  0
ENDTAB
  0
ENDSEC
  0
SECTION
  2
BLOCKS
  0
BLOCK
  5
C8
330
18
100
AcDbEntity
  8
0
100
AcDbBlockBegin
  2
*MODEL_SPACE
 70
     0
 10
0.0
 20
0.0
 30
0.0
  3
*MODEL_SPACE
  1

  0
ENDBLK
  5
C9
330
18
100
AcDbEntity
  8
0
100
AcDbBlockEnd
  0
BLOCK
  5
C6
330
15
100
AcDbEntity
 67
     1
  8
0
100
AcDbBlockBegin
  2
*PAPER_SPACE
 70
     0
 10
0.0
 20
0.0
 30
0.0
  3
*PAPER_SPACE
  1

  0
ENDBLK
  5
C7
330
15
100
AcDbEntity
 67
     1
  8
0
100
AcDbBlockEnd
  0
BLOCK
  5
CB
330
B9
100
AcDbEntity
  8
0
100
AcDbBlockBegin
  2
*D0
 70
     1
 10
0.0
 20
0.0
 30
0.0
  3
*D0
  1

  0
LINE
  5
CC
330
B9
100
AcDbEntity
  8
0
  6
BYBLOCK
 62
     0
100
AcDbLine
 10
47.4686272283873
 20
14.01704840934248
 30
0.0
 11
46.78094298553649
 21
15.11757324825409
 31
0.0
  0
LINE
  5
CD
330
B9
100
AcDbEntity
  8
0
  6
BYBLOCK
 62
     0
100
AcDbLine
 10
50.01277151685658
 20
15.60680620204209
 30
0.0
 11
49.32508727400577
 21
16.7073310409537
 31
0.0
  0
LINE
  5
CE
330
B9
100
AcDbEntity
  8
0
  6
BYBLOCK
 62
     0
100
AcDbLine
 10
46.87632845309846
 20
14.96492459094593
 30
0.0
 11
48.0070592479737
 21
15.67148360992354
 31
0.0
  0
LINE
  5
CF
330
B9
100
AcDbEntity
  8
0
  6
BYBLOCK
 62
     0
100
AcDbLine
 10
49.42047274156774
 20
16.55468238364555
 30
0.0
 11
48.28974194669251
 21
15.84812336466794
 31
0.0
  0
LINE
  5
D0
330
B9
100
AcDbEntity
  8
0
  6
BYBLOCK
 62
     0
100
AcDbLine
 10
46.83656234910806
 20
14.79267867089723
 30
0.0
 11
46.91609455708887
 21
15.13717051099463
 31
0.0
  0
LINE
  5
D1
330
B9
100
AcDbEntity
  8
0
  6
BYBLOCK
 62
     0
100
AcDbLine
 10
49.38070663757734
 20
16.38243646359684
 30
0.0
 11
49.46023884555814
 21
16.72692830369425
 31
0.0
  0
TEXT
  5
D2
330
B9
100
AcDbEntity
  8
0
  6
BYBLOCK
 62
     0
100
AcDbText
 10
48.14618521400783
 20
15.68472051194292
 30
0.0
 40
0.125
  1
3
 50
32.00000000000002
 72
     1
 11
48.1484005973331
 21
15.75980348729574
 31
0.0
100
AcDbText
 73
     2
  0
POINT
  5
D3
330
B9
100
AcDbEntity
  8
DEFPOINTS
  6
BYBLOCK
 62
     0
100
AcDbPoint
 10
47.50174718240188
 20
13.9640454033327
 30
0.0
  0
POINT
  5
D4
330
B9
100
AcDbEntity
  8
DEFPOINTS
  6
BYBLOCK
 62
     0
100
AcDbPoint
 10
50.04589147087116
 20
15.55380319603231
 30
0.0
  0
POINT
  5
D5
330
B9
100
AcDbEntity
  8
DEFPOINTS
  6
BYBLOCK
 62
     0
100
AcDbPoint
 10
49.42047274156774
 20
16.55468238364555
 30
0.0
  0
ENDBLK
  5
D6
330
B9
100
AcDbEntity
  8
0
100
AcDbBlockEnd
  0
BLOCK
  5
D7
330
BA
100
AcDbEntity
  8
0
100
AcDbBlockBegin
  2
*D1
 70
     1
 10
0.0
 20
0.0
 30
0.0
  3
*D1
  1

  0
LINE
  5
D8
330
BA
100
AcDbEntity
  8
0
  6
BYBLOCK
 62
     0
100
AcDbLine
 10
57.04589147087116
 20
16.44630319603232
 30
0.0
 11
57.04589147087116
 21
16.96585808049192
 31
0.0
  0
LINE
  5
D9
330
BA
100
AcDbEntity
  8
0
  6
BYBLOCK
 62
     0
100
AcDbLine
 10
50.04589147087116
 20
15.85345565134084
 30
0.0
 11
50.04589147087116
 21
16.96585808049192
 31
0.0
  0
LINE
  5
DA
330
BA
100
AcDbEntity
  8
0
  6
BYBLOCK
 62
     0
100
AcDbLine
 10
57.04589147087116
 20
16.78585808049192
 30
0.0
 11
53.71255813753783
 21
16.78585808049192
 31
0.0
  0
LINE
  5
DB
330
BA
100
AcDbEntity
  8
0
  6
BYBLOCK
 62
     0
100
AcDbLine
 10
50.04589147087116
 20
16.78585808049192
 30
0.0
 11
53.37922480420449
 21
16.78585808049192
 31
0.0
  0
LINE
  5
DC
330
BA
100
AcDbEntity
  8
0
  6
BYBLOCK
 62
     0
100
AcDbLine
 10
56.92089147087116
 20
16.66085808049192
 30
0.0
 11
57.17089147087116
 21
16.91085808049192
 31
0.0
  0
LINE
  5
DD
330
BA
100
AcDbEntity
  8
0
  6
BYBLOCK
 62
     0
100
AcDbLine
 10
49.92089147087116
 20
16.66085808049192
 30
0.0
 11
50.17089147087116
 21
16.91085808049192
 31
0.0
  0
TEXT
  5
DE
330
BA
100
AcDbEntity
  8
0
  6
BYBLOCK
 62
     0
100
AcDbText
 10
53.5042248042045
 20
16.72335808049192
 30
0.0
 40
0.125
  1
7
 72
     1
 11
53.54589147087116
 21
16.78585808049192
 31
0.0
100
AcDbText
 73
     2
  0
POINT
  5
DF
330
BA
100
AcDbEntity
  8
DEFPOINTS
  6
BYBLOCK
 62
     0
100
AcDbPoint
 10
57.04589147087116
 20
16.38380319603232
 30
0.0
  0
POINT
  5
E0
330
BA
100
AcDbEntity
  8
DEFPOINTS
  6
BYBLOCK
 62
     0
100
AcDbPoint
 10
50.04589147087116
 20
15.79095565134084
 30
0.0
  0
POINT
  5
E1
330
BA
100
AcDbEntity
  8
DEFPOINTS
  6
BYBLOCK
 62
     0
100
AcDbPoint
 10
50.04589147087116
 20
16.78585808049192
 30
0.0
  0
ENDBLK
  5
E2
330
BA
100
AcDbEntity
  8
0
100
AcDbBlockEnd
  0
BLOCK
  5
E3
330
BB
100
AcDbEntity
  8
0
100
AcDbBlockBegin
  2
*D2
 70
     1
 10
0.0
 20
0.0
 30
0.0
  3
*D2
  1

  0
LINE
  5
E4
330
BB
100
AcDbEntity
  8
0
  6
BYBLOCK
 62
     0
100
AcDbLine
 10
50.10626888600671
 20
15.4660689498673
 30
0.0
 11
50.7626725961352
 21
13.05410575215053
 31
0.0
  0
LINE
  5
E5
330
BB
100
AcDbEntity
  8
0
  6
BYBLOCK
 62
     0
100
AcDbLine
 10
49.95283129585189
 20
15.55385793509597
 30
0.0
 11
50.25970647616153
 21
15.37827996463862
 31
0.0
  0
TEXT
  5
E6
330
BB
100
AcDbEntity
  8
0
  6
BYBLOCK
 62
     0
100
AcDbText
 10
50.73519025475239
 20
12.91708031322725
 30
0.0
 40
0.125
  1
R2 1/2
 50
285.2240616902851
 72
     1
 11
50.88302837183314
 21
12.61185703061412
 31
0.0
100
AcDbText
 73
     2
  0
POINT
  5
E7
330
BB
100
AcDbEntity
  8
DEFPOINTS
  6
BYBLOCK
 62
     0
100
AcDbPoint
 10
50.10626888600671
 20
15.4660689498673
 30
0.0
  0
POINT
  5
E8
330
BB
100
AcDbEntity
  8
DEFPOINTS
  6
BYBLOCK
 62
     0
100
AcDbPoint
 10
50.7627549352682
 20
13.05380319603232
 30
0.0
  0
ENDBLK
  5
E9
330
BB
100
AcDbEntity
  8
0
100
AcDbBlockEnd
  0
BLOCK
  5
EA
330
BC
100
AcDbEntity
  8
0
100
AcDbBlockBegin
  2
*D3
 70
     1
 10
0.0
 20
0.0
 30
0.0
  3
*D3
  1

  0
LINE
  5
EB
330
BC
100
AcDbEntity
  8
0
  6
BYBLOCK
 62
     0
100
AcDbLine
 10
57.10839147087116
 20
16.38380319603232
 30
0.0
 11
58.04317554153707
 21
16.38380319603232
 31
0.0
  0
LINE
  5
EC
330
BC
100
AcDbEntity
  8
0
  6
BYBLOCK
 62
     0
100
AcDbLine
 10
57.10839147087116
 20
14.72380319603232
 30
0.0
 11
58.04317554153707
 21
14.72380319603232
 31
0.0
  0
LINE
  5
ED
330
BC
100
AcDbEntity
  8
0
  6
BYBLOCK
 62
     0
100
AcDbLine
 10
57.86317554153708
 20
16.38380319603232
 30
0.0
 11
57.86317554153708
 21
15.89755319603232
 31
0.0
  0
LINE
  5
EE
330
BC
100
AcDbEntity
  8
0
  6
BYBLOCK
 62
     0
100
AcDbLine
 10
57.86317554153708
 20
14.72380319603232
 30
0.0
 11
57.86317554153708
 21
15.21005319603232
 31
0.0
  0
LINE
  5
EF
330
BC
100
AcDbEntity
  8
0
  6
BYBLOCK
 62
     0
100
AcDbLine
 10
57.98817554153707
 20
16.25880319603232
 30
0.0
 11
57.73817554153708
 21
16.50880319603232
 31
0.0
  0
LINE
  5
F0
330
BC
100
AcDbEntity
  8
0
  6
BYBLOCK
 62
     0
100
AcDbLine
 10
57.98817554153707
 20
14.59880319603232
 30
0.0
 11
57.73817554153708
 21
14.84880319603232
 31
0.0
  0
TEXT
  5
F1
330
BC
100
AcDbEntity
  8
0
  6
BYBLOCK
 62
     0
100
AcDbText
 10
57.92567554153707
 20
15.33505319603232
 30
0.0
 40
0.125
  1
1.660
 50
90.0
 72
     1
 11
57.86317554153708
 21
15.55380319603232
 31
0.0
100
AcDbText
 73
     2
  0
POINT
  5
F2
330
BC
100
AcDbEntity
  8
DEFPOINTS
  6
BYBLOCK
 62
     0
100
AcDbPoint
 10
57.04589147087116
 20
16.38380319603232
 30
0.0
  0
POINT
  5
F3
330
BC
100
AcDbEntity
  8
DEFPOINTS
  6
BYBLOCK
 62
     0
100
AcDbPoint
 10
57.04589147087116
 20
14.72380319603232
 30
0.0
  0
POINT
  5
F4
330
BC
100
AcDbEntity
  8
DEFPOINTS
  6
BYBLOCK
 62
     0
100
AcDbPoint
 10
57.86317554153708
 20
14.72380319603232
 30
0.0
  0
ENDBLK
  5
F5
330
BC
100
AcDbEntity
  8
0
100
AcDbBlockEnd
  0
BLOCK
  5
F6
330
BD
100
AcDbEntity
  8
0
100
AcDbBlockBegin
  2
*D4
 70
     1
 10
0.0
 20
0.0
 30
0.0
  3
*D4
  1

  0
LINE
  5
F7
330
BD
100
AcDbEntity
  8
0
  6
BYBLOCK
 62
     0
100
AcDbLine
 10
59.26653746169053
 20
16.23153813842682
 30
0.0
 11
59.14903746169053
 21
16.23153813842682
 31
0.0
  0
LINE
  5
F8
330
BD
100
AcDbEntity
  8
0
  6
BYBLOCK
 62
     0
100
AcDbLine
 10
59.26653746169053
 20
16.37653813842682
 30
0.0
 11
59.14903746169053
 21
16.37653813842682
 31
0.0
  0
LINE
  5
F9
330
BD
100
AcDbEntity
  8
0
  6
BYBLOCK
 62
     0
100
AcDbLine
 10
59.32903746169053
 20
16.23153813842682
 30
0.0
 11
59.32903746169053
 21
15.98153813842682
 31
0.0
  0
LINE
  5
FA
330
BD
100
AcDbEntity
  8
0
  6
BYBLOCK
 62
     0
100
AcDbLine
 10
59.32903746169053
 20
16.37653813842682
 30
0.0
 11
59.32903746169053
 21
16.62653813842682
 31
0.0
  0
LINE
  5
FB
330
BD
100
AcDbEntity
  8
0
  6
BYBLOCK
 62
     0
100
AcDbLine
 10
59.45403746169053
 20
16.10653813842682
 30
0.0
 11
59.20403746169053
 21
16.35653813842682
 31
0.0
  0
LINE
  5
FC
330
BD
100
AcDbEntity
  8
0
  6
BYBLOCK
 62
     0
100
AcDbLine
 10
59.45403746169053
 20
16.25153813842682
 30
0.0
 11
59.20403746169053
 21
16.50153813842682
 31
0.0
  0
TEXT
  5
FD
330
BD
100
AcDbEntity
  8
0
  6
BYBLOCK
 62
     0
100
AcDbText
 10
59.39153746169053
 20
16.75153813842682
 30
0.0
 40
0.125
  1
0.145
 50
90.0
 72
     1
 11
59.32903746169053
 21
16.97028813842682
 31
0.0
100
AcDbText
 73
     2
  0
POINT
  5
FE
330
BD
100
AcDbEntity
  8
DEFPOINTS
  6
BYBLOCK
 62
     0
100
AcDbPoint
 10
59.32903746169053
 20
16.23153813842682
 30
0.0
  0
POINT
  5
FF
330
BD
100
AcDbEntity
  8
DEFPOINTS
  6
BYBLOCK
 62
     0
100
AcDbPoint
 10
59.32903746169053
 20
16.37653813842682
 30
0.0
  0
POINT
  5
100
330
BD
100
AcDbEntity
  8
DEFPOINTS
  6
BYBLOCK
 62
     0
100
AcDbPoint
 10
59.32903746169053
 20
16.37653813842682
 30
0.0
  0
ENDBLK
  5
101
330
BD
100
AcDbEntity
  8
0
100
AcDbBlockEnd
  0
ENDSEC
  0
SECTION
  2
ENTITIES
  0
LINE
  5
102
330
18
100
AcDbEntity
  8
ADP3DETAIL
  6
CENTER2
100
AcDbLine
 10
57.32518549760446
 20
15.55380319603232
 30
0.0
 11
50.7627549352682
 21
15.55380319603232
 31
0.0
  0
DIMENSION
  5
103
330
18
100
AcDbEntity
  8
ADPDIM
100
AcDbDimension
  2
*D1
 10
50.04589147087116
 20
16.78585808049192
 30
0.0
 11
53.54589147087116
 21
16.78585808049192
 31
0.0
100
AcDbAlignedDimension
 13
57.04589147087116
 23
16.38380319603232
 33
0.0
 14
50.04589147087116
 24
15.79095565134084
 34
0.0
100
AcDbRotatedDimension
  0
LINE
  5
104
330
18
100
AcDbEntity
  8
ADP1DETAIL
100
AcDbLine
 10
50.75415257369542
 20
16.38380319603232
 30
0.0
 11
57.04589147087116
 21
16.38380319603232
 31
0.0
  0
LINE
  5
105
330
18
100
AcDbEntity
  8
ADP1DETAIL
100
AcDbLine
 10
50.77135729684095
 20
14.72380319603232
 30
0.0
 11
57.04589147087116
 21
14.72380319603232
 31
0.0
  0
LINE
  5
106
330
18
100
AcDbEntity
  8
ADP3DETAIL
  6
CENTER2
100
AcDbLine
 10
49.43795677468518
 20
15.17392343642339
 30
0.0
 11
46.8625875452273
 21
13.56465413508481
 31
0.0
  0
DIMENSION
  5
107
330
18
100
AcDbEntity
  8
ADPDIM
100
AcDbDimension
  2
*D0
 10
49.42047274156774
 20
16.55468238364555
 30
0.0
 11
48.1484005973331
 21
15.75980348729574
 31
0.0
 70
     1
100
AcDbAlignedDimension
 13
47.50174718240187
 23
13.9640454033327
 33
0.0
 14
50.04589147087115
 24
15.55380319603231
 34
0.0
  0
ARC
  5
108
330
18
100
AcDbEntity
  8
ADP3DETAIL
  6
CENTER2
100
AcDbCircle
 10
50.7627549352682
 20
13.05380319603232
 30
0.0
 40
2.5
100
AcDbArc
 50
90.0
 51
122.0
  0
DIMENSION
  5
109
330
18
100
AcDbEntity
  8
ADPDIM
100
AcDbDimension
  2
*D2
 10
50.7627549352682
 20
13.05380319603232
 30
0.0
 11
50.88302837183314
 21
12.61185703061412
 31
0.0
 70
     4
100
AcDbRadialDimension
 15
50.10626888600671
 25
15.4660689498673
 35
0.0
 40
-2.49968643989812
  0
LINE
  5
10A
330
18
100
AcDbEntity
  8
ADP1DETAIL
100
AcDbLine
 10
47.06191419308832
 20
14.66792532314253
 30
0.0
 11
49.00541900172584
 21
15.88236191334853
 31
0.0
  0
ARC
  5
10B
330
18
100
AcDbEntity
  8
ADP1DETAIL
100
AcDbCircle
 10
50.77135729684095
 20
13.02380319603232
 30
0.0
 40
1.7
100
AcDbArc
 50
90.0
 51
122.0
  0
LINE
  5
10C
330
18
100
AcDbEntity
  8
ADP1DETAIL
100
AcDbLine
 10
49.8704945476445
 20
14.46548495949824
 30
0.0
 11
47.94158017171543
 21
13.26016548352286
 31
0.0
  0
LINE
  5
10D
330
18
100
AcDbEntity
  8
ADP1DETAIL
100
AcDbLine
 10
47.94158017171543
 20
13.26016548352286
 30
0.0
 11
47.06191419308832
 21
14.66792532314253
 31
0.0
  0
ARC
  5
10E
330
18
100
AcDbEntity
  8
ADP1DETAIL
100
AcDbCircle
 10
50.75415257369542
 20
13.08380319603232
 30
0.0
 40
3.299999999999999
100
AcDbArc
 50
90.0
 51
122.0
  0
CIRCLE
  5
10F
330
18
100
AcDbEntity
  8
ADP1DETAIL
100
AcDbCircle
 10
59.32903746169053
 20
15.55380319603232
 30
0.0
 40
0.6899999999999978
  0
CIRCLE
  5
110
330
18
100
AcDbEntity
  8
ADP1DETAIL
100
AcDbCircle
 10
59.32903746169053
 20
15.55380319603232
 30
0.0
 40
0.8299999999999998
  0
DIMENSION
  5
111
330
18
100
AcDbEntity
  8
ADPDIM
100
AcDbDimension
  2
*D3
 10
57.86317554153708
 20
14.72380319603232
 30
0.0
 11
57.86317554153708
 21
15.55380319603232
 31
0.0
  1
1.660
100
AcDbAlignedDimension
 13
57.04589147087116
 23
16.38380319603232
 33
0.0
 14
57.04589147087116
 24
14.72380319603232
 34
0.0
 50
90.0
100
AcDbRotatedDimension
  0
LINE
  5
112
330
18
100
AcDbEntity
  8
ADP1DETAIL
100
AcDbLine
 10
57.04589147087116
 20
16.38380319603232
 30
0.0
 11
57.04589147087116
 21
14.72380319603232
 31
0.0
  0
LINE
  5
113
330
18
100
AcDbEntity
  8
ADP1DETAIL
100
AcDbLine
 10
57.04589147087116
 20
16.38380319603232
 30
0.0
 11
57.04589147087116
 21
14.72380319603232
 31
0.0
  0
DIMENSION
  5
114
330
18
100
AcDbEntity
  8
ADPDIM
100
AcDbDimension
  2
*D4
 10
59.32903746169053
 20
16.37653813842682
 30
0.0
 11
59.32903746169053
 21
16.97028813842682
 31
0.0
  1
0.145
100
AcDbAlignedDimension
 13
59.32903746169053
 23
16.23153813842682
 33
0.0
 14
59.32903746169053
 24
16.37653813842682
 34
0.0
 50
90.0
100
AcDbRotatedDimension
  0
TEXT
  5
122
330
18
100
AcDbEntity
  8
ADPDIM
100
AcDbText
 10
44.58730969417342
 20
11.33877167071717
 30
0.0
 40
0.1875
  1
J U L I U S  B L U M  &  C O . ,  I N C .      ( 8 0 0 )  5 2 6 - 6 2 9 3        W W W . J U L I U S B L U M . C O M        P A R T  N o .  7 4 1 2
 41
1.25
  7
ARIAL_WIDE
 72
     1
 11
54.37590323100835
 21
11.52627167071717
 31
0.0
100
AcDbText
 73
     3
  0
ENDSEC
  0
SECTION
  2
OBJECTS
  0
DICTIONARY
  5
C
330
0
100
AcDbDictionary
  3
ACAD_GROUP
350
D
  3
ACAD_LAYOUT
350
11B
  3
ACAD_MLINESTYLE
350
E
  3
ACAD_PLOTSETTINGS
350
11C
  3
ACAD_PLOTSTYLENAME
350
119
  3
ACDBHEADERROUNDTRIPXREC
350
266
  3
ACDBVARIABLEDICTIONARY
350
17C
  0
DICTIONARY
  5
176
330
18
100
AcDbDictionary
280
     1
  3
ACAD_LAYOUTSELFREF
360
287
  0
DICTIONARY
  5
174
330
15
100
AcDbDictionary
280
     1
  3
ACAD_LAYOUTSELFREF
360
286
  0
DICTIONARY
  5
D
102
{ACAD_REACTORS
330
C
102
}
330
C
100
AcDbDictionary
  0
DICTIONARY
  5
11B
102
{ACAD_REACTORS
330
C
102
}
330
C
100
AcDbDictionary
  0
DICTIONARY
  5
E
102
{ACAD_REACTORS
330
C
102
}
330
C
100
AcDbDictionary
  3
STANDARD
350
1B
  0
DICTIONARY
  5
11C
102
{ACAD_REACTORS
330
C
102
}
330
C
100
AcDbDictionary
  0
ACDBDICTIONARYWDFLT
  5
119
102
{ACAD_REACTORS
330
C
102
}
330
C
100
AcDbDictionary
281
     1
  3
Normal
350
11A
100
AcDbDictionaryWithDefault
340
11A
  0
DICTIONARY
  5
266
102
{ACAD_REACTORS
330
C
102
}
330
C
100
AcDbDictionary
  3
CEPSNTYPE
350
270
  3
FINGERPRINTGUID
350
271
  3
HYPERLINKBASE
350
269
  3
INSUNITS
350
26F
  3
LAYOUTDICT
350
26B
  3
LWETCUNION
350
26E
  3
PLOTSETDICT
350
26C
  3
PLOTSTYLNAMDICT
350
26D
  3
PSVPSCALE
350
273
  3
PUCSBASE
350
276
  3
PUCSORGBACK
350
27C
  3
PUCSORGBOTTOM
350
278
  3
PUCSORGFRONT
350
27B
  3
PUCSORGLEFT
350
279
  3
PUCSORGRIGHT
350
27A
  3
PUCSORGTOP
350
277
  3
PUCSORTHOREF
350
274
  3
PUCSORTHOVIEW
350
275
  3
STYLESHEET
350
26A
  3
TSTACKALIGN
350
267
  3
TSTACKSIZE
350
268
  3
UCSBASE
350
27F
  3
UCSORGBACK
350
285
  3
UCSORGBOTTOM
350
281
  3
UCSORGFRONT
350
284
  3
UCSORGLEFT
350
282
  3
UCSORGRIGHT
350
283
  3
UCSORGTOP
350
280
  3
UCSORTHOREF
350
27D
  3
UCSORTHOVIEW
350
27E
  3
VERSIONGUID
350
272
  0
DICTIONARY
  5
17C
102
{ACAD_REACTORS
330
C
102
}
330
C
100
AcDbDictionary
  3
DIMASSOC
350
17D
  0
XRECORD
  5
287
102
{ACAD_REACTORS
330
176
102
}
330
176
100
AcDbXrecord
340
18
  0
XRECORD
  5
286
102
{ACAD_REACTORS
330
174
102
}
330
174
100
AcDbXrecord
340
15
  0
MLINESTYLE
  5
1B
102
{ACAD_REACTORS
330
E
102
}
330
E
100
AcDbMlineStyle
  2
STANDARD
 70
     0
  3

 62
     0
 51
90.0
 52
90.0
 71
     2
 49
0.5
 62
   256
  6
BYLAYER
 49
-0.5
 62
   256
  6
BYLAYER
  0
ACDBPLACEHOLDER
  5
11A
102
{ACAD_REACTORS
330
119
102
}
330
119
100
AcDbPlaceHolder
280
     0
  0
XRECORD
  5
270
102
{ACAD_REACTORS
330
266
102
}
330
266
100
AcDbXrecord
 90
        0
  0
XRECORD
  5
271
102
{ACAD_REACTORS
330
266
102
}
330
266
100
AcDbXrecord
  1
{0A9C6C18-1C97-4157-BA60-E0E116390957}
  0
XRECORD
  5
269
102
{ACAD_REACTORS
330
266
102
}
330
266
100
AcDbXrecord
  1

  0
XRECORD
  5
26F
102
{ACAD_REACTORS
330
266
102
}
330
266
100
AcDbXrecord
 90
        0
  0
XRECORD
  5
26B
102
{ACAD_REACTORS
330
266
102
}
330
266
100
AcDbXrecord
340
11B
  0
XRECORD
  5
26E
102
{ACAD_REACTORS
330
266
102
}
330
266
100
AcDbXrecord
 90
    14877
  0
XRECORD
  5
26C
102
{ACAD_REACTORS
330
266
102
}
330
266
100
AcDbXrecord
340
11C
  0
XRECORD
  5
26D
102
{ACAD_REACTORS
330
266
102
}
330
266
100
AcDbXrecord
340
119
  0
XRECORD
  5
273
102
{ACAD_REACTORS
330
266
102
}
330
266
100
AcDbXrecord
 40
0.0
  0
XRECORD
  5
276
102
{ACAD_REACTORS
330
266
102
}
330
266
100
AcDbXrecord
340
0
  0
XRECORD
  5
27C
102
{ACAD_REACTORS
330
266
102
}
330
266
100
AcDbXrecord
 10
0.0
 20
0.0
 30
0.0
  0
XRECORD
  5
278
102
{ACAD_REACTORS
330
266
102
}
330
266
100
AcDbXrecord
 10
0.0
 20
0.0
 30
0.0
  0
XRECORD
  5
27B
102
{ACAD_REACTORS
330
266
102
}
330
266
100
AcDbXrecord
 10
0.0
 20
0.0
 30
0.0
  0
XRECORD
  5
279
102
{ACAD_REACTORS
330
266
102
}
330
266
100
AcDbXrecord
 10
0.0
 20
0.0
 30
0.0
  0
XRECORD
  5
27A
102
{ACAD_REACTORS
330
266
102
}
330
266
100
AcDbXrecord
 10
0.0
 20
0.0
 30
0.0
  0
XRECORD
  5
277
102
{ACAD_REACTORS
330
266
102
}
330
266
100
AcDbXrecord
 10
0.0
 20
0.0
 30
0.0
  0
XRECORD
  5
274
102
{ACAD_REACTORS
330
266
102
}
330
266
100
AcDbXrecord
340
0
  0
XRECORD
  5
275
102
{ACAD_REACTORS
330
266
102
}
330
266
100
AcDbXrecord
 70
     0
  0
XRECORD
  5
26A
102
{ACAD_REACTORS
330
266
102
}
330
266
100
AcDbXrecord
  1

  0
XRECORD
  5
267
102
{ACAD_REACTORS
330
266
102
}
330
266
100
AcDbXrecord
 90
        1
  0
XRECORD
  5
268
102
{ACAD_REACTORS
330
266
102
}
330
266
100
AcDbXrecord
 90
       70
  0
XRECORD
  5
27F
102
{ACAD_REACTORS
330
266
102
}
330
266
100
AcDbXrecord
340
0
  0
XRECORD
  5
285
102
{ACAD_REACTORS
330
266
102
}
330
266
100
AcDbXrecord
 10
0.0
 20
0.0
 30
0.0
  0
XRECORD
  5
281
102
{ACAD_REACTORS
330
266
102
}
330
266
100
AcDbXrecord
 10
0.0
 20
0.0
 30
0.0
  0
XRECORD
  5
284
102
{ACAD_REACTORS
330
266
102
}
330
266
100
AcDbXrecord
 10
0.0
 20
0.0
 30
0.0
  0
XRECORD
  5
282
102
{ACAD_REACTORS
330
266
102
}
330
266
100
AcDbXrecord
 10
0.0
 20
0.0
 30
0.0
  0
XRECORD
  5
283
102
{ACAD_REACTORS
330
266
102
}
330
266
100
AcDbXrecord
 10
0.0
 20
0.0
 30
0.0
  0
XRECORD
  5
280
102
{ACAD_REACTORS
330
266
102
}
330
266
100
AcDbXrecord
 10
0.0
 20
0.0
 30
0.0
  0
XRECORD
  5
27D
102
{ACAD_REACTORS
330
266
102
}
330
266
100
AcDbXrecord
340
0
  0
XRECORD
  5
27E
102
{ACAD_REACTORS
330
266
102
}
330
266
100
AcDbXrecord
 70
     0
  0
XRECORD
  5
272
102
{ACAD_REACTORS
330
266
102
}
330
266
100
AcDbXrecord
  1
{32C7D110-45F6-43A3-A974-87B84790BB04}
  0
DICTIONARYVAR
  5
17D
102
{ACAD_REACTORS
330
17C
102
}
330
17C
100
DictionaryVariables
280
     0
  1
1
  0
ENDSEC
  0
EOF
