  0
SECTION
  2
HEADER
  9
$ACADVER
  1
AC1014
  9
$ACADMAINTVER
 70
     9
  9
$DWGCODEPAGE
  3
ANSI_1252
  9
$INSBASE
 10
30.62526733352811
 20
14.72217014767132
 30
0.0
  9
$EXTMIN
 10
17.21320118359783
 20
11.09090880699884
 30
0.0
  9
$EXTMAX
 10
36.79038825726768
 20
16.88165596050242
 30
0.0
  9
$LIMMIN
 10
0.0
 20
0.0
  9
$LIMMAX
 10
36.0
 20
36.0
  9
$ORTHOMODE
 70
     1
  9
$REGENMODE
 70
     1
  9
$FILLMODE
 70
     1
  9
$QTEXTMODE
 70
     0
  9
$MIRRTEXT
 70
     1
  9
$DRAGMODE
 70
     0
  9
$LTSCALE
 40
1.0
  9
$OSMODE
 70
    37
  9
$ATTMODE
 70
     1
  9
$TEXTSIZE
 40
0.2
  9
$TRACEWID
 40
0.05
  9
$TEXTSTYLE
  7
STANDARD
  9
$CLAYER
  8
0
  9
$CELTYPE
  6
BYLAYER
  9
$CECOLOR
 62
   256
  9
$CELTSCALE
 40
1.0
  9
$DELOBJ
 70
     1
  9
$DISPSILH
 70
     0
  9
$DIMSCALE
 40
1.0
  9
$DIMASZ
 40
0.125
  9
$DIMEXO
 40
0.0625
  9
$DIMDLI
 40
0.38
  9
$DIMRND
 40
0.0
  9
$DIMDLE
 40
0.0
  9
$DIMEXE
 40
0.18
  9
$DIMTP
 40
0.0
  9
$DIMTM
 40
0.0
  9
$DIMTXT
 40
0.125
  9
$DIMCEN
 40
0.1875
  9
$DIMTSZ
 40
0.125
  9
$DIMTOL
 70
     0
  9
$DIMLIM
 70
     0
  9
$DIMTIH
 70
     0
  9
$DIMTOH
 70
     0
  9
$DIMSE1
 70
     0
  9
$DIMSE2
 70
     0
  9
$DIMTAD
 70
     0
  9
$DIMZIN
 70
     3
  9
$DIMBLK
  1

  9
$DIMASO
 70
     1
  9
$DIMSHO
 70
     1
  9
$DIMPOST
  1

  9
$DIMAPOST
  1

  9
$DIMALT
 70
     0
  9
$DIMALTD
 70
     1
  9
$DIMALTF
 40
25.4
  9
$DIMLFAC
 40
1.0
  9
$DIMTOFL
 70
     0
  9
$DIMTVP
 40
0.0
  9
$DIMTIX
 70
     0
  9
$DIMSOXD
 70
     0
  9
$DIMSAH
 70
     0
  9
$DIMBLK1
  1

  9
$DIMBLK2
  1

  9
$DIMSTYLE
  2
STANDARD
  9
$DIMCLRD
 70
     0
  9
$DIMCLRE
 70
     0
  9
$DIMCLRT
 70
     0
  9
$DIMTFAC
 40
1.0
  9
$DIMGAP
 40
0.125
  9
$DIMJUST
 70
     0
  9
$DIMSD1
 70
     0
  9
$DIMSD2
 70
     0
  9
$DIMTOLJ
 70
     1
  9
$DIMTZIN
 70
     0
  9
$DIMALTZ
 70
     0
  9
$DIMALTTZ
 70
     0
  9
$DIMFIT
 70
     3
  9
$DIMUPT
 70
     0
  9
$DIMUNIT
 70
     2
  9
$DIMDEC
 70
     4
  9
$DIMTDEC
 70
     4
  9
$DIMALTU
 70
     2
  9
$DIMALTTD
 70
     2
  9
$DIMTXSTY
  7
STANDARD
  9
$DIMAUNIT
 70
     0
  9
$LUNITS
 70
     5
  9
$LUPREC
 70
     4
  9
$SKETCHINC
 40
0.1
  9
$FILLETRAD
 40
0.062
  9
$AUNITS
 70
     0
  9
$AUPREC
 70
     0
  9
$MENU
  1
acad
  9
$ELEVATION
 40
0.0
  9
$PELEVATION
 40
0.0
  9
$THICKNESS
 40
0.0
  9
$LIMCHECK
 70
     0
  9
$BLIPMODE
 70
     0
  9
$CHAMFERA
 40
0.0
  9
$CHAMFERB
 40
0.0
  9
$CHAMFERC
 40
0.0
  9
$CHAMFERD
 40
0.0
  9
$SKPOLY
 70
     0
  9
$TDCREATE
 40
2450387.484075995
  9
$TDUPDATE
 40
2452297.100999340
  9
$TDINDWG
 40
0.0441743866
  9
$TDUSRTIMER
 40
0.0441743866
  9
$USRTIMER
 70
     1
  9
$ANGBASE
 50
0.0
  9
$ANGDIR
 70
     0
  9
$PDMODE
 70
     0
  9
$PDSIZE
 40
0.0
  9
$PLINEWID
 40
0.0
  9
$COORDS
 70
     2
  9
$SPLFRAME
 70
     0
  9
$SPLINETYPE
 70
     6
  9
$SPLINESEGS
 70
     8
  9
$ATTDIA
 70
     0
  9
$ATTREQ
 70
     1
  9
$HANDLING
 70
 22529
  9
$HANDSEED
  5
29F
  9
$SURFTAB1
 70
     6
  9
$SURFTAB2
 70
     6
  9
$SURFTYPE
 70
     6
  9
$SURFU
 70
     6
  9
$SURFV
 70
     6
  9
$UCSNAME
  2

  9
$UCSORG
 10
0.0
 20
0.0
 30
0.0
  9
$UCSXDIR
 10
1.0
 20
0.0
 30
0.0
  9
$UCSYDIR
 10
0.0
 20
1.0
 30
0.0
  9
$PUCSNAME
  2

  9
$PUCSORG
 10
0.0
 20
0.0
 30
0.0
  9
$PUCSXDIR
 10
1.0
 20
0.0
 30
0.0
  9
$PUCSYDIR
 10
0.0
 20
1.0
 30
0.0
  9
$USERI1
 70
     0
  9
$USERI2
 70
     0
  9
$USERI3
 70
     0
  9
$USERI4
 70
     0
  9
$USERI5
 70
     0
  9
$USERR1
 40
0.0
  9
$USERR2
 40
0.0
  9
$USERR3
 40
0.0
  9
$USERR4
 40
0.0
  9
$USERR5
 40
0.0
  9
$WORLDVIEW
 70
     1
  9
$SHADEDGE
 70
     3
  9
$SHADEDIF
 70
    70
  9
$TILEMODE
 70
     1
  9
$MAXACTVP
 70
    15
  9
$PINSBASE
 10
6.514626592329270E+99
 20
8.883817320090811E+99
 30
0.0
  9
$PLIMCHECK
 70
     0
  9
$PEXTMIN
 10
1.000000000000000E+20
 20
1.000000000000000E+20
 30
1.000000000000000E+20
  9
$PEXTMAX
 10
-1.000000000000000E+20
 20
-1.000000000000000E+20
 30
-1.000000000000000E+20
  9
$PLIMMIN
 10
0.0
 20
0.0
  9
$PLIMMAX
 10
12.0
 20
9.0
  9
$UNITMODE
 70
     0
  9
$VISRETAIN
 70
     0
  9
$PLINEGEN
 70
     0
  9
$PSLTSCALE
 70
     1
  9
$TREEDEPTH
 70
  3020
  9
$PICKSTYLE
 70
     1
  9
$CMLSTYLE
  2
STANDARD
  9
$CMLJUST
 70
     0
  9
$CMLSCALE
 40
1.0
  9
$PROXYGRAPHICS
 70
     1
  9
$MEASUREMENT
 70
     0
  0
ENDSEC
  0
SECTION
  2
CLASSES
  0
CLASS
  1
ACDBDICTIONARYWDFLT
  2
AcDbDictionaryWithDefault
  3
AutoCAD 2000
 90
        0
280
     0
281
     0
  0
CLASS
  1
ACDBPLACEHOLDER
  2
AcDbPlaceHolder
  3
AutoCAD 2000
 90
        0
280
     0
281
     0
  0
CLASS
  1
LAYOUT
  2
AcDbLayout
  3
AutoCAD 2000
 90
        0
280
     0
281
     0
  0
CLASS
  1
DICTIONARYVAR
  2
AcDbDictionaryVar
  3
AutoCAD 2000
 90
        0
280
     0
281
     0
  0
CLASS
  1
LONG_TRANSACTION
  2
AcDbLongTransaction
  3
AutoCAD 2000
 90
        0
280
     0
281
     0
  0
CLASS
  1
LWPOLYLINE
  2
AcDbPolyline
  3
AutoCAD 2000
 90
        0
280
     0
281
     1
  0
CLASS
  1
HATCH
  2
AcDbHatch
  3
AutoCAD 2000
 90
        0
280
     0
281
     1
  0
CLASS
  1
XRECORD
  2
AcDbXrecord
  3
AutoCAD 2000
 90
        0
280
     0
281
     0
  0
CLASS
  1
LONG_TRANSACTION
  2
AcDbLongTransaction
  3
AutoCAD 2000
 90
        0
280
     0
281
     0
  0
CLASS
  1
LWPOLYLINE
  2
AcDbPolyline
  3
AutoCAD 2000
 90
        0
280
     0
281
     1
  0
CLASS
  1
HATCH
  2
AcDbHatch
  3
AutoCAD 2000
 90
        0
280
     0
281
     1
  0
CLASS
  1
XRECORD
  2
AcDbXrecord
  3
AutoCAD 2000
 90
        0
280
     0
281
     0
  0
CLASS
  1
LONG_TRANSACTION
  2
AcDbLongTransaction
  3
AutoCAD 2000
 90
        0
280
     0
281
     0
  0
CLASS
  1
LWPOLYLINE
  2
AcDbPolyline
  3
AutoCAD 2000
 90
        0
280
     0
281
     1
  0
CLASS
  1
HATCH
  2
AcDbHatch
  3
AutoCAD 2000
 90
        0
280
     0
281
     1
  0
CLASS
  1
XRECORD
  2
AcDbXrecord
  3
AutoCAD 2000
 90
        0
280
     0
281
     0
  0
CLASS
  1
LONG_TRANSACTION
  2
AcDbLongTransaction
  3
AutoCAD 2000
 90
        0
280
     0
281
     0
  0
CLASS
  1
LWPOLYLINE
  2
AcDbPolyline
  3
AutoCAD 2000
 90
        0
280
     0
281
     1
  0
CLASS
  1
HATCH
  2
AcDbHatch
  3
AutoCAD 2000
 90
        0
280
     0
281
     1
  0
CLASS
  1
XRECORD
  2
AcDbXrecord
  3
AutoCAD 2000
 90
        0
280
     0
281
     0
  0
CLASS
  1
LONG_TRANSACTION
  2
AcDbLongTransaction
  3
AutoCAD 2000
 90
        0
280
     0
281
     0
  0
CLASS
  1
LWPOLYLINE
  2
AcDbPolyline
  3
AutoCAD 2000
 90
        0
280
     0
281
     1
  0
CLASS
  1
HATCH
  2
AcDbHatch
  3
AutoCAD 2000
 90
        0
280
     0
281
     1
  0
CLASS
  1
XRECORD
  2
AcDbXrecord
  3
AutoCAD 2000
 90
        0
280
     0
281
     0
  0
ENDSEC
  0
SECTION
  2
TABLES
  0
TABLE
  2
VPORT
  5
8
330
0
100
AcDbSymbolTable
 70
     2
  0
VPORT
  5
27C
330
8
100
AcDbSymbolTableRecord
100
AcDbViewportTableRecord
  2
*ACTIVE
 70
     0
 10
0.0
 20
0.0
 11
1.0
 21
1.0
 12
27.01695928445639
 22
13.98587044047409
 13
0.0
 23
0.0
 14
0.5740882589684922
 24
0.5740882589684922
 15
0.5
 25
0.5
 16
0.0
 26
0.0
 36
1.0
 17
0.0
 27
0.0
 37
0.0
 40
12.54667476713802
 41
1.570528967254408
 42
50.0
 43
0.0
 44
0.0
 50
0.0
 51
0.0
 71
     0
 72
   100
 73
     1
 74
     0
 75
     0
 76
     0
 77
     0
 78
     0
  0
ENDTAB
  0
TABLE
  2
LTYPE
  5
5
330
0
100
AcDbSymbolTable
 70
     2
  0
LTYPE
  5
12
330
5
100
AcDbSymbolTableRecord
100
AcDbLinetypeTableRecord
  2
BYBLOCK
 70
     0
  3

 72
    65
 73
     0
 40
0.0
  0
LTYPE
  5
13
330
5
100
AcDbSymbolTableRecord
100
AcDbLinetypeTableRecord
  2
BYLAYER
 70
     0
  3

 72
    65
 73
     0
 40
0.0
  0
LTYPE
  5
14
330
5
100
AcDbSymbolTableRecord
100
AcDbLinetypeTableRecord
  2
CONTINUOUS
 70
     0
  3
Solid line
 72
    65
 73
     0
 40
0.0
  0
LTYPE
  5
D7
330
5
100
AcDbSymbolTableRecord
100
AcDbLinetypeTableRecord
  2
CENTER2
 70
     0
  3
___ _ ___ _ ___ _ ___ _ ___ _ ___ _ ___ _ ___ _
 72
    65
 73
     4
 40
1.125
 49
0.75
 74
     0
 49
-0.125
 74
     0
 49
0.125
 74
     0
 49
-0.125
 74
     0
  0
ENDTAB
  0
TABLE
  2
LAYER
  5
2
330
0
100
AcDbSymbolTable
 70
     5
  0
LAYER
  5
F
330
2
100
AcDbSymbolTableRecord
100
AcDbLayerTableRecord
  2
0
 70
     0
 62
     7
  6
CONTINUOUS
  0
LAYER
  5
D8
330
2
100
AcDbSymbolTableRecord
100
AcDbLayerTableRecord
  2
ADP1DETAIL
 70
     0
 62
     7
  6
CONTINUOUS
  0
LAYER
  5
D9
330
2
100
AcDbSymbolTableRecord
100
AcDbLayerTableRecord
  2
DEFPOINTS
 70
     0
 62
     7
  6
CONTINUOUS
  0
LAYER
  5
DC
330
2
100
AcDbSymbolTableRecord
100
AcDbLayerTableRecord
  2
ADPDIM
 70
     0
 62
     3
  6
CONTINUOUS
  0
LAYER
  5
DD
330
2
100
AcDbSymbolTableRecord
100
AcDbLayerTableRecord
  2
ADP3DETAIL
 70
     0
 62
     1
  6
CONTINUOUS
  0
ENDTAB
  0
TABLE
  2
STYLE
  5
3
330
0
100
AcDbSymbolTable
 70
     2
  0
STYLE
  5
10
330
3
100
AcDbSymbolTableRecord
100
AcDbTextStyleTableRecord
  2
STANDARD
 70
     0
 40
0.0
 41
1.0
 50
0.0
 71
     0
 42
0.2
  3
txt
  4

  0
STYLE
  5
138
330
3
100
AcDbSymbolTableRecord
100
AcDbTextStyleTableRecord
  2
ARIAL_WIDE
 70
     0
 40
0.0
 41
1.25
 50
0.0
 71
     0
 42
0.2
  3
ARIAL.TTF
  4

1001
ACAD
1000
Arial
1071
       34
  0
ENDTAB
  0
TABLE
  2
VIEW
  5
6
330
0
100
AcDbSymbolTable
 70
     0
  0
ENDTAB
  0
TABLE
  2
UCS
  5
7
330
0
100
AcDbSymbolTable
 70
     0
  0
ENDTAB
  0
TABLE
  2
APPID
  5
9
330
0
100
AcDbSymbolTable
 70
     1
  0
APPID
  5
11
330
9
100
AcDbSymbolTableRecord
100
AcDbRegAppTableRecord
  2
ACAD
 70
     0
  0
ENDTAB
  0
TABLE
  2
DIMSTYLE
  5
A
330
0
100
AcDbSymbolTable
 70
     1
  0
DIMSTYLE
105
12C
330
A
100
AcDbSymbolTableRecord
100
AcDbDimStyleTableRecord
  2
STANDARD
 70
     0
  3

  4

  5

  6

  7

 40
1.0
 41
0.18
 42
0.0625
 43
0.38
 44
0.18
 45
0.0
 46
0.0
 47
0.0
 48
0.0
140
0.18
141
0.09
142
0.0
143
25.4
144
1.0
145
0.0
146
1.0
147
0.09
 71
     0
 72
     0
 73
     1
 74
     1
 75
     0
 76
     0
 77
     0
 78
     0
170
     0
171
     2
172
     0
173
     0
174
     0
175
     0
176
     0
177
     0
178
     0
270
     2
271
     4
272
     4
273
     2
274
     2
340
10
275
     0
280
     0
281
     0
282
     0
283
     1
284
     0
285
     0
286
     0
287
     3
288
     0
  0
ENDTAB
  0
TABLE
  2
BLOCK_RECORD
  5
1
330
0
100
AcDbSymbolTable
 70
     5
  0
BLOCK_RECORD
  5
18
102
{ACAD_XDICTIONARY
360
18D
102
}
330
1
100
AcDbSymbolTableRecord
100
AcDbBlockTableRecord
  2
*MODEL_SPACE
  0
BLOCK_RECORD
  5
15
102
{ACAD_XDICTIONARY
360
18B
102
}
330
1
100
AcDbSymbolTableRecord
100
AcDbBlockTableRecord
  2
*PAPER_SPACE
  0
BLOCK_RECORD
  5
D1
330
1
100
AcDbSymbolTableRecord
100
AcDbBlockTableRecord
  2
*D0
  0
BLOCK_RECORD
  5
D2
330
1
100
AcDbSymbolTableRecord
100
AcDbBlockTableRecord
  2
*D1
  0
BLOCK_RECORD
  5
D3
330
1
100
AcDbSymbolTableRecord
100
AcDbBlockTableRecord
  2
*D2
  0
BLOCK_RECORD
  5
D4
330
1
100
AcDbSymbolTableRecord
100
AcDbBlockTableRecord
  2
*D3
  0
BLOCK_RECORD
  5
D5
330
1
100
AcDbSymbolTableRecord
100
AcDbBlockTableRecord
  2
*D4
  0
ENDTAB
  0
ENDSEC
  0
SECTION
  2
BLOCKS
  0
BLOCK
  5
E0
330
18
100
AcDbEntity
  8
0
100
AcDbBlockBegin
  2
*MODEL_SPACE
 70
     0
 10
0.0
 20
0.0
 30
0.0
  3
*MODEL_SPACE
  1

  0
ENDBLK
  5
E1
330
18
100
AcDbEntity
  8
0
100
AcDbBlockEnd
  0
BLOCK
  5
DE
330
15
100
AcDbEntity
 67
     1
  8
0
100
AcDbBlockBegin
  2
*PAPER_SPACE
 70
     0
 10
0.0
 20
0.0
 30
0.0
  3
*PAPER_SPACE
  1

  0
ENDBLK
  5
DF
330
15
100
AcDbEntity
 67
     1
  8
0
100
AcDbBlockEnd
  0
BLOCK
  5
E3
330
D1
100
AcDbEntity
  8
0
100
AcDbBlockBegin
  2
*D0
 70
     1
 10
0.0
 20
0.0
 30
0.0
  3
*D0
  1

  0
LINE
  5
E4
330
D1
100
AcDbEntity
  8
0
  6
BYBLOCK
 62
     0
100
AcDbLine
 10
30.62526733352811
 20
16.44467014767131
 30
0.0
 11
30.62526733352811
 21
16.88165596050242
 31
0.0
  0
LINE
  5
E5
330
D1
100
AcDbEntity
  8
0
  6
BYBLOCK
 62
     0
100
AcDbLine
 10
23.62526733352811
 20
16.01871587240201
 30
0.0
 11
23.62526733352811
 21
16.88165596050242
 31
0.0
  0
LINE
  5
E6
330
D1
100
AcDbEntity
  8
0
  6
BYBLOCK
 62
     0
100
AcDbLine
 10
30.62526733352811
 20
16.70165596050242
 30
0.0
 11
27.29193400019477
 21
16.70165596050242
 31
0.0
  0
LINE
  5
E7
330
D1
100
AcDbEntity
  8
0
  6
BYBLOCK
 62
     0
100
AcDbLine
 10
23.62526733352811
 20
16.70165596050242
 30
0.0
 11
26.95860066686144
 21
16.70165596050242
 31
0.0
  0
LINE
  5
E8
330
D1
100
AcDbEntity
  8
0
  6
BYBLOCK
 62
     0
100
AcDbLine
 10
30.50026733352811
 20
16.57665596050242
 30
0.0
 11
30.75026733352811
 21
16.82665596050242
 31
0.0
  0
LINE
  5
E9
330
D1
100
AcDbEntity
  8
0
  6
BYBLOCK
 62
     0
100
AcDbLine
 10
23.50026733352811
 20
16.57665596050242
 30
0.0
 11
23.75026733352811
 21
16.82665596050242
 31
0.0
  0
TEXT
  5
EA
330
D1
100
AcDbEntity
  8
0
  6
BYBLOCK
 62
     0
100
AcDbText
 10
27.08360066686144
 20
16.63915596050242
 30
0.0
 40
0.125
  1
7
 72
     1
 11
27.12526733352811
 21
16.70165596050242
 31
0.0
100
AcDbText
 73
     2
  0
POINT
  5
EB
330
D1
100
AcDbEntity
  8
DEFPOINTS
  6
BYBLOCK
 62
     0
100
AcDbPoint
 10
30.62526733352811
 20
16.38217014767131
 30
0.0
  0
POINT
  5
EC
330
D1
100
AcDbEntity
  8
DEFPOINTS
  6
BYBLOCK
 62
     0
100
AcDbPoint
 10
23.62526733352811
 20
15.95621587240201
 30
0.0
  0
POINT
  5
ED
330
D1
100
AcDbEntity
  8
DEFPOINTS
  6
BYBLOCK
 62
     0
100
AcDbPoint
 10
23.62526733352811
 20
16.70165596050242
 30
0.0
  0
ENDBLK
  5
EE
330
D1
100
AcDbEntity
  8
0
100
AcDbBlockEnd
  0
BLOCK
  5
EF
330
D2
100
AcDbEntity
  8
0
100
AcDbBlockBegin
  2
*D1
 70
     1
 10
0.0
 20
0.0
 30
0.0
  3
*D1
  1

  0
LINE
  5
F0
330
D2
100
AcDbEntity
  8
0
  6
BYBLOCK
 62
     0
100
AcDbLine
 10
20.62900001168368
 20
15.45476514575552
 30
0.0
 11
20.54392026147586
 21
16.67146225868194
 31
0.0
  0
LINE
  5
F1
330
D2
100
AcDbEntity
  8
0
  6
BYBLOCK
 62
     0
100
AcDbLine
 10
23.62169216246317
 20
15.6640345669879
 30
0.0
 11
23.53661241225535
 21
16.88073167991432
 31
0.0
  0
LINE
  5
F2
330
D2
100
AcDbEntity
  8
0
  6
BYBLOCK
 62
     0
100
AcDbLine
 10
20.55647642674981
 20
16.49190072963517
 30
0.0
 11
21.88656182709624
 21
16.58490936129401
 31
0.0
  0
LINE
  5
F3
330
D2
100
AcDbEntity
  8
0
  6
BYBLOCK
 62
     0
100
AcDbLine
 10
23.54916857752929
 20
16.70117015086755
 30
0.0
 11
22.21908317718285
 21
16.60816151920872
 31
0.0
  0
LINE
  5
F4
330
D2
100
AcDbEntity
  8
0
  6
BYBLOCK
 62
     0
100
AcDbLine
 10
20.44050047968534
 20
16.35848566413468
 30
0.0
 11
20.67245237381427
 21
16.62531579513567
 31
0.0
  0
LINE
  5
F5
330
D2
100
AcDbEntity
  8
0
  6
BYBLOCK
 62
     0
100
AcDbLine
 10
23.43319263046482
 20
16.56775508536706
 30
0.0
 11
23.66514452459375
 21
16.83458521636804
 31
0.0
  0
TEXT
  5
F6
330
D2
100
AcDbEntity
  8
0
  6
BYBLOCK
 62
     0
100
AcDbText
 10
22.01561711298773
 20
16.53128116737079
 30
0.0
 40
0.125
  1
3
 50
4.000000000000018
 72
     1
 11
22.05282250213955
 21
16.59653544025136
 31
0.0
100
AcDbText
 73
     2
  0
POINT
  5
F7
330
D2
100
AcDbEntity
  8
DEFPOINTS
  6
BYBLOCK
 62
     0
100
AcDbPoint
 10
20.63335979129269
 20
15.39241739261429
 30
0.0
  0
POINT
  5
F8
330
D2
100
AcDbEntity
  8
DEFPOINTS
  6
BYBLOCK
 62
     0
100
AcDbPoint
 10
23.62605194207217
 20
15.60168681384666
 30
0.0
  0
POINT
  5
F9
330
D2
100
AcDbEntity
  8
DEFPOINTS
  6
BYBLOCK
 62
     0
100
AcDbPoint
 10
23.54916857752929
 20
16.70117015086755
 30
0.0
  0
ENDBLK
  5
FA
330
D2
100
AcDbEntity
  8
0
100
AcDbBlockEnd
  0
BLOCK
  5
FB
330
D3
100
AcDbEntity
  8
0
100
AcDbBlockBegin
  2
*D2
 70
     1
 10
0.0
 20
0.0
 30
0.0
  3
*D2
  1

  0
LINE
  5
FC
330
D3
100
AcDbEntity
  8
0
  6
BYBLOCK
 62
     0
100
AcDbLine
 10
23.62267877374124
 20
15.54732971585838
 30
0.0
 11
23.77847640944294
 21
13.04731565744845
 31
0.0
  0
LINE
  5
FD
330
D3
100
AcDbEntity
  8
0
  6
BYBLOCK
 62
     0
100
AcDbLine
 10
23.49014603982372
 20
15.66431293875957
 30
0.0
 11
23.75521150765874
 21
15.43034649295718
 31
0.0
  0
TEXT
  5
FE
330
D3
100
AcDbEntity
  8
0
  6
BYBLOCK
 62
     0
100
AcDbText
 10
23.72387217574642
 20
12.91867030128502
 30
0.0
 40
0.125
  1
R2 1/2
 50
273.5659871718144
 72
     1
 11
23.8069838463062
 21
12.58986973661416
 31
0.0
100
AcDbText
 73
     2
  0
POINT
  5
FF
330
D3
100
AcDbEntity
  8
DEFPOINTS
  6
BYBLOCK
 62
     0
100
AcDbPoint
 10
23.62267877374124
 20
15.54732971585838
 30
0.0
  0
POINT
  5
100
330
D3
100
AcDbEntity
  8
DEFPOINTS
  6
BYBLOCK
 62
     0
100
AcDbPoint
 10
23.77817388390445
 20
13.05217014767131
 30
0.0
  0
ENDBLK
  5
101
330
D3
100
AcDbEntity
  8
0
100
AcDbBlockEnd
  0
BLOCK
  5
102
330
D4
100
AcDbEntity
  8
0
100
AcDbBlockBegin
  2
*D3
 70
     1
 10
0.0
 20
0.0
 30
0.0
  3
*D3
  1

  0
LINE
  5
103
330
D4
100
AcDbEntity
  8
0
  6
BYBLOCK
 62
     0
100
AcDbLine
 10
33.71992604647086
 20
15.64285014302956
 30
0.0
 11
33.71992604647086
 21
15.76035014302956
 31
0.0
  0
LINE
  5
104
330
D4
100
AcDbEntity
  8
0
  6
BYBLOCK
 62
     0
100
AcDbLine
 10
33.85992604647086
 20
15.64285014302956
 30
0.0
 11
33.85992604647086
 21
15.76035014302956
 31
0.0
  0
LINE
  5
105
330
D4
100
AcDbEntity
  8
0
  6
BYBLOCK
 62
     0
100
AcDbLine
 10
33.71992604647086
 20
15.58035014302956
 30
0.0
 11
33.46992604647086
 21
15.58035014302956
 31
0.0
  0
LINE
  5
106
330
D4
100
AcDbEntity
  8
0
  6
BYBLOCK
 62
     0
100
AcDbLine
 10
33.85992604647086
 20
15.58035014302956
 30
0.0
 11
34.10992604647086
 21
15.58035014302956
 31
0.0
  0
LINE
  5
107
330
D4
100
AcDbEntity
  8
0
  6
BYBLOCK
 62
     0
100
AcDbLine
 10
33.59492604647086
 20
15.45535014302956
 30
0.0
 11
33.84492604647086
 21
15.70535014302956
 31
0.0
  0
LINE
  5
108
330
D4
100
AcDbEntity
  8
0
  6
BYBLOCK
 62
     0
100
AcDbLine
 10
33.73492604647086
 20
15.45535014302956
 30
0.0
 11
33.98492604647086
 21
15.70535014302956
 31
0.0
  0
TEXT
  5
109
330
D4
100
AcDbEntity
  8
0
  6
BYBLOCK
 62
     0
100
AcDbText
 10
34.23492604647086
 20
15.51785014302956
 30
0.0
 40
0.125
  1
0.140
 72
     1
 11
34.44325937980419
 21
15.58035014302956
 31
0.0
100
AcDbText
 73
     2
  0
POINT
  5
10A
330
D4
100
AcDbEntity
  8
DEFPOINTS
  6
BYBLOCK
 62
     0
100
AcDbPoint
 10
33.71992604647086
 20
15.58035014302956
 30
0.0
  0
POINT
  5
10B
330
D4
100
AcDbEntity
  8
DEFPOINTS
  6
BYBLOCK
 62
     0
100
AcDbPoint
 10
33.85992604647086
 20
15.58035014302956
 30
0.0
  0
POINT
  5
10C
330
D4
100
AcDbEntity
  8
DEFPOINTS
  6
BYBLOCK
 62
     0
100
AcDbPoint
 10
33.85992604647086
 20
15.58035014302956
 30
0.0
  0
ENDBLK
  5
10D
330
D4
100
AcDbEntity
  8
0
100
AcDbBlockEnd
  0
BLOCK
  5
10E
330
D5
100
AcDbEntity
  8
0
100
AcDbBlockBegin
  2
*D4
 70
     1
 10
0.0
 20
0.0
 30
0.0
  3
*D4
  1

  0
LINE
  5
10F
330
D5
100
AcDbEntity
  8
0
  6
BYBLOCK
 62
     0
100
AcDbLine
 10
30.68776733352811
 20
14.72217014767132
 30
0.0
 11
31.51200362848461
 21
14.72217014767132
 31
0.0
  0
LINE
  5
110
330
D5
100
AcDbEntity
  8
0
  6
BYBLOCK
 62
     0
100
AcDbLine
 10
30.68776733352811
 20
16.38217014767131
 30
0.0
 11
31.51200362848461
 21
16.38217014767131
 31
0.0
  0
LINE
  5
111
330
D5
100
AcDbEntity
  8
0
  6
BYBLOCK
 62
     0
100
AcDbLine
 10
31.33200362848461
 20
14.72217014767132
 30
0.0
 11
31.33200362848461
 21
15.20842014767131
 31
0.0
  0
LINE
  5
112
330
D5
100
AcDbEntity
  8
0
  6
BYBLOCK
 62
     0
100
AcDbLine
 10
31.33200362848461
 20
16.38217014767131
 30
0.0
 11
31.33200362848461
 21
15.89592014767132
 31
0.0
  0
LINE
  5
113
330
D5
100
AcDbEntity
  8
0
  6
BYBLOCK
 62
     0
100
AcDbLine
 10
31.45700362848461
 20
14.59717014767131
 30
0.0
 11
31.20700362848461
 21
14.84717014767132
 31
0.0
  0
LINE
  5
114
330
D5
100
AcDbEntity
  8
0
  6
BYBLOCK
 62
     0
100
AcDbLine
 10
31.45700362848461
 20
16.25717014767131
 30
0.0
 11
31.20700362848461
 21
16.50717014767131
 31
0.0
  0
TEXT
  5
115
330
D5
100
AcDbEntity
  8
0
  6
BYBLOCK
 62
     0
100
AcDbText
 10
31.39450362848461
 20
15.33342014767131
 30
0.0
 40
0.125
  1
1.660
 50
90.0
 72
     1
 11
31.33200362848461
 21
15.55217014767132
 31
0.0
100
AcDbText
 73
     2
  0
POINT
  5
116
330
D5
100
AcDbEntity
  8
DEFPOINTS
  6
BYBLOCK
 62
     0
100
AcDbPoint
 10
30.62526733352811
 20
14.72217014767132
 30
0.0
  0
POINT
  5
117
330
D5
100
AcDbEntity
  8
DEFPOINTS
  6
BYBLOCK
 62
     0
100
AcDbPoint
 10
30.62526733352811
 20
16.38217014767131
 30
0.0
  0
POINT
  5
118
330
D5
100
AcDbEntity
  8
DEFPOINTS
  6
BYBLOCK
 62
     0
100
AcDbPoint
 10
31.33200362848461
 20
16.38217014767131
 30
0.0
  0
ENDBLK
  5
119
330
D5
100
AcDbEntity
  8
0
100
AcDbBlockEnd
  0
ENDSEC
  0
SECTION
  2
ENTITIES
  0
LINE
  5
11A
330
18
100
AcDbEntity
  8
ADP3DETAIL
  6
CENTER2
100
AcDbLine
 10
30.8017722060811
 20
15.55217014767131
 30
0.0
 11
23.77817388390445
 21
15.55217014767131
 31
0.0
  0
DIMENSION
  5
11B
330
18
100
AcDbEntity
  8
ADPDIM
100
AcDbDimension
  2
*D0
 10
23.62526733352811
 20
16.70165596050242
 30
0.0
 11
27.12526733352811
 21
16.70165596050242
 31
0.0
100
AcDbAlignedDimension
 13
30.62526733352811
 23
16.38217014767131
 33
0.0
 14
23.62526733352811
 24
15.95621587240201
 34
0.0
100
AcDbRotatedDimension
  0
LINE
  5
11C
330
18
100
AcDbEntity
  8
ADP1DETAIL
100
AcDbLine
 10
23.71152163417259
 20
16.38217014767131
 30
0.0
 11
30.62526733352811
 21
16.38217014767131
 31
0.0
  0
LINE
  5
11D
330
18
100
AcDbEntity
  8
ADP1DETAIL
100
AcDbLine
 10
23.71361688034221
 20
14.72217014767132
 30
0.0
 11
30.62526733352811
 21
14.72217014767132
 31
0.0
  0
LINE
  5
11E
330
18
100
AcDbEntity
  8
ADP3DETAIL
  6
CENTER2
100
AcDbLine
 10
23.53817807289722
 20
15.54608027332086
 30
0.0
 11
19.88072787678539
 21
15.29032644126461
 31
0.0
  0
DIMENSION
  5
11F
330
18
100
AcDbEntity
  8
ADPDIM
100
AcDbDimension
  2
*D1
 10
23.54916857752929
 20
16.70117015086755
 30
0.0
 11
22.05282250213955
 21
16.59653544025136
 31
0.0
 70
     1
100
AcDbAlignedDimension
 13
20.63335979129269
 23
15.39241739261429
 33
0.0
 14
23.62605194207217
 24
15.60168681384666
 34
0.0
  0
LINE
  5
120
330
18
100
AcDbEntity
  8
ADP1DETAIL
100
AcDbLine
 10
20.57467730954102
 20
16.1708788881546
 30
0.0
 11
23.48132527081697
 21
16.37413151352872
 31
0.0
  0
LINE
  5
121
330
18
100
AcDbEntity
  8
ADP1DETAIL
100
AcDbLine
 10
23.59503087497719
 20
14.71802903311301
 30
0.0
 11
20.69047305595626
 21
14.51492256472327
 31
0.0
  0
LINE
  5
122
330
18
100
AcDbEntity
  8
ADP1DETAIL
100
AcDbLine
 10
20.69047305595626
 20
14.51492256472327
 30
0.0
 11
20.57467730954102
 21
16.1708788881546
 31
0.0
  0
DIMENSION
  5
123
330
18
100
AcDbEntity
  8
ADPDIM
100
AcDbDimension
  2
*D2
 10
23.77817388390445
 20
13.05217014767131
 30
0.0
 11
23.8069838463062
 21
12.58986973661416
 31
0.0
 70
     4
100
AcDbRadialDimension
 15
23.62267877374124
 25
15.54732971585838
 35
0.0
 40
-2.504863907588094
  0
ARC
  5
124
330
18
100
AcDbEntity
  8
ADP1DETAIL
100
AcDbCircle
 10
23.71361688034221
 20
13.0221701476713
 30
0.0
 40
1.7
100
AcDbArc
 50
90.0
 51
94.0
  0
ARC
  5
125
330
18
100
AcDbEntity
  8
ADP3DETAIL
  6
CENTER2
100
AcDbCircle
 10
23.71256925725754
 20
13.0521701476713
 30
0.0
 40
2.5
100
AcDbArc
 50
90.0
 51
93.99999999999995
  0
ARC
  5
126
330
18
100
AcDbEntity
  8
ADP1DETAIL
100
AcDbCircle
 10
23.71152163417259
 20
13.0821701476713
 30
0.0
 40
3.299999999999999
100
AcDbArc
 50
90.0
 51
94.00000000000007
  0
DIMENSION
  5
127
330
18
100
AcDbEntity
  8
ADPDIM
100
AcDbDimension
  2
*D3
 10
33.85992604647086
 20
15.58035014302956
 30
0.0
 11
34.44325937980419
 21
15.58035014302956
 31
0.0
  1
0.140
100
AcDbAlignedDimension
 13
33.71992604647086
 23
15.58035014302956
 33
0.0
 14
33.85992604647086
 24
15.58035014302956
 34
0.0
100
AcDbRotatedDimension
  0
DIMENSION
  5
128
330
18
100
AcDbEntity
  8
ADPDIM
100
AcDbDimension
  2
*D4
 10
31.33200362848461
 20
16.38217014767131
 30
0.0
 11
31.33200362848461
 21
15.55217014767132
 31
0.0
  1
1.660
100
AcDbAlignedDimension
 13
30.62526733352811
 23
14.72217014767132
 33
0.0
 14
30.62526733352811
 24
16.38217014767131
 34
0.0
 50
90.0
100
AcDbRotatedDimension
  0
LINE
  5
129
330
18
100
AcDbEntity
  8
ADP1DETAIL
100
AcDbLine
 10
30.62526733352811
 20
16.38217014767131
 30
0.0
 11
30.62526733352811
 21
14.72217014767132
 31
0.0
  0
CIRCLE
  5
12A
330
18
100
AcDbEntity
  8
ADP1DETAIL
100
AcDbCircle
 10
33.02154355619019
 20
15.55217014767131
 30
0.0
 40
0.8299999999999998
  0
CIRCLE
  5
12B
330
18
100
AcDbEntity
  8
ADP1DETAIL
100
AcDbCircle
 10
33.02154355619019
 20
15.55217014767131
 30
0.0
 40
0.6899999999999978
  0
TEXT
  5
139
330
18
100
AcDbEntity
  8
ADPDIM
100
AcDbText
 10
17.21320118359783
 20
11.14641699253772
 30
0.0
 40
0.1875
  1
J U L I U S  B L U M  &  C O . ,  I N C .      ( 8 0 0 )  5 2 6 - 6 2 9 3        W W W . J U L I U S B L U M . C O M        P A R T  N o .  7 4 0 5
 41
1.25
  7
ARIAL_WIDE
 72
     1
 11
27.00179472043275
 21
11.33391699253772
 31
0.0
100
AcDbText
 73
     3
  0
ENDSEC
  0
SECTION
  2
OBJECTS
  0
DICTIONARY
  5
C
330
0
100
AcDbDictionary
  3
ACAD_GROUP
350
D
  3
ACAD_LAYOUT
350
132
  3
ACAD_MLINESTYLE
350
E
  3
ACAD_PLOTSETTINGS
350
133
  3
ACAD_PLOTSTYLENAME
350
130
  3
ACDBHEADERROUNDTRIPXREC
350
27D
  3
ACDBVARIABLEDICTIONARY
350
193
  0
DICTIONARY
  5
18D
330
18
100
AcDbDictionary
280
     1
  3
ACAD_LAYOUTSELFREF
360
29E
  0
DICTIONARY
  5
18B
330
15
100
AcDbDictionary
280
     1
  3
ACAD_LAYOUTSELFREF
360
29D
  0
DICTIONARY
  5
D
102
{ACAD_REACTORS
330
C
102
}
330
C
100
AcDbDictionary
  0
DICTIONARY
  5
132
102
{ACAD_REACTORS
330
C
102
}
330
C
100
AcDbDictionary
  0
DICTIONARY
  5
E
102
{ACAD_REACTORS
330
C
102
}
330
C
100
AcDbDictionary
  3
STANDARD
350
1B
  0
DICTIONARY
  5
133
102
{ACAD_REACTORS
330
C
102
}
330
C
100
AcDbDictionary
  0
ACDBDICTIONARYWDFLT
  5
130
102
{ACAD_REACTORS
330
C
102
}
330
C
100
AcDbDictionary
281
     1
  3
Normal
350
131
100
AcDbDictionaryWithDefault
340
131
  0
DICTIONARY
  5
27D
102
{ACAD_REACTORS
330
C
102
}
330
C
100
AcDbDictionary
  3
CEPSNTYPE
350
287
  3
FINGERPRINTGUID
350
288
  3
HYPERLINKBASE
350
280
  3
INSUNITS
350
286
  3
LAYOUTDICT
350
282
  3
LWETCUNION
350
285
  3
PLOTSETDICT
350
283
  3
PLOTSTYLNAMDICT
350
284
  3
PSVPSCALE
350
28A
  3
PUCSBASE
350
28D
  3
PUCSORGBACK
350
293
  3
PUCSORGBOTTOM
350
28F
  3
PUCSORGFRONT
350
292
  3
PUCSORGLEFT
350
290
  3
PUCSORGRIGHT
350
291
  3
PUCSORGTOP
350
28E
  3
PUCSORTHOREF
350
28B
  3
PUCSORTHOVIEW
350
28C
  3
STYLESHEET
350
281
  3
TSTACKALIGN
350
27E
  3
TSTACKSIZE
350
27F
  3
UCSBASE
350
296
  3
UCSORGBACK
350
29C
  3
UCSORGBOTTOM
350
298
  3
UCSORGFRONT
350
29B
  3
UCSORGLEFT
350
299
  3
UCSORGRIGHT
350
29A
  3
UCSORGTOP
350
297
  3
UCSORTHOREF
350
294
  3
UCSORTHOVIEW
350
295
  3
VERSIONGUID
350
289
  0
DICTIONARY
  5
193
102
{ACAD_REACTORS
330
C
102
}
330
C
100
AcDbDictionary
  3
DIMASSOC
350
194
  0
XRECORD
  5
29E
102
{ACAD_REACTORS
330
18D
102
}
330
18D
100
AcDbXrecord
340
18
  0
XRECORD
  5
29D
102
{ACAD_REACTORS
330
18B
102
}
330
18B
100
AcDbXrecord
340
15
  0
MLINESTYLE
  5
1B
102
{ACAD_REACTORS
330
E
102
}
330
E
100
AcDbMlineStyle
  2
STANDARD
 70
     0
  3

 62
     0
 51
90.0
 52
90.0
 71
     2
 49
0.5
 62
   256
  6
BYLAYER
 49
-0.5
 62
   256
  6
BYLAYER
  0
ACDBPLACEHOLDER
  5
131
102
{ACAD_REACTORS
330
130
102
}
330
130
100
AcDbPlaceHolder
280
     0
  0
XRECORD
  5
287
102
{ACAD_REACTORS
330
27D
102
}
330
27D
100
AcDbXrecord
 90
        0
  0
XRECORD
  5
288
102
{ACAD_REACTORS
330
27D
102
}
330
27D
100
AcDbXrecord
  1
{05B08C91-80AB-4242-9874-E2FCD2DD3DED}
  0
XRECORD
  5
280
102
{ACAD_REACTORS
330
27D
102
}
330
27D
100
AcDbXrecord
  1

  0
XRECORD
  5
286
102
{ACAD_REACTORS
330
27D
102
}
330
27D
100
AcDbXrecord
 90
        0
  0
XRECORD
  5
282
102
{ACAD_REACTORS
330
27D
102
}
330
27D
100
AcDbXrecord
340
132
  0
XRECORD
  5
285
102
{ACAD_REACTORS
330
27D
102
}
330
27D
100
AcDbXrecord
 90
    14877
  0
XRECORD
  5
283
102
{ACAD_REACTORS
330
27D
102
}
330
27D
100
AcDbXrecord
340
133
  0
XRECORD
  5
284
102
{ACAD_REACTORS
330
27D
102
}
330
27D
100
AcDbXrecord
340
130
  0
XRECORD
  5
28A
102
{ACAD_REACTORS
330
27D
102
}
330
27D
100
AcDbXrecord
 40
0.0
  0
XRECORD
  5
28D
102
{ACAD_REACTORS
330
27D
102
}
330
27D
100
AcDbXrecord
340
0
  0
XRECORD
  5
293
102
{ACAD_REACTORS
330
27D
102
}
330
27D
100
AcDbXrecord
 10
0.0
 20
0.0
 30
0.0
  0
XRECORD
  5
28F
102
{ACAD_REACTORS
330
27D
102
}
330
27D
100
AcDbXrecord
 10
0.0
 20
0.0
 30
0.0
  0
XRECORD
  5
292
102
{ACAD_REACTORS
330
27D
102
}
330
27D
100
AcDbXrecord
 10
0.0
 20
0.0
 30
0.0
  0
XRECORD
  5
290
102
{ACAD_REACTORS
330
27D
102
}
330
27D
100
AcDbXrecord
 10
0.0
 20
0.0
 30
0.0
  0
XRECORD
  5
291
102
{ACAD_REACTORS
330
27D
102
}
330
27D
100
AcDbXrecord
 10
0.0
 20
0.0
 30
0.0
  0
XRECORD
  5
28E
102
{ACAD_REACTORS
330
27D
102
}
330
27D
100
AcDbXrecord
 10
0.0
 20
0.0
 30
0.0
  0
XRECORD
  5
28B
102
{ACAD_REACTORS
330
27D
102
}
330
27D
100
AcDbXrecord
340
0
  0
XRECORD
  5
28C
102
{ACAD_REACTORS
330
27D
102
}
330
27D
100
AcDbXrecord
 70
     0
  0
XRECORD
  5
281
102
{ACAD_REACTORS
330
27D
102
}
330
27D
100
AcDbXrecord
  1

  0
XRECORD
  5
27E
102
{ACAD_REACTORS
330
27D
102
}
330
27D
100
AcDbXrecord
 90
        1
  0
XRECORD
  5
27F
102
{ACAD_REACTORS
330
27D
102
}
330
27D
100
AcDbXrecord
 90
       70
  0
XRECORD
  5
296
102
{ACAD_REACTORS
330
27D
102
}
330
27D
100
AcDbXrecord
340
0
  0
XRECORD
  5
29C
102
{ACAD_REACTORS
330
27D
102
}
330
27D
100
AcDbXrecord
 10
0.0
 20
0.0
 30
0.0
  0
XRECORD
  5
298
102
{ACAD_REACTORS
330
27D
102
}
330
27D
100
AcDbXrecord
 10
0.0
 20
0.0
 30
0.0
  0
XRECORD
  5
29B
102
{ACAD_REACTORS
330
27D
102
}
330
27D
100
AcDbXrecord
 10
0.0
 20
0.0
 30
0.0
  0
XRECORD
  5
299
102
{ACAD_REACTORS
330
27D
102
}
330
27D
100
AcDbXrecord
 10
0.0
 20
0.0
 30
0.0
  0
XRECORD
  5
29A
102
{ACAD_REACTORS
330
27D
102
}
330
27D
100
AcDbXrecord
 10
0.0
 20
0.0
 30
0.0
  0
XRECORD
  5
297
102
{ACAD_REACTORS
330
27D
102
}
330
27D
100
AcDbXrecord
 10
0.0
 20
0.0
 30
0.0
  0
XRECORD
  5
294
102
{ACAD_REACTORS
330
27D
102
}
330
27D
100
AcDbXrecord
340
0
  0
XRECORD
  5
295
102
{ACAD_REACTORS
330
27D
102
}
330
27D
100
AcDbXrecord
 70
     0
  0
XRECORD
  5
289
102
{ACAD_REACTORS
330
27D
102
}
330
27D
100
AcDbXrecord
  1
{B30953F7-C4CB-4EE2-9BEB-5D7C48BA99B3}
  0
DICTIONARYVAR
  5
194
102
{ACAD_REACTORS
330
193
102
}
330
193
100
DictionaryVariables
280
     0
  1
1
  0
ENDSEC
  0
EOF
