  0
SECTION
  2
HEADER
  9
$ACADVER
  1
AC1014
  9
$ACADMAINTVER
 70
     9
  9
$DWGCODEPAGE
  3
ANSI_1252
  9
$INSBASE
 10
-38.91025123658346
 20
102.645495449711
 30
0.0
  9
$EXTMIN
 10
-55.60280554383313
 20
96.56251039497849
 30
0.0
  9
$EXTMAX
 10
-29.49988944560666
 20
111.9546317207133
 30
0.0
  9
$LIMMIN
 10
0.0
 20
0.0
  9
$LIMMAX
 10
36.0
 20
36.0
  9
$ORTHOMODE
 70
     1
  9
$REGENMODE
 70
     1
  9
$FILLMODE
 70
     1
  9
$QTEXTMODE
 70
     0
  9
$MIRRTEXT
 70
     1
  9
$DRAGMODE
 70
     0
  9
$LTSCALE
 40
1.0
  9
$OSMODE
 70
    37
  9
$ATTMODE
 70
     1
  9
$TEXTSIZE
 40
0.2
  9
$TRACEWID
 40
0.05
  9
$TEXTSTYLE
  7
STANDARD
  9
$CLAYER
  8
0
  9
$CELTYPE
  6
BYLAYER
  9
$CECOLOR
 62
   256
  9
$CELTSCALE
 40
1.0
  9
$DELOBJ
 70
     1
  9
$DISPSILH
 70
     0
  9
$DIMSCALE
 40
1.0
  9
$DIMASZ
 40
0.125
  9
$DIMEXO
 40
0.0625
  9
$DIMDLI
 40
0.38
  9
$DIMRND
 40
0.0
  9
$DIMDLE
 40
0.0
  9
$DIMEXE
 40
0.18
  9
$DIMTP
 40
0.0
  9
$DIMTM
 40
0.0
  9
$DIMTXT
 40
0.125
  9
$DIMCEN
 40
0.1875
  9
$DIMTSZ
 40
0.125
  9
$DIMTOL
 70
     0
  9
$DIMLIM
 70
     0
  9
$DIMTIH
 70
     0
  9
$DIMTOH
 70
     0
  9
$DIMSE1
 70
     0
  9
$DIMSE2
 70
     0
  9
$DIMTAD
 70
     0
  9
$DIMZIN
 70
     3
  9
$DIMBLK
  1

  9
$DIMASO
 70
     1
  9
$DIMSHO
 70
     1
  9
$DIMPOST
  1

  9
$DIMAPOST
  1

  9
$DIMALT
 70
     0
  9
$DIMALTD
 70
     1
  9
$DIMALTF
 40
25.4
  9
$DIMLFAC
 40
1.0
  9
$DIMTOFL
 70
     0
  9
$DIMTVP
 40
0.0
  9
$DIMTIX
 70
     0
  9
$DIMSOXD
 70
     0
  9
$DIMSAH
 70
     0
  9
$DIMBLK1
  1

  9
$DIMBLK2
  1

  9
$DIMSTYLE
  2
STANDARD
  9
$DIMCLRD
 70
     0
  9
$DIMCLRE
 70
     0
  9
$DIMCLRT
 70
     0
  9
$DIMTFAC
 40
1.0
  9
$DIMGAP
 40
0.125
  9
$DIMJUST
 70
     0
  9
$DIMSD1
 70
     0
  9
$DIMSD2
 70
     0
  9
$DIMTOLJ
 70
     1
  9
$DIMTZIN
 70
     0
  9
$DIMALTZ
 70
     0
  9
$DIMALTTZ
 70
     0
  9
$DIMFIT
 70
     3
  9
$DIMUPT
 70
     0
  9
$DIMUNIT
 70
     2
  9
$DIMDEC
 70
     4
  9
$DIMTDEC
 70
     4
  9
$DIMALTU
 70
     2
  9
$DIMALTTD
 70
     2
  9
$DIMTXSTY
  7
STANDARD
  9
$DIMAUNIT
 70
     0
  9
$LUNITS
 70
     5
  9
$LUPREC
 70
     4
  9
$SKETCHINC
 40
0.1
  9
$FILLETRAD
 40
0.062
  9
$AUNITS
 70
     0
  9
$AUPREC
 70
     0
  9
$MENU
  1
acad
  9
$ELEVATION
 40
0.0
  9
$PELEVATION
 40
0.0
  9
$THICKNESS
 40
0.0
  9
$LIMCHECK
 70
     0
  9
$BLIPMODE
 70
     0
  9
$CHAMFERA
 40
0.0
  9
$CHAMFERB
 40
0.0
  9
$CHAMFERC
 40
0.0
  9
$CHAMFERD
 40
0.0
  9
$SKPOLY
 70
     0
  9
$TDCREATE
 40
2450387.546439236
  9
$TDUPDATE
 40
2452297.100747431
  9
$TDINDWG
 40
0.0136166319
  9
$TDUSRTIMER
 40
0.0136166319
  9
$USRTIMER
 70
     1
  9
$ANGBASE
 50
0.0
  9
$ANGDIR
 70
     0
  9
$PDMODE
 70
     0
  9
$PDSIZE
 40
0.0
  9
$PLINEWID
 40
0.0
  9
$COORDS
 70
     2
  9
$SPLFRAME
 70
     0
  9
$SPLINETYPE
 70
     6
  9
$SPLINESEGS
 70
     8
  9
$ATTDIA
 70
     0
  9
$ATTREQ
 70
     1
  9
$HANDLING
 70
 22529
  9
$HANDSEED
  5
538
  9
$SURFTAB1
 70
     6
  9
$SURFTAB2
 70
     6
  9
$SURFTYPE
 70
     6
  9
$SURFU
 70
     6
  9
$SURFV
 70
     6
  9
$UCSNAME
  2

  9
$UCSORG
 10
0.0
 20
0.0
 30
0.0
  9
$UCSXDIR
 10
1.0
 20
0.0
 30
0.0
  9
$UCSYDIR
 10
0.0
 20
1.0
 30
0.0
  9
$PUCSNAME
  2

  9
$PUCSORG
 10
0.0
 20
0.0
 30
0.0
  9
$PUCSXDIR
 10
1.0
 20
0.0
 30
0.0
  9
$PUCSYDIR
 10
0.0
 20
1.0
 30
0.0
  9
$USERI1
 70
     0
  9
$USERI2
 70
     0
  9
$USERI3
 70
     0
  9
$USERI4
 70
     0
  9
$USERI5
 70
     0
  9
$USERR1
 40
0.0
  9
$USERR2
 40
0.0
  9
$USERR3
 40
0.0
  9
$USERR4
 40
0.0
  9
$USERR5
 40
0.0
  9
$WORLDVIEW
 70
     1
  9
$SHADEDGE
 70
     3
  9
$SHADEDIF
 70
    70
  9
$TILEMODE
 70
     1
  9
$MAXACTVP
 70
    15
  9
$PINSBASE
 10
0.0
 20
0.0
 30
0.0
  9
$PLIMCHECK
 70
     0
  9
$PEXTMIN
 10
1.000000000000000E+20
 20
1.000000000000000E+20
 30
1.000000000000000E+20
  9
$PEXTMAX
 10
-1.000000000000000E+20
 20
-1.000000000000000E+20
 30
-1.000000000000000E+20
  9
$PLIMMIN
 10
0.0
 20
0.0
  9
$PLIMMAX
 10
12.0
 20
9.0
  9
$UNITMODE
 70
     0
  9
$VISRETAIN
 70
     0
  9
$PLINEGEN
 70
     0
  9
$PSLTSCALE
 70
     1
  9
$TREEDEPTH
 70
  3020
  9
$PICKSTYLE
 70
     1
  9
$CMLSTYLE
  2
STANDARD
  9
$CMLJUST
 70
     0
  9
$CMLSCALE
 40
1.0
  9
$PROXYGRAPHICS
 70
     1
  9
$MEASUREMENT
 70
     0
  0
ENDSEC
  0
SECTION
  2
CLASSES
  0
CLASS
  1
ACDBDICTIONARYWDFLT
  2
AcDbDictionaryWithDefault
  3
AutoCAD 2000
 90
        0
280
     0
281
     0
  0
CLASS
  1
ACDBPLACEHOLDER
  2
AcDbPlaceHolder
  3
AutoCAD 2000
 90
        0
280
     0
281
     0
  0
CLASS
  1
LAYOUT
  2
AcDbLayout
  3
AutoCAD 2000
 90
        0
280
     0
281
     0
  0
CLASS
  1
DICTIONARYVAR
  2
AcDbDictionaryVar
  3
AutoCAD 2000
 90
        0
280
     0
281
     0
  0
CLASS
  1
LONG_TRANSACTION
  2
AcDbLongTransaction
  3
AutoCAD 2000
 90
        0
280
     0
281
     0
  0
CLASS
  1
LWPOLYLINE
  2
AcDbPolyline
  3
AutoCAD 2000
 90
        0
280
     0
281
     1
  0
CLASS
  1
HATCH
  2
AcDbHatch
  3
AutoCAD 2000
 90
        0
280
     0
281
     1
  0
CLASS
  1
XRECORD
  2
AcDbXrecord
  3
AutoCAD 2000
 90
        0
280
     0
281
     0
  0
CLASS
  1
LONG_TRANSACTION
  2
AcDbLongTransaction
  3
AutoCAD 2000
 90
        0
280
     0
281
     0
  0
CLASS
  1
LWPOLYLINE
  2
AcDbPolyline
  3
AutoCAD 2000
 90
        0
280
     0
281
     1
  0
CLASS
  1
HATCH
  2
AcDbHatch
  3
AutoCAD 2000
 90
        0
280
     0
281
     1
  0
CLASS
  1
XRECORD
  2
AcDbXrecord
  3
AutoCAD 2000
 90
        0
280
     0
281
     0
  0
CLASS
  1
LONG_TRANSACTION
  2
AcDbLongTransaction
  3
AutoCAD 2000
 90
        0
280
     0
281
     0
  0
CLASS
  1
LWPOLYLINE
  2
AcDbPolyline
  3
AutoCAD 2000
 90
        0
280
     0
281
     1
  0
CLASS
  1
HATCH
  2
AcDbHatch
  3
AutoCAD 2000
 90
        0
280
     0
281
     1
  0
CLASS
  1
XRECORD
  2
AcDbXrecord
  3
AutoCAD 2000
 90
        0
280
     0
281
     0
  0
CLASS
  1
LONG_TRANSACTION
  2
AcDbLongTransaction
  3
AutoCAD 2000
 90
        0
280
     0
281
     0
  0
CLASS
  1
LWPOLYLINE
  2
AcDbPolyline
  3
AutoCAD 2000
 90
        0
280
     0
281
     1
  0
CLASS
  1
HATCH
  2
AcDbHatch
  3
AutoCAD 2000
 90
        0
280
     0
281
     1
  0
CLASS
  1
XRECORD
  2
AcDbXrecord
  3
AutoCAD 2000
 90
        0
280
     0
281
     0
  0
CLASS
  1
LONG_TRANSACTION
  2
AcDbLongTransaction
  3
AutoCAD 2000
 90
        0
280
     0
281
     0
  0
CLASS
  1
LWPOLYLINE
  2
AcDbPolyline
  3
AutoCAD 2000
 90
        0
280
     0
281
     1
  0
CLASS
  1
HATCH
  2
AcDbHatch
  3
AutoCAD 2000
 90
        0
280
     0
281
     1
  0
CLASS
  1
XRECORD
  2
AcDbXrecord
  3
AutoCAD 2000
 90
        0
280
     0
281
     0
  0
ENDSEC
  0
SECTION
  2
TABLES
  0
TABLE
  2
VPORT
  5
8
330
0
100
AcDbSymbolTable
 70
     2
  0
VPORT
  5
515
330
8
100
AcDbSymbolTableRecord
100
AcDbViewportTableRecord
  2
*ACTIVE
 70
     0
 10
0.0
 20
0.0
 11
1.0
 21
1.0
 12
-42.5315821548173
 22
104.2611423312052
 13
0.0
 23
0.0
 14
0.5740882589684922
 24
0.5740882589684922
 15
0.5
 25
0.5
 16
0.0
 26
0.0
 36
1.0
 17
0.0
 27
0.0
 37
0.0
 40
16.73221250923488
 41
1.570528967254408
 42
50.0
 43
0.0
 44
0.0
 50
0.0
 51
0.0
 71
     0
 72
   100
 73
     1
 74
     0
 75
     0
 76
     0
 77
     0
 78
     0
  0
ENDTAB
  0
TABLE
  2
LTYPE
  5
5
330
0
100
AcDbSymbolTable
 70
     2
  0
LTYPE
  5
12
330
5
100
AcDbSymbolTableRecord
100
AcDbLinetypeTableRecord
  2
BYBLOCK
 70
     0
  3

 72
    65
 73
     0
 40
0.0
  0
LTYPE
  5
13
330
5
100
AcDbSymbolTableRecord
100
AcDbLinetypeTableRecord
  2
BYLAYER
 70
     0
  3

 72
    65
 73
     0
 40
0.0
  0
LTYPE
  5
14
330
5
100
AcDbSymbolTableRecord
100
AcDbLinetypeTableRecord
  2
CONTINUOUS
 70
     0
  3
Solid line
 72
    65
 73
     0
 40
0.0
  0
LTYPE
  5
36B
330
5
100
AcDbSymbolTableRecord
100
AcDbLinetypeTableRecord
  2
CENTER2
 70
     0
  3
___ _ ___ _ ___ _ ___ _ ___ _ ___ _ ___ _ ___ _
 72
    65
 73
     4
 40
1.125
 49
0.75
 74
     0
 49
-0.125
 74
     0
 49
0.125
 74
     0
 49
-0.125
 74
     0
  0
ENDTAB
  0
TABLE
  2
LAYER
  5
2
330
0
100
AcDbSymbolTable
 70
     5
  0
LAYER
  5
F
330
2
100
AcDbSymbolTableRecord
100
AcDbLayerTableRecord
  2
0
 70
     0
 62
     7
  6
CONTINUOUS
  0
LAYER
  5
36C
330
2
100
AcDbSymbolTableRecord
100
AcDbLayerTableRecord
  2
ADP1DETAIL
 70
     0
 62
     7
  6
CONTINUOUS
  0
LAYER
  5
36D
330
2
100
AcDbSymbolTableRecord
100
AcDbLayerTableRecord
  2
DEFPOINTS
 70
     0
 62
     7
  6
CONTINUOUS
  0
LAYER
  5
371
330
2
100
AcDbSymbolTableRecord
100
AcDbLayerTableRecord
  2
ADP3DETAIL
 70
     0
 62
     1
  6
CONTINUOUS
  0
LAYER
  5
376
330
2
100
AcDbSymbolTableRecord
100
AcDbLayerTableRecord
  2
ADPDIM
 70
     0
 62
     3
  6
CONTINUOUS
  0
ENDTAB
  0
TABLE
  2
STYLE
  5
3
330
0
100
AcDbSymbolTable
 70
     2
  0
STYLE
  5
10
330
3
100
AcDbSymbolTableRecord
100
AcDbTextStyleTableRecord
  2
STANDARD
 70
     0
 40
0.0
 41
1.0
 50
0.0
 71
     0
 42
0.2
  3
txt
  4

  0
STYLE
  5
3D1
330
3
100
AcDbSymbolTableRecord
100
AcDbTextStyleTableRecord
  2
ARIAL_WIDE
 70
     0
 40
0.0
 41
1.25
 50
0.0
 71
     0
 42
0.2
  3
ARIAL.TTF
  4

1001
ACAD
1000
Arial
1071
       34
  0
ENDTAB
  0
TABLE
  2
VIEW
  5
6
330
0
100
AcDbSymbolTable
 70
     0
  0
ENDTAB
  0
TABLE
  2
UCS
  5
7
330
0
100
AcDbSymbolTable
 70
     0
  0
ENDTAB
  0
TABLE
  2
APPID
  5
9
330
0
100
AcDbSymbolTable
 70
     1
  0
APPID
  5
11
330
9
100
AcDbSymbolTableRecord
100
AcDbRegAppTableRecord
  2
ACAD
 70
     0
  0
ENDTAB
  0
TABLE
  2
DIMSTYLE
  5
A
330
0
100
AcDbSymbolTable
 70
     1
  0
DIMSTYLE
105
3C5
330
A
100
AcDbSymbolTableRecord
100
AcDbDimStyleTableRecord
  2
STANDARD
 70
     0
  3

  4

  5

  6

  7

 40
1.0
 41
0.18
 42
0.0625
 43
0.38
 44
0.18
 45
0.0
 46
0.0
 47
0.0
 48
0.0
140
0.18
141
0.09
142
0.0
143
25.4
144
1.0
145
0.0
146
1.0
147
0.09
 71
     0
 72
     0
 73
     1
 74
     1
 75
     0
 76
     0
 77
     0
 78
     0
170
     0
171
     2
172
     0
173
     0
174
     0
175
     0
176
     0
177
     0
178
     0
270
     2
271
     4
272
     4
273
     2
274
     2
340
10
275
     0
280
     0
281
     0
282
     0
283
     1
284
     0
285
     0
286
     0
287
     3
288
     0
  0
ENDTAB
  0
TABLE
  2
BLOCK_RECORD
  5
1
330
0
100
AcDbSymbolTable
 70
     5
  0
BLOCK_RECORD
  5
18
102
{ACAD_XDICTIONARY
360
426
102
}
330
1
100
AcDbSymbolTableRecord
100
AcDbBlockTableRecord
  2
*MODEL_SPACE
  0
BLOCK_RECORD
  5
15
102
{ACAD_XDICTIONARY
360
424
102
}
330
1
100
AcDbSymbolTableRecord
100
AcDbBlockTableRecord
  2
*PAPER_SPACE
  0
BLOCK_RECORD
  5
31E
330
1
100
AcDbSymbolTableRecord
100
AcDbBlockTableRecord
  2
*D0
  0
BLOCK_RECORD
  5
365
330
1
100
AcDbSymbolTableRecord
100
AcDbBlockTableRecord
  2
*D1
  0
BLOCK_RECORD
  5
366
330
1
100
AcDbSymbolTableRecord
100
AcDbBlockTableRecord
  2
*D2
  0
BLOCK_RECORD
  5
367
330
1
100
AcDbSymbolTableRecord
100
AcDbBlockTableRecord
  2
*D3
  0
BLOCK_RECORD
  5
369
330
1
100
AcDbSymbolTableRecord
100
AcDbBlockTableRecord
  2
*D4
  0
ENDTAB
  0
ENDSEC
  0
SECTION
  2
BLOCKS
  0
BLOCK
  5
379
330
18
100
AcDbEntity
  8
0
100
AcDbBlockBegin
  2
*MODEL_SPACE
 70
     0
 10
0.0
 20
0.0
 30
0.0
  3
*MODEL_SPACE
  1

  0
ENDBLK
  5
37A
330
18
100
AcDbEntity
  8
0
100
AcDbBlockEnd
  0
BLOCK
  5
377
330
15
100
AcDbEntity
 67
     1
  8
0
100
AcDbBlockBegin
  2
*PAPER_SPACE
 70
     0
 10
0.0
 20
0.0
 30
0.0
  3
*PAPER_SPACE
  1

  0
ENDBLK
  5
378
330
15
100
AcDbEntity
 67
     1
  8
0
100
AcDbBlockEnd
  0
BLOCK
  5
37C
330
31E
100
AcDbEntity
  8
0
100
AcDbBlockBegin
  2
*D0
 70
     1
 10
0.0
 20
0.0
 30
0.0
  3
*D0
  1

  0
LINE
  5
37D
330
31E
100
AcDbEntity
  8
0
  6
BYBLOCK
 62
     0
100
AcDbLine
 10
-39.08733907905777
 20
98.27348430800832
 30
0.0
 11
-39.08733907905777
 21
98.39098430800833
 31
0.0
  0
LINE
  5
37E
330
31E
100
AcDbEntity
  8
0
  6
BYBLOCK
 62
     0
100
AcDbLine
 10
-38.97833907905777
 20
98.27348430800832
 30
0.0
 11
-38.97833907905777
 21
98.39098430800833
 31
0.0
  0
LINE
  5
37F
330
31E
100
AcDbEntity
  8
0
  6
BYBLOCK
 62
     0
100
AcDbLine
 10
-39.08733907905777
 20
98.21098430800832
 30
0.0
 11
-39.33733907905777
 21
98.21098430800832
 31
0.0
  0
LINE
  5
380
330
31E
100
AcDbEntity
  8
0
  6
BYBLOCK
 62
     0
100
AcDbLine
 10
-38.97833907905777
 20
98.21098430800832
 30
0.0
 11
-38.72833907905777
 21
98.21098430800832
 31
0.0
  0
LINE
  5
381
330
31E
100
AcDbEntity
  8
0
  6
BYBLOCK
 62
     0
100
AcDbLine
 10
-39.21233907905777
 20
98.08598430800833
 30
0.0
 11
-38.96233907905777
 21
98.33598430800833
 31
0.0
  0
LINE
  5
382
330
31E
100
AcDbEntity
  8
0
  6
BYBLOCK
 62
     0
100
AcDbLine
 10
-39.10333907905776
 20
98.08598430800833
 30
0.0
 11
-38.85333907905776
 21
98.33598430800833
 31
0.0
  0
TEXT
  5
383
330
31E
100
AcDbEntity
  8
0
  6
BYBLOCK
 62
     0
100
AcDbText
 10
-38.60333907905777
 20
98.14848430800832
 30
0.0
 40
0.125
  1
0.109
 72
     1
 11
-38.39500574572443
 21
98.21098430800832
 31
0.0
100
AcDbText
 73
     2
  0
POINT
  5
384
330
31E
100
AcDbEntity
  8
DEFPOINTS
  6
BYBLOCK
 62
     0
100
AcDbPoint
 10
-39.08733907905777
 20
98.21098430800832
 30
0.0
  0
POINT
  5
385
330
31E
100
AcDbEntity
  8
DEFPOINTS
  6
BYBLOCK
 62
     0
100
AcDbPoint
 10
-38.97833907905777
 20
98.21098430800832
 30
0.0
  0
POINT
  5
386
330
31E
100
AcDbEntity
  8
DEFPOINTS
  6
BYBLOCK
 62
     0
100
AcDbPoint
 10
-38.97833907905777
 20
98.21098430800832
 30
0.0
  0
ENDBLK
  5
387
330
31E
100
AcDbEntity
  8
0
100
AcDbBlockEnd
  0
BLOCK
  5
388
330
365
100
AcDbEntity
  8
0
100
AcDbBlockBegin
  2
*D1
 70
     1
 10
0.0
 20
0.0
 30
0.0
  3
*D1
  1

  0
LINE
  5
389
330
365
100
AcDbEntity
  8
0
  6
BYBLOCK
 62
     0
100
AcDbLine
 10
-46.26630394987597
 20
105.7688460644782
 30
0.0
 11
-47.36600122628186
 21
107.339376537797
 31
0.0
  0
LINE
  5
38A
330
365
100
AcDbEntity
  8
0
  6
BYBLOCK
 62
     0
100
AcDbLine
 10
-39.71308759556404
 20
110.3574575552865
 30
0.0
 11
-40.81278487196993
 21
111.9279880286053
 31
0.0
  0
LINE
  5
38B
330
365
100
AcDbEntity
  8
0
  6
BYBLOCK
 62
     0
100
AcDbLine
 10
-47.26275746773867
 20
107.1919291698249
 30
0.0
 11
-44.12267463129754
 21
109.3906388425039
 31
0.0
  0
LINE
  5
38C
330
365
100
AcDbEntity
  8
0
  6
BYBLOCK
 62
     0
100
AcDbLine
 10
-40.70954111342675
 20
111.7805406606333
 30
0.0
 11
-43.84962394986787
 21
109.5818309879543
 31
0.0
  0
LINE
  5
38D
330
365
100
AcDbEntity
  8
0
  6
BYBLOCK
 62
     0
100
AcDbLine
 10
-47.29345441873092
 20
107.0178381097449
 30
0.0
 11
-47.23206051674643
 21
107.366020229905
 31
0.0
  0
LINE
  5
38E
330
365
100
AcDbEntity
  8
0
  6
BYBLOCK
 62
     0
100
AcDbLine
 10
-40.74023806441898
 20
111.6064496005533
 30
0.0
 11
-40.6788441624345
 21
111.9546317207133
 31
0.0
  0
TEXT
  5
38F
330
365
100
AcDbEntity
  8
0
  6
BYBLOCK
 62
     0
100
AcDbText
 10
-43.98443209848948
 20
109.4111388942798
 30
0.0
 40
0.125
  1
8
 50
35.00000000000003
 72
     1
 11
-43.98614929058271
 21
109.4862349152291
 31
0.0
100
AcDbText
 73
     2
  0
POINT
  5
390
330
365
100
AcDbEntity
  8
DEFPOINTS
  6
BYBLOCK
 62
     0
100
AcDbPoint
 10
-46.23045542260403
 20
105.7176490617101
 30
0.0
  0
POINT
  5
391
330
365
100
AcDbEntity
  8
DEFPOINTS
  6
BYBLOCK
 62
     0
100
AcDbPoint
 10
-39.6772390682921
 20
110.3062605525185
 30
0.0
  0
POINT
  5
392
330
365
100
AcDbEntity
  8
DEFPOINTS
  6
BYBLOCK
 62
     0
100
AcDbPoint
 10
-40.70954111342675
 20
111.7805406606333
 30
0.0
  0
ENDBLK
  5
393
330
365
100
AcDbEntity
  8
0
100
AcDbBlockEnd
  0
BLOCK
  5
394
330
366
100
AcDbEntity
  8
0
100
AcDbBlockBegin
  2
*D2
 70
     1
 10
0.0
 20
0.0
 30
0.0
  3
*D2
  1

  0
LINE
  5
395
330
366
100
AcDbEntity
  8
0
  6
BYBLOCK
 62
     0
100
AcDbLine
 10
-38.91025123658346
 20
102.645495449711
 30
0.0
 11
-38.2841332346879
 21
102.645495449711
 31
0.0
  0
LINE
  5
396
330
366
100
AcDbEntity
  8
0
  6
BYBLOCK
 62
     0
100
AcDbLine
 10
-39.73544251452847
 20
110.645495449711
 30
0.0
 11
-38.2841332346879
 21
110.645495449711
 31
0.0
  0
LINE
  5
397
330
366
100
AcDbEntity
  8
0
  6
BYBLOCK
 62
     0
100
AcDbLine
 10
-38.46413323468791
 20
102.645495449711
 30
0.0
 11
-38.46413323468791
 21
106.4788287830443
 31
0.0
  0
LINE
  5
398
330
366
100
AcDbEntity
  8
0
  6
BYBLOCK
 62
     0
100
AcDbLine
 10
-38.46413323468791
 20
110.645495449711
 30
0.0
 11
-38.46413323468791
 21
106.8121621163777
 31
0.0
  0
LINE
  5
399
330
366
100
AcDbEntity
  8
0
  6
BYBLOCK
 62
     0
100
AcDbLine
 10
-38.3391332346879
 20
102.520495449711
 30
0.0
 11
-38.5891332346879
 21
102.770495449711
 31
0.0
  0
LINE
  5
39A
330
366
100
AcDbEntity
  8
0
  6
BYBLOCK
 62
     0
100
AcDbLine
 10
-38.3391332346879
 20
110.520495449711
 30
0.0
 11
-38.5891332346879
 21
110.770495449711
 31
0.0
  0
TEXT
  5
39B
330
366
100
AcDbEntity
  8
0
  6
BYBLOCK
 62
     0
100
AcDbText
 10
-38.4016332346879
 20
106.6038287830443
 30
0.0
 40
0.125
  1
8
 50
90.0
 72
     1
 11
-38.46413323468791
 21
106.645495449711
 31
0.0
100
AcDbText
 73
     2
  0
POINT
  5
39C
330
366
100
AcDbEntity
  8
DEFPOINTS
  6
BYBLOCK
 62
     0
100
AcDbPoint
 10
-38.97275123658346
 20
102.645495449711
 30
0.0
  0
POINT
  5
39D
330
366
100
AcDbEntity
  8
DEFPOINTS
  6
BYBLOCK
 62
     0
100
AcDbPoint
 10
-39.79794251452847
 20
110.645495449711
 30
0.0
  0
POINT
  5
39E
330
366
100
AcDbEntity
  8
DEFPOINTS
  6
BYBLOCK
 62
     0
100
AcDbPoint
 10
-38.46413323468791
 20
110.645495449711
 30
0.0
  0
ENDBLK
  5
39F
330
366
100
AcDbEntity
  8
0
100
AcDbBlockEnd
  0
BLOCK
  5
3A0
330
367
100
AcDbEntity
  8
0
100
AcDbBlockBegin
  2
*D3
 70
     1
 10
0.0
 20
0.0
 30
0.0
  3
*D3
  1

  0
LINE
  5
3A1
330
367
100
AcDbEntity
  8
0
  6
BYBLOCK
 62
     0
100
AcDbLine
 10
-40.87275045099079
 20
102.5847232377654
 30
0.0
 11
-40.87275045099079
 21
101.6413491068896
 31
0.0
  0
LINE
  5
3A2
330
367
100
AcDbEntity
  8
0
  6
BYBLOCK
 62
     0
100
AcDbLine
 10
-38.97275123658346
 20
102.582995449711
 30
0.0
 11
-38.97275123658346
 21
101.6413491068896
 31
0.0
  0
LINE
  5
3A3
330
367
100
AcDbEntity
  8
0
  6
BYBLOCK
 62
     0
100
AcDbLine
 10
-40.87275045099079
 20
101.8213491068896
 30
0.0
 11
-40.25608417712046
 21
101.8213491068896
 31
0.0
  0
LINE
  5
3A4
330
367
100
AcDbEntity
  8
0
  6
BYBLOCK
 62
     0
100
AcDbLine
 10
-38.97275123658346
 20
101.8213491068896
 30
0.0
 11
-39.58941751045379
 21
101.8213491068896
 31
0.0
  0
LINE
  5
3A5
330
367
100
AcDbEntity
  8
0
  6
BYBLOCK
 62
     0
100
AcDbLine
 10
-40.99775045099078
 20
101.6963491068896
 30
0.0
 11
-40.74775045099078
 21
101.9463491068896
 31
0.0
  0
LINE
  5
3A6
330
367
100
AcDbEntity
  8
0
  6
BYBLOCK
 62
     0
100
AcDbLine
 10
-39.09775123658346
 20
101.6963491068896
 30
0.0
 11
-38.84775123658346
 21
101.9463491068896
 31
0.0
  0
TEXT
  5
3A7
330
367
100
AcDbEntity
  8
0
  6
BYBLOCK
 62
     0
100
AcDbText
 10
-40.13108417712046
 20
101.7588491068896
 30
0.0
 40
0.125
  1
1.900
 72
     1
 11
-39.92275084378713
 21
101.8213491068896
 31
0.0
100
AcDbText
 73
     2
  0
POINT
  5
3A8
330
367
100
AcDbEntity
  8
DEFPOINTS
  6
BYBLOCK
 62
     0
100
AcDbPoint
 10
-40.87275045099079
 20
102.6472232377654
 30
0.0
  0
POINT
  5
3A9
330
367
100
AcDbEntity
  8
DEFPOINTS
  6
BYBLOCK
 62
     0
100
AcDbPoint
 10
-38.97275123658346
 20
102.645495449711
 30
0.0
  0
POINT
  5
3AA
330
367
100
AcDbEntity
  8
DEFPOINTS
  6
BYBLOCK
 62
     0
100
AcDbPoint
 10
-38.97275123658346
 20
101.8213491068896
 30
0.0
  0
ENDBLK
  5
3AB
330
367
100
AcDbEntity
  8
0
100
AcDbBlockEnd
  0
BLOCK
  5
3AC
330
369
100
AcDbEntity
  8
0
100
AcDbBlockBegin
  2
*D4
 70
     1
 10
0.0
 20
0.0
 30
0.0
  3
*D4
  1

  0
LINE
  5
3AD
330
369
100
AcDbEntity
  8
0
  6
BYBLOCK
 62
     0
100
AcDbLine
 10
-41.3387091380329
 20
107.0411865631403
 30
0.0
 11
-42.90060979169559
 21
104.5302230299062
 31
0.0
  0
LINE
  5
3AE
330
369
100
AcDbEntity
  8
0
  6
BYBLOCK
 62
     0
100
AcDbLine
 10
-41.29859123571748
 20
106.8690222407218
 30
0.0
 11
-41.37882704034833
 21
107.2133508855587
 31
0.0
  0
TEXT
  5
3AF
330
369
100
AcDbEntity
  8
0
  6
BYBLOCK
 62
     0
100
AcDbText
 10
-43.02360112898283
 20
104.2141684585685
 30
0.0
 40
0.125
  1
R3
 50
58.11704966791435
 72
     1
 11
-43.02165234345671
 21
104.3356309905668
 31
0.0
100
AcDbText
 73
     2
  0
POINT
  5
3B0
330
369
100
AcDbEntity
  8
DEFPOINTS
  6
BYBLOCK
 62
     0
100
AcDbPoint
 10
-41.3387091380329
 20
107.0411865631403
 30
0.0
  0
POINT
  5
3B1
330
369
100
AcDbEntity
  8
DEFPOINTS
  6
BYBLOCK
 62
     0
100
AcDbPoint
 10
-42.92326617926938
 20
104.4937998663335
 30
0.0
  0
ENDBLK
  5
3B2
330
369
100
AcDbEntity
  8
0
100
AcDbBlockEnd
  0
ENDSEC
  0
SECTION
  2
ENTITIES
  0
DIMENSION
  5
3B3
330
18
100
AcDbEntity
  8
ADPDIM
100
AcDbDimension
  2
*D1
 10
-40.70954111342675
 20
111.7805406606333
 30
0.0
 11
-43.98614929058271
 21
109.4862349152291
 31
0.0
 70
     1
100
AcDbAlignedDimension
 13
-46.23045542260403
 23
105.7176490617101
 33
0.0
 14
-39.6772390682921
 24
110.3062605525185
 34
0.0
  0
DIMENSION
  5
3B4
330
18
100
AcDbEntity
  8
ADPDIM
100
AcDbDimension
  2
*D2
 10
-38.46413323468791
 20
110.645495449711
 30
0.0
 11
-38.46413323468791
 21
106.645495449711
 31
0.0
100
AcDbAlignedDimension
 13
-38.97275123658346
 23
102.645495449711
 33
0.0
 14
-39.79794251452847
 24
110.645495449711
 34
0.0
 50
90.0
100
AcDbRotatedDimension
  0
LINE
  5
3B5
330
18
100
AcDbEntity
  8
ADP3DETAIL
  6
CENTER2
100
AcDbLine
 10
-39.9232662466885
 20
104.49443588104
 30
0.0
 11
-39.92275084445766
 21
102.0633495523682
 31
0.0
  0
LINE
  5
3B6
330
18
100
AcDbEntity
  8
ADP1DETAIL
100
AcDbLine
 10
-38.97323264134257
 20
104.4948951828353
 30
0.0
 11
-38.97275123658346
 21
102.6420398736022
 31
0.0
  0
LINE
  5
3B7
330
18
100
AcDbEntity
  8
ADP1DETAIL
100
AcDbLine
 10
-40.87323127897532
 20
104.4944030513502
 30
0.0
 11
-40.87275045099079
 21
102.6437676616566
 31
0.0
  0
DIMENSION
  5
3B8
330
18
100
AcDbEntity
  8
ADPDIM
100
AcDbDimension
  2
*D3
 10
-38.97275123658346
 20
101.8213491068896
 30
0.0
 11
-39.92275084378713
 21
101.8213491068896
 31
0.0
  1
1.900
100
AcDbAlignedDimension
 13
-40.87275045099079
 23
102.6472232377654
 33
0.0
 14
-38.97275123658346
 24
102.645495449711
 34
0.0
100
AcDbRotatedDimension
  0
LINE
  5
3B9
330
18
100
AcDbEntity
  8
ADP1DETAIL
100
AcDbLine
 10
-38.97275123658346
 20
102.645495449711
 30
0.0
 11
-40.87275045099079
 21
102.6437676616566
 31
0.0
  0
ARC
  5
3BA
330
18
100
AcDbEntity
  8
ADP3DETAIL
  6
CENTER2
100
AcDbCircle
 10
-42.92326617926938
 20
104.4937998663335
 30
0.0
 40
3.0
100
AcDbArc
 50
0.0121469862209876
 51
127.987853013779
  0
ARC
  5
3BB
330
18
100
AcDbEntity
  8
ADP1DETAIL
100
AcDbCircle
 10
-42.92323250801964
 20
104.4938689026262
 30
0.0
 40
3.95
100
AcDbArc
 50
0.0148864620868423
 51
127.9851135379131
  0
ARC
  5
3BC
330
18
100
AcDbEntity
  8
ADP1DETAIL
100
AcDbCircle
 10
-42.92323120978241
 20
104.4938704249125
 30
0.0
 40
2.049999999999999
100
AcDbArc
 50
0.0148864620867914
 51
127.9851135379131
  0
LINE
  5
3BD
330
18
100
AcDbEntity
  8
ADP3DETAIL
  6
CENTER2
100
AcDbLine
 10
-44.76974937731084
 20
106.8582236437792
 30
0.0
 11
-46.68578886054834
 21
105.3619035905254
 31
0.0
  0
LINE
  5
3BE
330
18
100
AcDbEntity
  8
ADP1DETAIL
100
AcDbLine
 10
-46.81465282455042
 20
106.4667908343801
 30
0.0
 11
-45.64625802065765
 21
104.9685072890401
 31
0.0
  0
LINE
  5
3BF
330
18
100
AcDbEntity
  8
ADP1DETAIL
100
AcDbLine
 10
-44.18491747624007
 20
106.1096203328599
 30
0.0
 11
-45.64625802065765
 21
104.9685072890401
 31
0.0
  0
LINE
  5
3C0
330
18
100
AcDbEntity
  8
ADP1DETAIL
100
AcDbLine
 10
-45.35428653363319
 20
107.6071431155005
 30
0.0
 11
-46.81465282455042
 21
106.4667908343801
 31
0.0
  0
DIMENSION
  5
3C1
330
18
100
AcDbEntity
  8
ADPDIM
100
AcDbDimension
  2
*D4
 10
-42.92326617926938
 20
104.4937998663335
 30
0.0
 11
-43.02165234345671
 21
104.3356309905668
 31
0.0
 70
     4
100
AcDbRadialDimension
 15
-41.3387091380329
 25
107.0411865631403
 35
0.0
 40
-2.957105259733467
  0
CIRCLE
  5
3C2
330
18
100
AcDbEntity
  8
ADP1DETAIL
100
AcDbCircle
 10
-39.92275084378713
 20
98.21098430800832
 30
0.0
 40
0.95
  0
CIRCLE
  5
3C3
330
18
100
AcDbEntity
  8
ADP1DETAIL
100
AcDbCircle
 10
-39.92275084378713
 20
98.21098430800832
 30
0.0
 40
0.841
  0
DIMENSION
  5
3C4
330
18
100
AcDbEntity
  8
ADPDIM
100
AcDbDimension
  2
*D0
 10
-38.97833907905777
 20
98.21098430800832
 30
0.0
 11
-38.39500574572443
 21
98.21098430800832
 31
0.0
  1
0.109
100
AcDbAlignedDimension
 13
-39.08733907905777
 23
98.21098430800832
 33
0.0
 14
-38.97833907905777
 24
98.21098430800832
 34
0.0
100
AcDbRotatedDimension
  0
TEXT
  5
3D2
330
18
100
AcDbEntity
  8
ADPDIM
100
AcDbText
 10
-55.60280554383313
 20
96.63652130903033
 30
0.0
 40
0.25
  1
J U L I U S  B L U M  &  C O . ,  I N C .      ( 8 0 0 )  5 2 6 - 6 2 9 3        W W W . J U L I U S B L U M . C O M        P A R T  N o .  7 2 8 8
 41
1.25
  7
ARIAL_WIDE
 72
     1
 11
-42.55134749471989
 21
96.88652130903033
 31
0.0
100
AcDbText
 73
     3
  0
ENDSEC
  0
SECTION
  2
OBJECTS
  0
DICTIONARY
  5
C
330
0
100
AcDbDictionary
  3
ACAD_GROUP
350
D
  3
ACAD_LAYOUT
350
3CB
  3
ACAD_MLINESTYLE
350
E
  3
ACAD_PLOTSETTINGS
350
3CC
  3
ACAD_PLOTSTYLENAME
350
3C9
  3
ACDBHEADERROUNDTRIPXREC
350
516
  3
ACDBVARIABLEDICTIONARY
350
42C
  0
DICTIONARY
  5
426
330
18
100
AcDbDictionary
280
     1
  3
ACAD_LAYOUTSELFREF
360
537
  0
DICTIONARY
  5
424
330
15
100
AcDbDictionary
280
     1
  3
ACAD_LAYOUTSELFREF
360
536
  0
DICTIONARY
  5
D
102
{ACAD_REACTORS
330
C
102
}
330
C
100
AcDbDictionary
  0
DICTIONARY
  5
3CB
102
{ACAD_REACTORS
330
C
102
}
330
C
100
AcDbDictionary
  0
DICTIONARY
  5
E
102
{ACAD_REACTORS
330
C
102
}
330
C
100
AcDbDictionary
  3
STANDARD
350
1B
  0
DICTIONARY
  5
3CC
102
{ACAD_REACTORS
330
C
102
}
330
C
100
AcDbDictionary
  0
ACDBDICTIONARYWDFLT
  5
3C9
102
{ACAD_REACTORS
330
C
102
}
330
C
100
AcDbDictionary
281
     1
  3
Normal
350
3CA
100
AcDbDictionaryWithDefault
340
3CA
  0
DICTIONARY
  5
516
102
{ACAD_REACTORS
330
C
102
}
330
C
100
AcDbDictionary
  3
CEPSNTYPE
350
520
  3
FINGERPRINTGUID
350
521
  3
HYPERLINKBASE
350
519
  3
INSUNITS
350
51F
  3
LAYOUTDICT
350
51B
  3
LWETCUNION
350
51E
  3
PLOTSETDICT
350
51C
  3
PLOTSTYLNAMDICT
350
51D
  3
PSVPSCALE
350
523
  3
PUCSBASE
350
526
  3
PUCSORGBACK
350
52C
  3
PUCSORGBOTTOM
350
528
  3
PUCSORGFRONT
350
52B
  3
PUCSORGLEFT
350
529
  3
PUCSORGRIGHT
350
52A
  3
PUCSORGTOP
350
527
  3
PUCSORTHOREF
350
524
  3
PUCSORTHOVIEW
350
525
  3
STYLESHEET
350
51A
  3
TSTACKALIGN
350
517
  3
TSTACKSIZE
350
518
  3
UCSBASE
350
52F
  3
UCSORGBACK
350
535
  3
UCSORGBOTTOM
350
531
  3
UCSORGFRONT
350
534
  3
UCSORGLEFT
350
532
  3
UCSORGRIGHT
350
533
  3
UCSORGTOP
350
530
  3
UCSORTHOREF
350
52D
  3
UCSORTHOVIEW
350
52E
  3
VERSIONGUID
350
522
  0
DICTIONARY
  5
42C
102
{ACAD_REACTORS
330
C
102
}
330
C
100
AcDbDictionary
  3
DIMASSOC
350
42D
  0
XRECORD
  5
537
102
{ACAD_REACTORS
330
426
102
}
330
426
100
AcDbXrecord
340
18
  0
XRECORD
  5
536
102
{ACAD_REACTORS
330
424
102
}
330
424
100
AcDbXrecord
340
15
  0
MLINESTYLE
  5
1B
102
{ACAD_REACTORS
330
E
102
}
330
E
100
AcDbMlineStyle
  2
STANDARD
 70
     0
  3

 62
     0
 51
90.0
 52
90.0
 71
     2
 49
0.5
 62
   256
  6
BYLAYER
 49
-0.5
 62
   256
  6
BYLAYER
  0
ACDBPLACEHOLDER
  5
3CA
102
{ACAD_REACTORS
330
3C9
102
}
330
3C9
100
AcDbPlaceHolder
280
     0
  0
XRECORD
  5
520
102
{ACAD_REACTORS
330
516
102
}
330
516
100
AcDbXrecord
 90
        0
  0
XRECORD
  5
521
102
{ACAD_REACTORS
330
516
102
}
330
516
100
AcDbXrecord
  1
{8BE5F881-783B-44DC-9255-152F88B05C08}
  0
XRECORD
  5
519
102
{ACAD_REACTORS
330
516
102
}
330
516
100
AcDbXrecord
  1

  0
XRECORD
  5
51F
102
{ACAD_REACTORS
330
516
102
}
330
516
100
AcDbXrecord
 90
        0
  0
XRECORD
  5
51B
102
{ACAD_REACTORS
330
516
102
}
330
516
100
AcDbXrecord
340
3CB
  0
XRECORD
  5
51E
102
{ACAD_REACTORS
330
516
102
}
330
516
100
AcDbXrecord
 90
    14877
  0
XRECORD
  5
51C
102
{ACAD_REACTORS
330
516
102
}
330
516
100
AcDbXrecord
340
3CC
  0
XRECORD
  5
51D
102
{ACAD_REACTORS
330
516
102
}
330
516
100
AcDbXrecord
340
3C9
  0
XRECORD
  5
523
102
{ACAD_REACTORS
330
516
102
}
330
516
100
AcDbXrecord
 40
0.0
  0
XRECORD
  5
526
102
{ACAD_REACTORS
330
516
102
}
330
516
100
AcDbXrecord
340
0
  0
XRECORD
  5
52C
102
{ACAD_REACTORS
330
516
102
}
330
516
100
AcDbXrecord
 10
0.0
 20
0.0
 30
0.0
  0
XRECORD
  5
528
102
{ACAD_REACTORS
330
516
102
}
330
516
100
AcDbXrecord
 10
0.0
 20
0.0
 30
0.0
  0
XRECORD
  5
52B
102
{ACAD_REACTORS
330
516
102
}
330
516
100
AcDbXrecord
 10
0.0
 20
0.0
 30
0.0
  0
XRECORD
  5
529
102
{ACAD_REACTORS
330
516
102
}
330
516
100
AcDbXrecord
 10
0.0
 20
0.0
 30
0.0
  0
XRECORD
  5
52A
102
{ACAD_REACTORS
330
516
102
}
330
516
100
AcDbXrecord
 10
0.0
 20
0.0
 30
0.0
  0
XRECORD
  5
527
102
{ACAD_REACTORS
330
516
102
}
330
516
100
AcDbXrecord
 10
0.0
 20
0.0
 30
0.0
  0
XRECORD
  5
524
102
{ACAD_REACTORS
330
516
102
}
330
516
100
AcDbXrecord
340
0
  0
XRECORD
  5
525
102
{ACAD_REACTORS
330
516
102
}
330
516
100
AcDbXrecord
 70
     0
  0
XRECORD
  5
51A
102
{ACAD_REACTORS
330
516
102
}
330
516
100
AcDbXrecord
  1

  0
XRECORD
  5
517
102
{ACAD_REACTORS
330
516
102
}
330
516
100
AcDbXrecord
 90
        1
  0
XRECORD
  5
518
102
{ACAD_REACTORS
330
516
102
}
330
516
100
AcDbXrecord
 90
       70
  0
XRECORD
  5
52F
102
{ACAD_REACTORS
330
516
102
}
330
516
100
AcDbXrecord
340
0
  0
XRECORD
  5
535
102
{ACAD_REACTORS
330
516
102
}
330
516
100
AcDbXrecord
 10
0.0
 20
0.0
 30
0.0
  0
XRECORD
  5
531
102
{ACAD_REACTORS
330
516
102
}
330
516
100
AcDbXrecord
 10
0.0
 20
0.0
 30
0.0
  0
XRECORD
  5
534
102
{ACAD_REACTORS
330
516
102
}
330
516
100
AcDbXrecord
 10
0.0
 20
0.0
 30
0.0
  0
XRECORD
  5
532
102
{ACAD_REACTORS
330
516
102
}
330
516
100
AcDbXrecord
 10
0.0
 20
0.0
 30
0.0
  0
XRECORD
  5
533
102
{ACAD_REACTORS
330
516
102
}
330
516
100
AcDbXrecord
 10
0.0
 20
0.0
 30
0.0
  0
XRECORD
  5
530
102
{ACAD_REACTORS
330
516
102
}
330
516
100
AcDbXrecord
 10
0.0
 20
0.0
 30
0.0
  0
XRECORD
  5
52D
102
{ACAD_REACTORS
330
516
102
}
330
516
100
AcDbXrecord
340
0
  0
XRECORD
  5
52E
102
{ACAD_REACTORS
330
516
102
}
330
516
100
AcDbXrecord
 70
     0
  0
XRECORD
  5
522
102
{ACAD_REACTORS
330
516
102
}
330
516
100
AcDbXrecord
  1
{BFB4E00A-2ACB-4EDA-820C-39E294F5F597}
  0
DICTIONARYVAR
  5
42D
102
{ACAD_REACTORS
330
42C
102
}
330
42C
100
DictionaryVariables
280
     0
  1
1
  0
ENDSEC
  0
EOF
