  0
SECTION
  2
HEADER
  9
$ACADVER
  1
AC1014
  9
$ACADMAINTVER
 70
     9
  9
$DWGCODEPAGE
  3
ANSI_1252
  9
$INSBASE
 10
-54.72449652220737
 20
101.6545789520271
 30
0.0
  9
$EXTMIN
 10
-68.68429084731791
 20
95.44713253559416
 30
0.0
  9
$EXTMAX
 10
-42.58137474909144
 20
111.0293979401329
 30
0.0
  9
$LIMMIN
 10
0.0
 20
0.0
  9
$LIMMAX
 10
36.0
 20
36.0
  9
$ORTHOMODE
 70
     1
  9
$REGENMODE
 70
     1
  9
$FILLMODE
 70
     1
  9
$QTEXTMODE
 70
     0
  9
$MIRRTEXT
 70
     1
  9
$DRAGMODE
 70
     0
  9
$LTSCALE
 40
1.0
  9
$OSMODE
 70
    37
  9
$ATTMODE
 70
     1
  9
$TEXTSIZE
 40
0.2
  9
$TRACEWID
 40
0.05
  9
$TEXTSTYLE
  7
STANDARD
  9
$CLAYER
  8
0
  9
$CELTYPE
  6
BYLAYER
  9
$CECOLOR
 62
   256
  9
$CELTSCALE
 40
1.0
  9
$DELOBJ
 70
     1
  9
$DISPSILH
 70
     0
  9
$DIMSCALE
 40
1.0
  9
$DIMASZ
 40
0.125
  9
$DIMEXO
 40
0.0625
  9
$DIMDLI
 40
0.38
  9
$DIMRND
 40
0.0
  9
$DIMDLE
 40
0.0
  9
$DIMEXE
 40
0.18
  9
$DIMTP
 40
0.0
  9
$DIMTM
 40
0.0
  9
$DIMTXT
 40
0.125
  9
$DIMCEN
 40
0.1875
  9
$DIMTSZ
 40
0.125
  9
$DIMTOL
 70
     0
  9
$DIMLIM
 70
     0
  9
$DIMTIH
 70
     0
  9
$DIMTOH
 70
     0
  9
$DIMSE1
 70
     0
  9
$DIMSE2
 70
     0
  9
$DIMTAD
 70
     0
  9
$DIMZIN
 70
     3
  9
$DIMBLK
  1

  9
$DIMASO
 70
     1
  9
$DIMSHO
 70
     1
  9
$DIMPOST
  1

  9
$DIMAPOST
  1

  9
$DIMALT
 70
     0
  9
$DIMALTD
 70
     1
  9
$DIMALTF
 40
25.4
  9
$DIMLFAC
 40
1.0
  9
$DIMTOFL
 70
     0
  9
$DIMTVP
 40
0.0
  9
$DIMTIX
 70
     0
  9
$DIMSOXD
 70
     0
  9
$DIMSAH
 70
     0
  9
$DIMBLK1
  1

  9
$DIMBLK2
  1

  9
$DIMSTYLE
  2
STANDARD
  9
$DIMCLRD
 70
     0
  9
$DIMCLRE
 70
     0
  9
$DIMCLRT
 70
     0
  9
$DIMTFAC
 40
1.0
  9
$DIMGAP
 40
0.125
  9
$DIMJUST
 70
     0
  9
$DIMSD1
 70
     0
  9
$DIMSD2
 70
     0
  9
$DIMTOLJ
 70
     1
  9
$DIMTZIN
 70
     0
  9
$DIMALTZ
 70
     0
  9
$DIMALTTZ
 70
     0
  9
$DIMFIT
 70
     3
  9
$DIMUPT
 70
     0
  9
$DIMUNIT
 70
     2
  9
$DIMDEC
 70
     4
  9
$DIMTDEC
 70
     4
  9
$DIMALTU
 70
     2
  9
$DIMALTTD
 70
     2
  9
$DIMTXSTY
  7
STANDARD
  9
$DIMAUNIT
 70
     0
  9
$LUNITS
 70
     5
  9
$LUPREC
 70
     4
  9
$SKETCHINC
 40
0.1
  9
$FILLETRAD
 40
0.062
  9
$AUNITS
 70
     0
  9
$AUPREC
 70
     0
  9
$MENU
  1
acad
  9
$ELEVATION
 40
0.0
  9
$PELEVATION
 40
0.0
  9
$THICKNESS
 40
0.0
  9
$LIMCHECK
 70
     0
  9
$BLIPMODE
 70
     0
  9
$CHAMFERA
 40
0.0
  9
$CHAMFERB
 40
0.0
  9
$CHAMFERC
 40
0.0
  9
$CHAMFERD
 40
0.0
  9
$SKPOLY
 70
     0
  9
$TDCREATE
 40
2450387.545265625
  9
$TDUPDATE
 40
2452297.100723912
  9
$TDINDWG
 40
0.0140186458
  9
$TDUSRTIMER
 40
0.0140186458
  9
$USRTIMER
 70
     1
  9
$ANGBASE
 50
0.0
  9
$ANGDIR
 70
     0
  9
$PDMODE
 70
     0
  9
$PDSIZE
 40
0.0
  9
$PLINEWID
 40
0.0
  9
$COORDS
 70
     2
  9
$SPLFRAME
 70
     0
  9
$SPLINETYPE
 70
     6
  9
$SPLINESEGS
 70
     8
  9
$ATTDIA
 70
     0
  9
$ATTREQ
 70
     1
  9
$HANDLING
 70
 22529
  9
$HANDSEED
  5
529
  9
$SURFTAB1
 70
     6
  9
$SURFTAB2
 70
     6
  9
$SURFTYPE
 70
     6
  9
$SURFU
 70
     6
  9
$SURFV
 70
     6
  9
$UCSNAME
  2

  9
$UCSORG
 10
0.0
 20
0.0
 30
0.0
  9
$UCSXDIR
 10
1.0
 20
0.0
 30
0.0
  9
$UCSYDIR
 10
0.0
 20
1.0
 30
0.0
  9
$PUCSNAME
  2

  9
$PUCSORG
 10
0.0
 20
0.0
 30
0.0
  9
$PUCSXDIR
 10
1.0
 20
0.0
 30
0.0
  9
$PUCSYDIR
 10
0.0
 20
1.0
 30
0.0
  9
$USERI1
 70
     0
  9
$USERI2
 70
     0
  9
$USERI3
 70
     0
  9
$USERI4
 70
     0
  9
$USERI5
 70
     0
  9
$USERR1
 40
0.0
  9
$USERR2
 40
0.0
  9
$USERR3
 40
0.0
  9
$USERR4
 40
0.0
  9
$USERR5
 40
0.0
  9
$WORLDVIEW
 70
     1
  9
$SHADEDGE
 70
     3
  9
$SHADEDIF
 70
    70
  9
$TILEMODE
 70
     1
  9
$MAXACTVP
 70
    15
  9
$PINSBASE
 10
0.0
 20
0.0
 30
0.0
  9
$PLIMCHECK
 70
     0
  9
$PEXTMIN
 10
1.000000000000000E+20
 20
1.000000000000000E+20
 30
1.000000000000000E+20
  9
$PEXTMAX
 10
-1.000000000000000E+20
 20
-1.000000000000000E+20
 30
-1.000000000000000E+20
  9
$PLIMMIN
 10
0.0
 20
0.0
  9
$PLIMMAX
 10
12.0
 20
9.0
  9
$UNITMODE
 70
     0
  9
$VISRETAIN
 70
     0
  9
$PLINEGEN
 70
     0
  9
$PSLTSCALE
 70
     1
  9
$TREEDEPTH
 70
  3020
  9
$PICKSTYLE
 70
     1
  9
$CMLSTYLE
  2
STANDARD
  9
$CMLJUST
 70
     0
  9
$CMLSCALE
 40
1.0
  9
$PROXYGRAPHICS
 70
     1
  9
$MEASUREMENT
 70
     0
  0
ENDSEC
  0
SECTION
  2
CLASSES
  0
CLASS
  1
ACDBDICTIONARYWDFLT
  2
AcDbDictionaryWithDefault
  3
AutoCAD 2000
 90
        0
280
     0
281
     0
  0
CLASS
  1
ACDBPLACEHOLDER
  2
AcDbPlaceHolder
  3
AutoCAD 2000
 90
        0
280
     0
281
     0
  0
CLASS
  1
LAYOUT
  2
AcDbLayout
  3
AutoCAD 2000
 90
        0
280
     0
281
     0
  0
CLASS
  1
DICTIONARYVAR
  2
AcDbDictionaryVar
  3
AutoCAD 2000
 90
        0
280
     0
281
     0
  0
CLASS
  1
LONG_TRANSACTION
  2
AcDbLongTransaction
  3
AutoCAD 2000
 90
        0
280
     0
281
     0
  0
CLASS
  1
LWPOLYLINE
  2
AcDbPolyline
  3
AutoCAD 2000
 90
        0
280
     0
281
     1
  0
CLASS
  1
HATCH
  2
AcDbHatch
  3
AutoCAD 2000
 90
        0
280
     0
281
     1
  0
CLASS
  1
XRECORD
  2
AcDbXrecord
  3
AutoCAD 2000
 90
        0
280
     0
281
     0
  0
CLASS
  1
LONG_TRANSACTION
  2
AcDbLongTransaction
  3
AutoCAD 2000
 90
        0
280
     0
281
     0
  0
CLASS
  1
LWPOLYLINE
  2
AcDbPolyline
  3
AutoCAD 2000
 90
        0
280
     0
281
     1
  0
CLASS
  1
HATCH
  2
AcDbHatch
  3
AutoCAD 2000
 90
        0
280
     0
281
     1
  0
CLASS
  1
XRECORD
  2
AcDbXrecord
  3
AutoCAD 2000
 90
        0
280
     0
281
     0
  0
CLASS
  1
LONG_TRANSACTION
  2
AcDbLongTransaction
  3
AutoCAD 2000
 90
        0
280
     0
281
     0
  0
CLASS
  1
LWPOLYLINE
  2
AcDbPolyline
  3
AutoCAD 2000
 90
        0
280
     0
281
     1
  0
CLASS
  1
HATCH
  2
AcDbHatch
  3
AutoCAD 2000
 90
        0
280
     0
281
     1
  0
CLASS
  1
XRECORD
  2
AcDbXrecord
  3
AutoCAD 2000
 90
        0
280
     0
281
     0
  0
CLASS
  1
LONG_TRANSACTION
  2
AcDbLongTransaction
  3
AutoCAD 2000
 90
        0
280
     0
281
     0
  0
CLASS
  1
LWPOLYLINE
  2
AcDbPolyline
  3
AutoCAD 2000
 90
        0
280
     0
281
     1
  0
CLASS
  1
HATCH
  2
AcDbHatch
  3
AutoCAD 2000
 90
        0
280
     0
281
     1
  0
CLASS
  1
XRECORD
  2
AcDbXrecord
  3
AutoCAD 2000
 90
        0
280
     0
281
     0
  0
CLASS
  1
LONG_TRANSACTION
  2
AcDbLongTransaction
  3
AutoCAD 2000
 90
        0
280
     0
281
     0
  0
CLASS
  1
LWPOLYLINE
  2
AcDbPolyline
  3
AutoCAD 2000
 90
        0
280
     0
281
     1
  0
CLASS
  1
HATCH
  2
AcDbHatch
  3
AutoCAD 2000
 90
        0
280
     0
281
     1
  0
CLASS
  1
XRECORD
  2
AcDbXrecord
  3
AutoCAD 2000
 90
        0
280
     0
281
     0
  0
ENDSEC
  0
SECTION
  2
TABLES
  0
TABLE
  2
VPORT
  5
8
330
0
100
AcDbSymbolTable
 70
     2
  0
VPORT
  5
506
330
8
100
AcDbSymbolTableRecord
100
AcDbViewportTableRecord
  2
*ACTIVE
 70
     0
 10
0.0
 20
0.0
 11
1.0
 21
1.0
 12
-55.61306471862426
 22
103.2385391443075
 13
0.0
 23
0.0
 14
0.5740882589684922
 24
0.5740882589684922
 15
0.5
 25
0.5
 16
0.0
 26
0.0
 36
1.0
 17
0.0
 27
0.0
 37
0.0
 40
16.73123207988761
 41
1.570528967254408
 42
50.0
 43
0.0
 44
0.0
 50
0.0
 51
0.0
 71
     0
 72
   100
 73
     1
 74
     0
 75
     0
 76
     0
 77
     0
 78
     0
  0
ENDTAB
  0
TABLE
  2
LTYPE
  5
5
330
0
100
AcDbSymbolTable
 70
     2
  0
LTYPE
  5
12
330
5
100
AcDbSymbolTableRecord
100
AcDbLinetypeTableRecord
  2
BYBLOCK
 70
     0
  3

 72
    65
 73
     0
 40
0.0
  0
LTYPE
  5
13
330
5
100
AcDbSymbolTableRecord
100
AcDbLinetypeTableRecord
  2
BYLAYER
 70
     0
  3

 72
    65
 73
     0
 40
0.0
  0
LTYPE
  5
14
330
5
100
AcDbSymbolTableRecord
100
AcDbLinetypeTableRecord
  2
CONTINUOUS
 70
     0
  3
Solid line
 72
    65
 73
     0
 40
0.0
  0
LTYPE
  5
35C
330
5
100
AcDbSymbolTableRecord
100
AcDbLinetypeTableRecord
  2
CENTER2
 70
     0
  3
___ _ ___ _ ___ _ ___ _ ___ _ ___ _ ___ _ ___ _
 72
    65
 73
     4
 40
1.125
 49
0.75
 74
     0
 49
-0.125
 74
     0
 49
0.125
 74
     0
 49
-0.125
 74
     0
  0
ENDTAB
  0
TABLE
  2
LAYER
  5
2
330
0
100
AcDbSymbolTable
 70
     5
  0
LAYER
  5
F
330
2
100
AcDbSymbolTableRecord
100
AcDbLayerTableRecord
  2
0
 70
     0
 62
     7
  6
CONTINUOUS
  0
LAYER
  5
35D
330
2
100
AcDbSymbolTableRecord
100
AcDbLayerTableRecord
  2
ADP1DETAIL
 70
     0
 62
     7
  6
CONTINUOUS
  0
LAYER
  5
35E
330
2
100
AcDbSymbolTableRecord
100
AcDbLayerTableRecord
  2
DEFPOINTS
 70
     0
 62
     7
  6
CONTINUOUS
  0
LAYER
  5
362
330
2
100
AcDbSymbolTableRecord
100
AcDbLayerTableRecord
  2
ADP3DETAIL
 70
     0
 62
     1
  6
CONTINUOUS
  0
LAYER
  5
367
330
2
100
AcDbSymbolTableRecord
100
AcDbLayerTableRecord
  2
ADPDIM
 70
     0
 62
     3
  6
CONTINUOUS
  0
ENDTAB
  0
TABLE
  2
STYLE
  5
3
330
0
100
AcDbSymbolTable
 70
     2
  0
STYLE
  5
10
330
3
100
AcDbSymbolTableRecord
100
AcDbTextStyleTableRecord
  2
STANDARD
 70
     0
 40
0.0
 41
1.0
 50
0.0
 71
     0
 42
0.2
  3
txt
  4

  0
STYLE
  5
3C2
330
3
100
AcDbSymbolTableRecord
100
AcDbTextStyleTableRecord
  2
ARIAL_WIDE
 70
     0
 40
0.0
 41
1.25
 50
0.0
 71
     0
 42
0.2
  3
ARIAL.TTF
  4

1001
ACAD
1000
Arial
1071
       34
  0
ENDTAB
  0
TABLE
  2
VIEW
  5
6
330
0
100
AcDbSymbolTable
 70
     0
  0
ENDTAB
  0
TABLE
  2
UCS
  5
7
330
0
100
AcDbSymbolTable
 70
     0
  0
ENDTAB
  0
TABLE
  2
APPID
  5
9
330
0
100
AcDbSymbolTable
 70
     1
  0
APPID
  5
11
330
9
100
AcDbSymbolTableRecord
100
AcDbRegAppTableRecord
  2
ACAD
 70
     0
  0
ENDTAB
  0
TABLE
  2
DIMSTYLE
  5
A
330
0
100
AcDbSymbolTable
 70
     1
  0
DIMSTYLE
105
3B6
330
A
100
AcDbSymbolTableRecord
100
AcDbDimStyleTableRecord
  2
STANDARD
 70
     0
  3

  4

  5

  6

  7

 40
1.0
 41
0.18
 42
0.0625
 43
0.38
 44
0.18
 45
0.0
 46
0.0
 47
0.0
 48
0.0
140
0.18
141
0.09
142
0.0
143
25.4
144
1.0
145
0.0
146
1.0
147
0.09
 71
     0
 72
     0
 73
     1
 74
     1
 75
     0
 76
     0
 77
     0
 78
     0
170
     0
171
     2
172
     0
173
     0
174
     0
175
     0
176
     0
177
     0
178
     0
270
     2
271
     4
272
     4
273
     2
274
     2
340
10
275
     0
280
     0
281
     0
282
     0
283
     1
284
     0
285
     0
286
     0
287
     3
288
     0
  0
ENDTAB
  0
TABLE
  2
BLOCK_RECORD
  5
1
330
0
100
AcDbSymbolTable
 70
     5
  0
BLOCK_RECORD
  5
18
102
{ACAD_XDICTIONARY
360
417
102
}
330
1
100
AcDbSymbolTableRecord
100
AcDbBlockTableRecord
  2
*MODEL_SPACE
  0
BLOCK_RECORD
  5
15
102
{ACAD_XDICTIONARY
360
415
102
}
330
1
100
AcDbSymbolTableRecord
100
AcDbBlockTableRecord
  2
*PAPER_SPACE
  0
BLOCK_RECORD
  5
325
330
1
100
AcDbSymbolTableRecord
100
AcDbBlockTableRecord
  2
*D0
  0
BLOCK_RECORD
  5
356
330
1
100
AcDbSymbolTableRecord
100
AcDbBlockTableRecord
  2
*D1
  0
BLOCK_RECORD
  5
357
330
1
100
AcDbSymbolTableRecord
100
AcDbBlockTableRecord
  2
*D2
  0
BLOCK_RECORD
  5
358
330
1
100
AcDbSymbolTableRecord
100
AcDbBlockTableRecord
  2
*D3
  0
BLOCK_RECORD
  5
35A
330
1
100
AcDbSymbolTableRecord
100
AcDbBlockTableRecord
  2
*D4
  0
ENDTAB
  0
ENDSEC
  0
SECTION
  2
BLOCKS
  0
BLOCK
  5
36A
330
18
100
AcDbEntity
  8
0
100
AcDbBlockBegin
  2
*MODEL_SPACE
 70
     0
 10
0.0
 20
0.0
 30
0.0
  3
*MODEL_SPACE
  1

  0
ENDBLK
  5
36B
330
18
100
AcDbEntity
  8
0
100
AcDbBlockEnd
  0
BLOCK
  5
368
330
15
100
AcDbEntity
 67
     1
  8
0
100
AcDbBlockBegin
  2
*PAPER_SPACE
 70
     0
 10
0.0
 20
0.0
 30
0.0
  3
*PAPER_SPACE
  1

  0
ENDBLK
  5
369
330
15
100
AcDbEntity
 67
     1
  8
0
100
AcDbBlockEnd
  0
BLOCK
  5
36D
330
325
100
AcDbEntity
  8
0
100
AcDbBlockBegin
  2
*D0
 70
     1
 10
0.0
 20
0.0
 30
0.0
  3
*D0
  1

  0
LINE
  5
36E
330
325
100
AcDbEntity
  8
0
  6
BYBLOCK
 62
     0
100
AcDbLine
 10
-52.93908515027435
 20
97.28429559837884
 30
0.0
 11
-52.93908515027435
 21
97.40179559837883
 31
0.0
  0
LINE
  5
36F
330
325
100
AcDbEntity
  8
0
  6
BYBLOCK
 62
     0
100
AcDbLine
 10
-52.83008515027435
 20
97.28429559837884
 30
0.0
 11
-52.83008515027435
 21
97.40179559837883
 31
0.0
  0
LINE
  5
370
330
325
100
AcDbEntity
  8
0
  6
BYBLOCK
 62
     0
100
AcDbLine
 10
-52.93908515027435
 20
97.22179559837883
 30
0.0
 11
-53.18908515027435
 21
97.22179559837883
 31
0.0
  0
LINE
  5
371
330
325
100
AcDbEntity
  8
0
  6
BYBLOCK
 62
     0
100
AcDbLine
 10
-52.83008515027435
 20
97.22179559837883
 30
0.0
 11
-52.58008515027435
 21
97.22179559837883
 31
0.0
  0
LINE
  5
372
330
325
100
AcDbEntity
  8
0
  6
BYBLOCK
 62
     0
100
AcDbLine
 10
-53.06408515027435
 20
97.09679559837883
 30
0.0
 11
-52.81408515027435
 21
97.34679559837884
 31
0.0
  0
LINE
  5
373
330
325
100
AcDbEntity
  8
0
  6
BYBLOCK
 62
     0
100
AcDbLine
 10
-52.95508515027435
 20
97.09679559837883
 30
0.0
 11
-52.70508515027435
 21
97.34679559837884
 31
0.0
  0
TEXT
  5
374
330
325
100
AcDbEntity
  8
0
  6
BYBLOCK
 62
     0
100
AcDbText
 10
-52.45508515027434
 20
97.15929559837883
 30
0.0
 40
0.125
  1
0.109
 72
     1
 11
-52.24675181694101
 21
97.22179559837883
 31
0.0
100
AcDbText
 73
     2
  0
POINT
  5
375
330
325
100
AcDbEntity
  8
DEFPOINTS
  6
BYBLOCK
 62
     0
100
AcDbPoint
 10
-52.93908515027435
 20
97.22179559837883
 30
0.0
  0
POINT
  5
376
330
325
100
AcDbEntity
  8
DEFPOINTS
  6
BYBLOCK
 62
     0
100
AcDbPoint
 10
-52.83008515027435
 20
97.22179559837883
 30
0.0
  0
POINT
  5
377
330
325
100
AcDbEntity
  8
DEFPOINTS
  6
BYBLOCK
 62
     0
100
AcDbPoint
 10
-52.83008515027435
 20
97.22179559837883
 30
0.0
  0
ENDBLK
  5
378
330
325
100
AcDbEntity
  8
0
100
AcDbBlockEnd
  0
BLOCK
  5
379
330
356
100
AcDbEntity
  8
0
100
AcDbBlockBegin
  2
*D1
 70
     1
 10
0.0
 20
0.0
 30
0.0
  3
*D1
  1

  0
LINE
  5
37A
330
356
100
AcDbEntity
  8
0
  6
BYBLOCK
 62
     0
100
AcDbLine
 10
-55.09458003269319
 20
106.3773799229263
 30
0.0
 11
-56.77191947947061
 21
103.8969449669705
 31
0.0
  0
LINE
  5
37B
330
356
100
AcDbEntity
  8
0
  6
BYBLOCK
 62
     0
100
AcDbLine
 10
-55.06105438066476
 20
106.2038114043059
 30
0.0
 11
-55.12810568472162
 21
106.5509484415466
 31
0.0
  0
TEXT
  5
37C
330
356
100
AcDbEntity
  8
0
  6
BYBLOCK
 62
     0
100
AcDbText
 10
-56.90686975893099
 20
103.5858086894574
 30
0.0
 40
0.125
  1
R3
 50
55.93234338693982
 72
     1
 11
-56.90029210717987
 21
103.7071086438757
 31
0.0
100
AcDbText
 73
     2
  0
POINT
  5
37D
330
356
100
AcDbEntity
  8
DEFPOINTS
  6
BYBLOCK
 62
     0
100
AcDbPoint
 10
-55.09458003269319
 20
106.3773799229263
 30
0.0
  0
POINT
  5
37E
330
356
100
AcDbEntity
  8
DEFPOINTS
  6
BYBLOCK
 62
     0
100
AcDbPoint
 10
-56.7750944317964
 20
103.8922498751406
 30
0.0
  0
ENDBLK
  5
37F
330
356
100
AcDbEntity
  8
0
100
AcDbBlockEnd
  0
BLOCK
  5
380
330
357
100
AcDbEntity
  8
0
100
AcDbBlockBegin
  2
*D2
 70
     1
 10
0.0
 20
0.0
 30
0.0
  3
*D2
  1

  0
LINE
  5
381
330
357
100
AcDbEntity
  8
0
  6
BYBLOCK
 62
     0
100
AcDbLine
 10
-52.76199730780004
 20
101.6563067400815
 30
0.0
 11
-52.13587930590449
 21
101.6563067400815
 31
0.0
  0
LINE
  5
382
330
357
100
AcDbEntity
  8
0
  6
BYBLOCK
 62
     0
100
AcDbLine
 10
-53.58718858574505
 20
109.6563067400815
 30
0.0
 11
-52.13587930590449
 21
109.6563067400815
 31
0.0
  0
LINE
  5
383
330
357
100
AcDbEntity
  8
0
  6
BYBLOCK
 62
     0
100
AcDbLine
 10
-52.31587930590449
 20
101.6563067400815
 30
0.0
 11
-52.31587930590449
 21
105.4896400734148
 31
0.0
  0
LINE
  5
384
330
357
100
AcDbEntity
  8
0
  6
BYBLOCK
 62
     0
100
AcDbLine
 10
-52.31587930590449
 20
109.6563067400815
 30
0.0
 11
-52.31587930590449
 21
105.8229734067482
 31
0.0
  0
LINE
  5
385
330
357
100
AcDbEntity
  8
0
  6
BYBLOCK
 62
     0
100
AcDbLine
 10
-52.19087930590449
 20
101.5313067400815
 30
0.0
 11
-52.44087930590449
 21
101.7813067400815
 31
0.0
  0
LINE
  5
386
330
357
100
AcDbEntity
  8
0
  6
BYBLOCK
 62
     0
100
AcDbLine
 10
-52.19087930590449
 20
109.5313067400815
 30
0.0
 11
-52.44087930590449
 21
109.7813067400815
 31
0.0
  0
TEXT
  5
387
330
357
100
AcDbEntity
  8
0
  6
BYBLOCK
 62
     0
100
AcDbText
 10
-52.25337930590448
 20
105.6146400734148
 30
0.0
 40
0.125
  1
8
 50
90.0
 72
     1
 11
-52.31587930590449
 21
105.6563067400815
 31
0.0
100
AcDbText
 73
     2
  0
POINT
  5
388
330
357
100
AcDbEntity
  8
DEFPOINTS
  6
BYBLOCK
 62
     0
100
AcDbPoint
 10
-52.82449730780005
 20
101.6563067400815
 30
0.0
  0
POINT
  5
389
330
357
100
AcDbEntity
  8
DEFPOINTS
  6
BYBLOCK
 62
     0
100
AcDbPoint
 10
-53.64968858574505
 20
109.6563067400815
 30
0.0
  0
POINT
  5
38A
330
357
100
AcDbEntity
  8
DEFPOINTS
  6
BYBLOCK
 62
     0
100
AcDbPoint
 10
-52.31587930590449
 20
109.6563067400815
 30
0.0
  0
ENDBLK
  5
38B
330
357
100
AcDbEntity
  8
0
100
AcDbBlockEnd
  0
BLOCK
  5
38C
330
358
100
AcDbEntity
  8
0
100
AcDbBlockBegin
  2
*D3
 70
     1
 10
0.0
 20
0.0
 30
0.0
  3
*D3
  1

  0
LINE
  5
38D
330
358
100
AcDbEntity
  8
0
  6
BYBLOCK
 62
     0
100
AcDbLine
 10
-54.72449652220737
 20
101.5955345281359
 30
0.0
 11
-54.72449652220737
 21
100.6521603972601
 31
0.0
  0
LINE
  5
38E
330
358
100
AcDbEntity
  8
0
  6
BYBLOCK
 62
     0
100
AcDbLine
 10
-52.82449730780005
 20
101.5938067400815
 30
0.0
 11
-52.82449730780005
 21
100.6521603972601
 31
0.0
  0
LINE
  5
38F
330
358
100
AcDbEntity
  8
0
  6
BYBLOCK
 62
     0
100
AcDbLine
 10
-54.72449652220737
 20
100.8321603972601
 30
0.0
 11
-54.10783024833705
 21
100.8321603972601
 31
0.0
  0
LINE
  5
390
330
358
100
AcDbEntity
  8
0
  6
BYBLOCK
 62
     0
100
AcDbLine
 10
-52.82449730780005
 20
100.8321603972601
 30
0.0
 11
-53.44116358167037
 21
100.8321603972601
 31
0.0
  0
LINE
  5
391
330
358
100
AcDbEntity
  8
0
  6
BYBLOCK
 62
     0
100
AcDbLine
 10
-54.84949652220737
 20
100.7071603972601
 30
0.0
 11
-54.59949652220736
 21
100.9571603972601
 31
0.0
  0
LINE
  5
392
330
358
100
AcDbEntity
  8
0
  6
BYBLOCK
 62
     0
100
AcDbLine
 10
-52.94949730780004
 20
100.7071603972601
 30
0.0
 11
-52.69949730780004
 21
100.9571603972601
 31
0.0
  0
TEXT
  5
393
330
358
100
AcDbEntity
  8
0
  6
BYBLOCK
 62
     0
100
AcDbText
 10
-53.98283024833705
 20
100.7696603972601
 30
0.0
 40
0.125
  1
1.900
 72
     1
 11
-53.77449691500371
 21
100.8321603972601
 31
0.0
100
AcDbText
 73
     2
  0
POINT
  5
394
330
358
100
AcDbEntity
  8
DEFPOINTS
  6
BYBLOCK
 62
     0
100
AcDbPoint
 10
-54.72449652220737
 20
101.6580345281359
 30
0.0
  0
POINT
  5
395
330
358
100
AcDbEntity
  8
DEFPOINTS
  6
BYBLOCK
 62
     0
100
AcDbPoint
 10
-52.82449730780005
 20
101.6563067400815
 30
0.0
  0
POINT
  5
396
330
358
100
AcDbEntity
  8
DEFPOINTS
  6
BYBLOCK
 62
     0
100
AcDbPoint
 10
-52.82449730780005
 20
100.8321603972601
 30
0.0
  0
ENDBLK
  5
397
330
358
100
AcDbEntity
  8
0
100
AcDbBlockEnd
  0
BLOCK
  5
398
330
35A
100
AcDbEntity
  8
0
100
AcDbBlockBegin
  2
*D4
 70
     1
 10
0.0
 20
0.0
 30
0.0
  3
*D4
  1

  0
LINE
  5
399
330
35A
100
AcDbEntity
  8
0
  6
BYBLOCK
 62
     0
100
AcDbLine
 10
-60.36713068246386
 20
105.1164306262996
 30
0.0
 11
-61.27579849895811
 21
106.4141427572165
 31
0.0
  0
LINE
  5
39A
330
35A
100
AcDbEntity
  8
0
  6
BYBLOCK
 62
     0
100
AcDbLine
 10
-53.81391432815192
 20
109.7050421171079
 30
0.0
 11
-54.72258214464617
 21
111.0027542480249
 31
0.0
  0
LINE
  5
39B
330
35A
100
AcDbEntity
  8
0
  6
BYBLOCK
 62
     0
100
AcDbLine
 10
-61.17255474041492
 20
106.2666953892445
 30
0.0
 11
-58.03247190397378
 21
108.4654050619235
 31
0.0
  0
LINE
  5
39C
330
35A
100
AcDbEntity
  8
0
  6
BYBLOCK
 62
     0
100
AcDbLine
 10
-54.61933838610298
 20
110.8553068800529
 30
0.0
 11
-57.75942122254412
 21
108.6565972073739
 31
0.0
  0
LINE
  5
39D
330
35A
100
AcDbEntity
  8
0
  6
BYBLOCK
 62
     0
100
AcDbLine
 10
-61.20325169140716
 20
106.0926043291645
 30
0.0
 11
-61.14185778942268
 21
106.4407864493245
 31
0.0
  0
LINE
  5
39E
330
35A
100
AcDbEntity
  8
0
  6
BYBLOCK
 62
     0
100
AcDbLine
 10
-54.65003533709523
 20
110.6812158199729
 30
0.0
 11
-54.58864143511074
 21
111.0293979401329
 31
0.0
  0
TEXT
  5
39F
330
35A
100
AcDbEntity
  8
0
  6
BYBLOCK
 62
     0
100
AcDbText
 10
-57.89422937116572
 20
108.4859051136993
 30
0.0
 40
0.125
  1
8
 50
35.00000000000003
 72
     1
 11
-57.89594656325895
 21
108.5610011346487
 31
0.0
100
AcDbText
 73
     2
  0
POINT
  5
3A0
330
35A
100
AcDbEntity
  8
DEFPOINTS
  6
BYBLOCK
 62
     0
100
AcDbPoint
 10
-60.33128215519191
 20
105.0652336235315
 30
0.0
  0
POINT
  5
3A1
330
35A
100
AcDbEntity
  8
DEFPOINTS
  6
BYBLOCK
 62
     0
100
AcDbPoint
 10
-53.77806580087998
 20
109.6538451143399
 30
0.0
  0
POINT
  5
3A2
330
35A
100
AcDbEntity
  8
DEFPOINTS
  6
BYBLOCK
 62
     0
100
AcDbPoint
 10
-54.61933838610298
 20
110.8553068800529
 30
0.0
  0
ENDBLK
  5
3A3
330
35A
100
AcDbEntity
  8
0
100
AcDbBlockEnd
  0
ENDSEC
  0
SECTION
  2
ENTITIES
  0
ARC
  5
3A4
330
18
100
AcDbEntity
  8
ADP1DETAIL
100
AcDbCircle
 10
-56.77507798602249
 20
103.8922803709941
 30
0.0
 40
2.049999999999999
100
AcDbArc
 50
0.0148864620868169
 51
124.9851135379131
  0
ARC
  5
3A5
330
18
100
AcDbEntity
  8
ADP1DETAIL
100
AcDbCircle
 10
-56.77507928429209
 20
103.8922789732257
 30
0.0
 40
3.95
100
AcDbArc
 50
0.0148864620868423
 51
124.9851135379131
  0
ARC
  5
3A6
330
18
100
AcDbEntity
  8
ADP3DETAIL
  6
CENTER2
100
AcDbCircle
 10
-56.77509443179639
 20
103.8922498751406
 30
0.0
 40
3.0
100
AcDbArc
 50
0.0121469862209876
 51
124.987853013779
  0
DIMENSION
  5
3A7
330
18
100
AcDbEntity
  8
ADPDIM
100
AcDbDimension
  2
*D2
 10
-52.31587930590449
 20
109.6563067400815
 30
0.0
 11
-52.31587930590449
 21
105.6563067400815
 31
0.0
100
AcDbAlignedDimension
 13
-52.82449730780005
 23
101.6563067400815
 33
0.0
 14
-53.64968858574505
 24
109.6563067400815
 34
0.0
 50
90.0
100
AcDbRotatedDimension
  0
DIMENSION
  5
3A8
330
18
100
AcDbEntity
  8
ADPDIM
100
AcDbDimension
  2
*D1
 10
-56.7750944317964
 20
103.8922498751406
 30
0.0
 11
-56.90029210717987
 21
103.7071086438757
 31
0.0
 70
     4
100
AcDbRadialDimension
 15
-55.09458003269319
 25
106.3773799229263
 35
0.0
 40
-2.994332177705569
  0
DIMENSION
  5
3A9
330
18
100
AcDbEntity
  8
ADPDIM
100
AcDbDimension
  2
*D3
 10
-52.82449730780005
 20
100.8321603972601
 30
0.0
 11
-53.77449691500371
 21
100.8321603972601
 31
0.0
  1
1.900
100
AcDbAlignedDimension
 13
-54.72449652220737
 23
101.6580345281359
 33
0.0
 14
-52.82449730780005
 24
101.6563067400815
 34
0.0
100
AcDbRotatedDimension
  0
LINE
  5
3AA
330
18
100
AcDbEntity
  8
ADP1DETAIL
100
AcDbLine
 10
-54.72507805521541
 20
103.8928129974318
 30
0.0
 11
-54.72449652220737
 21
101.6545789520271
 31
0.0
  0
LINE
  5
3AB
330
18
100
AcDbEntity
  8
ADP1DETAIL
100
AcDbLine
 10
-52.82507941761501
 20
103.8933052534348
 30
0.0
 11
-52.82449730780005
 21
101.6528511639727
 31
0.0
  0
LINE
  5
3AC
330
18
100
AcDbEntity
  8
ADP3DETAIL
  6
CENTER2
100
AcDbLine
 10
-53.77509449921551
 20
103.8928858898471
 30
0.0
 11
-53.77449691567425
 21
101.0741608427387
 31
0.0
  0
LINE
  5
3AD
330
18
100
AcDbEntity
  8
ADP1DETAIL
100
AcDbLine
 10
-52.82449730780005
 20
101.6563067400815
 30
0.0
 11
-54.72449652220737
 21
101.6545789520271
 31
0.0
  0
DIMENSION
  5
3AE
330
18
100
AcDbEntity
  8
ADPDIM
100
AcDbDimension
  2
*D4
 10
-54.61933838610298
 20
110.8553068800529
 30
0.0
 11
-57.89594656325895
 21
108.5610011346487
 31
0.0
 70
     1
100
AcDbAlignedDimension
 13
-60.33128215519191
 23
105.0652336235315
 33
0.0
 14
-53.77806580087998
 24
109.6538451143399
 34
0.0
  0
LINE
  5
3AF
330
18
100
AcDbEntity
  8
ADP1DETAIL
100
AcDbLine
 10
-57.95047333881948
 20
105.571847507081
 30
0.0
 11
-59.78709242651557
 21
104.2865439939594
 31
0.0
  0
LINE
  5
3B0
330
18
100
AcDbEntity
  8
ADP3DETAIL
  6
CENTER2
100
AcDbLine
 10
-58.49530270943249
 20
106.3500707558299
 30
0.0
 11
-60.80460985389798
 21
104.7338060000355
 31
0.0
  0
LINE
  5
3B1
330
18
100
AcDbEntity
  8
ADP1DETAIL
100
AcDbLine
 10
-59.0398654518765
 20
107.1285180891005
 30
0.0
 11
-60.87547188386825
 21
105.8439232531036
 31
0.0
  0
LINE
  5
3B2
330
18
100
AcDbEntity
  8
ADP1DETAIL
100
AcDbLine
 10
-60.87547188386825
 20
105.8439232531036
 30
0.0
 11
-59.78709242651557
 21
104.2865439939594
 31
0.0
  0
DIMENSION
  5
3B3
330
18
100
AcDbEntity
  8
ADPDIM
100
AcDbDimension
  2
*D0
 10
-52.83008515027435
 20
97.22179559837883
 30
0.0
 11
-52.24675181694101
 21
97.22179559837883
 31
0.0
  1
0.109
100
AcDbAlignedDimension
 13
-52.93908515027435
 23
97.22179559837883
 33
0.0
 14
-52.83008515027435
 24
97.22179559837883
 34
0.0
100
AcDbRotatedDimension
  0
CIRCLE
  5
3B4
330
18
100
AcDbEntity
  8
ADP1DETAIL
100
AcDbCircle
 10
-53.77449691500371
 20
97.22179559837883
 30
0.0
 40
0.841
  0
CIRCLE
  5
3B5
330
18
100
AcDbEntity
  8
ADP1DETAIL
100
AcDbCircle
 10
-53.77449691500371
 20
97.22179559837883
 30
0.0
 40
0.95
  0
TEXT
  5
3C3
330
18
100
AcDbEntity
  8
ADPDIM
100
AcDbText
 10
-68.68429084731791
 20
95.521143449646
 30
0.0
 40
0.25
  1
J U L I U S  B L U M  &  C O . ,  I N C .      ( 8 0 0 )  5 2 6 - 6 2 9 3        W W W . J U L I U S B L U M . C O M        P A R T  N o .  7 2 8 5
 41
1.25
  7
ARIAL_WIDE
 72
     1
 11
-55.63283279820467
 21
95.771143449646
 31
0.0
100
AcDbText
 73
     3
  0
ENDSEC
  0
SECTION
  2
OBJECTS
  0
DICTIONARY
  5
C
330
0
100
AcDbDictionary
  3
ACAD_GROUP
350
D
  3
ACAD_LAYOUT
350
3BC
  3
ACAD_MLINESTYLE
350
E
  3
ACAD_PLOTSETTINGS
350
3BD
  3
ACAD_PLOTSTYLENAME
350
3BA
  3
ACDBHEADERROUNDTRIPXREC
350
507
  3
ACDBVARIABLEDICTIONARY
350
41D
  0
DICTIONARY
  5
417
330
18
100
AcDbDictionary
280
     1
  3
ACAD_LAYOUTSELFREF
360
528
  0
DICTIONARY
  5
415
330
15
100
AcDbDictionary
280
     1
  3
ACAD_LAYOUTSELFREF
360
527
  0
DICTIONARY
  5
D
102
{ACAD_REACTORS
330
C
102
}
330
C
100
AcDbDictionary
  0
DICTIONARY
  5
3BC
102
{ACAD_REACTORS
330
C
102
}
330
C
100
AcDbDictionary
  0
DICTIONARY
  5
E
102
{ACAD_REACTORS
330
C
102
}
330
C
100
AcDbDictionary
  3
STANDARD
350
1B
  0
DICTIONARY
  5
3BD
102
{ACAD_REACTORS
330
C
102
}
330
C
100
AcDbDictionary
  0
ACDBDICTIONARYWDFLT
  5
3BA
102
{ACAD_REACTORS
330
C
102
}
330
C
100
AcDbDictionary
281
     1
  3
Normal
350
3BB
100
AcDbDictionaryWithDefault
340
3BB
  0
DICTIONARY
  5
507
102
{ACAD_REACTORS
330
C
102
}
330
C
100
AcDbDictionary
  3
CEPSNTYPE
350
511
  3
FINGERPRINTGUID
350
512
  3
HYPERLINKBASE
350
50A
  3
INSUNITS
350
510
  3
LAYOUTDICT
350
50C
  3
LWETCUNION
350
50F
  3
PLOTSETDICT
350
50D
  3
PLOTSTYLNAMDICT
350
50E
  3
PSVPSCALE
350
514
  3
PUCSBASE
350
517
  3
PUCSORGBACK
350
51D
  3
PUCSORGBOTTOM
350
519
  3
PUCSORGFRONT
350
51C
  3
PUCSORGLEFT
350
51A
  3
PUCSORGRIGHT
350
51B
  3
PUCSORGTOP
350
518
  3
PUCSORTHOREF
350
515
  3
PUCSORTHOVIEW
350
516
  3
STYLESHEET
350
50B
  3
TSTACKALIGN
350
508
  3
TSTACKSIZE
350
509
  3
UCSBASE
350
520
  3
UCSORGBACK
350
526
  3
UCSORGBOTTOM
350
522
  3
UCSORGFRONT
350
525
  3
UCSORGLEFT
350
523
  3
UCSORGRIGHT
350
524
  3
UCSORGTOP
350
521
  3
UCSORTHOREF
350
51E
  3
UCSORTHOVIEW
350
51F
  3
VERSIONGUID
350
513
  0
DICTIONARY
  5
41D
102
{ACAD_REACTORS
330
C
102
}
330
C
100
AcDbDictionary
  3
DIMASSOC
350
41E
  0
XRECORD
  5
528
102
{ACAD_REACTORS
330
417
102
}
330
417
100
AcDbXrecord
340
18
  0
XRECORD
  5
527
102
{ACAD_REACTORS
330
415
102
}
330
415
100
AcDbXrecord
340
15
  0
MLINESTYLE
  5
1B
102
{ACAD_REACTORS
330
E
102
}
330
E
100
AcDbMlineStyle
  2
STANDARD
 70
     0
  3

 62
     0
 51
90.0
 52
90.0
 71
     2
 49
0.5
 62
   256
  6
BYLAYER
 49
-0.5
 62
   256
  6
BYLAYER
  0
ACDBPLACEHOLDER
  5
3BB
102
{ACAD_REACTORS
330
3BA
102
}
330
3BA
100
AcDbPlaceHolder
280
     0
  0
XRECORD
  5
511
102
{ACAD_REACTORS
330
507
102
}
330
507
100
AcDbXrecord
 90
        0
  0
XRECORD
  5
512
102
{ACAD_REACTORS
330
507
102
}
330
507
100
AcDbXrecord
  1
{601BBC80-9D24-410B-A5F8-166C90567AE4}
  0
XRECORD
  5
50A
102
{ACAD_REACTORS
330
507
102
}
330
507
100
AcDbXrecord
  1

  0
XRECORD
  5
510
102
{ACAD_REACTORS
330
507
102
}
330
507
100
AcDbXrecord
 90
        0
  0
XRECORD
  5
50C
102
{ACAD_REACTORS
330
507
102
}
330
507
100
AcDbXrecord
340
3BC
  0
XRECORD
  5
50F
102
{ACAD_REACTORS
330
507
102
}
330
507
100
AcDbXrecord
 90
    14877
  0
XRECORD
  5
50D
102
{ACAD_REACTORS
330
507
102
}
330
507
100
AcDbXrecord
340
3BD
  0
XRECORD
  5
50E
102
{ACAD_REACTORS
330
507
102
}
330
507
100
AcDbXrecord
340
3BA
  0
XRECORD
  5
514
102
{ACAD_REACTORS
330
507
102
}
330
507
100
AcDbXrecord
 40
0.0
  0
XRECORD
  5
517
102
{ACAD_REACTORS
330
507
102
}
330
507
100
AcDbXrecord
340
0
  0
XRECORD
  5
51D
102
{ACAD_REACTORS
330
507
102
}
330
507
100
AcDbXrecord
 10
0.0
 20
0.0
 30
0.0
  0
XRECORD
  5
519
102
{ACAD_REACTORS
330
507
102
}
330
507
100
AcDbXrecord
 10
0.0
 20
0.0
 30
0.0
  0
XRECORD
  5
51C
102
{ACAD_REACTORS
330
507
102
}
330
507
100
AcDbXrecord
 10
0.0
 20
0.0
 30
0.0
  0
XRECORD
  5
51A
102
{ACAD_REACTORS
330
507
102
}
330
507
100
AcDbXrecord
 10
0.0
 20
0.0
 30
0.0
  0
XRECORD
  5
51B
102
{ACAD_REACTORS
330
507
102
}
330
507
100
AcDbXrecord
 10
0.0
 20
0.0
 30
0.0
  0
XRECORD
  5
518
102
{ACAD_REACTORS
330
507
102
}
330
507
100
AcDbXrecord
 10
0.0
 20
0.0
 30
0.0
  0
XRECORD
  5
515
102
{ACAD_REACTORS
330
507
102
}
330
507
100
AcDbXrecord
340
0
  0
XRECORD
  5
516
102
{ACAD_REACTORS
330
507
102
}
330
507
100
AcDbXrecord
 70
     0
  0
XRECORD
  5
50B
102
{ACAD_REACTORS
330
507
102
}
330
507
100
AcDbXrecord
  1

  0
XRECORD
  5
508
102
{ACAD_REACTORS
330
507
102
}
330
507
100
AcDbXrecord
 90
        1
  0
XRECORD
  5
509
102
{ACAD_REACTORS
330
507
102
}
330
507
100
AcDbXrecord
 90
       70
  0
XRECORD
  5
520
102
{ACAD_REACTORS
330
507
102
}
330
507
100
AcDbXrecord
340
0
  0
XRECORD
  5
526
102
{ACAD_REACTORS
330
507
102
}
330
507
100
AcDbXrecord
 10
0.0
 20
0.0
 30
0.0
  0
XRECORD
  5
522
102
{ACAD_REACTORS
330
507
102
}
330
507
100
AcDbXrecord
 10
0.0
 20
0.0
 30
0.0
  0
XRECORD
  5
525
102
{ACAD_REACTORS
330
507
102
}
330
507
100
AcDbXrecord
 10
0.0
 20
0.0
 30
0.0
  0
XRECORD
  5
523
102
{ACAD_REACTORS
330
507
102
}
330
507
100
AcDbXrecord
 10
0.0
 20
0.0
 30
0.0
  0
XRECORD
  5
524
102
{ACAD_REACTORS
330
507
102
}
330
507
100
AcDbXrecord
 10
0.0
 20
0.0
 30
0.0
  0
XRECORD
  5
521
102
{ACAD_REACTORS
330
507
102
}
330
507
100
AcDbXrecord
 10
0.0
 20
0.0
 30
0.0
  0
XRECORD
  5
51E
102
{ACAD_REACTORS
330
507
102
}
330
507
100
AcDbXrecord
340
0
  0
XRECORD
  5
51F
102
{ACAD_REACTORS
330
507
102
}
330
507
100
AcDbXrecord
 70
     0
  0
XRECORD
  5
513
102
{ACAD_REACTORS
330
507
102
}
330
507
100
AcDbXrecord
  1
{94FCED30-1158-46E1-8FAE-7EF5D393F150}
  0
DICTIONARYVAR
  5
41E
102
{ACAD_REACTORS
330
41D
102
}
330
41D
100
DictionaryVariables
280
     0
  1
1
  0
ENDSEC
  0
EOF
