  0
SECTION
  2
HEADER
  9
$ACADVER
  1
AC1014
  9
$ACADMAINTVER
 70
     9
  9
$DWGCODEPAGE
  3
ANSI_1252
  9
$INSBASE
 10
-68.65506427402229
 20
102.645495449711
 30
0.0
  9
$EXTMIN
 10
-84.91503102748275
 20
96.50436385919974
 30
0.0
  9
$EXTMAX
 10
-58.81211492925629
 20
112.2313473514712
 30
0.0
  9
$LIMMIN
 10
0.0
 20
0.0
  9
$LIMMAX
 10
36.0
 20
36.0
  9
$ORTHOMODE
 70
     1
  9
$REGENMODE
 70
     1
  9
$FILLMODE
 70
     1
  9
$QTEXTMODE
 70
     0
  9
$MIRRTEXT
 70
     1
  9
$DRAGMODE
 70
     0
  9
$LTSCALE
 40
1.0
  9
$OSMODE
 70
    37
  9
$ATTMODE
 70
     1
  9
$TEXTSIZE
 40
0.2
  9
$TRACEWID
 40
0.05
  9
$TEXTSTYLE
  7
STANDARD
  9
$CLAYER
  8
0
  9
$CELTYPE
  6
BYLAYER
  9
$CECOLOR
 62
   256
  9
$CELTSCALE
 40
1.0
  9
$DELOBJ
 70
     1
  9
$DISPSILH
 70
     0
  9
$DIMSCALE
 40
1.0
  9
$DIMASZ
 40
0.125
  9
$DIMEXO
 40
0.0625
  9
$DIMDLI
 40
0.38
  9
$DIMRND
 40
0.0
  9
$DIMDLE
 40
0.0
  9
$DIMEXE
 40
0.18
  9
$DIMTP
 40
0.0
  9
$DIMTM
 40
0.0
  9
$DIMTXT
 40
0.125
  9
$DIMCEN
 40
0.1875
  9
$DIMTSZ
 40
0.125
  9
$DIMTOL
 70
     0
  9
$DIMLIM
 70
     0
  9
$DIMTIH
 70
     0
  9
$DIMTOH
 70
     0
  9
$DIMSE1
 70
     0
  9
$DIMSE2
 70
     0
  9
$DIMTAD
 70
     0
  9
$DIMZIN
 70
     3
  9
$DIMBLK
  1

  9
$DIMASO
 70
     1
  9
$DIMSHO
 70
     1
  9
$DIMPOST
  1

  9
$DIMAPOST
  1

  9
$DIMALT
 70
     0
  9
$DIMALTD
 70
     1
  9
$DIMALTF
 40
25.4
  9
$DIMLFAC
 40
1.0
  9
$DIMTOFL
 70
     0
  9
$DIMTVP
 40
0.0
  9
$DIMTIX
 70
     0
  9
$DIMSOXD
 70
     0
  9
$DIMSAH
 70
     0
  9
$DIMBLK1
  1

  9
$DIMBLK2
  1

  9
$DIMSTYLE
  2
STANDARD
  9
$DIMCLRD
 70
     0
  9
$DIMCLRE
 70
     0
  9
$DIMCLRT
 70
     0
  9
$DIMTFAC
 40
1.0
  9
$DIMGAP
 40
0.125
  9
$DIMJUST
 70
     0
  9
$DIMSD1
 70
     0
  9
$DIMSD2
 70
     0
  9
$DIMTOLJ
 70
     1
  9
$DIMTZIN
 70
     0
  9
$DIMALTZ
 70
     0
  9
$DIMALTTZ
 70
     0
  9
$DIMFIT
 70
     3
  9
$DIMUPT
 70
     0
  9
$DIMUNIT
 70
     2
  9
$DIMDEC
 70
     4
  9
$DIMTDEC
 70
     4
  9
$DIMALTU
 70
     2
  9
$DIMALTTD
 70
     2
  9
$DIMTXSTY
  7
STANDARD
  9
$DIMAUNIT
 70
     0
  9
$LUNITS
 70
     5
  9
$LUPREC
 70
     4
  9
$SKETCHINC
 40
0.1
  9
$FILLETRAD
 40
0.062
  9
$AUNITS
 70
     0
  9
$AUPREC
 70
     0
  9
$MENU
  1
acad
  9
$ELEVATION
 40
0.0
  9
$PELEVATION
 40
0.0
  9
$THICKNESS
 40
0.0
  9
$LIMCHECK
 70
     0
  9
$BLIPMODE
 70
     0
  9
$CHAMFERA
 40
0.0
  9
$CHAMFERB
 40
0.0
  9
$CHAMFERC
 40
0.0
  9
$CHAMFERD
 40
0.0
  9
$SKPOLY
 70
     0
  9
$TDCREATE
 40
2450387.544241504
  9
$TDUPDATE
 40
2452297.100695891
  9
$TDINDWG
 40
0.0148624537
  9
$TDUSRTIMER
 40
0.0148624537
  9
$USRTIMER
 70
     1
  9
$ANGBASE
 50
0.0
  9
$ANGDIR
 70
     0
  9
$PDMODE
 70
     0
  9
$PDSIZE
 40
0.0
  9
$PLINEWID
 40
0.0
  9
$COORDS
 70
     2
  9
$SPLFRAME
 70
     0
  9
$SPLINETYPE
 70
     6
  9
$SPLINESEGS
 70
     8
  9
$ATTDIA
 70
     0
  9
$ATTREQ
 70
     1
  9
$HANDLING
 70
 22529
  9
$HANDSEED
  5
51F
  9
$SURFTAB1
 70
     6
  9
$SURFTAB2
 70
     6
  9
$SURFTYPE
 70
     6
  9
$SURFU
 70
     6
  9
$SURFV
 70
     6
  9
$UCSNAME
  2

  9
$UCSORG
 10
0.0
 20
0.0
 30
0.0
  9
$UCSXDIR
 10
1.0
 20
0.0
 30
0.0
  9
$UCSYDIR
 10
0.0
 20
1.0
 30
0.0
  9
$PUCSNAME
  2

  9
$PUCSORG
 10
0.0
 20
0.0
 30
0.0
  9
$PUCSXDIR
 10
1.0
 20
0.0
 30
0.0
  9
$PUCSYDIR
 10
0.0
 20
1.0
 30
0.0
  9
$USERI1
 70
     0
  9
$USERI2
 70
     0
  9
$USERI3
 70
     0
  9
$USERI4
 70
     0
  9
$USERI5
 70
     0
  9
$USERR1
 40
0.0
  9
$USERR2
 40
0.0
  9
$USERR3
 40
0.0
  9
$USERR4
 40
0.0
  9
$USERR5
 40
0.0
  9
$WORLDVIEW
 70
     1
  9
$SHADEDGE
 70
     3
  9
$SHADEDIF
 70
    70
  9
$TILEMODE
 70
     1
  9
$MAXACTVP
 70
    15
  9
$PINSBASE
 10
0.0
 20
0.0
 30
0.0
  9
$PLIMCHECK
 70
     0
  9
$PEXTMIN
 10
1.000000000000000E+20
 20
1.000000000000000E+20
 30
1.000000000000000E+20
  9
$PEXTMAX
 10
-1.000000000000000E+20
 20
-1.000000000000000E+20
 30
-1.000000000000000E+20
  9
$PLIMMIN
 10
0.0
 20
0.0
  9
$PLIMMAX
 10
12.0
 20
9.0
  9
$UNITMODE
 70
     0
  9
$VISRETAIN
 70
     0
  9
$PLINEGEN
 70
     0
  9
$PSLTSCALE
 70
     1
  9
$TREEDEPTH
 70
  3020
  9
$PICKSTYLE
 70
     1
  9
$CMLSTYLE
  2
STANDARD
  9
$CMLJUST
 70
     0
  9
$CMLSCALE
 40
1.0
  9
$PROXYGRAPHICS
 70
     1
  9
$MEASUREMENT
 70
     0
  0
ENDSEC
  0
SECTION
  2
CLASSES
  0
CLASS
  1
ACDBDICTIONARYWDFLT
  2
AcDbDictionaryWithDefault
  3
AutoCAD 2000
 90
        0
280
     0
281
     0
  0
CLASS
  1
ACDBPLACEHOLDER
  2
AcDbPlaceHolder
  3
AutoCAD 2000
 90
        0
280
     0
281
     0
  0
CLASS
  1
LAYOUT
  2
AcDbLayout
  3
AutoCAD 2000
 90
        0
280
     0
281
     0
  0
CLASS
  1
DICTIONARYVAR
  2
AcDbDictionaryVar
  3
AutoCAD 2000
 90
        0
280
     0
281
     0
  0
CLASS
  1
LONG_TRANSACTION
  2
AcDbLongTransaction
  3
AutoCAD 2000
 90
        0
280
     0
281
     0
  0
CLASS
  1
LWPOLYLINE
  2
AcDbPolyline
  3
AutoCAD 2000
 90
        0
280
     0
281
     1
  0
CLASS
  1
HATCH
  2
AcDbHatch
  3
AutoCAD 2000
 90
        0
280
     0
281
     1
  0
CLASS
  1
XRECORD
  2
AcDbXrecord
  3
AutoCAD 2000
 90
        0
280
     0
281
     0
  0
CLASS
  1
LONG_TRANSACTION
  2
AcDbLongTransaction
  3
AutoCAD 2000
 90
        0
280
     0
281
     0
  0
CLASS
  1
LWPOLYLINE
  2
AcDbPolyline
  3
AutoCAD 2000
 90
        0
280
     0
281
     1
  0
CLASS
  1
HATCH
  2
AcDbHatch
  3
AutoCAD 2000
 90
        0
280
     0
281
     1
  0
CLASS
  1
XRECORD
  2
AcDbXrecord
  3
AutoCAD 2000
 90
        0
280
     0
281
     0
  0
CLASS
  1
LONG_TRANSACTION
  2
AcDbLongTransaction
  3
AutoCAD 2000
 90
        0
280
     0
281
     0
  0
CLASS
  1
LWPOLYLINE
  2
AcDbPolyline
  3
AutoCAD 2000
 90
        0
280
     0
281
     1
  0
CLASS
  1
HATCH
  2
AcDbHatch
  3
AutoCAD 2000
 90
        0
280
     0
281
     1
  0
CLASS
  1
XRECORD
  2
AcDbXrecord
  3
AutoCAD 2000
 90
        0
280
     0
281
     0
  0
CLASS
  1
LONG_TRANSACTION
  2
AcDbLongTransaction
  3
AutoCAD 2000
 90
        0
280
     0
281
     0
  0
CLASS
  1
LWPOLYLINE
  2
AcDbPolyline
  3
AutoCAD 2000
 90
        0
280
     0
281
     1
  0
CLASS
  1
HATCH
  2
AcDbHatch
  3
AutoCAD 2000
 90
        0
280
     0
281
     1
  0
CLASS
  1
XRECORD
  2
AcDbXrecord
  3
AutoCAD 2000
 90
        0
280
     0
281
     0
  0
CLASS
  1
LONG_TRANSACTION
  2
AcDbLongTransaction
  3
AutoCAD 2000
 90
        0
280
     0
281
     0
  0
CLASS
  1
LWPOLYLINE
  2
AcDbPolyline
  3
AutoCAD 2000
 90
        0
280
     0
281
     1
  0
CLASS
  1
HATCH
  2
AcDbHatch
  3
AutoCAD 2000
 90
        0
280
     0
281
     1
  0
CLASS
  1
XRECORD
  2
AcDbXrecord
  3
AutoCAD 2000
 90
        0
280
     0
281
     0
  0
ENDSEC
  0
SECTION
  2
TABLES
  0
TABLE
  2
VPORT
  5
8
330
0
100
AcDbSymbolTable
 70
     2
  0
VPORT
  5
4FC
330
8
100
AcDbSymbolTableRecord
100
AcDbViewportTableRecord
  2
*ACTIVE
 70
     0
 10
0.0
 20
0.0
 11
1.0
 21
1.0
 12
-71.84319499088513
 22
104.368992406686
 13
0.0
 23
0.0
 14
0.5740882589684922
 24
0.5740882589684922
 15
0.5
 25
0.5
 16
0.0
 26
0.0
 36
1.0
 17
0.0
 27
0.0
 37
0.0
 40
16.73637735835567
 41
1.570528967254408
 42
50.0
 43
0.0
 44
0.0
 50
0.0
 51
0.0
 71
     0
 72
   100
 73
     1
 74
     0
 75
     0
 76
     0
 77
     0
 78
     0
  0
ENDTAB
  0
TABLE
  2
LTYPE
  5
5
330
0
100
AcDbSymbolTable
 70
     2
  0
LTYPE
  5
12
330
5
100
AcDbSymbolTableRecord
100
AcDbLinetypeTableRecord
  2
BYBLOCK
 70
     0
  3

 72
    65
 73
     0
 40
0.0
  0
LTYPE
  5
13
330
5
100
AcDbSymbolTableRecord
100
AcDbLinetypeTableRecord
  2
BYLAYER
 70
     0
  3

 72
    65
 73
     0
 40
0.0
  0
LTYPE
  5
14
330
5
100
AcDbSymbolTableRecord
100
AcDbLinetypeTableRecord
  2
CONTINUOUS
 70
     0
  3
Solid line
 72
    65
 73
     0
 40
0.0
  0
LTYPE
  5
352
330
5
100
AcDbSymbolTableRecord
100
AcDbLinetypeTableRecord
  2
CENTER2
 70
     0
  3
___ _ ___ _ ___ _ ___ _ ___ _ ___ _ ___ _ ___ _
 72
    65
 73
     4
 40
1.125
 49
0.75
 74
     0
 49
-0.125
 74
     0
 49
0.125
 74
     0
 49
-0.125
 74
     0
  0
ENDTAB
  0
TABLE
  2
LAYER
  5
2
330
0
100
AcDbSymbolTable
 70
     5
  0
LAYER
  5
F
330
2
100
AcDbSymbolTableRecord
100
AcDbLayerTableRecord
  2
0
 70
     0
 62
     7
  6
CONTINUOUS
  0
LAYER
  5
353
330
2
100
AcDbSymbolTableRecord
100
AcDbLayerTableRecord
  2
ADP1DETAIL
 70
     0
 62
     7
  6
CONTINUOUS
  0
LAYER
  5
354
330
2
100
AcDbSymbolTableRecord
100
AcDbLayerTableRecord
  2
DEFPOINTS
 70
     0
 62
     7
  6
CONTINUOUS
  0
LAYER
  5
358
330
2
100
AcDbSymbolTableRecord
100
AcDbLayerTableRecord
  2
ADP3DETAIL
 70
     0
 62
     1
  6
CONTINUOUS
  0
LAYER
  5
35D
330
2
100
AcDbSymbolTableRecord
100
AcDbLayerTableRecord
  2
ADPDIM
 70
     0
 62
     3
  6
CONTINUOUS
  0
ENDTAB
  0
TABLE
  2
STYLE
  5
3
330
0
100
AcDbSymbolTable
 70
     2
  0
STYLE
  5
10
330
3
100
AcDbSymbolTableRecord
100
AcDbTextStyleTableRecord
  2
STANDARD
 70
     0
 40
0.0
 41
1.0
 50
0.0
 71
     0
 42
0.2
  3
txt
  4

  0
STYLE
  5
3B8
330
3
100
AcDbSymbolTableRecord
100
AcDbTextStyleTableRecord
  2
ARIAL_WIDE
 70
     0
 40
0.0
 41
1.25
 50
0.0
 71
     0
 42
0.2
  3
ARIAL.TTF
  4

1001
ACAD
1000
Arial
1071
       34
  0
ENDTAB
  0
TABLE
  2
VIEW
  5
6
330
0
100
AcDbSymbolTable
 70
     0
  0
ENDTAB
  0
TABLE
  2
UCS
  5
7
330
0
100
AcDbSymbolTable
 70
     0
  0
ENDTAB
  0
TABLE
  2
APPID
  5
9
330
0
100
AcDbSymbolTable
 70
     1
  0
APPID
  5
11
330
9
100
AcDbSymbolTableRecord
100
AcDbRegAppTableRecord
  2
ACAD
 70
     0
  0
ENDTAB
  0
TABLE
  2
DIMSTYLE
  5
A
330
0
100
AcDbSymbolTable
 70
     1
  0
DIMSTYLE
105
3AC
330
A
100
AcDbSymbolTableRecord
100
AcDbDimStyleTableRecord
  2
STANDARD
 70
     0
  3

  4

  5

  6

  7

 40
1.0
 41
0.18
 42
0.0625
 43
0.38
 44
0.18
 45
0.0
 46
0.0
 47
0.0
 48
0.0
140
0.18
141
0.09
142
0.0
143
25.4
144
1.0
145
0.0
146
1.0
147
0.09
 71
     0
 72
     0
 73
     1
 74
     1
 75
     0
 76
     0
 77
     0
 78
     0
170
     0
171
     2
172
     0
173
     0
174
     0
175
     0
176
     0
177
     0
178
     0
270
     2
271
     4
272
     4
273
     2
274
     2
340
10
275
     0
280
     0
281
     0
282
     0
283
     1
284
     0
285
     0
286
     0
287
     3
288
     0
  0
ENDTAB
  0
TABLE
  2
BLOCK_RECORD
  5
1
330
0
100
AcDbSymbolTable
 70
     5
  0
BLOCK_RECORD
  5
18
102
{ACAD_XDICTIONARY
360
40D
102
}
330
1
100
AcDbSymbolTableRecord
100
AcDbBlockTableRecord
  2
*MODEL_SPACE
  0
BLOCK_RECORD
  5
15
102
{ACAD_XDICTIONARY
360
40B
102
}
330
1
100
AcDbSymbolTableRecord
100
AcDbBlockTableRecord
  2
*PAPER_SPACE
  0
BLOCK_RECORD
  5
32C
330
1
100
AcDbSymbolTableRecord
100
AcDbBlockTableRecord
  2
*D0
  0
BLOCK_RECORD
  5
34C
330
1
100
AcDbSymbolTableRecord
100
AcDbBlockTableRecord
  2
*D1
  0
BLOCK_RECORD
  5
34D
330
1
100
AcDbSymbolTableRecord
100
AcDbBlockTableRecord
  2
*D2
  0
BLOCK_RECORD
  5
34F
330
1
100
AcDbSymbolTableRecord
100
AcDbBlockTableRecord
  2
*D3
  0
BLOCK_RECORD
  5
350
330
1
100
AcDbSymbolTableRecord
100
AcDbBlockTableRecord
  2
*D4
  0
ENDTAB
  0
ENDSEC
  0
SECTION
  2
BLOCKS
  0
BLOCK
  5
360
330
18
100
AcDbEntity
  8
0
100
AcDbBlockBegin
  2
*MODEL_SPACE
 70
     0
 10
0.0
 20
0.0
 30
0.0
  3
*MODEL_SPACE
  1

  0
ENDBLK
  5
361
330
18
100
AcDbEntity
  8
0
100
AcDbBlockEnd
  0
BLOCK
  5
35E
330
15
100
AcDbEntity
 67
     1
  8
0
100
AcDbBlockBegin
  2
*PAPER_SPACE
 70
     0
 10
0.0
 20
0.0
 30
0.0
  3
*PAPER_SPACE
  1

  0
ENDBLK
  5
35F
330
15
100
AcDbEntity
 67
     1
  8
0
100
AcDbBlockEnd
  0
BLOCK
  5
363
330
32C
100
AcDbEntity
  8
0
100
AcDbBlockBegin
  2
*D0
 70
     1
 10
0.0
 20
0.0
 30
0.0
  3
*D0
  1

  0
LINE
  5
364
330
32C
100
AcDbEntity
  8
0
  6
BYBLOCK
 62
     0
100
AcDbLine
 10
-68.76965211649661
 20
98.27348430800832
 30
0.0
 11
-68.76965211649661
 21
98.39098430800833
 31
0.0
  0
LINE
  5
365
330
32C
100
AcDbEntity
  8
0
  6
BYBLOCK
 62
     0
100
AcDbLine
 10
-68.66065211649661
 20
98.27348430800832
 30
0.0
 11
-68.66065211649661
 21
98.39098430800833
 31
0.0
  0
LINE
  5
366
330
32C
100
AcDbEntity
  8
0
  6
BYBLOCK
 62
     0
100
AcDbLine
 10
-68.76965211649661
 20
98.21098430800832
 30
0.0
 11
-69.01965211649661
 21
98.21098430800832
 31
0.0
  0
LINE
  5
367
330
32C
100
AcDbEntity
  8
0
  6
BYBLOCK
 62
     0
100
AcDbLine
 10
-68.66065211649661
 20
98.21098430800832
 30
0.0
 11
-68.4106521164966
 21
98.21098430800832
 31
0.0
  0
LINE
  5
368
330
32C
100
AcDbEntity
  8
0
  6
BYBLOCK
 62
     0
100
AcDbLine
 10
-68.89465211649661
 20
98.08598430800833
 30
0.0
 11
-68.64465211649662
 21
98.33598430800833
 31
0.0
  0
LINE
  5
369
330
32C
100
AcDbEntity
  8
0
  6
BYBLOCK
 62
     0
100
AcDbLine
 10
-68.78565211649661
 20
98.08598430800833
 30
0.0
 11
-68.53565211649661
 21
98.33598430800833
 31
0.0
  0
TEXT
  5
36A
330
32C
100
AcDbEntity
  8
0
  6
BYBLOCK
 62
     0
100
AcDbText
 10
-68.2856521164966
 20
98.14848430800832
 30
0.0
 40
0.125
  1
0.109
 72
     1
 11
-68.07731878316328
 21
98.21098430800832
 31
0.0
100
AcDbText
 73
     2
  0
POINT
  5
36B
330
32C
100
AcDbEntity
  8
DEFPOINTS
  6
BYBLOCK
 62
     0
100
AcDbPoint
 10
-68.76965211649661
 20
98.21098430800832
 30
0.0
  0
POINT
  5
36C
330
32C
100
AcDbEntity
  8
DEFPOINTS
  6
BYBLOCK
 62
     0
100
AcDbPoint
 10
-68.66065211649661
 20
98.21098430800832
 30
0.0
  0
POINT
  5
36D
330
32C
100
AcDbEntity
  8
DEFPOINTS
  6
BYBLOCK
 62
     0
100
AcDbPoint
 10
-68.66065211649661
 20
98.21098430800832
 30
0.0
  0
ENDBLK
  5
36E
330
32C
100
AcDbEntity
  8
0
100
AcDbBlockEnd
  0
BLOCK
  5
36F
330
34C
100
AcDbEntity
  8
0
100
AcDbBlockBegin
  2
*D1
 70
     1
 10
0.0
 20
0.0
 30
0.0
  3
*D1
  1

  0
LINE
  5
370
330
34C
100
AcDbEntity
  8
0
  6
BYBLOCK
 62
     0
100
AcDbLine
 10
-68.59256427402229
 20
102.645495449711
 30
0.0
 11
-67.96644627212673
 21
102.645495449711
 31
0.0
  0
LINE
  5
371
330
34C
100
AcDbEntity
  8
0
  6
BYBLOCK
 62
     0
100
AcDbLine
 10
-69.41775555196731
 20
110.645495449711
 30
0.0
 11
-67.96644627212673
 21
110.645495449711
 31
0.0
  0
LINE
  5
372
330
34C
100
AcDbEntity
  8
0
  6
BYBLOCK
 62
     0
100
AcDbLine
 10
-68.14644627212674
 20
102.645495449711
 30
0.0
 11
-68.14644627212674
 21
106.4788287830443
 31
0.0
  0
LINE
  5
373
330
34C
100
AcDbEntity
  8
0
  6
BYBLOCK
 62
     0
100
AcDbLine
 10
-68.14644627212674
 20
110.645495449711
 30
0.0
 11
-68.14644627212674
 21
106.8121621163777
 31
0.0
  0
LINE
  5
374
330
34C
100
AcDbEntity
  8
0
  6
BYBLOCK
 62
     0
100
AcDbLine
 10
-68.02144627212673
 20
102.520495449711
 30
0.0
 11
-68.27144627212674
 21
102.770495449711
 31
0.0
  0
LINE
  5
375
330
34C
100
AcDbEntity
  8
0
  6
BYBLOCK
 62
     0
100
AcDbLine
 10
-68.02144627212673
 20
110.520495449711
 30
0.0
 11
-68.27144627212674
 21
110.770495449711
 31
0.0
  0
TEXT
  5
376
330
34C
100
AcDbEntity
  8
0
  6
BYBLOCK
 62
     0
100
AcDbText
 10
-68.08394627212674
 20
106.6038287830443
 30
0.0
 40
0.125
  1
8
 50
90.0
 72
     1
 11
-68.14644627212674
 21
106.645495449711
 31
0.0
100
AcDbText
 73
     2
  0
POINT
  5
377
330
34C
100
AcDbEntity
  8
DEFPOINTS
  6
BYBLOCK
 62
     0
100
AcDbPoint
 10
-68.65506427402229
 20
102.645495449711
 30
0.0
  0
POINT
  5
378
330
34C
100
AcDbEntity
  8
DEFPOINTS
  6
BYBLOCK
 62
     0
100
AcDbPoint
 10
-69.48025555196732
 20
110.645495449711
 30
0.0
  0
POINT
  5
379
330
34C
100
AcDbEntity
  8
DEFPOINTS
  6
BYBLOCK
 62
     0
100
AcDbPoint
 10
-68.14644627212674
 20
110.645495449711
 30
0.0
  0
ENDBLK
  5
37A
330
34C
100
AcDbEntity
  8
0
100
AcDbBlockEnd
  0
BLOCK
  5
37B
330
34D
100
AcDbEntity
  8
0
100
AcDbBlockBegin
  2
*D2
 70
     1
 10
0.0
 20
0.0
 30
0.0
  3
*D2
  1

  0
LINE
  5
37C
330
34D
100
AcDbEntity
  8
0
  6
BYBLOCK
 62
     0
100
AcDbLine
 10
-70.55506348842962
 20
102.5847232377654
 30
0.0
 11
-70.55506348842962
 21
101.6413491068896
 31
0.0
  0
LINE
  5
37D
330
34D
100
AcDbEntity
  8
0
  6
BYBLOCK
 62
     0
100
AcDbLine
 10
-68.65506427402229
 20
102.582995449711
 30
0.0
 11
-68.65506427402229
 21
101.6413491068896
 31
0.0
  0
LINE
  5
37E
330
34D
100
AcDbEntity
  8
0
  6
BYBLOCK
 62
     0
100
AcDbLine
 10
-70.55506348842962
 20
101.8213491068896
 30
0.0
 11
-69.93839721455929
 21
101.8213491068896
 31
0.0
  0
LINE
  5
37F
330
34D
100
AcDbEntity
  8
0
  6
BYBLOCK
 62
     0
100
AcDbLine
 10
-68.65506427402229
 20
101.8213491068896
 30
0.0
 11
-69.27173054789263
 21
101.8213491068896
 31
0.0
  0
LINE
  5
380
330
34D
100
AcDbEntity
  8
0
  6
BYBLOCK
 62
     0
100
AcDbLine
 10
-70.68006348842962
 20
101.6963491068896
 30
0.0
 11
-70.43006348842962
 21
101.9463491068896
 31
0.0
  0
LINE
  5
381
330
34D
100
AcDbEntity
  8
0
  6
BYBLOCK
 62
     0
100
AcDbLine
 10
-68.7800642740223
 20
101.6963491068896
 30
0.0
 11
-68.53006427402229
 21
101.9463491068896
 31
0.0
  0
TEXT
  5
382
330
34D
100
AcDbEntity
  8
0
  6
BYBLOCK
 62
     0
100
AcDbText
 10
-69.81339721455928
 20
101.7588491068896
 30
0.0
 40
0.125
  1
1.900
 72
     1
 11
-69.60506388122595
 21
101.8213491068896
 31
0.0
100
AcDbText
 73
     2
  0
POINT
  5
383
330
34D
100
AcDbEntity
  8
DEFPOINTS
  6
BYBLOCK
 62
     0
100
AcDbPoint
 10
-70.55506348842962
 20
102.6472232377654
 30
0.0
  0
POINT
  5
384
330
34D
100
AcDbEntity
  8
DEFPOINTS
  6
BYBLOCK
 62
     0
100
AcDbPoint
 10
-68.65506427402229
 20
102.645495449711
 30
0.0
  0
POINT
  5
385
330
34D
100
AcDbEntity
  8
DEFPOINTS
  6
BYBLOCK
 62
     0
100
AcDbPoint
 10
-68.65506427402229
 20
101.8213491068896
 30
0.0
  0
ENDBLK
  5
386
330
34D
100
AcDbEntity
  8
0
100
AcDbBlockEnd
  0
BLOCK
  5
387
330
34F
100
AcDbEntity
  8
0
100
AcDbBlockBegin
  2
*D3
 70
     1
 10
0.0
 20
0.0
 30
0.0
  3
*D3
  1

  0
LINE
  5
388
330
34F
100
AcDbEntity
  8
0
  6
BYBLOCK
 62
     0
100
AcDbLine
 10
-76.42608302921186
 20
106.456772949152
 30
0.0
 11
-77.37314940702799
 21
107.972395974865
 31
0.0
  0
LINE
  5
389
330
34F
100
AcDbEntity
  8
0
  6
BYBLOCK
 62
     0
100
AcDbLine
 10
-69.64169825996046
 20
110.6961270630177
 30
0.0
 11
-70.58876463777659
 21
112.2117500887307
 31
0.0
  0
LINE
  5
38A
330
34F
100
AcDbEntity
  8
0
  6
BYBLOCK
 62
     0
100
AcDbLine
 10
-77.27776393946602
 20
107.8197473175569
 30
0.0
 11
-74.02691290419972
 21
109.8511044971175
 31
0.0
  0
LINE
  5
38B
330
34F
100
AcDbEntity
  8
0
  6
BYBLOCK
 62
     0
100
AcDbLine
 10
-70.49337917021462
 20
112.0591014314225
 30
0.0
 11
-73.74423020548092
 21
110.0277442518619
 31
0.0
  0
LINE
  5
38C
330
34F
100
AcDbEntity
  8
0
  6
BYBLOCK
 62
     0
100
AcDbLine
 10
-77.31753004345643
 20
107.6475013975082
 30
0.0
 11
-77.23799783547562
 21
107.9919932376056
 31
0.0
  0
LINE
  5
38D
330
34F
100
AcDbEntity
  8
0
  6
BYBLOCK
 62
     0
100
AcDbLine
 10
-70.53314527420503
 20
111.8868555113738
 30
0.0
 11
-70.45361306622422
 21
112.2313473514712
 31
0.0
  0
TEXT
  5
38E
330
34F
100
AcDbEntity
  8
0
  6
BYBLOCK
 62
     0
100
AcDbText
 10
-73.88778693816559
 20
109.8643413991369
 30
0.0
 40
0.125
  1
8
 50
32.00000000000004
 72
     1
 11
-73.88557155484033
 21
109.9394243744897
 31
0.0
100
AcDbText
 73
     2
  0
POINT
  5
38F
330
34F
100
AcDbEntity
  8
DEFPOINTS
  6
BYBLOCK
 62
     0
100
AcDbPoint
 10
-76.39296307519728
 20
106.4037699431422
 30
0.0
  0
POINT
  5
390
330
34F
100
AcDbEntity
  8
DEFPOINTS
  6
BYBLOCK
 62
     0
100
AcDbPoint
 10
-69.60857830594588
 20
110.6431240570079
 30
0.0
  0
POINT
  5
391
330
34F
100
AcDbEntity
  8
DEFPOINTS
  6
BYBLOCK
 62
     0
100
AcDbPoint
 10
-70.49337917021462
 20
112.0591014314225
 30
0.0
  0
ENDBLK
  5
392
330
34F
100
AcDbEntity
  8
0
100
AcDbBlockEnd
  0
BLOCK
  5
393
330
350
100
AcDbEntity
  8
0
100
AcDbBlockBegin
  2
*D4
 70
     1
 10
0.0
 20
0.0
 30
0.0
  3
*D4
  1

  0
LINE
  5
394
330
350
100
AcDbEntity
  8
0
  6
BYBLOCK
 62
     0
100
AcDbLine
 10
-70.81644770601769
 20
107.6399616018316
 30
0.0
 11
-72.57868220054769
 21
105.2683730400424
 31
0.0
  0
LINE
  5
395
330
350
100
AcDbEntity
  8
0
  6
BYBLOCK
 62
     0
100
AcDbLine
 10
-70.79066817424276
 20
107.4650747362828
 30
0.0
 11
-70.84222723779262
 21
107.8148484673803
 31
0.0
  0
TEXT
  5
396
330
350
100
AcDbEntity
  8
0
  6
BYBLOCK
 62
     0
100
AcDbText
 10
-72.72732537958185
 20
104.9635410101674
 30
0.0
 40
0.125
  1
R3
 50
53.38540663218103
 72
     1
 11
-72.71536392317369
 21
105.0844288424957
 31
0.0
100
AcDbText
 73
     2
  0
POINT
  5
397
330
350
100
AcDbEntity
  8
DEFPOINTS
  6
BYBLOCK
 62
     0
100
AcDbPoint
 10
-70.81644770601769
 20
107.6399616018316
 30
0.0
  0
POINT
  5
398
330
350
100
AcDbEntity
  8
DEFPOINTS
  6
BYBLOCK
 62
     0
100
AcDbPoint
 10
-72.60573571130345
 20
105.2319648339474
 30
0.0
  0
ENDBLK
  5
399
330
350
100
AcDbEntity
  8
0
100
AcDbBlockEnd
  0
ENDSEC
  0
SECTION
  2
ENTITIES
  0
LINE
  5
39A
330
18
100
AcDbEntity
  8
ADP1DETAIL
100
AcDbLine
 10
-68.65573744847833
 20
105.2329882207311
 30
0.0
 11
-68.65506427402229
 21
102.6420398736022
 31
0.0
  0
LINE
  5
39B
330
18
100
AcDbEntity
  8
ADP1DETAIL
100
AcDbLine
 10
-70.55573608604899
 20
105.232495850311
 30
0.0
 11
-70.55506348842962
 21
102.6437676616566
 31
0.0
  0
LINE
  5
39C
330
18
100
AcDbEntity
  8
ADP3DETAIL
  6
CENTER2
100
AcDbLine
 10
-69.60573577872259
 20
105.2326008486539
 30
0.0
 11
-69.60506388189649
 21
102.0633495523682
 31
0.0
  0
DIMENSION
  5
39D
330
18
100
AcDbEntity
  8
ADPDIM
100
AcDbDimension
  2
*D1
 10
-68.14644627212674
 20
110.645495449711
 30
0.0
 11
-68.14644627212674
 21
106.645495449711
 31
0.0
100
AcDbAlignedDimension
 13
-68.65506427402229
 23
102.645495449711
 33
0.0
 14
-69.48025555196732
 24
110.645495449711
 34
0.0
 50
90.0
100
AcDbRotatedDimension
  0
LINE
  5
39E
330
18
100
AcDbEntity
  8
ADP1DETAIL
100
AcDbLine
 10
-68.65506427402229
 20
102.645495449711
 30
0.0
 11
-70.55506348842962
 21
102.6437676616566
 31
0.0
  0
DIMENSION
  5
39F
330
18
100
AcDbEntity
  8
ADPDIM
100
AcDbDimension
  2
*D2
 10
-68.65506427402229
 20
101.8213491068896
 30
0.0
 11
-69.60506388122595
 21
101.8213491068896
 31
0.0
  1
1.900
100
AcDbAlignedDimension
 13
-70.55506348842962
 23
102.6472232377654
 33
0.0
 14
-68.65506427402229
 24
102.645495449711
 34
0.0
100
AcDbRotatedDimension
  0
ARC
  5
3A0
330
18
100
AcDbEntity
  8
ADP1DETAIL
100
AcDbCircle
 10
-72.6057360168561
 20
105.2319632238734
 30
0.0
 40
2.049999999999999
100
AcDbArc
 50
0.0148864620867914
 51
121.9851135379132
  0
ARC
  5
3A1
330
18
100
AcDbEntity
  8
ADP1DETAIL
100
AcDbCircle
 10
-72.60573731515541
 20
105.231961940522
 30
0.0
 40
3.95
100
AcDbArc
 50
0.0148864620868423
 51
121.9851135379131
  0
ARC
  5
3A2
330
18
100
AcDbEntity
  8
ADP3DETAIL
  6
CENTER2
100
AcDbCircle
 10
-72.60573571130347
 20
105.2319648339474
 30
0.0
 40
3.0
100
AcDbArc
 50
0.0121469862209876
 51
121.987853013779
  0
DIMENSION
  5
3A3
330
18
100
AcDbEntity
  8
ADPDIM
100
AcDbDimension
  2
*D3
 10
-70.49337917021462
 20
112.0591014314225
 30
0.0
 11
-73.88557155484033
 21
109.9394243744897
 31
0.0
 70
     1
100
AcDbAlignedDimension
 13
-76.3929630751973
 23
106.4037699431423
 33
0.0
 14
-69.6085783059459
 24
110.6431240570079
 34
0.0
  0
LINE
  5
3A4
330
18
100
AcDbEntity
  8
ADP1DETAIL
100
AcDbLine
 10
-73.69161877903109
 20
106.9707440113251
 30
0.0
 11
-75.89027260601115
 21
105.5976667908166
 31
0.0
  0
LINE
  5
3A5
330
18
100
AcDbEntity
  8
ADP3DETAIL
  6
CENTER2
100
AcDbLine
 10
-74.19495409721543
 20
107.7764461016874
 30
0.0
 11
-76.88298767634359
 21
106.0975685874137
 31
0.0
  0
LINE
  5
3A6
330
18
100
AcDbEntity
  8
ADP1DETAIL
100
AcDbLine
 10
-76.89565354438347
 20
107.209873095468
 30
0.0
 11
-75.89027260601115
 21
105.5976667908166
 31
0.0
  0
LINE
  5
3A7
330
18
100
AcDbEntity
  8
ADP1DETAIL
100
AcDbLine
 10
-74.6980480032487
 20
108.5822956529289
 30
0.0
 11
-76.89565354438347
 21
107.209873095468
 31
0.0
  0
DIMENSION
  5
3A8
330
18
100
AcDbEntity
  8
ADPDIM
100
AcDbDimension
  2
*D4
 10
-72.60573571130345
 20
105.2319648339474
 30
0.0
 11
-72.71536392317369
 21
105.0844288424957
 31
0.0
 70
     4
100
AcDbRadialDimension
 15
-70.81644770601769
 25
107.6399616018316
 35
0.0
 40
-2.95464087836752
  0
CIRCLE
  5
3A9
330
18
100
AcDbEntity
  8
ADP1DETAIL
100
AcDbCircle
 10
-69.60506388122595
 20
98.21098430800832
 30
0.0
 40
0.841
  0
CIRCLE
  5
3AA
330
18
100
AcDbEntity
  8
ADP1DETAIL
100
AcDbCircle
 10
-69.60506388122595
 20
98.21098430800832
 30
0.0
 40
0.95
  0
DIMENSION
  5
3AB
330
18
100
AcDbEntity
  8
ADPDIM
100
AcDbDimension
  2
*D0
 10
-68.66065211649661
 20
98.21098430800832
 30
0.0
 11
-68.07731878316328
 21
98.21098430800832
 31
0.0
  1
0.109
100
AcDbAlignedDimension
 13
-68.76965211649661
 23
98.21098430800832
 33
0.0
 14
-68.66065211649661
 24
98.21098430800832
 34
0.0
100
AcDbRotatedDimension
  0
TEXT
  5
3B9
330
18
100
AcDbEntity
  8
ADPDIM
100
AcDbText
 10
-84.91503102748275
 20
96.57837477325157
 30
0.0
 40
0.25
  1
J U L I U S  B L U M  &  C O . ,  I N C .      ( 8 0 0 )  5 2 6 - 6 2 9 3        W W W . J U L I U S B L U M . C O M        P A R T  N o .  7 2 8 2
 41
1.25
  7
ARIAL_WIDE
 72
     1
 11
-71.86357297836952
 21
96.82837477325158
 31
0.0
100
AcDbText
 73
     3
  0
ENDSEC
  0
SECTION
  2
OBJECTS
  0
DICTIONARY
  5
C
330
0
100
AcDbDictionary
  3
ACAD_GROUP
350
D
  3
ACAD_LAYOUT
350
3B2
  3
ACAD_MLINESTYLE
350
E
  3
ACAD_PLOTSETTINGS
350
3B3
  3
ACAD_PLOTSTYLENAME
350
3B0
  3
ACDBHEADERROUNDTRIPXREC
350
4FD
  3
ACDBVARIABLEDICTIONARY
350
413
  0
DICTIONARY
  5
40D
330
18
100
AcDbDictionary
280
     1
  3
ACAD_LAYOUTSELFREF
360
51E
  0
DICTIONARY
  5
40B
330
15
100
AcDbDictionary
280
     1
  3
ACAD_LAYOUTSELFREF
360
51D
  0
DICTIONARY
  5
D
102
{ACAD_REACTORS
330
C
102
}
330
C
100
AcDbDictionary
  0
DICTIONARY
  5
3B2
102
{ACAD_REACTORS
330
C
102
}
330
C
100
AcDbDictionary
  0
DICTIONARY
  5
E
102
{ACAD_REACTORS
330
C
102
}
330
C
100
AcDbDictionary
  3
STANDARD
350
1B
  0
DICTIONARY
  5
3B3
102
{ACAD_REACTORS
330
C
102
}
330
C
100
AcDbDictionary
  0
ACDBDICTIONARYWDFLT
  5
3B0
102
{ACAD_REACTORS
330
C
102
}
330
C
100
AcDbDictionary
281
     1
  3
Normal
350
3B1
100
AcDbDictionaryWithDefault
340
3B1
  0
DICTIONARY
  5
4FD
102
{ACAD_REACTORS
330
C
102
}
330
C
100
AcDbDictionary
  3
CEPSNTYPE
350
507
  3
FINGERPRINTGUID
350
508
  3
HYPERLINKBASE
350
500
  3
INSUNITS
350
506
  3
LAYOUTDICT
350
502
  3
LWETCUNION
350
505
  3
PLOTSETDICT
350
503
  3
PLOTSTYLNAMDICT
350
504
  3
PSVPSCALE
350
50A
  3
PUCSBASE
350
50D
  3
PUCSORGBACK
350
513
  3
PUCSORGBOTTOM
350
50F
  3
PUCSORGFRONT
350
512
  3
PUCSORGLEFT
350
510
  3
PUCSORGRIGHT
350
511
  3
PUCSORGTOP
350
50E
  3
PUCSORTHOREF
350
50B
  3
PUCSORTHOVIEW
350
50C
  3
STYLESHEET
350
501
  3
TSTACKALIGN
350
4FE
  3
TSTACKSIZE
350
4FF
  3
UCSBASE
350
516
  3
UCSORGBACK
350
51C
  3
UCSORGBOTTOM
350
518
  3
UCSORGFRONT
350
51B
  3
UCSORGLEFT
350
519
  3
UCSORGRIGHT
350
51A
  3
UCSORGTOP
350
517
  3
UCSORTHOREF
350
514
  3
UCSORTHOVIEW
350
515
  3
VERSIONGUID
350
509
  0
DICTIONARY
  5
413
102
{ACAD_REACTORS
330
C
102
}
330
C
100
AcDbDictionary
  3
DIMASSOC
350
414
  0
XRECORD
  5
51E
102
{ACAD_REACTORS
330
40D
102
}
330
40D
100
AcDbXrecord
340
18
  0
XRECORD
  5
51D
102
{ACAD_REACTORS
330
40B
102
}
330
40B
100
AcDbXrecord
340
15
  0
MLINESTYLE
  5
1B
102
{ACAD_REACTORS
330
E
102
}
330
E
100
AcDbMlineStyle
  2
STANDARD
 70
     0
  3

 62
     0
 51
90.0
 52
90.0
 71
     2
 49
0.5
 62
   256
  6
BYLAYER
 49
-0.5
 62
   256
  6
BYLAYER
  0
ACDBPLACEHOLDER
  5
3B1
102
{ACAD_REACTORS
330
3B0
102
}
330
3B0
100
AcDbPlaceHolder
280
     0
  0
XRECORD
  5
507
102
{ACAD_REACTORS
330
4FD
102
}
330
4FD
100
AcDbXrecord
 90
        0
  0
XRECORD
  5
508
102
{ACAD_REACTORS
330
4FD
102
}
330
4FD
100
AcDbXrecord
  1
{FBD702DF-8C1E-4AA1-A1E2-F86CB588F14F}
  0
XRECORD
  5
500
102
{ACAD_REACTORS
330
4FD
102
}
330
4FD
100
AcDbXrecord
  1

  0
XRECORD
  5
506
102
{ACAD_REACTORS
330
4FD
102
}
330
4FD
100
AcDbXrecord
 90
        0
  0
XRECORD
  5
502
102
{ACAD_REACTORS
330
4FD
102
}
330
4FD
100
AcDbXrecord
340
3B2
  0
XRECORD
  5
505
102
{ACAD_REACTORS
330
4FD
102
}
330
4FD
100
AcDbXrecord
 90
    14877
  0
XRECORD
  5
503
102
{ACAD_REACTORS
330
4FD
102
}
330
4FD
100
AcDbXrecord
340
3B3
  0
XRECORD
  5
504
102
{ACAD_REACTORS
330
4FD
102
}
330
4FD
100
AcDbXrecord
340
3B0
  0
XRECORD
  5
50A
102
{ACAD_REACTORS
330
4FD
102
}
330
4FD
100
AcDbXrecord
 40
0.0
  0
XRECORD
  5
50D
102
{ACAD_REACTORS
330
4FD
102
}
330
4FD
100
AcDbXrecord
340
0
  0
XRECORD
  5
513
102
{ACAD_REACTORS
330
4FD
102
}
330
4FD
100
AcDbXrecord
 10
0.0
 20
0.0
 30
0.0
  0
XRECORD
  5
50F
102
{ACAD_REACTORS
330
4FD
102
}
330
4FD
100
AcDbXrecord
 10
0.0
 20
0.0
 30
0.0
  0
XRECORD
  5
512
102
{ACAD_REACTORS
330
4FD
102
}
330
4FD
100
AcDbXrecord
 10
0.0
 20
0.0
 30
0.0
  0
XRECORD
  5
510
102
{ACAD_REACTORS
330
4FD
102
}
330
4FD
100
AcDbXrecord
 10
0.0
 20
0.0
 30
0.0
  0
XRECORD
  5
511
102
{ACAD_REACTORS
330
4FD
102
}
330
4FD
100
AcDbXrecord
 10
0.0
 20
0.0
 30
0.0
  0
XRECORD
  5
50E
102
{ACAD_REACTORS
330
4FD
102
}
330
4FD
100
AcDbXrecord
 10
0.0
 20
0.0
 30
0.0
  0
XRECORD
  5
50B
102
{ACAD_REACTORS
330
4FD
102
}
330
4FD
100
AcDbXrecord
340
0
  0
XRECORD
  5
50C
102
{ACAD_REACTORS
330
4FD
102
}
330
4FD
100
AcDbXrecord
 70
     0
  0
XRECORD
  5
501
102
{ACAD_REACTORS
330
4FD
102
}
330
4FD
100
AcDbXrecord
  1

  0
XRECORD
  5
4FE
102
{ACAD_REACTORS
330
4FD
102
}
330
4FD
100
AcDbXrecord
 90
        1
  0
XRECORD
  5
4FF
102
{ACAD_REACTORS
330
4FD
102
}
330
4FD
100
AcDbXrecord
 90
       70
  0
XRECORD
  5
516
102
{ACAD_REACTORS
330
4FD
102
}
330
4FD
100
AcDbXrecord
340
0
  0
XRECORD
  5
51C
102
{ACAD_REACTORS
330
4FD
102
}
330
4FD
100
AcDbXrecord
 10
0.0
 20
0.0
 30
0.0
  0
XRECORD
  5
518
102
{ACAD_REACTORS
330
4FD
102
}
330
4FD
100
AcDbXrecord
 10
0.0
 20
0.0
 30
0.0
  0
XRECORD
  5
51B
102
{ACAD_REACTORS
330
4FD
102
}
330
4FD
100
AcDbXrecord
 10
0.0
 20
0.0
 30
0.0
  0
XRECORD
  5
519
102
{ACAD_REACTORS
330
4FD
102
}
330
4FD
100
AcDbXrecord
 10
0.0
 20
0.0
 30
0.0
  0
XRECORD
  5
51A
102
{ACAD_REACTORS
330
4FD
102
}
330
4FD
100
AcDbXrecord
 10
0.0
 20
0.0
 30
0.0
  0
XRECORD
  5
517
102
{ACAD_REACTORS
330
4FD
102
}
330
4FD
100
AcDbXrecord
 10
0.0
 20
0.0
 30
0.0
  0
XRECORD
  5
514
102
{ACAD_REACTORS
330
4FD
102
}
330
4FD
100
AcDbXrecord
340
0
  0
XRECORD
  5
515
102
{ACAD_REACTORS
330
4FD
102
}
330
4FD
100
AcDbXrecord
 70
     0
  0
XRECORD
  5
509
102
{ACAD_REACTORS
330
4FD
102
}
330
4FD
100
AcDbXrecord
  1
{CC704222-1858-4709-A3D3-DDE7B84A20C9}
  0
DICTIONARYVAR
  5
414
102
{ACAD_REACTORS
330
413
102
}
330
413
100
DictionaryVariables
280
     0
  1
1
  0
ENDSEC
  0
EOF
