  0
SECTION
  2
HEADER
  9
$ACADVER
  1
AC1015
  9
$ACADMAINTVER
 70
    20
  9
$DWGCODEPAGE
  3
ANSI_1252
  9
$INSBASE
 10
7.406340919380132
 20
-3.371046698751623
 30
0.0
  9
$EXTMIN
 10
-6.782981642011408
 20
-4.730470653824411
 30
0.0
  9
$EXTMAX
 10
25.84566348077168
 20
14.83967843581907
 30
0.0
  9
$LIMMIN
 10
0.0
 20
0.0
  9
$LIMMAX
 10
36.0
 20
36.0
  9
$ORTHOMODE
 70
     1
  9
$REGENMODE
 70
     1
  9
$FILLMODE
 70
     1
  9
$QTEXTMODE
 70
     0
  9
$MIRRTEXT
 70
     1
  9
$LTSCALE
 40
1.0
  9
$ATTMODE
 70
     1
  9
$TEXTSIZE
 40
0.2
  9
$TRACEWID
 40
0.05
  9
$TEXTSTYLE
  7
STANDARD
  9
$CLAYER
  8
ADPDIM
  9
$CELTYPE
  6
BYLAYER
  9
$CECOLOR
 62
   256
  9
$CELTSCALE
 40
1.0
  9
$DISPSILH
 70
     0
  9
$DIMSCALE
 40
1.0
  9
$DIMASZ
 40
0.125
  9
$DIMEXO
 40
0.0625
  9
$DIMDLI
 40
0.38
  9
$DIMRND
 40
0.0
  9
$DIMDLE
 40
0.0
  9
$DIMEXE
 40
0.18
  9
$DIMTP
 40
0.0
  9
$DIMTM
 40
0.0
  9
$DIMTXT
 40
0.125
  9
$DIMCEN
 40
0.1875
  9
$DIMTSZ
 40
0.125
  9
$DIMTOL
 70
     0
  9
$DIMLIM
 70
     0
  9
$DIMTIH
 70
     0
  9
$DIMTOH
 70
     0
  9
$DIMSE1
 70
     0
  9
$DIMSE2
 70
     0
  9
$DIMTAD
 70
     0
  9
$DIMZIN
 70
     3
  9
$DIMBLK
  1

  9
$DIMASO
 70
     1
  9
$DIMSHO
 70
     1
  9
$DIMPOST
  1

  9
$DIMAPOST
  1

  9
$DIMALT
 70
     0
  9
$DIMALTD
 70
     1
  9
$DIMALTF
 40
25.4
  9
$DIMLFAC
 40
1.0
  9
$DIMTOFL
 70
     0
  9
$DIMTVP
 40
0.0
  9
$DIMTIX
 70
     0
  9
$DIMSOXD
 70
     0
  9
$DIMSAH
 70
     0
  9
$DIMBLK1
  1

  9
$DIMBLK2
  1

  9
$DIMSTYLE
  2
STANDARD
  9
$DIMCLRD
 70
     0
  9
$DIMCLRE
 70
     0
  9
$DIMCLRT
 70
     0
  9
$DIMTFAC
 40
1.0
  9
$DIMGAP
 40
0.125
  9
$DIMJUST
 70
     0
  9
$DIMSD1
 70
     0
  9
$DIMSD2
 70
     0
  9
$DIMTOLJ
 70
     1
  9
$DIMTZIN
 70
     0
  9
$DIMALTZ
 70
     0
  9
$DIMALTTZ
 70
     0
  9
$DIMUPT
 70
     0
  9
$DIMDEC
 70
     4
  9
$DIMTDEC
 70
     4
  9
$DIMALTU
 70
     2
  9
$DIMALTTD
 70
     2
  9
$DIMTXSTY
  7
STANDARD
  9
$DIMAUNIT
 70
     0
  9
$DIMADEC
 70
     0
  9
$DIMALTRND
 40
0.0
  9
$DIMAZIN
 70
     0
  9
$DIMDSEP
 70
    46
  9
$DIMATFIT
 70
     3
  9
$DIMFRAC
 70
     0
  9
$DIMLDRBLK
  1

  9
$DIMLUNIT
 70
     2
  9
$DIMLWD
 70
    -2
  9
$DIMLWE
 70
    -2
  9
$DIMTMOVE
 70
     0
  9
$LUNITS
 70
     5
  9
$LUPREC
 70
     4
  9
$SKETCHINC
 40
0.1
  9
$FILLETRAD
 40
0.125
  9
$AUNITS
 70
     0
  9
$AUPREC
 70
     0
  9
$MENU
  1
acad
  9
$ELEVATION
 40
0.0
  9
$PELEVATION
 40
0.0
  9
$THICKNESS
 40
0.0
  9
$LIMCHECK
 70
     0
  9
$CHAMFERA
 40
0.0
  9
$CHAMFERB
 40
0.0
  9
$CHAMFERC
 40
0.0
  9
$CHAMFERD
 40
0.0
  9
$SKPOLY
 70
     0
  9
$TDCREATE
 40
2450226.616620174
  9
$TDUCREATE
 40
2450226.783286840
  9
$TDUPDATE
 40
2453961.005819699
  9
$TDUUPDATE
 40
2453961.172486366
  9
$TDINDWG
 40
0.0184593056
  9
$TDUSRTIMER
 40
0.0184593056
  9
$USRTIMER
 70
     1
  9
$ANGBASE
 50
0.0
  9
$ANGDIR
 70
     0
  9
$PDMODE
 70
     0
  9
$PDSIZE
 40
0.0
  9
$PLINEWID
 40
0.0
  9
$SPLFRAME
 70
     0
  9
$SPLINETYPE
 70
     6
  9
$SPLINESEGS
 70
     8
  9
$HANDSEED
  5
33D
  9
$SURFTAB1
 70
     6
  9
$SURFTAB2
 70
     6
  9
$SURFTYPE
 70
     6
  9
$SURFU
 70
     6
  9
$SURFV
 70
     6
  9
$UCSBASE
  2

  9
$UCSNAME
  2

  9
$UCSORG
 10
0.0
 20
0.0
 30
0.0
  9
$UCSXDIR
 10
1.0
 20
0.0
 30
0.0
  9
$UCSYDIR
 10
0.0
 20
1.0
 30
0.0
  9
$UCSORTHOREF
  2

  9
$UCSORTHOVIEW
 70
     0
  9
$UCSORGTOP
 10
0.0
 20
0.0
 30
0.0
  9
$UCSORGBOTTOM
 10
0.0
 20
0.0
 30
0.0
  9
$UCSORGLEFT
 10
0.0
 20
0.0
 30
0.0
  9
$UCSORGRIGHT
 10
0.0
 20
0.0
 30
0.0
  9
$UCSORGFRONT
 10
0.0
 20
0.0
 30
0.0
  9
$UCSORGBACK
 10
0.0
 20
0.0
 30
0.0
  9
$PUCSBASE
  2

  9
$PUCSNAME
  2

  9
$PUCSORG
 10
0.0
 20
0.0
 30
0.0
  9
$PUCSXDIR
 10
1.0
 20
0.0
 30
0.0
  9
$PUCSYDIR
 10
0.0
 20
1.0
 30
0.0
  9
$PUCSORTHOREF
  2

  9
$PUCSORTHOVIEW
 70
     0
  9
$PUCSORGTOP
 10
0.0
 20
0.0
 30
0.0
  9
$PUCSORGBOTTOM
 10
0.0
 20
0.0
 30
0.0
  9
$PUCSORGLEFT
 10
0.0
 20
0.0
 30
0.0
  9
$PUCSORGRIGHT
 10
0.0
 20
0.0
 30
0.0
  9
$PUCSORGFRONT
 10
0.0
 20
0.0
 30
0.0
  9
$PUCSORGBACK
 10
0.0
 20
0.0
 30
0.0
  9
$USERI1
 70
     0
  9
$USERI2
 70
     0
  9
$USERI3
 70
     0
  9
$USERI4
 70
     0
  9
$USERI5
 70
     0
  9
$USERR1
 40
0.0
  9
$USERR2
 40
0.0
  9
$USERR3
 40
0.0
  9
$USERR4
 40
0.0
  9
$USERR5
 40
0.0
  9
$WORLDVIEW
 70
     1
  9
$SHADEDGE
 70
     3
  9
$SHADEDIF
 70
    70
  9
$TILEMODE
 70
     1
  9
$MAXACTVP
 70
    15
  9
$PINSBASE
 10
0.0008545056916773
 20
1.250276130627782
 30
0.0
  9
$PLIMCHECK
 70
     0
  9
$PEXTMIN
 10
1.000000000000000E+20
 20
1.000000000000000E+20
 30
1.000000000000000E+20
  9
$PEXTMAX
 10
-1.000000000000000E+20
 20
-1.000000000000000E+20
 30
-1.000000000000000E+20
  9
$PLIMMIN
 10
0.0
 20
0.0
  9
$PLIMMAX
 10
12.0
 20
9.0
  9
$UNITMODE
 70
     0
  9
$VISRETAIN
 70
     0
  9
$PLINEGEN
 70
     0
  9
$PSLTSCALE
 70
     1
  9
$TREEDEPTH
 70
  3020
  9
$CMLSTYLE
  2
STANDARD
  9
$CMLJUST
 70
     0
  9
$CMLSCALE
 40
1.0
  9
$PROXYGRAPHICS
 70
     1
  9
$MEASUREMENT
 70
     0
  9
$CELWEIGHT
370
    -1
  9
$ENDCAPS
280
     0
  9
$JOINSTYLE
280
     0
  9
$LWDISPLAY
290
     0
  9
$INSUNITS
 70
     0
  9
$HYPERLINKBASE
  1

  9
$STYLESHEET
  1

  9
$XEDIT
290
     1
  9
$CEPSNTYPE
380
     0
  9
$PSTYLEMODE
290
     1
  9
$FINGERPRINTGUID
  2
{33C9F33C-B468-416D-A16F-A6A6EF666269}
  9
$VERSIONGUID
  2
{13785837-1383-430D-A911-A66246985106}
  9
$EXTNAMES
290
     1
  9
$PSVPSCALE
 40
0.0
  9
$OLESTARTUP
290
     0
  0
ENDSEC
  0
SECTION
  2
CLASSES
  0
CLASS
  1
ACDBDICTIONARYWDFLT
  2
AcDbDictionaryWithDefault
  3
ObjectDBX Classes
 90
        0
280
     0
281
     0
  0
CLASS
  1
ACDBPLACEHOLDER
  2
AcDbPlaceHolder
  3
ObjectDBX Classes
 90
        0
280
     0
281
     0
  0
CLASS
  1
LAYOUT
  2
AcDbLayout
  3
ObjectDBX Classes
 90
        0
280
     0
281
     0
  0
CLASS
  1
DICTIONARYVAR
  2
AcDbDictionaryVar
  3
ObjectDBX Classes
 90
        0
280
     0
281
     0
  0
CLASS
  1
MATERIAL
  2
AcDbMaterial
  3
ObjectDBX Classes
 90
     1024
280
     0
281
     0
  0
CLASS
  1
VISUALSTYLE
  2
AcDbVisualStyle
  3
ObjectDBX Classes
 90
     4095
280
     0
281
     0
  0
CLASS
  1
TABLESTYLE
  2
AcDbTableStyle
  3
ObjectDBX Classes
 90
     4095
280
     0
281
     0
  0
ENDSEC
  0
SECTION
  2
TABLES
  0
TABLE
  2
VPORT
  5
8
330
0
100
AcDbSymbolTable
 70
     1
  0
VPORT
  5
1ED
330
8
100
AcDbSymbolTableRecord
100
AcDbViewportTableRecord
  2
*Active
 70
     0
 10
0.0
 20
0.0
 11
1.0
 21
1.0
 12
9.521733819574873
 22
13.29577208770532
 13
0.0
 23
0.0
 14
0.5740882589684922
 24
0.5740882589684922
 15
0.5
 25
0.5
 16
0.0
 26
0.0
 36
1.0
 17
0.0
 27
0.0
 37
0.0
 40
5.690966117041789
 41
1.774011299435028
 42
50.0
 43
0.0
 44
0.0
 50
0.0
 51
0.0
 71
     0
 72
   100
 73
     1
 74
     0
 75
     0
 76
     0
 77
     0
 78
     0
281
     0
 65
     1
110
0.0
120
0.0
130
0.0
111
1.0
121
0.0
131
0.0
112
0.0
122
1.0
132
0.0
 79
     0
146
0.0
  0
ENDTAB
  0
TABLE
  2
LTYPE
  5
5
330
0
100
AcDbSymbolTable
 70
     2
  0
LTYPE
  5
12
330
5
100
AcDbSymbolTableRecord
100
AcDbLinetypeTableRecord
  2
BYBLOCK
 70
     0
  3

 72
    65
 73
     0
 40
0.0
  0
LTYPE
  5
13
330
5
100
AcDbSymbolTableRecord
100
AcDbLinetypeTableRecord
  2
BYLAYER
 70
     0
  3

 72
    65
 73
     0
 40
0.0
  0
LTYPE
  5
14
330
5
100
AcDbSymbolTableRecord
100
AcDbLinetypeTableRecord
  2
CONTINUOUS
 70
     0
  3
Solid line
 72
    65
 73
     0
 40
0.0
  0
LTYPE
  5
6E
330
5
100
AcDbSymbolTableRecord
100
AcDbLinetypeTableRecord
  2
HIDDEN2
 70
     0
  3
_ _ _ _ _ _ _ _ _ _ _ _ _ _ _ _ _ _ _ _ _ _ _ _
 72
    65
 73
     2
 40
0.1875
 49
0.125
 74
     0
 49
-0.0625
 74
     0
  0
ENDTAB
  0
TABLE
  2
LAYER
  5
2
330
0
100
AcDbSymbolTable
 70
     5
  0
LAYER
  5
F
330
2
100
AcDbSymbolTableRecord
100
AcDbLayerTableRecord
  2
0
 70
     0
 62
     7
  6
CONTINUOUS
370
    -3
390
D1
  0
LAYER
  5
6F
330
2
100
AcDbSymbolTableRecord
100
AcDbLayerTableRecord
  2
ADP2DETAIL
 70
     0
 62
     5
  6
CONTINUOUS
370
    -3
390
D1
  0
LAYER
  5
70
330
2
100
AcDbSymbolTableRecord
100
AcDbLayerTableRecord
  2
ADPDIM
 70
     0
 62
     3
  6
CONTINUOUS
370
    -3
390
D1
  0
LAYER
  5
72
330
2
100
AcDbSymbolTableRecord
100
AcDbLayerTableRecord
  2
ADP1DETAIL
 70
     0
 62
     7
  6
CONTINUOUS
370
    -3
390
D1
  0
LAYER
  5
74
330
2
100
AcDbSymbolTableRecord
100
AcDbLayerTableRecord
  2
DEFPOINTS
 70
     0
 62
     7
  6
CONTINUOUS
290
     0
370
    -3
390
D1
  0
ENDTAB
  0
TABLE
  2
STYLE
  5
3
330
0
100
AcDbSymbolTable
 70
     2
  0
STYLE
  5
10
330
3
100
AcDbSymbolTableRecord
100
AcDbTextStyleTableRecord
  2
STANDARD
 70
     0
 40
0.0
 41
1.0
 50
0.0
 71
     0
 42
0.2
  3
txt
  4

  0
STYLE
  5
D8
330
3
100
AcDbSymbolTableRecord
100
AcDbTextStyleTableRecord
  2
ARIAL_WIDE
 70
     0
 40
0.0
 41
1.25
 50
0.0
 71
     0
 42
0.2
  3
ARIAL.TTF
  4

1001
ACAD
1000
Arial
1071
       34
  0
ENDTAB
  0
TABLE
  2
VIEW
  5
6
330
0
100
AcDbSymbolTable
 70
     0
  0
ENDTAB
  0
TABLE
  2
UCS
  5
7
330
0
100
AcDbSymbolTable
 70
     0
  0
ENDTAB
  0
TABLE
  2
APPID
  5
9
330
0
100
AcDbSymbolTable
 70
     2
  0
APPID
  5
11
330
9
100
AcDbSymbolTableRecord
100
AcDbRegAppTableRecord
  2
ACAD
 70
     0
  0
APPID
  5
268
330
9
100
AcDbSymbolTableRecord
100
AcDbRegAppTableRecord
  2
DCO15
 70
     0
  0
ENDTAB
  0
TABLE
  2
DIMSTYLE
  5
A
330
0
100
AcDbSymbolTable
 70
     1
100
AcDbDimStyleTable
 71
     1
340
CC
  0
DIMSTYLE
105
CC
102
{ACAD_REACTORS
330
298
330
2A1
330
2A2
330
2A3
330
300
102
}
330
A
100
AcDbSymbolTableRecord
100
AcDbDimStyleTableRecord
  2
STANDARD
 70
     0
340
10
  0
ENDTAB
  0
TABLE
  2
BLOCK_RECORD
  5
1
330
0
100
AcDbSymbolTable
 70
    13
  0
BLOCK_RECORD
  5
18
102
{ACAD_XDICTIONARY
360
12D
102
}
330
1
100
AcDbSymbolTableRecord
100
AcDbBlockTableRecord
  2
*MODEL_SPACE
340
D4
  0
BLOCK_RECORD
  5
15
102
{ACAD_XDICTIONARY
360
12B
102
}
330
1
100
AcDbSymbolTableRecord
100
AcDbBlockTableRecord
  2
*PAPER_SPACE
340
D5
  0
BLOCK_RECORD
  5
56
330
1
100
AcDbSymbolTableRecord
100
AcDbBlockTableRecord
  2
*D0
340
0
  0
BLOCK_RECORD
  5
58
330
1
100
AcDbSymbolTableRecord
100
AcDbBlockTableRecord
  2
*D1
340
0
  0
BLOCK_RECORD
  5
5A
330
1
100
AcDbSymbolTableRecord
100
AcDbBlockTableRecord
  2
*D2
340
0
  0
BLOCK_RECORD
  5
234
330
1
100
AcDbSymbolTableRecord
100
AcDbBlockTableRecord
  2
*D3
340
0
  0
BLOCK_RECORD
  5
241
330
1
100
AcDbSymbolTableRecord
100
AcDbBlockTableRecord
  2
*D4
340
0
  0
BLOCK_RECORD
  5
24E
330
1
100
AcDbSymbolTableRecord
100
AcDbBlockTableRecord
  2
*D5
340
0
  0
BLOCK_RECORD
  5
25B
330
1
100
AcDbSymbolTableRecord
100
AcDbBlockTableRecord
  2
*D6
340
0
  0
BLOCK_RECORD
  5
2A4
330
1
100
AcDbSymbolTableRecord
100
AcDbBlockTableRecord
  2
*D8
340
0
  0
BLOCK_RECORD
  5
2B1
330
1
100
AcDbSymbolTableRecord
100
AcDbBlockTableRecord
  2
*D9
340
0
  0
BLOCK_RECORD
  5
2BE
330
1
100
AcDbSymbolTableRecord
100
AcDbBlockTableRecord
  2
*D10
340
0
  0
BLOCK_RECORD
  5
2CB
330
1
100
AcDbSymbolTableRecord
100
AcDbBlockTableRecord
  2
*D11
340
0
  0
BLOCK_RECORD
  5
301
330
1
100
AcDbSymbolTableRecord
100
AcDbBlockTableRecord
  2
*D12
340
0
  0
ENDTAB
  0
ENDSEC
  0
SECTION
  2
BLOCKS
  0
BLOCK
  5
77
330
18
100
AcDbEntity
  8
0
100
AcDbBlockBegin
  2
*MODEL_SPACE
 70
     0
 10
0.0
 20
0.0
 30
0.0
  3
*MODEL_SPACE
  1

  0
ENDBLK
  5
78
330
18
100
AcDbEntity
  8
0
100
AcDbBlockEnd
  0
BLOCK
  5
75
330
15
100
AcDbEntity
 67
     1
  8
0
100
AcDbBlockBegin
  2
*PAPER_SPACE
 70
     0
 10
0.0
 20
0.0
 30
0.0
  3
*PAPER_SPACE
  1

  0
ENDBLK
  5
76
330
15
100
AcDbEntity
 67
     1
  8
0
100
AcDbBlockEnd
  0
BLOCK
  5
7A
330
56
100
AcDbEntity
  8
0
100
AcDbBlockBegin
  2
*D0
 70
     1
 10
0.0
 20
0.0
 30
0.0
  3
*D0
  1

  0
LINE
  5
7B
330
56
100
AcDbEntity
  8
0
  6
ByBlock
 62
     0
100
AcDbLine
 10
10.42734091938013
 20
14.07331340584734
 30
0.0
 11
12.48659284472421
 21
14.07331340584734
 31
0.0
  0
LINE
  5
7C
330
56
100
AcDbEntity
  8
0
  6
ByBlock
 62
     0
100
AcDbLine
 10
11.96884091938013
 20
2.073313405847345
 30
0.0
 11
12.48659284472421
 21
2.073313405847345
 31
0.0
  0
LINE
  5
7D
330
56
100
AcDbEntity
  8
0
  6
ByBlock
 62
     0
100
AcDbLine
 10
12.30659284472422
 20
14.07331340584734
 30
0.0
 11
12.30659284472422
 21
8.281646739180679
 31
0.0
  0
LINE
  5
7E
330
56
100
AcDbEntity
  8
0
  6
ByBlock
 62
     0
100
AcDbLine
 10
12.30659284472422
 20
2.073313405847345
 30
0.0
 11
12.30659284472422
 21
7.864980072514011
 31
0.0
  0
LINE
  5
7F
330
56
100
AcDbEntity
  8
0
  6
ByBlock
 62
     0
100
AcDbLine
 10
12.43159284472421
 20
13.94831340584734
 30
0.0
 11
12.18159284472421
 21
14.19831340584734
 31
0.0
  0
LINE
  5
80
330
56
100
AcDbEntity
  8
0
  6
ByBlock
 62
     0
100
AcDbLine
 10
12.43159284472421
 20
1.948313405847345
 30
0.0
 11
12.18159284472421
 21
2.198313405847345
 31
0.0
  0
TEXT
  5
81
330
56
100
AcDbEntity
  8
0
  6
ByBlock
 62
     0
100
AcDbText
 10
12.36909284472421
 20
7.989980072514012
 30
0.0
 40
0.125
  1
12
 50
90.0
 72
     1
 11
12.30659284472422
 21
8.073313405847345
 31
0.0
100
AcDbText
 73
     2
  0
POINT
  5
82
330
56
100
AcDbEntity
  8
DEFPOINTS
  6
ByBlock
 62
     0
100
AcDbPoint
 10
10.36484091938013
 20
14.07331340584734
 30
0.0
  0
POINT
  5
83
330
56
100
AcDbEntity
  8
DEFPOINTS
  6
ByBlock
 62
     0
100
AcDbPoint
 10
11.90634091938013
 20
2.073313405847345
 30
0.0
  0
POINT
  5
84
330
56
100
AcDbEntity
  8
DEFPOINTS
  6
ByBlock
 62
     0
100
AcDbPoint
 10
12.30659284472422
 20
2.073313405847345
 30
0.0
  0
ENDBLK
  5
85
330
56
100
AcDbEntity
  8
0
100
AcDbBlockEnd
  0
BLOCK
  5
86
330
58
100
AcDbEntity
  8
0
100
AcDbBlockBegin
  2
*D1
 70
     1
 10
0.0
 20
0.0
 30
0.0
  3
*D1
  1

  0
LINE
  5
87
330
58
100
AcDbEntity
  8
0
  6
ByBlock
 62
     0
100
AcDbLine
 10
11.71884091938013
 20
-3.371046698751623
 30
0.0
 11
12.48659284472421
 21
-3.371046698751623
 31
0.0
  0
LINE
  5
88
330
58
100
AcDbEntity
  8
0
  6
ByBlock
 62
     0
100
AcDbLine
 10
11.71884091938013
 20
1.378953301248376
 30
0.0
 11
12.48659284472421
 21
1.378953301248376
 31
0.0
  0
LINE
  5
89
330
58
100
AcDbEntity
  8
0
  6
ByBlock
 62
     0
100
AcDbLine
 10
12.30659284472422
 20
-3.371046698751623
 30
0.0
 11
12.30659284472422
 21
-1.412713365418289
 31
0.0
  0
LINE
  5
8A
330
58
100
AcDbEntity
  8
0
  6
ByBlock
 62
     0
100
AcDbLine
 10
12.30659284472422
 20
1.378953301248376
 30
0.0
 11
12.30659284472422
 21
-0.5793800320849569
 31
0.0
  0
LINE
  5
8B
330
58
100
AcDbEntity
  8
0
  6
ByBlock
 62
     0
100
AcDbLine
 10
12.43159284472421
 20
-3.496046698751623
 30
0.0
 11
12.18159284472421
 21
-3.246046698751623
 31
0.0
  0
LINE
  5
8C
330
58
100
AcDbEntity
  8
0
  6
ByBlock
 62
     0
100
AcDbLine
 10
12.43159284472421
 20
1.253953301248376
 30
0.0
 11
12.18159284472421
 21
1.503953301248376
 31
0.0
  0
TEXT
  5
8D
330
58
100
AcDbEntity
  8
0
  6
ByBlock
 62
     0
100
AcDbText
 10
12.36909284472421
 20
-1.28771336541829
 30
0.0
 40
0.125
  1
4 3/4
 50
90.0
 72
     1
 11
12.30659284472422
 21
-0.9960466987516234
 31
0.0
100
AcDbText
 73
     2
  0
POINT
  5
8E
330
58
100
AcDbEntity
  8
DEFPOINTS
  6
ByBlock
 62
     0
100
AcDbPoint
 10
11.65634091938013
 20
-3.371046698751623
 30
0.0
  0
POINT
  5
8F
330
58
100
AcDbEntity
  8
DEFPOINTS
  6
ByBlock
 62
     0
100
AcDbPoint
 10
11.65634091938013
 20
1.378953301248376
 30
0.0
  0
POINT
  5
90
330
58
100
AcDbEntity
  8
DEFPOINTS
  6
ByBlock
 62
     0
100
AcDbPoint
 10
12.30659284472422
 20
1.378953301248376
 30
0.0
  0
ENDBLK
  5
91
330
58
100
AcDbEntity
  8
0
100
AcDbBlockEnd
  0
BLOCK
  5
92
330
5A
100
AcDbEntity
  8
0
100
AcDbBlockBegin
  2
*D2
 70
     1
 10
0.0
 20
0.0
 30
0.0
  3
*D2
  1

  0
LINE
  5
93
330
5A
100
AcDbEntity
  8
0
  6
ByBlock
 62
     0
100
AcDbLine
 10
10.36484091938013
 20
14.13581340584734
 30
0.0
 11
10.36484091938013
 21
14.60298548719139
 31
0.0
  0
LINE
  5
94
330
5A
100
AcDbEntity
  8
0
  6
ByBlock
 62
     0
100
AcDbLine
 10
8.697840919380132
 20
14.13581340584734
 30
0.0
 11
8.697840919380132
 21
14.60298548719139
 31
0.0
  0
LINE
  5
95
330
5A
100
AcDbEntity
  8
0
  6
ByBlock
 62
     0
100
AcDbLine
 10
10.36484091938013
 20
14.42298548719139
 30
0.0
 11
9.989674252713465
 21
14.42298548719139
 31
0.0
  0
LINE
  5
96
330
5A
100
AcDbEntity
  8
0
  6
ByBlock
 62
     0
100
AcDbLine
 10
8.697840919380132
 20
14.42298548719139
 30
0.0
 11
9.073007586046797
 21
14.42298548719139
 31
0.0
  0
LINE
  5
97
330
5A
100
AcDbEntity
  8
0
  6
ByBlock
 62
     0
100
AcDbLine
 10
10.23984091938013
 20
14.29798548719139
 30
0.0
 11
10.48984091938013
 21
14.54798548719139
 31
0.0
  0
LINE
  5
98
330
5A
100
AcDbEntity
  8
0
  6
ByBlock
 62
     0
100
AcDbLine
 10
8.572840919380132
 20
14.29798548719139
 30
0.0
 11
8.822840919380132
 21
14.54798548719139
 31
0.0
  0
TEXT
  5
99
330
5A
100
AcDbEntity
  8
0
  6
ByBlock
 62
     0
100
AcDbText
 10
9.198007586046797
 20
14.36048548719139
 30
0.0
 40
0.125
  1
1 11/16
 72
     1
 11
9.531340919380131
 21
14.42298548719139
 31
0.0
100
AcDbText
 73
     2
  0
POINT
  5
9A
330
5A
100
AcDbEntity
  8
DEFPOINTS
  6
ByBlock
 62
     0
100
AcDbPoint
 10
10.36484091938013
 20
14.07331340584734
 30
0.0
  0
POINT
  5
9B
330
5A
100
AcDbEntity
  8
DEFPOINTS
  6
ByBlock
 62
     0
100
AcDbPoint
 10
8.697840919380132
 20
14.07331340584734
 30
0.0
  0
POINT
  5
9C
330
5A
100
AcDbEntity
  8
DEFPOINTS
  6
ByBlock
 62
     0
100
AcDbPoint
 10
8.697840919380132
 20
14.42298548719139
 30
0.0
  0
ENDBLK
  5
9D
330
5A
100
AcDbEntity
  8
0
100
AcDbBlockEnd
  0
BLOCK
  5
235
330
234
100
AcDbEntity
  8
0
100
AcDbBlockBegin
  2
*D3
 70
     1
 10
0.0
 20
0.0
 30
0.0
  3
*D3
  1

  0
LINE
  5
236
330
234
100
AcDbEntity
  8
ADPDIM
 62
     0
370
    -2
100
AcDbLine
 10
34.4773369017604
 20
-3.09853856712267
 30
0.0
 11
35.40473547295717
 21
-3.09853856712267
 31
0.0
  0
LINE
  5
237
330
234
100
AcDbEntity
  8
ADPDIM
 62
     0
370
    -2
100
AcDbLine
 10
34.4773369017604
 20
1.651461432877329
 30
0.0
 11
35.40473547295717
 21
1.651461432877329
 31
0.0
  0
LINE
  5
238
330
234
100
AcDbEntity
  8
ADPDIM
 62
     0
370
    -2
100
AcDbLine
 10
35.22473547295717
 20
-2.91853856712267
 30
0.0
 11
35.22473547295717
 21
-0.9035385671226702
 31
0.0
  0
LINE
  5
239
330
234
100
AcDbEntity
  8
ADPDIM
 62
     0
370
    -2
100
AcDbLine
 10
35.22473547295717
 20
1.471461432877329
 30
0.0
 11
35.22473547295717
 21
-0.5435385671226703
 31
0.0
  0
SOLID
  5
23A
330
234
100
AcDbEntity
  8
ADPDIM
 62
     0
100
AcDbTrace
 10
35.19473547295717
 20
-2.91853856712267
 30
0.0
 11
35.25473547295717
 21
-2.91853856712267
 31
0.0
 12
35.22473547295717
 22
-3.09853856712267
 32
0.0
 13
35.22473547295717
 23
-3.09853856712267
 33
0.0
  0
SOLID
  5
23B
330
234
100
AcDbEntity
  8
ADPDIM
 62
     0
100
AcDbTrace
 10
35.19473547295717
 20
1.471461432877329
 30
0.0
 11
35.25473547295717
 21
1.471461432877329
 31
0.0
 12
35.22473547295717
 22
1.651461432877329
 32
0.0
 13
35.22473547295717
 23
1.651461432877329
 33
0.0
  0
MTEXT
  5
23C
330
234
100
AcDbEntity
  8
ADPDIM
 62
     0
100
AcDbMText
 10
35.22473547295717
 20
-0.7235385671226647
 30
0.0
 40
0.18
 41
0.0
 71
     5
 72
     1
  1
\A1;4 3/4
 73
     1
 44
1.0
1001
ACAD
1000
MTEXTBEGIN
1070
    73
1070
     1
1070
    44
1040
1.0
1070
    74
1070
     0
1000
MTEXTEND
  0
POINT
  5
23D
330
234
100
AcDbEntity
  8
DEFPOINTS
 62
     0
100
AcDbPoint
 10
34.41483690176041
 20
-3.09853856712267
 30
0.0
  0
POINT
  5
23E
330
234
100
AcDbEntity
  8
DEFPOINTS
 62
     0
100
AcDbPoint
 10
34.41483690176041
 20
1.651461432877329
 30
0.0
  0
POINT
  5
23F
330
234
100
AcDbEntity
  8
DEFPOINTS
 62
     0
100
AcDbPoint
 10
35.22473547295717
 20
1.651461432877329
 30
0.0
  0
ENDBLK
  5
240
330
234
100
AcDbEntity
  8
0
100
AcDbBlockEnd
  0
BLOCK
  5
242
330
241
100
AcDbEntity
  8
0
100
AcDbBlockBegin
  2
*D4
 70
     1
 10
0.0
 20
0.0
 30
0.0
  3
*D4
  1

  0
LINE
  5
243
330
241
100
AcDbEntity
  8
ADPDIM
 62
     0
370
    -2
100
AcDbLine
 10
30.48854747300795
 20
1.031523465326419
 30
0.0
 11
29.30205100179472
 21
1.031523465326419
 31
0.0
  0
LINE
  5
244
330
241
100
AcDbEntity
  8
ADPDIM
 62
     0
370
    -2
100
AcDbLine
 10
30.48854747300795
 20
1.656523465326419
 30
0.0
 11
29.30205100179472
 21
1.656523465326419
 31
0.0
  0
LINE
  5
245
330
241
100
AcDbEntity
  8
ADPDIM
 62
     0
370
    -2
100
AcDbLine
 10
29.48205100179471
 20
1.031523465326419
 30
0.0
 11
29.48205100179471
 21
0.7815234653264195
 31
0.0
  0
LINE
  5
246
330
241
100
AcDbEntity
  8
ADPDIM
 62
     0
370
    -2
100
AcDbLine
 10
29.48205100179471
 20
1.656523465326419
 30
0.0
 11
29.48205100179471
 21
1.906523465326419
 31
0.0
  0
LINE
  5
247
330
241
100
AcDbEntity
  8
ADPDIM
 62
     0
370
    -2
100
AcDbLine
 10
29.60705100179472
 20
1.531523465326419
 30
0.0
 11
29.35705100179472
 21
1.781523465326419
 31
0.0
  0
LINE
  5
248
330
241
100
AcDbEntity
  8
ADPDIM
 62
     0
370
    -2
100
AcDbLine
 10
29.60705100179472
 20
0.9065234653264194
 30
0.0
 11
29.35705100179472
 21
1.156523465326419
 31
0.0
  0
MTEXT
  5
249
330
241
100
AcDbEntity
  8
ADPDIM
 62
     0
100
AcDbMText
 10
29.48205100179471
 20
1.344023465326424
 30
0.0
 40
0.125
 41
0.0
 71
     5
 72
     1
  1
\A1;5/8
 11
0.0000000000000001
 21
1.0
 31
0.0
 73
     1
 44
1.0
1001
ACAD
1000
MTEXTBEGIN
1070
    73
1070
     1
1070
    44
1040
1.0
1070
    74
1070
     0
1000
MTEXTEND
  0
POINT
  5
24A
330
241
100
AcDbEntity
  8
DEFPOINTS
 62
     0
100
AcDbPoint
 10
30.55104747300795
 20
1.031523465326419
 30
0.0
  0
POINT
  5
24B
330
241
100
AcDbEntity
  8
DEFPOINTS
 62
     0
100
AcDbPoint
 10
30.55104747300795
 20
1.656523465326419
 30
0.0
  0
POINT
  5
24C
330
241
100
AcDbEntity
  8
DEFPOINTS
 62
     0
100
AcDbPoint
 10
29.48205100179471
 20
1.656523465326419
 30
0.0
  0
ENDBLK
  5
24D
330
241
100
AcDbEntity
  8
0
100
AcDbBlockEnd
  0
BLOCK
  5
24F
330
24E
100
AcDbEntity
  8
0
100
AcDbBlockBegin
  2
*D5
 70
     1
 10
0.0
 20
0.0
 30
0.0
  3
*D5
  1

  0
LINE
  5
250
330
24E
100
AcDbEntity
  8
ADPDIM
 62
     0
370
    -2
100
AcDbLine
 10
30.47806538600958
 20
-3.105797264083317
 30
0.0
 11
29.29156891479635
 21
-3.105797264083317
 31
0.0
  0
LINE
  5
251
330
24E
100
AcDbEntity
  8
ADPDIM
 62
     0
370
    -2
100
AcDbLine
 10
30.47806538600958
 20
-2.480797264083317
 30
0.0
 11
29.29156891479635
 21
-2.480797264083317
 31
0.0
  0
LINE
  5
252
330
24E
100
AcDbEntity
  8
ADPDIM
 62
     0
370
    -2
100
AcDbLine
 10
29.47156891479635
 20
-3.105797264083317
 30
0.0
 11
29.47156891479635
 21
-3.355797264083317
 31
0.0
  0
LINE
  5
253
330
24E
100
AcDbEntity
  8
ADPDIM
 62
     0
370
    -2
100
AcDbLine
 10
29.47156891479635
 20
-2.480797264083317
 30
0.0
 11
29.47156891479635
 21
-2.230797264083317
 31
0.0
  0
LINE
  5
254
330
24E
100
AcDbEntity
  8
ADPDIM
 62
     0
370
    -2
100
AcDbLine
 10
29.59656891479635
 20
-2.605797264083317
 30
0.0
 11
29.34656891479635
 21
-2.355797264083317
 31
0.0
  0
LINE
  5
255
330
24E
100
AcDbEntity
  8
ADPDIM
 62
     0
370
    -2
100
AcDbLine
 10
29.59656891479635
 20
-3.230797264083317
 30
0.0
 11
29.34656891479635
 21
-2.980797264083317
 31
0.0
  0
MTEXT
  5
256
330
24E
100
AcDbEntity
  8
ADPDIM
 62
     0
100
AcDbMText
 10
29.47156891479635
 20
-2.793297264083312
 30
0.0
 40
0.125
 41
0.0
 71
     5
 72
     1
  1
\A1;5/8
 11
0.0000000000000001
 21
1.0
 31
0.0
 73
     1
 44
1.0
1001
ACAD
1000
MTEXTBEGIN
1070
    73
1070
     1
1070
    44
1040
1.0
1070
    74
1070
     0
1000
MTEXTEND
  0
POINT
  5
257
330
24E
100
AcDbEntity
  8
DEFPOINTS
 62
     0
100
AcDbPoint
 10
30.54056538600959
 20
-3.105797264083317
 30
0.0
  0
POINT
  5
258
330
24E
100
AcDbEntity
  8
DEFPOINTS
 62
     0
100
AcDbPoint
 10
30.54056538600959
 20
-2.480797264083317
 30
0.0
  0
POINT
  5
259
330
24E
100
AcDbEntity
  8
DEFPOINTS
 62
     0
100
AcDbPoint
 10
29.47156891479635
 20
-2.480797264083317
 30
0.0
  0
ENDBLK
  5
25A
330
24E
100
AcDbEntity
  8
0
100
AcDbBlockEnd
  0
BLOCK
  5
25C
330
25B
100
AcDbEntity
  8
0
100
AcDbBlockBegin
  2
*D6
 70
     1
 10
0.0
 20
0.0
 30
0.0
  3
*D6
  1

  0
LINE
  5
25D
330
25B
100
AcDbEntity
  8
ADPDIM
 62
     0
370
    -2
100
AcDbLine
 10
29.41955100179472
 20
1.031523465326419
 30
0.0
 11
29.29830503078133
 21
1.031523465326419
 31
0.0
  0
LINE
  5
25E
330
25B
100
AcDbEntity
  8
ADPDIM
 62
     0
370
    -2
100
AcDbLine
 10
29.53406891479635
 20
-2.480797264083317
 30
0.0
 11
29.65830503078133
 21
-2.480797264083317
 31
0.0
  0
LINE
  5
25F
330
25B
100
AcDbEntity
  8
ADPDIM
 62
     0
370
    -2
100
AcDbLine
 10
29.47830503078133
 20
1.031523465326419
 30
0.0
 11
29.47830503078133
 21
-0.3288035660451159
 31
0.0
  0
LINE
  5
260
330
25B
100
AcDbEntity
  8
ADPDIM
 62
     0
370
    -2
100
AcDbLine
 10
29.47830503078133
 20
-2.480797264083317
 30
0.0
 11
29.47830503078133
 21
-1.120470232711782
 31
0.0
  0
LINE
  5
261
330
25B
100
AcDbEntity
  8
ADPDIM
 62
     0
370
    -2
100
AcDbLine
 10
29.60330503078133
 20
-2.605797264083317
 30
0.0
 11
29.35330503078133
 21
-2.355797264083317
 31
0.0
  0
LINE
  5
262
330
25B
100
AcDbEntity
  8
ADPDIM
 62
     0
370
    -2
100
AcDbLine
 10
29.60330503078133
 20
0.9065234653264189
 30
0.0
 11
29.35330503078133
 21
1.156523465326419
 31
0.0
  0
MTEXT
  5
263
330
25B
100
AcDbEntity
  8
ADPDIM
 62
     0
100
AcDbMText
 10
29.47830503078133
 20
-0.7246368993784444
 30
0.0
 40
0.125
 41
0.0
 71
     5
 72
     1
  1
\A1;3 1/2
 11
0.0000000000000001
 21
1.0
 31
0.0
 73
     1
 44
1.0
1001
ACAD
1000
MTEXTBEGIN
1070
    73
1070
     1
1070
    44
1040
1.0
1070
    74
1070
     0
1000
MTEXTEND
  0
POINT
  5
264
330
25B
100
AcDbEntity
  8
DEFPOINTS
 62
     0
100
AcDbPoint
 10
29.48205100179471
 20
1.031523465326419
 30
0.0
  0
POINT
  5
265
330
25B
100
AcDbEntity
  8
DEFPOINTS
 62
     0
100
AcDbPoint
 10
29.47156891479635
 20
-2.480797264083317
 30
0.0
  0
POINT
  5
266
330
25B
100
AcDbEntity
  8
DEFPOINTS
 62
     0
100
AcDbPoint
 10
29.47830503078133
 20
-2.480797264083317
 30
0.0
  0
ENDBLK
  5
267
330
25B
100
AcDbEntity
  8
0
100
AcDbBlockEnd
  0
BLOCK
  5
2AF
330
2A4
100
AcDbEntity
  8
0
100
AcDbBlockBegin
  2
*D8
 70
     1
 10
0.0
 20
0.0
 30
0.0
  3
*D8
  1

  0
LINE
  5
2D8
330
2A4
100
AcDbEntity
  8
ADPDIM
 62
     0
370
    -2
100
AcDbLine
 10
11.73093913615306
 20
-3.209818485837129
 30
0.0
 11
12.65833770734983
 21
-3.209818485837129
 31
0.0
  0
LINE
  5
2D9
330
2A4
100
AcDbEntity
  8
ADPDIM
 62
     0
370
    -2
100
AcDbLine
 10
11.73093913615306
 20
1.54018151416287
 30
0.0
 11
12.65833770734983
 21
1.54018151416287
 31
0.0
  0
LINE
  5
2DA
330
2A4
100
AcDbEntity
  8
ADPDIM
 62
     0
370
    -2
100
AcDbLine
 10
12.47833770734983
 20
-3.029818485837128
 30
0.0
 11
12.47833770734983
 21
-1.014818485837128
 31
0.0
  0
LINE
  5
2DB
330
2A4
100
AcDbEntity
  8
ADPDIM
 62
     0
370
    -2
100
AcDbLine
 10
12.47833770734983
 20
1.360181514162871
 30
0.0
 11
12.47833770734983
 21
-0.6548184858371293
 31
0.0
  0
SOLID
  5
2DC
330
2A4
100
AcDbEntity
  8
ADPDIM
 62
     0
100
AcDbTrace
 10
12.44833770734983
 20
-3.029818485837128
 30
0.0
 11
12.50833770734983
 21
-3.029818485837128
 31
0.0
 12
12.47833770734983
 22
-3.209818485837129
 32
0.0
 13
12.47833770734983
 23
-3.209818485837129
 33
0.0
  0
SOLID
  5
2DD
330
2A4
100
AcDbEntity
  8
ADPDIM
 62
     0
100
AcDbTrace
 10
12.44833770734983
 20
1.360181514162871
 30
0.0
 11
12.50833770734983
 21
1.36018151416287
 31
0.0
 12
12.47833770734983
 22
1.54018151416287
 32
0.0
 13
12.47833770734983
 23
1.54018151416287
 33
0.0
  0
MTEXT
  5
2DE
330
2A4
100
AcDbEntity
  8
ADPDIM
 62
     0
100
AcDbMText
 10
12.47833770734983
 20
-0.834818485837127
 30
0.0
 40
0.18
 41
0.0
 71
     5
 72
     1
  1
\A1;4 3/4
 73
     1
 44
1.0
1001
ACAD
1000
MTEXTBEGIN
1070
    73
1070
     1
1070
    44
1040
1.0
1070
    74
1070
     0
1000
MTEXTEND
  0
POINT
  5
2DF
330
2A4
100
AcDbEntity
  8
DEFPOINTS
 62
     0
100
AcDbPoint
 10
11.66843913615306
 20
-3.209818485837129
 30
0.0
  0
POINT
  5
2E0
330
2A4
100
AcDbEntity
  8
DEFPOINTS
 62
     0
100
AcDbPoint
 10
11.66843913615306
 20
1.54018151416287
 30
0.0
  0
POINT
  5
2E1
330
2A4
100
AcDbEntity
  8
DEFPOINTS
 62
     0
100
AcDbPoint
 10
12.47833770734983
 20
1.54018151416287
 30
0.0
  0
ENDBLK
  5
2B0
330
2A4
100
AcDbEntity
  8
0
100
AcDbBlockEnd
  0
BLOCK
  5
2BC
330
2B1
100
AcDbEntity
  8
0
100
AcDbBlockBegin
  2
*D9
 70
     1
 10
0.0
 20
0.0
 30
0.0
  3
*D9
  1

  0
LINE
  5
2E2
330
2B1
100
AcDbEntity
  8
ADPDIM
 62
     0
370
    -2
100
AcDbLine
 10
7.742149707400606
 20
0.9202435466119604
 30
0.0
 11
6.555653236187374
 21
0.9202435466119606
 31
0.0
  0
LINE
  5
2E3
330
2B1
100
AcDbEntity
  8
ADPDIM
 62
     0
370
    -2
100
AcDbLine
 10
7.742149707400606
 20
1.54524354661196
 30
0.0
 11
6.555653236187374
 21
1.54524354661196
 31
0.0
  0
LINE
  5
2E4
330
2B1
100
AcDbEntity
  8
ADPDIM
 62
     0
370
    -2
100
AcDbLine
 10
6.735653236187374
 20
0.9202435466119606
 30
0.0
 11
6.735653236187374
 21
0.6702435466119608
 31
0.0
  0
LINE
  5
2E5
330
2B1
100
AcDbEntity
  8
ADPDIM
 62
     0
370
    -2
100
AcDbLine
 10
6.735653236187374
 20
1.54524354661196
 30
0.0
 11
6.735653236187374
 21
1.79524354661196
 31
0.0
  0
LINE
  5
2E6
330
2B1
100
AcDbEntity
  8
ADPDIM
 62
     0
370
    -2
100
AcDbLine
 10
6.860653236187374
 20
1.42024354661196
 30
0.0
 11
6.610653236187374
 21
1.67024354661196
 31
0.0
  0
LINE
  5
2E7
330
2B1
100
AcDbEntity
  8
ADPDIM
 62
     0
370
    -2
100
AcDbLine
 10
6.860653236187374
 20
0.7952435466119607
 30
0.0
 11
6.610653236187374
 21
1.04524354661196
 31
0.0
  0
MTEXT
  5
2E8
330
2B1
100
AcDbEntity
  8
ADPDIM
 62
     0
100
AcDbMText
 10
6.735653236187374
 20
1.232743546611961
 30
0.0
 40
0.125
 41
0.0
 71
     5
 72
     1
  1
\A1;5/8
 11
0.0000000000000001
 21
1.0
 31
0.0
 73
     1
 44
1.0
1001
ACAD
1000
MTEXTBEGIN
1070
    73
1070
     1
1070
    44
1040
1.0
1070
    74
1070
     0
1000
MTEXTEND
  0
POINT
  5
2E9
330
2B1
100
AcDbEntity
  8
DEFPOINTS
 62
     0
100
AcDbPoint
 10
7.804649707400606
 20
0.9202435466119602
 30
0.0
  0
POINT
  5
2EA
330
2B1
100
AcDbEntity
  8
DEFPOINTS
 62
     0
100
AcDbPoint
 10
7.804649707400606
 20
1.54524354661196
 30
0.0
  0
POINT
  5
2EB
330
2B1
100
AcDbEntity
  8
DEFPOINTS
 62
     0
100
AcDbPoint
 10
6.735653236187374
 20
1.54524354661196
 30
0.0
  0
ENDBLK
  5
2BD
330
2B1
100
AcDbEntity
  8
0
100
AcDbBlockEnd
  0
BLOCK
  5
2C9
330
2BE
100
AcDbEntity
  8
0
100
AcDbBlockBegin
  2
*D10
 70
     1
 10
0.0
 20
0.0
 30
0.0
  3
*D10
  1

  0
LINE
  5
2EC
330
2BE
100
AcDbEntity
  8
ADPDIM
 62
     0
370
    -2
100
AcDbLine
 10
7.731667620402241
 20
-3.217077182797776
 30
0.0
 11
6.545171149189009
 21
-3.217077182797776
 31
0.0
  0
LINE
  5
2ED
330
2BE
100
AcDbEntity
  8
ADPDIM
 62
     0
370
    -2
100
AcDbLine
 10
7.731667620402241
 20
-2.592077182797776
 30
0.0
 11
6.545171149189009
 21
-2.592077182797776
 31
0.0
  0
LINE
  5
2EE
330
2BE
100
AcDbEntity
  8
ADPDIM
 62
     0
370
    -2
100
AcDbLine
 10
6.725171149189009
 20
-3.217077182797776
 30
0.0
 11
6.725171149189009
 21
-3.467077182797776
 31
0.0
  0
LINE
  5
2EF
330
2BE
100
AcDbEntity
  8
ADPDIM
 62
     0
370
    -2
100
AcDbLine
 10
6.725171149189009
 20
-2.592077182797776
 30
0.0
 11
6.725171149189009
 21
-2.342077182797776
 31
0.0
  0
LINE
  5
2F0
330
2BE
100
AcDbEntity
  8
ADPDIM
 62
     0
370
    -2
100
AcDbLine
 10
6.850171149189009
 20
-2.717077182797776
 30
0.0
 11
6.600171149189009
 21
-2.467077182797776
 31
0.0
  0
LINE
  5
2F1
330
2BE
100
AcDbEntity
  8
ADPDIM
 62
     0
370
    -2
100
AcDbLine
 10
6.850171149189009
 20
-3.342077182797776
 30
0.0
 11
6.600171149189009
 21
-3.092077182797776
 31
0.0
  0
MTEXT
  5
2F2
330
2BE
100
AcDbEntity
  8
ADPDIM
 62
     0
100
AcDbMText
 10
6.72517114918901
 20
-2.904577182797775
 30
0.0
 40
0.125
 41
0.0
 71
     5
 72
     1
  1
\A1;5/8
 11
0.0000000000000001
 21
1.0
 31
0.0
 73
     1
 44
1.0
1001
ACAD
1000
MTEXTBEGIN
1070
    73
1070
     1
1070
    44
1040
1.0
1070
    74
1070
     0
1000
MTEXTEND
  0
POINT
  5
2F3
330
2BE
100
AcDbEntity
  8
DEFPOINTS
 62
     0
100
AcDbPoint
 10
7.794167620402241
 20
-3.217077182797776
 30
0.0
  0
POINT
  5
2F4
330
2BE
100
AcDbEntity
  8
DEFPOINTS
 62
     0
100
AcDbPoint
 10
7.794167620402241
 20
-2.592077182797776
 30
0.0
  0
POINT
  5
2F5
330
2BE
100
AcDbEntity
  8
DEFPOINTS
 62
     0
100
AcDbPoint
 10
6.725171149189009
 20
-2.592077182797776
 30
0.0
  0
ENDBLK
  5
2CA
330
2BE
100
AcDbEntity
  8
0
100
AcDbBlockEnd
  0
BLOCK
  5
2D6
330
2CB
100
AcDbEntity
  8
0
100
AcDbBlockBegin
  2
*D11
 70
     1
 10
0.0
 20
0.0
 30
0.0
  3
*D11
  1

  0
LINE
  5
2F6
330
2CB
100
AcDbEntity
  8
ADPDIM
 62
     0
370
    -2
100
AcDbLine
 10
6.673153236187374
 20
0.9202435466119602
 30
0.0
 11
6.551907265173988
 21
0.9202435466119602
 31
0.0
  0
LINE
  5
2F7
330
2CB
100
AcDbEntity
  8
ADPDIM
 62
     0
370
    -2
100
AcDbLine
 10
6.787671149189009
 20
-2.592077182797776
 30
0.0
 11
6.911907265173987
 21
-2.592077182797776
 31
0.0
  0
LINE
  5
2F8
330
2CB
100
AcDbEntity
  8
ADPDIM
 62
     0
370
    -2
100
AcDbLine
 10
6.731907265173988
 20
0.9202435466119602
 30
0.0
 11
6.731907265173988
 21
-0.4400834847595748
 31
0.0
  0
LINE
  5
2F9
330
2CB
100
AcDbEntity
  8
ADPDIM
 62
     0
370
    -2
100
AcDbLine
 10
6.731907265173987
 20
-2.592077182797776
 30
0.0
 11
6.731907265173988
 21
-1.231750151426241
 31
0.0
  0
LINE
  5
2FA
330
2CB
100
AcDbEntity
  8
ADPDIM
 62
     0
370
    -2
100
AcDbLine
 10
6.856907265173987
 20
-2.717077182797776
 30
0.0
 11
6.606907265173987
 21
-2.467077182797776
 31
0.0
  0
LINE
  5
2FB
330
2CB
100
AcDbEntity
  8
ADPDIM
 62
     0
370
    -2
100
AcDbLine
 10
6.856907265173988
 20
0.7952435466119602
 30
0.0
 11
6.606907265173988
 21
1.04524354661196
 31
0.0
  0
MTEXT
  5
2FC
330
2CB
100
AcDbEntity
  8
ADPDIM
 62
     0
100
AcDbMText
 10
6.731907265173988
 20
-0.8359168180929071
 30
0.0
 40
0.125
 41
0.0
 71
     5
 72
     1
  1
\A1;3 1/2
 11
0.0000000000000001
 21
1.0
 31
0.0
 73
     1
 44
1.0
1001
ACAD
1000
MTEXTBEGIN
1070
    73
1070
     1
1070
    44
1040
1.0
1070
    74
1070
     0
1000
MTEXTEND
  0
POINT
  5
2FD
330
2CB
100
AcDbEntity
  8
DEFPOINTS
 62
     0
100
AcDbPoint
 10
6.735653236187374
 20
0.9202435466119602
 30
0.0
  0
POINT
  5
2FE
330
2CB
100
AcDbEntity
  8
DEFPOINTS
 62
     0
100
AcDbPoint
 10
6.725171149189009
 20
-2.592077182797776
 30
0.0
  0
POINT
  5
2FF
330
2CB
100
AcDbEntity
  8
DEFPOINTS
 62
     0
100
AcDbPoint
 10
6.731907265173987
 20
-2.592077182797776
 30
0.0
  0
ENDBLK
  5
2D7
330
2CB
100
AcDbEntity
  8
0
100
AcDbBlockEnd
  0
BLOCK
  5
30C
330
301
100
AcDbEntity
  8
0
 62
     3
100
AcDbBlockBegin
  2
*D12
 70
     1
 10
0.0
 20
0.0
 30
0.0
  3
*D12
  1

  0
LINE
  5
302
330
301
100
AcDbEntity
  8
ADPDIM
 62
     0
370
    -2
100
AcDbLine
 10
8.69816872500543
 20
14.13382667303626
 30
0.0
 11
8.69816872500543
 21
14.83967843581907
 31
0.0
  0
LINE
  5
303
330
301
100
AcDbEntity
  8
ADPDIM
 62
     0
370
    -2
100
AcDbLine
 10
10.36516872500543
 20
14.13382667303626
 30
0.0
 11
10.36516872500543
 21
14.83967843581907
 31
0.0
  0
LINE
  5
304
330
301
100
AcDbEntity
  8
ADPDIM
 62
     0
370
    -2
100
AcDbLine
 10
8.69816872500543
 20
14.65967843581907
 30
0.0
 11
9.125418725005431
 21
14.65967843581907
 31
0.0
  0
LINE
  5
305
330
301
100
AcDbEntity
  8
ADPDIM
 62
     0
370
    -2
100
AcDbLine
 10
10.36516872500543
 20
14.65967843581907
 30
0.0
 11
9.937918725005431
 21
14.65967843581907
 31
0.0
  0
LINE
  5
306
330
301
100
AcDbEntity
  8
ADPDIM
 62
     0
370
    -2
100
AcDbLine
 10
10.24016872500543
 20
14.53467843581907
 30
0.0
 11
10.49016872500543
 21
14.78467843581906
 31
0.0
  0
LINE
  5
307
330
301
100
AcDbEntity
  8
ADPDIM
 62
     0
370
    -2
100
AcDbLine
 10
8.57316872500543
 20
14.53467843581907
 30
0.0
 11
8.82316872500543
 21
14.78467843581906
 31
0.0
  0
MTEXT
  5
308
330
301
100
AcDbEntity
  8
ADPDIM
 62
     0
100
AcDbMText
 10
9.531668725005431
 20
14.65967843581907
 30
0.0
 40
0.125
 41
0.0
 71
     5
 72
     1
  1
\A1;1.6670
 73
     1
 44
1.0
1001
ACAD
1000
MTEXTBEGIN
1070
    73
1070
     1
1070
    44
1040
1.0
1070
    74
1070
     0
1000
MTEXTEND
  0
POINT
  5
309
330
301
100
AcDbEntity
  8
DEFPOINTS
 62
     0
100
AcDbPoint
 10
8.69816872500543
 20
14.07132667303626
 30
0.0
  0
POINT
  5
30A
330
301
100
AcDbEntity
  8
DEFPOINTS
 62
     0
100
AcDbPoint
 10
10.36516872500543
 20
14.07132667303626
 30
0.0
  0
POINT
  5
30B
330
301
100
AcDbEntity
  8
DEFPOINTS
 62
     0
100
AcDbPoint
 10
10.36516872500543
 20
14.65967843581907
 30
0.0
  0
ENDBLK
  5
30D
330
301
100
AcDbEntity
  8
0
 62
     3
100
AcDbBlockEnd
  0
ENDSEC
  0
SECTION
  2
ENTITIES
  0
DIMENSION
  5
9E
330
18
100
AcDbEntity
  8
ADPDIM
100
AcDbDimension
  2
*D0
 10
12.30659284472422
 20
2.073313405847345
 30
0.0
 11
12.30659284472422
 21
8.073313405847345
 31
0.0
 71
     5
 42
-1.0
100
AcDbAlignedDimension
 13
10.36484091938013
 23
14.07331340584734
 33
0.0
 14
11.90634091938013
 24
2.073313405847345
 34
0.0
 50
90.0
100
AcDbRotatedDimension
  0
LINE
  5
9F
330
18
100
AcDbEntity
  8
ADP1DETAIL
100
AcDbLine
 10
8.697840919380132
 20
3.823313405847345
 30
0.0
 11
8.697840919380132
 21
14.07331340584734
 31
0.0
  0
LINE
  5
A0
330
18
100
AcDbEntity
  8
ADP1DETAIL
100
AcDbLine
 10
10.36484091938013
 20
14.07331340584734
 30
0.0
 11
10.36484091938013
 21
3.823313405847345
 31
0.0
  0
LINE
  5
A2
330
18
100
AcDbEntity
  8
ADP1DETAIL
100
AcDbLine
 10
7.273568691068748
 20
2.510813405847345
 30
0.0
 11
11.78911314769152
 21
2.510813405847345
 31
0.0
  0
LINE
  5
A3
330
18
100
AcDbEntity
  8
ADP1DETAIL
100
AcDbLine
 10
10.70610538941752
 20
3.823313405847345
 30
0.0
 11
8.356576449342741
 21
3.823313405847345
 31
0.0
  0
LINE
  5
A4
330
18
100
AcDbEntity
  8
ADP1DETAIL
100
AcDbLine
 10
11.90634091938013
 20
2.073313405847345
 30
0.0
 11
7.156340919380133
 21
2.073313405847345
 31
0.0
  0
LINE
  5
AC
330
18
100
AcDbEntity
  8
ADP2DETAIL
  6
HIDDEN2
100
AcDbLine
 10
8.697840919380132
 20
2.073313405847345
 30
0.0
 11
8.697840919380132
 21
3.823313405847345
 31
0.0
  0
LINE
  5
AD
330
18
100
AcDbEntity
  8
ADP2DETAIL
  6
HIDDEN2
100
AcDbLine
 10
7.99708944614692
 20
2.073313405847345
 30
0.0
 11
7.997089446146919
 21
2.510813405847345
 31
0.0
  0
LINE
  5
AE
330
18
100
AcDbEntity
  8
ADP2DETAIL
  6
HIDDEN2
100
AcDbLine
 10
7.559826674409311
 20
2.073313405847345
 30
0.0
 11
7.559826674409311
 21
2.510813405847345
 31
0.0
  0
LINE
  5
AF
330
18
100
AcDbEntity
  8
ADP1DETAIL
100
AcDbLine
 10
7.156340919380133
 20
2.073313405847345
 30
0.0
 11
7.273568691068748
 21
2.510813405847345
 31
0.0
  0
LINE
  5
B8
330
18
100
AcDbEntity
  8
ADP1DETAIL
100
AcDbLine
 10
8.232645841671015
 20
3.714629179874851
 30
0.0
 11
8.088469038182822
 21
2.619497631819839
 31
0.0
  0
ARC
  5
B9
330
18
100
AcDbEntity
  8
ADP1DETAIL
100
AcDbCircle
 10
7.964538430511096
 20
2.635813405847345
 30
0.0
 40
0.125
100
AcDbArc
 50
270.0
 51
352.5000000000001
  0
ARC
  5
BA
330
18
100
AcDbEntity
  8
ADP1DETAIL
100
AcDbCircle
 10
8.356576449342741
 20
3.698313405847345
 30
0.0
 40
0.125
100
AcDbArc
 50
90.0
 51
172.5
  0
LINE
  5
BB
330
18
100
AcDbEntity
  8
ADP2DETAIL
  6
HIDDEN2
100
AcDbLine
 10
10.36484091938013
 20
2.073313405847345
 30
0.0
 11
10.36484091938013
 21
3.823313405847345
 31
0.0
  0
LINE
  5
BC
330
18
100
AcDbEntity
  8
ADP2DETAIL
  6
HIDDEN2
100
AcDbLine
 10
11.05793002507739
 20
2.073313405847345
 30
0.0
 11
11.05793002507739
 21
2.510813405847345
 31
0.0
  0
LINE
  5
BD
330
18
100
AcDbEntity
  8
ADP2DETAIL
  6
HIDDEN2
100
AcDbLine
 10
11.495192796815
 20
2.073313405847345
 30
0.0
 11
11.495192796815
 21
2.510813405847345
 31
0.0
  0
LINE
  5
BE
330
18
100
AcDbEntity
  8
ADP1DETAIL
100
AcDbLine
 10
11.90634091938013
 20
2.073313405847345
 30
0.0
 11
11.78911314769152
 21
2.510813405847345
 31
0.0
  0
ARC
  5
C7
330
18
100
AcDbEntity
  8
ADP1DETAIL
100
AcDbCircle
 10
11.09814340824917
 20
2.635813405847345
 30
0.0
 40
0.125
100
AcDbArc
 50
187.5000000000001
 51
270.0
  0
LINE
  5
C8
330
18
100
AcDbEntity
  8
ADP1DETAIL
100
AcDbLine
 10
10.83003599708925
 20
3.714629179874852
 30
0.0
 11
10.97421280057744
 21
2.619497631819839
 31
0.0
  0
ARC
  5
C9
330
18
100
AcDbEntity
  8
ADP1DETAIL
100
AcDbCircle
 10
10.70610538941752
 20
3.698313405847345
 30
0.0
 40
0.125
100
AcDbArc
 50
7.500000000000016
 51
90.0
  0
LINE
  5
CB
330
18
100
AcDbEntity
  8
ADP1DETAIL
100
AcDbLine
 10
8.697840919380132
 20
14.07331340584734
 30
0.0
 11
10.36484091938013
 21
14.07331340584734
 31
0.0
  0
TEXT
  5
D9
330
18
100
AcDbEntity
  8
ADPDIM
100
AcDbText
 10
-6.782981642011408
 20
-4.637957011259609
 30
0.0
 40
0.3125
  1
J U L I U S  B L U M  &  C O . ,  I N C .      ( 8 0 0 )  5 2 6 - 6 2 9 3        W W W . J U L I U S B L U M . C O M        P A R T  N o .  7 2 7 1
 41
1.25
  7
ARIAL_WIDE
 72
     1
 11
9.531340919380133
 21
-4.325457011259609
 31
0.0
100
AcDbText
 73
     3
  0
LINE
  5
289
330
18
100
AcDbEntity
  8
ADP1DETAIL
100
AcDbLine
 10
7.418439136153061
 20
1.54018151416287
 30
0.0
 11
11.66843913615306
 21
1.54018151416287
 31
0.0
  0
LINE
  5
28A
330
18
100
AcDbEntity
  8
ADP1DETAIL
100
AcDbLine
 10
7.418439136153061
 20
1.421908171077991
 30
0.0
 11
11.66843913615306
 21
1.421908171077991
 31
0.0
  0
CIRCLE
  5
28B
330
18
100
AcDbEntity
  8
ADP1DETAIL
100
AcDbCircle
 10
9.543439136153061
 20
-0.9530918289220089
 30
0.0
 40
1.28125
  0
LINE
  5
28C
330
18
100
AcDbEntity
  8
ADP1DETAIL
100
AcDbLine
 10
11.66843913615306
 20
-3.209818485837129
 30
0.0
 11
7.418439136153061
 21
-3.209818485837129
 31
0.0
  0
LINE
  5
28D
330
18
100
AcDbEntity
  8
ADP1DETAIL
100
AcDbLine
 10
11.66843913615306
 20
-3.091545142752249
 30
0.0
 11
7.418439136153061
 21
-3.091545142752249
 31
0.0
  0
CIRCLE
  5
28E
330
18
100
AcDbEntity
  8
ADP1DETAIL
100
AcDbCircle
 10
9.543439136153061
 20
-0.9530918289220089
 30
0.0
 40
1.46875
  0
LINE
  5
28F
330
18
100
AcDbEntity
  8
ADP1DETAIL
100
AcDbLine
 10
7.168439136153061
 20
-2.959818485837129
 30
0.0
 11
7.168439136153061
 21
1.29018151416287
 31
0.0
  0
LINE
  5
290
330
18
100
AcDbEntity
  8
ADP1DETAIL
100
AcDbLine
 10
7.286712479237941
 20
-2.959818485837129
 30
0.0
 11
7.286712479237941
 21
1.29018151416287
 31
0.0
  0
ARC
  5
291
330
18
100
AcDbEntity
  8
ADP1DETAIL
100
AcDbCircle
 10
7.418439136153061
 20
-2.959818485837129
 30
0.0
 40
0.25
100
AcDbArc
 50
180.0
 51
270.0
  0
CIRCLE
  5
292
330
18
100
AcDbEntity
  8
ADP1DETAIL
100
AcDbCircle
 10
7.798395854096803
 20
-2.6088985640129
 30
0.0
 40
0.21875
  0
ARC
  5
293
330
18
100
AcDbEntity
  8
ADP1DETAIL
100
AcDbCircle
 10
7.418439136153061
 20
-2.959818485837129
 30
0.0
 40
0.1317266569151201
100
AcDbArc
 50
180.0
 51
270.0
  0
ARC
  5
294
330
18
100
AcDbEntity
  8
ADP1DETAIL
100
AcDbCircle
 10
7.418439136153061
 20
1.29018151416287
 30
0.0
 40
0.25
100
AcDbArc
 50
90.0
 51
180.0
  0
CIRCLE
  5
295
330
18
100
AcDbEntity
  8
ADP1DETAIL
100
AcDbCircle
 10
7.790687795560977
 20
0.9234933812485799
 30
0.0
 40
0.21875
  0
CIRCLE
  5
296
330
18
100
AcDbEntity
  8
ADP1DETAIL
100
AcDbCircle
 10
9.543439136153061
 20
-0.9530918289220089
 30
0.0
 40
0.875
  0
ARC
  5
297
330
18
100
AcDbEntity
  8
ADP1DETAIL
100
AcDbCircle
 10
7.418439136153061
 20
1.29018151416287
 30
0.0
 40
0.1317266569151201
100
AcDbArc
 50
90.0
 51
180.0
  0
DIMENSION
  5
298
330
18
100
AcDbEntity
  8
ADPDIM
100
AcDbDimension
  2
*D8
 10
12.47833770734983
 20
1.54018151416287
 30
0.0
 11
12.47833770734983
 21
-0.834818485837127
 31
0.0
 70
    32
 71
     5
 42
4.75
  3
STANDARD
100
AcDbAlignedDimension
 13
11.66843913615306
 23
-3.209818485837129
 33
0.0
 14
11.66843913615306
 24
1.54018151416287
 34
0.0
 50
90.0
100
AcDbRotatedDimension
1001
ACAD
1000
DSTYLE
1002
{
1070
   276
1070
     2
1070
   277
1070
     5
1002
}
  0
LINE
  5
299
330
18
100
AcDbEntity
  8
ADP1DETAIL
100
AcDbLine
 10
11.91843913615306
 20
1.29018151416287
 30
0.0
 11
11.91843913615306
 21
-2.959818485837129
 31
0.0
  0
LINE
  5
29A
330
18
100
AcDbEntity
  8
ADP1DETAIL
100
AcDbLine
 10
11.80016579306818
 20
1.29018151416287
 30
0.0
 11
11.80016579306818
 21
-2.959818485837129
 31
0.0
  0
CIRCLE
  5
29B
330
18
100
AcDbEntity
  8
ADP1DETAIL
100
AcDbCircle
 10
11.2983958540968
 20
-2.6088985640129
 30
0.0
 40
0.21875
  0
ARC
  5
29C
330
18
100
AcDbEntity
  8
ADP1DETAIL
100
AcDbCircle
 10
11.66843913615306
 20
-2.959818485837129
 30
0.0
 40
0.25
100
AcDbArc
 50
270.0
 51
0.0
  0
ARC
  5
29D
330
18
100
AcDbEntity
  8
ADP1DETAIL
100
AcDbCircle
 10
11.66843913615306
 20
-2.959818485837129
 30
0.0
 40
0.1317266569151201
100
AcDbArc
 50
270.0
 51
0.0
  0
CIRCLE
  5
29E
330
18
100
AcDbEntity
  8
ADP1DETAIL
100
AcDbCircle
 10
11.29068779556098
 20
0.9234933812485799
 30
0.0
 40
0.21875
  0
ARC
  5
29F
330
18
100
AcDbEntity
  8
ADP1DETAIL
100
AcDbCircle
 10
11.66843913615306
 20
1.29018151416287
 30
0.0
 40
0.25
100
AcDbArc
 50
0.0
 51
90.0
  0
ARC
  5
2A0
330
18
100
AcDbEntity
  8
ADP1DETAIL
100
AcDbCircle
 10
11.66843913615306
 20
1.29018151416287
 30
0.0
 40
0.1317266569151201
100
AcDbArc
 50
0.0
 51
90.0
  0
DIMENSION
  5
2A1
330
18
100
AcDbEntity
  8
ADPDIM
 62
     3
100
AcDbDimension
  2
*D9
 10
6.735653236187374
 20
1.54524354661196
 30
0.0
 11
6.735653236187374
 21
1.232743546611961
 31
0.0
 70
    32
 71
     5
 42
0.625
  3
STANDARD
100
AcDbAlignedDimension
 13
7.804649707400606
 23
0.9202435466119602
 33
0.0
 14
7.804649707400606
 24
1.54524354661196
 34
0.0
 50
90.0
100
AcDbRotatedDimension
1001
ACAD
1000
DSTYLE
1002
{
1070
   276
1070
     2
1070
    41
1040
0.125
1070
    73
1070
     0
1070
    74
1070
     0
1070
    78
1070
     3
1070
   140
1040
0.125
1070
   141
1040
0.1875
1070
   142
1040
0.125
1070
   147
1040
0.125
1070
   171
1070
     1
1070
   273
1070
     5
1070
   274
1070
     1
1070
   277
1070
     5
1070
   279
1070
     2
1070
   284
1070
     3
1070
   285
1070
     3
1070
   286
1070
     3
1002
}
  0
DIMENSION
  5
2A2
330
18
100
AcDbEntity
  8
ADPDIM
 62
     3
100
AcDbDimension
  2
*D10
 10
6.725171149189009
 20
-2.592077182797776
 30
0.0
 11
6.72517114918901
 21
-2.904577182797775
 31
0.0
 70
    32
 71
     5
 42
0.625
  3
STANDARD
100
AcDbAlignedDimension
 13
7.794167620402241
 23
-3.217077182797776
 33
0.0
 14
7.794167620402241
 24
-2.592077182797776
 34
0.0
 50
90.0
100
AcDbRotatedDimension
1001
ACAD
1000
DSTYLE
1002
{
1070
   276
1070
     2
1070
    41
1040
0.125
1070
    73
1070
     0
1070
    74
1070
     0
1070
    78
1070
     3
1070
   140
1040
0.125
1070
   141
1040
0.1875
1070
   142
1040
0.125
1070
   147
1040
0.125
1070
   171
1070
     1
1070
   273
1070
     5
1070
   274
1070
     1
1070
   277
1070
     5
1070
   279
1070
     2
1070
   284
1070
     3
1070
   285
1070
     3
1070
   286
1070
     3
1002
}
  0
DIMENSION
  5
2A3
330
18
100
AcDbEntity
  8
ADPDIM
 62
     3
100
AcDbDimension
  2
*D11
 10
6.731907265173987
 20
-2.592077182797776
 30
0.0
 11
6.731907265173988
 21
-0.8359168180929071
 31
0.0
 70
    32
 71
     5
 42
3.512320729409736
  3
STANDARD
100
AcDbAlignedDimension
 13
6.735653236187374
 23
0.9202435466119602
 33
0.0
 14
6.725171149189009
 24
-2.592077182797776
 34
0.0
 50
90.0
100
AcDbRotatedDimension
1001
ACAD
1000
DSTYLE
1002
{
1070
   276
1070
     2
1070
    41
1040
0.125
1070
    73
1070
     0
1070
    74
1070
     0
1070
    78
1070
     3
1070
   140
1040
0.125
1070
   141
1040
0.1875
1070
   142
1040
0.125
1070
   147
1040
0.125
1070
   171
1070
     1
1070
   273
1070
     5
1070
   274
1070
     1
1070
   277
1070
     5
1070
   279
1070
     2
1070
   284
1070
     3
1070
   285
1070
     3
1070
   286
1070
     3
1002
}
  0
DIMENSION
  5
300
330
18
100
AcDbEntity
  8
ADPDIM
 62
     3
100
AcDbDimension
  2
*D12
 10
10.36516872500543
 20
14.65967843581907
 30
0.0
 11
9.531668725005431
 21
14.65967843581907
 31
0.0
 70
    32
 71
     5
 42
1.666999999999999
  3
STANDARD
100
AcDbAlignedDimension
 13
8.69816872500543
 23
14.07132667303626
 33
0.0
 14
10.36516872500543
 24
14.07132667303626
 34
0.0
100
AcDbRotatedDimension
1001
ACAD
1000
DSTYLE
1002
{
1070
    41
1040
0.125
1070
    73
1070
     0
1070
    74
1070
     0
1070
    78
1070
     3
1070
   140
1040
0.125
1070
   141
1040
0.1875
1070
   142
1040
0.125
1070
   147
1040
0.125
1070
   171
1070
     1
1002
}
  0
ENDSEC
  0
SECTION
  2
OBJECTS
  0
DICTIONARY
  5
C
330
0
100
AcDbDictionary
281
     1
  3
ACAD_COLOR
350
22E
  3
ACAD_GROUP
350
D
  3
ACAD_LAYOUT
350
D2
  3
ACAD_MATERIAL
350
219
  3
ACAD_MLINESTYLE
350
E
  3
ACAD_PLOTSETTINGS
350
D3
  3
ACAD_PLOTSTYLENAME
350
D0
  3
ACAD_TABLESTYLE
350
22F
  3
ACAD_VISUALSTYLE
350
21D
  3
AcDbVariableDictionary
350
133
  3
ASE_INDEX_DICTIONARY
350
30F
  3
DWGPROPS
350
330
  0
DICTIONARY
  5
12D
330
18
100
AcDbDictionary
280
     1
281
     1
  3
ACAD_LAYOUTSELFREF
360
213
  0
DICTIONARY
  5
12B
330
15
100
AcDbDictionary
280
     1
281
     1
  3
ACAD_LAYOUTSELFREF
360
212
  0
DICTIONARY
  5
22E
102
{ACAD_REACTORS
330
C
102
}
330
C
100
AcDbDictionary
281
     1
  0
DICTIONARY
  5
D
102
{ACAD_REACTORS
330
C
102
}
330
C
100
AcDbDictionary
281
     1
  0
DICTIONARY
  5
D2
102
{ACAD_REACTORS
330
C
102
}
330
C
100
AcDbDictionary
281
     1
  3
Layout1
350
D5
  3
Model
350
D4
  0
DICTIONARY
  5
219
102
{ACAD_REACTORS
330
C
102
}
330
C
100
AcDbDictionary
281
     1
  3
ByBlock
350
21B
  3
ByLayer
350
21A
  3
Global
350
21C
  0
DICTIONARY
  5
E
102
{ACAD_REACTORS
330
C
102
}
330
C
100
AcDbDictionary
281
     1
  3
STANDARD
350
1B
  0
DICTIONARY
  5
D3
102
{ACAD_REACTORS
330
C
102
}
330
C
100
AcDbDictionary
281
     1
  0
ACDBDICTIONARYWDFLT
  5
D0
102
{ACAD_REACTORS
330
C
102
}
330
C
100
AcDbDictionary
281
     1
  3
Normal
350
D1
100
AcDbDictionaryWithDefault
340
D1
  0
DICTIONARY
  5
22F
102
{ACAD_REACTORS
330
C
102
}
330
C
100
AcDbDictionary
281
     1
  3
Standard
350
230
  0
DICTIONARY
  5
21D
102
{ACAD_REACTORS
330
C
102
}
330
C
100
AcDbDictionary
281
     1
  3
2dWireframe
350
223
  3
3D Hidden
350
225
  3
3dWireframe
350
224
  3
Basic
350
222
  3
Brighten
350
229
  3
ColorChange
350
22D
  3
Conceptual
350
226
  3
Dim
350
228
  3
Facepattern
350
22C
  3
Flat
350
21E
  3
FlatWithEdges
350
21F
  3
Gouraud
350
220
  3
GouraudWithEdges
350
221
  3
Linepattern
350
22B
  3
Realistic
350
227
  3
Thicken
350
22A
  0
DICTIONARY
  5
133
102
{ACAD_REACTORS
330
C
102
}
330
C
100
AcDbDictionary
281
     1
  3
CTABLESTYLE
350
32D
  3
DIMASSOC
350
134
  3
INDEXCTL
350
32F
  3
SORTENTS
350
32E
  0
DICTIONARY
  5
30F
102
{ACAD_REACTORS
330
C
102
}
330
C
100
AcDbDictionary
281
     1
  3
ASEBlockHierarchyIndexRecord
350
310
1001
DCO15
1040
1568833398.822
  0
XRECORD
  5
330
102
{ACAD_REACTORS
330
C
102
}
330
C
100
AcDbXrecord
280
     1
  1
DWGPROPS COOKIE
  2

  3

  4

  6

  7

  8
Yu Hu
  9

300
=
301
=
302
=
303
=
304
=
305
=
306
=
307
=
308
=
309
=
 40
0.0184591898148148
 41
2450226.616620174
 42
2453961.005819699
  1

 90
        0
  0
XRECORD
  5
213
102
{ACAD_REACTORS
330
12D
102
}
330
12D
100
AcDbXrecord
280
     1
340
18
  0
XRECORD
  5
212
102
{ACAD_REACTORS
330
12B
102
}
330
12B
100
AcDbXrecord
280
     1
340
15
  0
LAYOUT
  5
D5
102
{ACAD_XDICTIONARY
360
333
102
}
102
{ACAD_REACTORS
330
D2
102
}
330
D2
100
AcDbPlotSettings
  1

  2
Fax
  4

  6

 40
0.0
 41
0.0
 42
0.0
 43
0.0
 44
0.0
 45
0.0
 46
0.0
 47
0.0
 48
0.0
 49
0.0
140
0.0
141
0.0
142
1.0
143
1.0
 70
   688
 72
     0
 73
     0
 74
     5
  7
Default R14 pen assignments.ctb
 75
    16
147
1.0
148
0.0
149
0.0
100
AcDbLayout
  1
Layout1
 70
     1
 71
     1
 10
0.0
 20
0.0
 11
12.0
 21
9.0
 12
0.0008545056916773
 22
1.250276130627782
 32
0.0
 14
1.000000000000000E+20
 24
1.000000000000000E+20
 34
1.000000000000000E+20
 15
-1.000000000000000E+20
 25
-1.000000000000000E+20
 35
-1.000000000000000E+20
146
0.0
 13
0.0
 23
0.0
 33
0.0
 16
1.0
 26
0.0
 36
0.0
 17
0.0
 27
1.0
 37
0.0
 76
     0
330
15
  0
LAYOUT
  5
D4
102
{ACAD_XDICTIONARY
360
331
102
}
102
{ACAD_REACTORS
330
D2
102
}
330
D2
100
AcDbPlotSettings
  1

  2
Fax
  4

  6

 40
0.0
 41
0.0
 42
0.0
 43
0.0
 44
0.0
 45
0.0
 46
0.0
 47
0.0
 48
0.0
 49
0.0
140
0.0
141
0.0
142
1.0
143
1.0
 70
  1712
 72
     0
 73
     0
 74
     0
  7
Default R14 pen assignments.ctb
 75
     0
147
1.0
148
0.0
149
0.0
100
AcDbLayout
  1
Model
 70
     1
 71
     0
 10
0.0
 20
0.0
 11
12.0
 21
9.0
 12
0.0
 22
0.0
 32
0.0
 14
0.0
 24
0.0
 34
0.0
 15
0.0
 25
0.0
 35
0.0
146
0.0
 13
0.0
 23
0.0
 33
0.0
 16
1.0
 26
0.0
 36
0.0
 17
0.0
 27
1.0
 37
0.0
 76
     0
330
18
331
1ED
  0
MATERIAL
  5
21B
102
{ACAD_XDICTIONARY
360
337
102
}
102
{ACAD_REACTORS
330
219
102
}
330
219
100
AcDbMaterial
  1
ByBlock
  0
MATERIAL
  5
21A
102
{ACAD_XDICTIONARY
360
335
102
}
102
{ACAD_REACTORS
330
219
102
}
330
219
100
AcDbMaterial
  1
ByLayer
  0
MATERIAL
  5
21C
102
{ACAD_XDICTIONARY
360
339
102
}
102
{ACAD_REACTORS
330
219
102
}
330
219
100
AcDbMaterial
  1
Global
  0
MLINESTYLE
  5
1B
102
{ACAD_REACTORS
330
E
102
}
330
E
100
AcDbMlineStyle
  2
STANDARD
 70
     0
  3

 62
     0
 51
90.0
 52
90.0
 71
     2
 49
0.5
 62
   256
  6
BYLAYER
 49
-0.5
 62
   256
  6
BYLAYER
  0
ACDBPLACEHOLDER
  5
D1
102
{ACAD_REACTORS
330
D0
102
}
330
D0
  0
TABLESTYLE
  5
230
102
{ACAD_XDICTIONARY
360
33B
102
}
102
{ACAD_REACTORS
330
22F
102
}
330
22F
100
AcDbTableStyle
  3
Standard
 70
     0
 71
     0
 40
0.06
 41
0.06
280
     0
281
     0
  7
STANDARD
140
0.18
170
     2
 62
     0
 63
     7
283
     0
274
    -2
284
     1
 64
     0
275
    -2
285
     1
 65
     0
276
    -2
286
     1
 66
     0
277
    -2
287
     1
 67
     0
278
    -2
288
     1
 68
     0
279
    -2
289
     1
 69
     0
  7
STANDARD
140
0.25
170
     5
 62
     0
 63
     7
283
     0
274
    -2
284
     1
 64
     0
275
    -2
285
     1
 65
     0
276
    -2
286
     1
 66
     0
277
    -2
287
     1
 67
     0
278
    -2
288
     1
 68
     0
279
    -2
289
     1
 69
     0
  7
STANDARD
140
0.18
170
     5
 62
     0
 63
     7
283
     0
274
    -2
284
     1
 64
     0
275
    -2
285
     1
 65
     0
276
    -2
286
     1
 66
     0
277
    -2
287
     1
 67
     0
278
    -2
288
     1
 68
     0
279
    -2
289
     1
 69
     0
  0
VISUALSTYLE
  5
223
102
{ACAD_REACTORS
330
21D
102
}
330
21D
100
AcDbVisualStyle
  2
2dWireframe
 70
     4
 71
     0
 72
     2
 73
     0
 90
        0
 40
-0.6
 41
-30.0
 62
     5
 63
     7
 74
     1
 91
        4
 64
     7
 65
   257
 75
     1
175
     1
 42
1.0
 92
        0
 66
   257
 43
1.0
 76
     1
 77
     6
 78
     2
 67
     7
 79
     5
170
     0
171
     0
290
     0
174
     0
 93
        1
 44
0.0
173
     0
291
     0
 45
0.0
1001
ACAD
1000
AcDbSavedByObjectVersion
1070
     0
  0
VISUALSTYLE
  5
225
102
{ACAD_REACTORS
330
21D
102
}
330
21D
100
AcDbVisualStyle
  2
3D Hidden
 70
     6
 71
     1
 72
     2
 73
     2
 90
        0
 40
-0.6
 41
-30.0
 62
     5
 63
     7
 74
     2
 91
        2
 64
     7
 65
   257
 75
     2
175
     1
 42
40.0
 92
        0
 66
   257
 43
1.0
 76
     1
 77
     6
 78
     2
 67
     7
 79
     3
170
     0
171
     0
290
     0
174
     0
 93
        1
 44
0.0
173
     0
291
     0
 45
0.0
1001
ACAD
1000
AcDbSavedByObjectVersion
1070
     0
  0
VISUALSTYLE
  5
224
102
{ACAD_REACTORS
330
21D
102
}
330
21D
100
AcDbVisualStyle
  2
3dWireframe
 70
     5
 71
     0
 72
     2
 73
     0
 90
        0
 40
-0.6
 41
-30.0
 62
     5
 63
     7
 74
     1
 91
        4
 64
     7
 65
   257
 75
     1
175
     1
 42
1.0
 92
        0
 66
   257
 43
1.0
 76
     1
 77
     6
 78
     2
 67
     7
 79
     5
170
     0
171
     0
290
     0
174
     0
 93
        1
 44
0.0
173
     0
291
     0
 45
0.0
1001
ACAD
1000
AcDbSavedByObjectVersion
1070
     0
  0
VISUALSTYLE
  5
222
102
{ACAD_REACTORS
330
21D
102
}
330
21D
100
AcDbVisualStyle
  2
Basic
 70
     7
 71
     1
 72
     0
 73
     1
 90
        0
 40
-0.6
 41
-30.0
 62
     5
 63
     7
 74
     0
 91
        4
 64
     7
 65
   257
 75
     1
175
     1
 42
1.0
 92
        8
 66
     7
 43
1.0
 76
     1
 77
     6
 78
     2
 67
     7
 79
     5
170
     0
171
     0
290
     0
174
     0
 93
        1
 44
0.0
173
     0
291
     1
 45
0.0
1001
ACAD
1000
AcDbSavedByObjectVersion
1070
     0
  0
VISUALSTYLE
  5
229
102
{ACAD_REACTORS
330
21D
102
}
330
21D
100
AcDbVisualStyle
  2
Brighten
 70
    12
 71
     2
 72
     2
 73
     0
 90
        0
 40
-0.6
 41
-30.0
 62
     5
 63
     7
 74
     1
 91
        4
 64
     7
 65
   257
 75
     1
175
     1
 42
1.0
 92
        8
 66
     7
 43
1.0
 76
     1
 77
     6
 78
     2
 67
     7
 79
     5
170
     0
171
     0
290
     0
174
     0
 93
        1
 44
50.0
173
     0
291
     1
 45
0.0
1001
ACAD
1000
AcDbSavedByObjectVersion
1070
     0
  0
VISUALSTYLE
  5
22D
102
{ACAD_REACTORS
330
21D
102
}
330
21D
100
AcDbVisualStyle
  2
ColorChange
 70
    16
 71
     2
 72
     2
 73
     3
 90
        0
 40
-0.6
 41
-30.0
 62
     5
 63
     8
 74
     1
 91
        4
 64
     7
 65
   257
 75
     1
175
     1
 42
1.0
 92
        8
 66
     8
 43
1.0
 76
     1
 77
     6
 78
     2
 67
     7
 79
     5
170
     0
171
     0
290
     0
174
     0
 93
        1
 44
0.0
173
     0
291
     1
 45
0.0
1001
ACAD
1000
AcDbSavedByObjectVersion
1070
     0
  0
VISUALSTYLE
  5
226
102
{ACAD_REACTORS
330
21D
102
}
330
21D
100
AcDbVisualStyle
  2
Conceptual
 70
     9
 71
     3
 72
     2
 73
     0
 90
        0
 40
-0.6
 41
-30.0
 62
     5
 63
     7
 74
     2
 91
        2
 64
     7
 65
   257
 75
     1
175
     1
 42
40.0
 92
        8
 66
     7
 43
1.0
 76
     1
 77
     6
 78
     2
 67
     7
 79
     3
170
     0
171
     0
290
     0
174
     0
 93
        1
 44
0.0
173
     0
291
     0
 45
0.0
1001
ACAD
1000
AcDbSavedByObjectVersion
1070
     0
  0
VISUALSTYLE
  5
228
102
{ACAD_REACTORS
330
21D
102
}
330
21D
100
AcDbVisualStyle
  2
Dim
 70
    11
 71
     2
 72
     2
 73
     0
 90
        0
 40
-0.6
 41
-30.0
 62
     5
 63
     7
 74
     1
 91
        4
 64
     7
 65
   257
 75
     1
175
     1
 42
1.0
 92
        8
 66
     7
 43
1.0
 76
     1
 77
     6
 78
     2
 67
     7
 79
     5
170
     0
171
     0
290
     0
174
     0
 93
        1
 44
-50.0
173
     0
291
     1
 45
0.0
1001
ACAD
1000
AcDbSavedByObjectVersion
1070
     0
  0
VISUALSTYLE
  5
22C
102
{ACAD_REACTORS
330
21D
102
}
330
21D
100
AcDbVisualStyle
  2
Facepattern
 70
    15
 71
     2
 72
     2
 73
     0
 90
        0
 40
-0.6
 41
-30.0
 62
     5
 63
     7
 74
     1
 91
        4
 64
     7
 65
   257
 75
     1
175
     1
 42
1.0
 92
        8
 66
     7
 43
1.0
 76
     1
 77
     6
 78
     2
 67
     7
 79
     5
170
     0
171
     0
290
     0
174
     0
 93
        1
 44
0.0
173
     0
291
     1
 45
0.0
1001
ACAD
1000
AcDbSavedByObjectVersion
1070
     0
  0
VISUALSTYLE
  5
21E
102
{ACAD_REACTORS
330
21D
102
}
330
21D
100
AcDbVisualStyle
  2
Flat
 70
     0
 71
     2
 72
     1
 73
     1
 90
        2
 40
-0.6
 41
30.0
 62
     5
 63
     7
 74
     0
 91
        4
 64
     7
 65
   257
 75
     1
175
     1
 42
1.0
 92
        8
 66
     7
 43
1.0
 76
     1
 77
     6
 78
     2
 67
     7
 79
     5
170
     0
171
     0
290
     0
174
     0
 93
       13
 44
0.0
173
     0
291
     1
 45
0.0
1001
ACAD
1000
AcDbSavedByObjectVersion
1070
     0
  0
VISUALSTYLE
  5
21F
102
{ACAD_REACTORS
330
21D
102
}
330
21D
100
AcDbVisualStyle
  2
FlatWithEdges
 70
     1
 71
     2
 72
     1
 73
     1
 90
        2
 40
-0.6
 41
30.0
 62
     5
 63
     7
 74
     1
 91
        4
 64
     7
 65
   257
 75
     1
175
     1
 42
1.0
 92
        0
 66
   257
 43
1.0
 76
     1
 77
     6
 78
     2
 67
     7
 79
     5
170
     0
171
     0
290
     0
174
     0
 93
       13
 44
0.0
173
     0
291
     1
 45
0.0
1001
ACAD
1000
AcDbSavedByObjectVersion
1070
     0
  0
VISUALSTYLE
  5
220
102
{ACAD_REACTORS
330
21D
102
}
330
21D
100
AcDbVisualStyle
  2
Gouraud
 70
     2
 71
     2
 72
     2
 73
     1
 90
        2
 40
-0.6
 41
30.0
 62
     5
 63
     7
 74
     0
 91
        4
 64
     7
 65
   257
 75
     1
175
     1
 42
1.0
 92
        0
 66
     7
 43
1.0
 76
     1
 77
     6
 78
     2
 67
     7
 79
     5
170
     0
171
     0
290
     0
174
     0
 93
       13
 44
0.0
173
     0
291
     1
 45
0.0
1001
ACAD
1000
AcDbSavedByObjectVersion
1070
     0
  0
VISUALSTYLE
  5
221
102
{ACAD_REACTORS
330
21D
102
}
330
21D
100
AcDbVisualStyle
  2
GouraudWithEdges
 70
     3
 71
     2
 72
     2
 73
     1
 90
        2
 40
-0.6
 41
30.0
 62
     5
 63
     7
 74
     1
 91
        4
 64
     7
 65
   257
 75
     1
175
     1
 42
1.0
 92
        0
 66
   257
 43
1.0
 76
     1
 77
     6
 78
     2
 67
     7
 79
     5
170
     0
171
     0
290
     0
174
     0
 93
       13
 44
0.0
173
     0
291
     1
 45
0.0
1001
ACAD
1000
AcDbSavedByObjectVersion
1070
     0
  0
VISUALSTYLE
  5
22B
102
{ACAD_REACTORS
330
21D
102
}
330
21D
100
AcDbVisualStyle
  2
Linepattern
 70
    14
 71
     2
 72
     2
 73
     0
 90
        0
 40
-0.6
 41
-30.0
 62
     5
 63
     7
 74
     1
 91
        4
 64
     7
 65
   257
 75
     7
175
     7
 42
1.0
 92
        8
 66
     7
 43
1.0
 76
     1
 77
     6
 78
     2
 67
     7
 79
     5
170
     0
171
     0
290
     0
174
     0
 93
        1
 44
0.0
173
     0
291
     1
 45
0.0
1001
ACAD
1000
AcDbSavedByObjectVersion
1070
     0
  0
VISUALSTYLE
  5
227
102
{ACAD_REACTORS
330
21D
102
}
330
21D
100
AcDbVisualStyle
  2
Realistic
 70
     8
 71
     2
 72
     2
 73
     0
 90
        0
 40
-0.6
 41
-30.0
 62
     5
 63
     7
 74
     1
 91
        0
 64
     7
 65
   257
 75
     1
175
     1
 42
1.0
 92
        8
 66
     8
 43
1.0
 76
     1
 77
     6
 78
     2
 67
     7
 79
     5
170
     0
171
     0
290
     0
174
     0
 93
       13
 44
0.0
173
     0
291
     0
 45
0.0
1001
ACAD
1000
AcDbSavedByObjectVersion
1070
     0
  0
VISUALSTYLE
  5
22A
102
{ACAD_REACTORS
330
21D
102
}
330
21D
100
AcDbVisualStyle
  2
Thicken
 70
    13
 71
     2
 72
     2
 73
     0
 90
        0
 40
-0.6
 41
-30.0
 62
     5
 63
     7
 74
     1
 91
        4
 64
     7
 65
   257
 75
     1
175
     1
 42
1.0
 92
       12
 66
     7
 43
1.0
 76
     1
 77
     6
 78
     2
 67
     7
 79
     5
170
     0
171
     0
290
     0
174
     0
 93
        1
 44
0.0
173
     0
291
     1
 45
0.0
1001
ACAD
1000
AcDbSavedByObjectVersion
1070
     0
  0
DICTIONARYVAR
  5
32D
102
{ACAD_REACTORS
330
133
102
}
330
133
100
DictionaryVariables
280
     0
  1
STANDARD
  0
DICTIONARYVAR
  5
134
102
{ACAD_REACTORS
330
133
102
}
330
133
100
DictionaryVariables
280
     0
  1
1
  0
DICTIONARYVAR
  5
32F
102
{ACAD_REACTORS
330
133
102
}
330
133
100
DictionaryVariables
280
     0
  1
0
  0
DICTIONARYVAR
  5
32E
102
{ACAD_REACTORS
330
133
102
}
330
133
100
DictionaryVariables
280
     0
  1
127
  0
XRECORD
  5
310
102
{ACAD_REACTORS
330
30F
102
}
330
30F
100
AcDbXrecord
280
     1
  0
DICTIONARY
  5
333
330
D5
100
AcDbDictionary
280
     1
281
     1
  3
ACAD_XREC_ROUNDTRIP
360
334
  0
DICTIONARY
  5
331
330
D4
100
AcDbDictionary
280
     1
281
     1
  3
ACAD_XREC_ROUNDTRIP
360
332
  0
DICTIONARY
  5
337
330
21B
100
AcDbDictionary
280
     1
281
     1
  3
ACAD_XREC_ROUNDTRIP
360
338
  0
DICTIONARY
  5
335
330
21A
100
AcDbDictionary
280
     1
281
     1
  3
ACAD_XREC_ROUNDTRIP
360
336
  0
DICTIONARY
  5
339
330
21C
100
AcDbDictionary
280
     1
281
     1
  3
ACAD_XREC_ROUNDTRIP
360
33A
  0
DICTIONARY
  5
33B
330
230
100
AcDbDictionary
280
     1
281
     1
  3
ACAD_XREC_ROUNDTRIP
360
33C
  0
XRECORD
  5
334
102
{ACAD_REACTORS
330
333
102
}
330
333
100
AcDbXrecord
280
     1
102
SHADEPLOT
 70
     0
102
SHADEPLOTRESLEVEL
 70
     2
102
SHADEPLOTCUSTOMDPI
 70
   300
  0
XRECORD
  5
332
102
{ACAD_REACTORS
330
331
102
}
330
331
100
AcDbXrecord
280
     1
102
SHADEPLOT
 70
     0
102
SHADEPLOTRESLEVEL
 70
     2
102
SHADEPLOTCUSTOMDPI
 70
   300
  0
XRECORD
  5
338
102
{ACAD_REACTORS
330
337
102
}
330
337
100
AcDbXrecord
280
     1
102
MATERIAL
148
0.0
149
0.0
149
0.0
 93
        0
 94
       63
282
     0
 72
     1
 77
     1
171
     1
175
     1
179
     1
273
     0
  0
XRECORD
  5
336
102
{ACAD_REACTORS
330
335
102
}
330
335
100
AcDbXrecord
280
     1
102
MATERIAL
148
0.0
149
0.0
149
0.0
 93
        0
 94
       63
282
     0
 72
     1
 77
     1
171
     1
175
     1
179
     1
273
     0
  0
XRECORD
  5
33A
102
{ACAD_REACTORS
330
339
102
}
330
339
100
AcDbXrecord
280
     1
102
MATERIAL
148
0.0
149
0.0
149
0.0
 93
        0
 94
       63
282
     0
 72
     1
 77
     1
171
     1
175
     1
179
     1
273
     0
  0
XRECORD
  5
33C
102
{ACAD_REACTORS
330
33B
102
}
330
33B
100
AcDbXrecord
280
     1
102
ACAD_ROUNDTRIP_PRE2007_TABLESTYLE
 90
      512
 91
        0
  1

 92
      512
 93
        0
  2

 94
      512
 95
        0
  3

  0
ENDSEC
  0
EOF
