  0
SECTION
  2
HEADER
  9
$ACADVER
  1
AC1014
  9
$ACADMAINTVER
 70
     9
  9
$DWGCODEPAGE
  3
ANSI_1252
  9
$INSBASE
 10
11.7304535881522
 20
6.39921285413605
 30
0.0
  9
$EXTMIN
 10
7.491430636981144
 20
2.75750109734898
 30
0.0
  9
$EXTMAX
 10
20.54288868609437
 20
8.299212854136051
 30
0.0
  9
$LIMMIN
 10
0.0
 20
0.0
  9
$LIMMAX
 10
36.0
 20
36.0
  9
$ORTHOMODE
 70
     1
  9
$REGENMODE
 70
     1
  9
$FILLMODE
 70
     1
  9
$QTEXTMODE
 70
     0
  9
$MIRRTEXT
 70
     1
  9
$DRAGMODE
 70
     0
  9
$LTSCALE
 40
1.0
  9
$OSMODE
 70
    37
  9
$ATTMODE
 70
     1
  9
$TEXTSIZE
 40
0.2
  9
$TRACEWID
 40
0.05
  9
$TEXTSTYLE
  7
STANDARD
  9
$CLAYER
  8
ADP1DETAIL
  9
$CELTYPE
  6
BYLAYER
  9
$CECOLOR
 62
   256
  9
$CELTSCALE
 40
1.0
  9
$DELOBJ
 70
     1
  9
$DISPSILH
 70
     0
  9
$DIMSCALE
 40
1.0
  9
$DIMASZ
 40
0.125
  9
$DIMEXO
 40
0.0625
  9
$DIMDLI
 40
0.38
  9
$DIMRND
 40
0.0
  9
$DIMDLE
 40
0.0
  9
$DIMEXE
 40
0.18
  9
$DIMTP
 40
0.0
  9
$DIMTM
 40
0.0
  9
$DIMTXT
 40
0.125
  9
$DIMCEN
 40
0.1875
  9
$DIMTSZ
 40
0.125
  9
$DIMTOL
 70
     0
  9
$DIMLIM
 70
     0
  9
$DIMTIH
 70
     0
  9
$DIMTOH
 70
     0
  9
$DIMSE1
 70
     0
  9
$DIMSE2
 70
     0
  9
$DIMTAD
 70
     0
  9
$DIMZIN
 70
     3
  9
$DIMBLK
  1

  9
$DIMASO
 70
     1
  9
$DIMSHO
 70
     1
  9
$DIMPOST
  1

  9
$DIMAPOST
  1

  9
$DIMALT
 70
     0
  9
$DIMALTD
 70
     1
  9
$DIMALTF
 40
25.4
  9
$DIMLFAC
 40
1.0
  9
$DIMTOFL
 70
     0
  9
$DIMTVP
 40
0.0
  9
$DIMTIX
 70
     0
  9
$DIMSOXD
 70
     0
  9
$DIMSAH
 70
     0
  9
$DIMBLK1
  1

  9
$DIMBLK2
  1

  9
$DIMSTYLE
  2
STANDARD
  9
$DIMCLRD
 70
     0
  9
$DIMCLRE
 70
     0
  9
$DIMCLRT
 70
     0
  9
$DIMTFAC
 40
1.0
  9
$DIMGAP
 40
0.125
  9
$DIMJUST
 70
     0
  9
$DIMSD1
 70
     0
  9
$DIMSD2
 70
     0
  9
$DIMTOLJ
 70
     1
  9
$DIMTZIN
 70
     0
  9
$DIMALTZ
 70
     0
  9
$DIMALTTZ
 70
     0
  9
$DIMFIT
 70
     3
  9
$DIMUPT
 70
     0
  9
$DIMUNIT
 70
     2
  9
$DIMDEC
 70
     4
  9
$DIMTDEC
 70
     4
  9
$DIMALTU
 70
     2
  9
$DIMALTTD
 70
     2
  9
$DIMTXSTY
  7
STANDARD
  9
$DIMAUNIT
 70
     0
  9
$LUNITS
 70
     5
  9
$LUPREC
 70
     4
  9
$SKETCHINC
 40
0.1
  9
$FILLETRAD
 40
0.062
  9
$AUNITS
 70
     0
  9
$AUPREC
 70
     0
  9
$MENU
  1
acad
  9
$ELEVATION
 40
0.0
  9
$PELEVATION
 40
0.0
  9
$THICKNESS
 40
0.0
  9
$LIMCHECK
 70
     0
  9
$BLIPMODE
 70
     0
  9
$CHAMFERA
 40
0.0
  9
$CHAMFERB
 40
0.0
  9
$CHAMFERC
 40
0.0
  9
$CHAMFERD
 40
0.0
  9
$SKPOLY
 70
     0
  9
$TDCREATE
 40
2450225.647429398
  9
$TDUPDATE
 40
2452297.100206516
  9
$TDINDWG
 40
0.0221992940
  9
$TDUSRTIMER
 40
0.0221992940
  9
$USRTIMER
 70
     1
  9
$ANGBASE
 50
0.0
  9
$ANGDIR
 70
     0
  9
$PDMODE
 70
     0
  9
$PDSIZE
 40
0.0
  9
$PLINEWID
 40
0.0
  9
$COORDS
 70
     2
  9
$SPLFRAME
 70
     0
  9
$SPLINETYPE
 70
     6
  9
$SPLINESEGS
 70
     8
  9
$ATTDIA
 70
     0
  9
$ATTREQ
 70
     1
  9
$HANDLING
 70
 22529
  9
$HANDSEED
  5
63A
  9
$SURFTAB1
 70
     6
  9
$SURFTAB2
 70
     6
  9
$SURFTYPE
 70
     6
  9
$SURFU
 70
     6
  9
$SURFV
 70
     6
  9
$UCSNAME
  2

  9
$UCSORG
 10
0.0
 20
0.0
 30
0.0
  9
$UCSXDIR
 10
1.0
 20
0.0
 30
0.0
  9
$UCSYDIR
 10
0.0
 20
1.0
 30
0.0
  9
$PUCSNAME
  2

  9
$PUCSORG
 10
0.0
 20
0.0
 30
0.0
  9
$PUCSXDIR
 10
1.0
 20
0.0
 30
0.0
  9
$PUCSYDIR
 10
0.0
 20
1.0
 30
0.0
  9
$USERI1
 70
     0
  9
$USERI2
 70
     0
  9
$USERI3
 70
     0
  9
$USERI4
 70
     0
  9
$USERI5
 70
     0
  9
$USERR1
 40
0.0
  9
$USERR2
 40
0.0
  9
$USERR3
 40
0.0
  9
$USERR4
 40
0.0
  9
$USERR5
 40
0.0
  9
$WORLDVIEW
 70
     1
  9
$SHADEDGE
 70
     3
  9
$SHADEDIF
 70
    70
  9
$TILEMODE
 70
     1
  9
$MAXACTVP
 70
    15
  9
$PINSBASE
 10
0.0008545056916773
 20
1.250276130627782
 30
0.0
  9
$PLIMCHECK
 70
     0
  9
$PEXTMIN
 10
1.000000000000000E+20
 20
1.000000000000000E+20
 30
1.000000000000000E+20
  9
$PEXTMAX
 10
-1.000000000000000E+20
 20
-1.000000000000000E+20
 30
-1.000000000000000E+20
  9
$PLIMMIN
 10
0.0
 20
0.0
  9
$PLIMMAX
 10
12.0
 20
9.0
  9
$UNITMODE
 70
     0
  9
$VISRETAIN
 70
     0
  9
$PLINEGEN
 70
     0
  9
$PSLTSCALE
 70
     1
  9
$TREEDEPTH
 70
  3020
  9
$PICKSTYLE
 70
     1
  9
$CMLSTYLE
  2
STANDARD
  9
$CMLJUST
 70
     0
  9
$CMLSCALE
 40
1.0
  9
$PROXYGRAPHICS
 70
     1
  9
$MEASUREMENT
 70
     0
  0
ENDSEC
  0
SECTION
  2
CLASSES
  0
CLASS
  1
ACDBDICTIONARYWDFLT
  2
AcDbDictionaryWithDefault
  3
AutoCAD 2000
 90
        0
280
     0
281
     0
  0
CLASS
  1
ACDBPLACEHOLDER
  2
AcDbPlaceHolder
  3
AutoCAD 2000
 90
        0
280
     0
281
     0
  0
CLASS
  1
LAYOUT
  2
AcDbLayout
  3
AutoCAD 2000
 90
        0
280
     0
281
     0
  0
CLASS
  1
DICTIONARYVAR
  2
AcDbDictionaryVar
  3
AutoCAD 2000
 90
        0
280
     0
281
     0
  0
CLASS
  1
LONG_TRANSACTION
  2
AcDbLongTransaction
  3
AutoCAD 2000
 90
        0
280
     0
281
     0
  0
CLASS
  1
LWPOLYLINE
  2
AcDbPolyline
  3
AutoCAD 2000
 90
        0
280
     0
281
     1
  0
CLASS
  1
HATCH
  2
AcDbHatch
  3
AutoCAD 2000
 90
        0
280
     0
281
     1
  0
CLASS
  1
XRECORD
  2
AcDbXrecord
  3
AutoCAD 2000
 90
        0
280
     0
281
     0
  0
CLASS
  1
LONG_TRANSACTION
  2
AcDbLongTransaction
  3
AutoCAD 2000
 90
        0
280
     0
281
     0
  0
CLASS
  1
LWPOLYLINE
  2
AcDbPolyline
  3
AutoCAD 2000
 90
        0
280
     0
281
     1
  0
CLASS
  1
HATCH
  2
AcDbHatch
  3
AutoCAD 2000
 90
        0
280
     0
281
     1
  0
CLASS
  1
XRECORD
  2
AcDbXrecord
  3
AutoCAD 2000
 90
        0
280
     0
281
     0
  0
CLASS
  1
LONG_TRANSACTION
  2
AcDbLongTransaction
  3
AutoCAD 2000
 90
        0
280
     0
281
     0
  0
CLASS
  1
LWPOLYLINE
  2
AcDbPolyline
  3
AutoCAD 2000
 90
        0
280
     0
281
     1
  0
CLASS
  1
HATCH
  2
AcDbHatch
  3
AutoCAD 2000
 90
        0
280
     0
281
     1
  0
CLASS
  1
XRECORD
  2
AcDbXrecord
  3
AutoCAD 2000
 90
        0
280
     0
281
     0
  0
CLASS
  1
LONG_TRANSACTION
  2
AcDbLongTransaction
  3
AutoCAD 2000
 90
        0
280
     0
281
     0
  0
CLASS
  1
LWPOLYLINE
  2
AcDbPolyline
  3
AutoCAD 2000
 90
        0
280
     0
281
     1
  0
CLASS
  1
HATCH
  2
AcDbHatch
  3
AutoCAD 2000
 90
        0
280
     0
281
     1
  0
CLASS
  1
XRECORD
  2
AcDbXrecord
  3
AutoCAD 2000
 90
        0
280
     0
281
     0
  0
CLASS
  1
LONG_TRANSACTION
  2
AcDbLongTransaction
  3
AutoCAD 2000
 90
        0
280
     0
281
     0
  0
CLASS
  1
LWPOLYLINE
  2
AcDbPolyline
  3
AutoCAD 2000
 90
        0
280
     0
281
     1
  0
CLASS
  1
HATCH
  2
AcDbHatch
  3
AutoCAD 2000
 90
        0
280
     0
281
     1
  0
CLASS
  1
XRECORD
  2
AcDbXrecord
  3
AutoCAD 2000
 90
        0
280
     0
281
     0
  0
ENDSEC
  0
SECTION
  2
TABLES
  0
TABLE
  2
VPORT
  5
8
330
0
100
AcDbSymbolTable
 70
     2
  0
VPORT
  5
617
330
8
100
AcDbSymbolTableRecord
100
AcDbViewportTableRecord
  2
*ACTIVE
 70
     0
 10
0.0
 20
0.0
 11
1.0
 21
1.0
 12
14.02661885771702
 22
5.529144356410423
 13
0.0
 23
0.0
 14
0.5740882589684922
 24
0.5740882589684922
 15
0.5
 25
0.5
 16
0.0
 26
0.0
 36
1.0
 17
0.0
 27
0.0
 37
0.0
 40
8.365595802020571
 41
1.570528967254408
 42
50.0
 43
0.0
 44
0.0
 50
0.0
 51
0.0
 71
     0
 72
   100
 73
     1
 74
     0
 75
     0
 76
     0
 77
     0
 78
     0
  0
ENDTAB
  0
TABLE
  2
LTYPE
  5
5
330
0
100
AcDbSymbolTable
 70
     3
  0
LTYPE
  5
12
330
5
100
AcDbSymbolTableRecord
100
AcDbLinetypeTableRecord
  2
BYBLOCK
 70
     0
  3

 72
    65
 73
     0
 40
0.0
  0
LTYPE
  5
13
330
5
100
AcDbSymbolTableRecord
100
AcDbLinetypeTableRecord
  2
BYLAYER
 70
     0
  3

 72
    65
 73
     0
 40
0.0
  0
LTYPE
  5
14
330
5
100
AcDbSymbolTableRecord
100
AcDbLinetypeTableRecord
  2
CONTINUOUS
 70
     0
  3
Solid line
 72
    65
 73
     0
 40
0.0
  0
LTYPE
  5
1E
330
5
100
AcDbSymbolTableRecord
100
AcDbLinetypeTableRecord
  2
CENTER2
 70
     0
  3
___ _ ___ _ ___ _ ___ _ ___ _ ___ _ ___ _ ___ _
 72
    65
 73
     4
 40
1.125
 49
0.75
 74
     0
 49
-0.125
 74
     0
 49
0.125
 74
     0
 49
-0.125
 74
     0
  0
LTYPE
  5
1F
330
5
100
AcDbSymbolTableRecord
100
AcDbLinetypeTableRecord
  2
HIDDEN2
 70
     0
  3
_ _ _ _ _ _ _ _ _ _ _ _ _ _ _ _ _ _ _ _ _ _ _ _
 72
    65
 73
     2
 40
0.1875
 49
0.125
 74
     0
 49
-0.0625
 74
     0
  0
ENDTAB
  0
TABLE
  2
LAYER
  5
2
330
0
100
AcDbSymbolTable
 70
     6
  0
LAYER
  5
F
330
2
100
AcDbSymbolTableRecord
100
AcDbLayerTableRecord
  2
0
 70
     0
 62
     7
  6
CONTINUOUS
  0
LAYER
  5
21
330
2
100
AcDbSymbolTableRecord
100
AcDbLayerTableRecord
  2
ADP2DETAIL
 70
     0
 62
     5
  6
CONTINUOUS
  0
LAYER
  5
22
330
2
100
AcDbSymbolTableRecord
100
AcDbLayerTableRecord
  2
ADPDIM
 70
     0
 62
     3
  6
CONTINUOUS
  0
LAYER
  5
23
330
2
100
AcDbSymbolTableRecord
100
AcDbLayerTableRecord
  2
ADP1DETAIL
 70
     0
 62
     7
  6
CONTINUOUS
  0
LAYER
  5
24
330
2
100
AcDbSymbolTableRecord
100
AcDbLayerTableRecord
  2
ADP3DETAIL
 70
     0
 62
     1
  6
CONTINUOUS
  0
LAYER
  5
25
330
2
100
AcDbSymbolTableRecord
100
AcDbLayerTableRecord
  2
DEFPOINTS
 70
     0
 62
     7
  6
CONTINUOUS
  0
ENDTAB
  0
TABLE
  2
STYLE
  5
3
330
0
100
AcDbSymbolTable
 70
     2
  0
STYLE
  5
10
330
3
100
AcDbSymbolTableRecord
100
AcDbTextStyleTableRecord
  2
STANDARD
 70
     0
 40
0.0
 41
1.0
 50
0.0
 71
     0
 42
0.2
  3
txt
  4

  0
STYLE
  5
4D3
330
3
100
AcDbSymbolTableRecord
100
AcDbTextStyleTableRecord
  2
ARIAL_WIDE
 70
     0
 40
0.0
 41
1.25
 50
0.0
 71
     0
 42
0.2
  3
ARIAL.TTF
  4

1001
ACAD
1000
Arial
1071
       34
  0
ENDTAB
  0
TABLE
  2
VIEW
  5
6
330
0
100
AcDbSymbolTable
 70
     0
  0
ENDTAB
  0
TABLE
  2
UCS
  5
7
330
0
100
AcDbSymbolTable
 70
     0
  0
ENDTAB
  0
TABLE
  2
APPID
  5
9
330
0
100
AcDbSymbolTable
 70
     1
  0
APPID
  5
11
330
9
100
AcDbSymbolTableRecord
100
AcDbRegAppTableRecord
  2
ACAD
 70
     0
  0
ENDTAB
  0
TABLE
  2
DIMSTYLE
  5
A
330
0
100
AcDbSymbolTable
 70
     1
  0
DIMSTYLE
105
4C7
330
A
100
AcDbSymbolTableRecord
100
AcDbDimStyleTableRecord
  2
STANDARD
 70
     0
  3

  4

  5

  6

  7

 40
1.0
 41
0.18
 42
0.0625
 43
0.38
 44
0.18
 45
0.0
 46
0.0
 47
0.0
 48
0.0
140
0.18
141
0.09
142
0.0
143
25.4
144
1.0
145
0.0
146
1.0
147
0.09
 71
     0
 72
     0
 73
     1
 74
     1
 75
     0
 76
     0
 77
     0
 78
     0
170
     0
171
     2
172
     0
173
     0
174
     0
175
     0
176
     0
177
     0
178
     0
270
     2
271
     4
272
     4
273
     2
274
     2
340
10
275
     0
280
     0
281
     0
282
     0
283
     1
284
     0
285
     0
286
     0
287
     3
288
     0
  0
ENDTAB
  0
TABLE
  2
BLOCK_RECORD
  5
1
330
0
100
AcDbSymbolTable
 70
     2
  0
BLOCK_RECORD
  5
18
102
{ACAD_XDICTIONARY
360
528
102
}
330
1
100
AcDbSymbolTableRecord
100
AcDbBlockTableRecord
  2
*MODEL_SPACE
  0
BLOCK_RECORD
  5
15
102
{ACAD_XDICTIONARY
360
526
102
}
330
1
100
AcDbSymbolTableRecord
100
AcDbBlockTableRecord
  2
*PAPER_SPACE
  0
BLOCK_RECORD
  5
1C
330
1
100
AcDbSymbolTableRecord
100
AcDbBlockTableRecord
  2
7263X
  0
BLOCK_RECORD
  5
1D
330
1
100
AcDbSymbolTableRecord
100
AcDbBlockTableRecord
  2
*D1
  0
ENDTAB
  0
ENDSEC
  0
SECTION
  2
BLOCKS
  0
BLOCK
  5
28
330
18
100
AcDbEntity
  8
0
100
AcDbBlockBegin
  2
*MODEL_SPACE
 70
     0
 10
0.0
 20
0.0
 30
0.0
  3
*MODEL_SPACE
  1

  0
ENDBLK
  5
29
330
18
100
AcDbEntity
  8
0
100
AcDbBlockEnd
  0
BLOCK
  5
26
330
15
100
AcDbEntity
 67
     1
  8
0
100
AcDbBlockBegin
  2
*PAPER_SPACE
 70
     0
 10
0.0
 20
0.0
 30
0.0
  3
*PAPER_SPACE
  1

  0
ENDBLK
  5
27
330
15
100
AcDbEntity
 67
     1
  8
0
100
AcDbBlockEnd
  0
BLOCK
  5
2A
330
1C
100
AcDbEntity
  8
0
100
AcDbBlockBegin
  2
7263X
 70
     0
 10
0.0
 20
0.0
 30
0.0
  3
7263X
  1

  0
LWPOLYLINE
  5
2B
330
1C
100
AcDbEntity
  8
ADP1DETAIL
100
AcDbPolyline
 90
        2
 70
     0
 43
0.0
 10
-0.4756288923666579
 20
-0.0101146179785607
 10
-0.5078860039464517
 20
-0.0032091063043922
  0
LWPOLYLINE
  5
2F
330
1C
100
AcDbEntity
  8
ADP1DETAIL
100
AcDbPolyline
 90
        2
 70
     0
 43
0.0
 10
-0.5074721360251542
 20
-1.367120456922418
 10
-0.4748324473249271
 20
-1.362339446516066
  0
ARC
  5
33
330
1C
100
AcDbEntity
  8
ADP1DETAIL
100
AcDbCircle
 10
-0.0003115395485556
 20
-0.7249999330642105
 30
0.0
 40
0.725
100
AcDbArc
 50
300.0687664065313
 51
239.8819924849639
  0
LWPOLYLINE
  5
34
330
1C
100
AcDbEntity
  8
ADP1DETAIL
100
AcDbPolyline
 90
        2
 70
     0
 43
0.0
 10
-0.7970643991473385
 20
-0.9008277698448882
 10
-0.8145860394360976
 20
-0.9287777154717524
  0
LWPOLYLINE
  5
38
330
1C
100
AcDbEntity
  8
ADP1DETAIL
100
AcDbPolyline
 90
        2
 70
     0
 43
0.0
 10
-0.783167146768252
 20
-0.9467896820097038
 10
-0.799033998408286
 20
-0.9757111335290634
  0
LWPOLYLINE
  5
3C
330
1C
100
AcDbEntity
  8
ADP1DETAIL
100
AcDbPolyline
 90
        2
 70
     0
 43
0.0
 10
-0.7988693883201159
 20
-0.976214015574712
 10
-0.7689721181002232
 20
-0.9901553416361805
  0
LWPOLYLINE
  5
40
330
1C
100
AcDbEntity
  8
ADP1DETAIL
100
AcDbPolyline
 90
        2
 70
     0
 43
0.0
 10
-0.8144509478326526
 20
-0.9292893179459863
 10
-0.7854148750807206
 20
-0.9449454291520943
  0
LWPOLYLINE
  5
44
330
1C
100
AcDbEntity
  8
ADP1DETAIL
100
AcDbPolyline
 90
        2
 70
     0
 43
0.0
 10
-0.7988693883201142
 20
-0.9762140155747122
 10
-0.7689721181002196
 20
-0.9901553416361792
  0
LWPOLYLINE
  5
48
330
1C
100
AcDbEntity
  8
ADP1DETAIL
100
AcDbPolyline
 90
        2
 70
     0
 43
0.0
 10
-0.7988693883201142
 20
-0.9762140155747122
 10
-0.7689721181002196
 20
-0.990155341636181
  0
LWPOLYLINE
  5
4C
330
1C
100
AcDbEntity
  8
ADP1DETAIL
100
AcDbPolyline
 90
        2
 70
     0
 43
0.0
 10
-0.7831671467682502
 20
-0.9467896820097038
 10
-0.7990339984082824
 20
-0.9757111335290623
  0
LWPOLYLINE
  5
50
330
1C
100
AcDbEntity
  8
ADP1DETAIL
100
AcDbPolyline
 90
        2
 70
     0
 43
0.0
 10
-0.5473895084231555
 20
-1.303144309711206
 10
-0.5466698792618226
 20
-1.336124447261308
  0
LWPOLYLINE
  5
54
330
1C
100
AcDbEntity
  8
ADP1DETAIL
100
AcDbPolyline
 90
        2
 70
     0
 43
0.0
 10
-0.5824058381086546
 20
-1.270288752359509
 10
-0.5836050509012627
 20
-1.303254935451148
  0
LWPOLYLINE
  5
58
330
1C
100
AcDbEntity
  8
ADP1DETAIL
100
AcDbPolyline
 90
        2
 70
     0
 43
0.0
 10
-0.5832322569037225
 20
-1.30363045038875
 10
-0.5502582246713624
 20
-1.302671004041748
  0
LWPOLYLINE
  5
5C
330
1C
100
AcDbEntity
  8
ADP1DETAIL
100
AcDbPolyline
 90
        2
 70
     0
 43
0.0
 10
-0.5473895084231573
 20
-1.303144309711207
 10
-0.5466698792618261
 20
-1.336124447261308
  0
LWPOLYLINE
  5
60
330
1C
100
AcDbEntity
  8
ADP1DETAIL
100
AcDbPolyline
 90
        2
 70
     0
 43
0.0
 10
-0.5462758817209275
 20
-1.336477650843864
 10
-0.5134134231759569
 20
-1.33360255826559
  0
LWPOLYLINE
  5
64
330
1C
100
AcDbEntity
  8
ADP1DETAIL
100
AcDbPolyline
 90
        2
 70
     0
 43
0.0
 10
-0.5462758817209275
 20
-1.336477650843863
 10
-0.5134134231759587
 20
-1.333602558265588
  0
LWPOLYLINE
  5
68
330
1C
100
AcDbEntity
  8
ADP1DETAIL
100
AcDbPolyline
 90
        2
 70
     0
 43
0.0
 10
-0.5105220400644322
 20
-1.33390826216132
 10
-0.5078860039464535
 20
-1.366790759824028
  0
LWPOLYLINE
  5
6C
330
1C
100
AcDbEntity
  8
ADP1DETAIL
100
AcDbPolyline
 90
        2
 70
     0
 43
0.0
 10
-0.5462758817209239
 20
-1.336477650843862
 10
-0.5134134231759533
 20
-1.333602558265589
  0
LWPOLYLINE
  5
70
330
1C
100
AcDbEntity
  8
ADP1DETAIL
100
AcDbPolyline
 90
        2
 70
     0
 43
0.0
 10
-0.6751968546342089
 20
-1.160317285882309
 10
-0.6821023663083783
 20
-1.192574397462104
  0
LWPOLYLINE
  5
74
330
1C
100
AcDbEntity
  8
ADP1DETAIL
100
AcDbPolyline
 90
        2
 70
     0
 43
0.0
 10
-0.6464178093382516
 20
-1.198754215330268
 10
-0.6514360537456559
 20
-1.231358272777478
  0
LWPOLYLINE
  5
78
330
1C
100
AcDbEntity
  8
ADP1DETAIL
100
AcDbPolyline
 90
        2
 70
     0
 43
0.0
 10
-0.6511093750711692
 20
-1.231774527358952
 10
-0.6182469165261986
 20
-1.23464961993723
  0
LWPOLYLINE
  5
7C
330
1C
100
AcDbEntity
  8
ADP1DETAIL
100
AcDbPolyline
 90
        2
 70
     0
 43
0.0
 10
-0.6818004433739256
 20
-1.193008942482344
 10
-0.6491607546736966
 20
-1.197789952888697
  0
LWPOLYLINE
  5
80
330
1C
100
AcDbEntity
  8
ADP1DETAIL
100
AcDbPolyline
 90
        2
 70
     0
 43
0.0
 10
-0.6154525449454327
 20
-1.235452762912126
 10
-0.618566541935492
 20
-1.268293444416918
  0
LWPOLYLINE
  5
84
330
1C
100
AcDbEntity
  8
ADP1DETAIL
100
AcDbPolyline
 90
        2
 70
     0
 43
0.0
 10
-0.6511093750711621
 20
-1.231774527358954
 10
-0.6182469165261915
 20
-1.23464961993723
  0
LWPOLYLINE
  5
88
330
1C
100
AcDbEntity
  8
ADP1DETAIL
100
AcDbPolyline
 90
        2
 70
     0
 43
0.0
 10
-0.6511093750711621
 20
-1.231774527358955
 10
-0.6182469165261915
 20
-1.234649619937232
  0
LWPOLYLINE
  5
8C
330
1C
100
AcDbEntity
  8
ADP1DETAIL
100
AcDbPolyline
 90
        2
 70
     0
 43
0.0
 10
-0.6464178093382427
 20
-1.19875421533027
 10
-0.6514360537456488
 20
-1.23135827277748
  0
LWPOLYLINE
  5
90
330
1C
100
AcDbEntity
  8
ADP1DETAIL
100
AcDbPolyline
 90
        2
 70
     0
 43
0.0
 10
-0.7258144981913231
 20
-1.07875395705489
 10
-0.7364181393505019
 20
-1.109991276612124
  0
LWPOLYLINE
  5
94
330
1C
100
AcDbEntity
  8
ADP1DETAIL
100
AcDbPolyline
 90
        2
 70
     0
 43
0.0
 10
-0.7361687055086397
 20
-1.110457934507694
 10
-0.7043047561373546
 20
-1.118995854009399
  0
LWPOLYLINE
  5
98
330
1C
100
AcDbEntity
  8
ADP1DETAIL
100
AcDbPolyline
 90
        2
 70
     0
 43
0.0
 10
-0.7474818223693221
 20
-1.035903542161919
 10
-0.7598838124471894
 20
-1.066471466217403
  0
LWPOLYLINE
  5
9C
330
1C
100
AcDbEntity
  8
ADP1DETAIL
100
AcDbPolyline
 90
        2
 70
     0
 43
0.0
 10
-0.7596619343514086
 20
-1.066951837889732
 10
-0.7283483296079863
 20
-1.077328036467551
  0
LWPOLYLINE
  5
A0
330
1C
100
AcDbEntity
  8
ADP1DETAIL
100
AcDbPolyline
 90
        2
 70
     0
 43
0.0
 10
-0.78058576182486
 20
-1.022153336929867
 10
-0.7499284570356708
 20
-1.034332704812322
  0
LWPOLYLINE
  5
A4
330
1C
100
AcDbEntity
  8
ADP1DETAIL
100
AcDbPolyline
 90
        2
 70
     0
 43
0.0
 10
-0.701692301653829
 20
-1.120272032970575
 10
-0.7104617145291426
 20
-1.152073050828114
  0
LWPOLYLINE
  5
A8
330
1C
100
AcDbEntity
  8
ADP1DETAIL
100
AcDbPolyline
 90
        2
 70
     0
 43
0.0
 10
-0.7101855689463635
 20
-1.152524415924326
 10
-0.6778790924655867
 20
-1.159195166732933
  0
LWPOLYLINE
  5
AC
330
1C
100
AcDbEntity
  8
ADP1DETAIL
100
AcDbPolyline
 90
        2
 70
     0
 43
0.0
 10
-0.7361687055086468
 20
-1.110457934507694
 10
-0.7043047561373599
 20
-1.118995854009397
  0
LWPOLYLINE
  5
B0
330
1C
100
AcDbEntity
  8
ADP1DETAIL
100
AcDbPolyline
 90
        2
 70
     0
 43
0.0
 10
-0.7361687055086468
 20
-1.110457934507694
 10
-0.7043047561373599
 20
-1.118995854009399
  0
LWPOLYLINE
  5
B4
330
1C
100
AcDbEntity
  8
ADP1DETAIL
100
AcDbPolyline
 90
        2
 70
     0
 43
0.0
 10
-0.7258144981913284
 20
-1.078753957054889
 10
-0.7364181393505072
 20
-1.109991276612123
  0
LWPOLYLINE
  5
B8
330
1C
100
AcDbEntity
  8
ADP1DETAIL
100
AcDbPolyline
 90
        2
 70
     0
 43
0.0
 10
-0.6182162128981923
 20
-1.268690000085886
 10
-0.5852421806658339
 20
-1.269649446432889
  0
LWPOLYLINE
  5
BC
330
1C
100
AcDbEntity
  8
ADP1DETAIL
100
AcDbPolyline
 90
        2
 70
     0
 43
0.0
 10
-0.766620958821433
 20
-0.991865780531681
 10
-0.780779333409321
 20
-1.021660876906458
  0
LWPOLYLINE
  5
C0
330
1C
100
AcDbEntity
  8
ADP1DETAIL
100
AcDbPolyline
 90
        2
 70
     0
 43
0.0
 10
-0.6517892573282081
 20
-0.1390355908918381
 10
-0.6489141647499346
 20
-0.1718980494368083
  0
LWPOLYLINE
  5
C4
330
1C
100
AcDbEntity
  8
ADP1DETAIL
100
AcDbPolyline
 90
        2
 70
     0
 43
0.0
 10
-0.6517892573282081
 20
-0.1390355908918395
 10
-0.6489141647499328
 20
-0.1718980494368092
  0
LWPOLYLINE
  5
C8
330
1C
100
AcDbEntity
  8
ADP1DETAIL
100
AcDbPolyline
 90
        2
 70
     0
 43
0.0
 10
-0.6517892573282081
 20
-0.139035590891839
 10
-0.6489141647499346
 20
-0.1718980494368101
  0
LWPOLYLINE
  5
CC
330
1C
100
AcDbEntity
  8
ADP1DETAIL
100
AcDbPolyline
 90
        2
 70
     0
 43
0.0
 10
-0.7040640064882156
 20
-0.2535729523541426
 10
-0.7364181393505036
 20
-0.2600085895162967
  0
LWPOLYLINE
  5
D0
330
1C
100
AcDbEntity
  8
ADP1DETAIL
100
AcDbPolyline
 90
        2
 70
     0
 43
0.0
 10
-0.6777881207171999
 20
-0.2133832917374774
 10
-0.7104617145291355
 20
-0.2179268153003038
  0
LWPOLYLINE
  5
D4
330
1C
100
AcDbEntity
  8
ADP1DETAIL
100
AcDbPolyline
 90
        2
 70
     0
 43
0.0
 10
-0.7107667895527415
 20
-0.2183591532039582
 10
-0.7040960387441336
 20
-0.2506656296847354
  0
LWPOLYLINE
  5
D8
330
1C
100
AcDbEntity
  8
ADP1DETAIL
100
AcDbPolyline
 90
        2
 70
     0
 43
0.0
 10
-0.6492198686456648
 20
-0.1747894325483341
 10
-0.682102366308373
 20
-0.1774254686663144
  0
LWPOLYLINE
  5
DC
330
1C
100
AcDbEntity
  8
ADP1DETAIL
100
AcDbPolyline
 90
        2
 70
     0
 43
0.0
 10
-0.6824320634067634
 20
-0.1778393365876132
 10
-0.6776510530004108
 20
-0.2104790252878403
  0
LWPOLYLINE
  5
E0
330
1C
100
AcDbEntity
  8
ADP1DETAIL
100
AcDbPolyline
 90
        2
 70
     0
 43
0.0
 10
-0.7040640064882156
 20
-0.2535729523541419
 10
-0.7364181393505036
 20
-0.2600085895162951
  0
LWPOLYLINE
  5
E4
330
1C
100
AcDbEntity
  8
ADP1DETAIL
100
AcDbPolyline
 90
        2
 70
     0
 43
0.0
 10
-0.8254925442493043
 20
-0.663249441361103
 10
-0.850294226644387
 20
-0.6849999330642112
  0
LWPOLYLINE
  5
E8
330
1C
100
AcDbEntity
  8
ADP1DETAIL
100
AcDbPolyline
 90
        2
 70
     0
 43
0.0
 10
-0.8503115395485551
 20
-0.6855287875775817
 10
-0.8269855096789719
 20
-0.7088548174471681
  0
LWPOLYLINE
  5
EC
330
1C
100
AcDbEntity
  8
ADP1DETAIL
100
AcDbPolyline
 90
        2
 70
     0
 43
0.0
 10
-0.8503115395485551
 20
-0.6855287875775829
 10
-0.8269855096789719
 20
-0.7088548174471679
  0
LWPOLYLINE
  5
F0
330
1C
100
AcDbEntity
  8
ADP1DETAIL
100
AcDbPolyline
 90
        2
 70
     0
 43
0.0
 10
-0.8503115395485551
 20
-0.6855287875775829
 10
-0.8269855096789719
 20
-0.7088548174471696
  0
LWPOLYLINE
  5
F4
330
1C
100
AcDbEntity
  8
ADP1DETAIL
100
AcDbPolyline
 90
        2
 70
     0
 43
0.0
 10
-0.8254925442493043
 20
-0.6632494413611041
 10
-0.8502942266443852
 20
-0.6849999330642116
  0
LWPOLYLINE
  5
F8
330
1C
100
AcDbEntity
  8
ADP1DETAIL
100
AcDbPolyline
 90
        2
 70
     0
 43
0.0
 10
-0.7493910994914264
 20
-0.3381907819680219
 10
-0.780779333409321
 20
-0.3483389892219593
  0
LWPOLYLINE
  5
FC
330
1C
100
AcDbEntity
  8
ADP1DETAIL
100
AcDbPolyline
 90
        2
 70
     0
 43
0.0
 10
-0.7682889341888495
 20
-0.3823326310149646
 10
-0.7990339984082842
 20
-0.3942887325993574
  0
LWPOLYLINE
  5
100
330
1C
100
AcDbEntity
  8
ADP1DETAIL
100
AcDbPolyline
 90
        2
 70
     0
 43
0.0
 10
-0.7992311461130375
 20
-0.3947797719210757
 10
-0.7852898200515744
 20
-0.4246770421409714
  0
LWPOLYLINE
  5
104
330
1C
100
AcDbEntity
  8
ADP1DETAIL
100
AcDbPolyline
 90
        2
 70
     0
 43
0.0
 10
-0.7810046989687121
 20
-0.3488177346632999
 10
-0.7688253310862572
 20
-0.3794750394524908
  0
LWPOLYLINE
  5
108
330
1C
100
AcDbEntity
  8
ADP1DETAIL
100
AcDbPolyline
 90
        2
 70
     0
 43
0.0
 10
-0.7982336748893375
 20
-0.4735358927607268
 10
-0.827382833308809
 20
-0.4889804355636045
  0
LWPOLYLINE
  5
10C
330
1C
100
AcDbEntity
  8
ADP1DETAIL
100
AcDbPolyline
 90
        2
 70
     0
 43
0.0
 10
-0.8275216417855023
 20
-0.4894910421046533
 10
-0.8102037207592495
 20
-0.5175676685095834
  0
LWPOLYLINE
  5
110
330
1C
100
AcDbEntity
  8
ADP1DETAIL
100
AcDbPolyline
 90
        2
 70
     0
 43
0.0
 10
-0.7845881764803253
 20
-0.4274986104049679
 10
-0.8145860394360994
 20
-0.4412221506566649
  0
LWPOLYLINE
  5
114
330
1C
100
AcDbEntity
  8
ADP1DETAIL
100
AcDbPolyline
 90
        2
 70
     0
 43
0.0
 10
-0.8147543022007898
 20
-0.4417238223371348
 10
-0.7990981909946826
 20
-0.4707598950890657
  0
LWPOLYLINE
  5
118
330
1C
100
AcDbEntity
  8
ADP1DETAIL
100
AcDbPolyline
 90
        2
 70
     0
 43
0.0
 10
-0.7992311461130393
 20
-0.3947797719210753
 10
-0.7852898200515744
 20
-0.4246770421409698
  0
LWPOLYLINE
  5
11C
330
1C
100
AcDbEntity
  8
ADP1DETAIL
100
AcDbPolyline
 90
        2
 70
     0
 43
0.0
 10
-0.7992311461130393
 20
-0.3947797719210753
 10
-0.7852898200515761
 20
-0.4246770421409714
  0
LWPOLYLINE
  5
120
330
1C
100
AcDbEntity
  8
ADP1DETAIL
100
AcDbPolyline
 90
        2
 70
     0
 43
0.0
 10
-0.7682889341888513
 20
-0.3823326310149646
 10
-0.799033998408286
 20
-0.3942887325993565
  0
LWPOLYLINE
  5
124
330
1C
100
AcDbEntity
  8
ADP1DETAIL
100
AcDbPolyline
 90
        2
 70
     0
 43
0.0
 10
-0.7279586166787007
 20
-0.2952224253085407
 10
-0.7598838124471894
 20
-0.3035283999110143
  0
LWPOLYLINE
  5
128
330
1C
100
AcDbEntity
  8
ADP1DETAIL
100
AcDbPolyline
 90
        2
 70
     0
 43
0.0
 10
-0.7601366332955011
 20
-0.3039932315489497
 10
-0.749760434717683
 20
-0.335306836292369
  0
LWPOLYLINE
  5
12C
330
1C
100
AcDbEntity
  8
ADP1DETAIL
100
AcDbPolyline
 90
        2
 70
     0
 43
0.0
 10
-0.8091792573686532
 20
-0.5202887024915091
 10
-0.8373810797266777
 20
-0.5374019884015784
  0
LWPOLYLINE
  5
130
330
1C
100
AcDbEntity
  8
ADP1DETAIL
100
AcDbPolyline
 90
        2
 70
     0
 43
0.0
 10
-0.8374899642314289
 20
-0.5379198020723017
 10
-0.8185688317479286
 20
-0.5649419797139222
  0
LWPOLYLINE
  5
134
330
1C
100
AcDbEntity
  8
ADP1DETAIL
100
AcDbPolyline
 90
        2
 70
     0
 43
0.0
 10
-0.8228317899730001
 20
-0.6153062314120877
 10
-0.8488561904656574
 20
-0.635577835146157
  0
LWPOLYLINE
  5
138
330
1C
100
AcDbEntity
  8
ADP1DETAIL
100
AcDbPolyline
 90
        2
 70
     0
 43
0.0
 10
-0.848904224234332
 20
-0.6361047882655429
 10
-0.8269739463313733
 20
-0.6607476422003567
  0
LWPOLYLINE
  5
13C
330
1C
100
AcDbEntity
  8
ADP1DETAIL
100
AcDbPolyline
 90
        2
 70
     0
 43
0.0
 10
-0.8173878875319026
 20
-0.5675988428884427
 10
-0.8445469477887023
 20
-0.586322965963261
  0
LWPOLYLINE
  5
140
330
1C
100
AcDbEntity
  8
ADP1DETAIL
100
AcDbPolyline
 90
        2
 70
     0
 43
0.0
 10
-0.8446255398908121
 20
-0.5868462346461121
 10
-0.8241652190730416
 20
-0.6127225290289486
  0
LWPOLYLINE
  5
144
330
1C
100
AcDbEntity
  8
ADP1DETAIL
100
AcDbPolyline
 90
        2
 70
     0
 43
0.0
 10
-0.8374899642314307
 20
-0.5379198020723038
 10
-0.8185688317479268
 20
-0.5649419797139233
  0
LWPOLYLINE
  5
148
330
1C
100
AcDbEntity
  8
ADP1DETAIL
100
AcDbPolyline
 90
        2
 70
     0
 43
0.0
 10
-0.8374899642314325
 20
-0.5379198020723035
 10
-0.8185688317479286
 20
-0.5649419797139246
  0
LWPOLYLINE
  5
14C
330
1C
100
AcDbEntity
  8
ADP1DETAIL
100
AcDbPolyline
 90
        2
 70
     0
 43
0.0
 10
-0.8091792573686515
 20
-0.5202887024915113
 10
-0.8373810797266795
 20
-0.5374019884015795
  0
LWPOLYLINE
  5
150
330
1C
100
AcDbEntity
  8
ADP1DETAIL
100
AcDbPolyline
 90
        2
 70
     0
 43
0.0
 10
-0.816733123863861
 20
-0.8068710579148149
 10
-0.8373810797266777
 20
-0.8325978777268435
  0
LWPOLYLINE
  5
154
330
1C
100
AcDbEntity
  8
ADP1DETAIL
100
AcDbPolyline
 90
        2
 70
     0
 43
0.0
 10
-0.8373062949864337
 20
-0.8331217041060853
 10
-0.8102841173448162
 20
-0.8520428365895909
  0
LWPOLYLINE
  5
158
330
1C
100
AcDbEntity
  8
ADP1DETAIL
100
AcDbPolyline
 90
        2
 70
     0
 43
0.0
 10
-0.8224380434628443
 20
-0.7591941779214327
 10
-0.8445469477887023
 20
-0.7836769001651596
  0
LWPOLYLINE
  5
15C
330
1C
100
AcDbEntity
  8
ADP1DETAIL
100
AcDbPolyline
 90
        2
 70
     0
 43
0.0
 10
-0.8445027473676013
 20
-0.7842041886590017
 10
-0.818626452984763
 20
-0.8046645094767757
  0
LWPOLYLINE
  5
160
330
1C
100
AcDbEntity
  8
ADP1DETAIL
100
AcDbPolyline
 90
        2
 70
     0
 43
0.0
 10
-0.8253611472105916
 20
-0.7112662480890886
 10
-0.8488561904656574
 20
-0.7344220309822638
  0
LWPOLYLINE
  5
164
330
1C
100
AcDbEntity
  8
ADP1DETAIL
100
AcDbPolyline
 90
        2
 70
     0
 43
0.0
 10
-0.8488427239239339
 20
-0.7349509974133546
 10
-0.8241998699891212
 20
-0.7568812753163115
  0
LWPOLYLINE
  5
168
330
1C
100
AcDbEntity
  8
ADP1DETAIL
100
AcDbPolyline
 90
        2
 70
     0
 43
0.0
 10
-0.8373062949864337
 20
-0.8331217041060842
 10
-0.8102841173448144
 20
-0.8520428365895881
  0
LWPOLYLINE
  5
16C
330
1C
100
AcDbEntity
  8
ADP1DETAIL
100
AcDbPolyline
 90
        2
 70
     0
 43
0.0
 10
-0.8373062949864355
 20
-0.8331217041060847
 10
-0.8102841173448162
 20
-0.8520428365895902
  0
LWPOLYLINE
  5
170
330
1C
100
AcDbEntity
  8
ADP1DETAIL
100
AcDbPolyline
 90
        2
 70
     0
 43
0.0
 10
-0.816733123863861
 20
-0.8068710579148138
 10
-0.8373810797266795
 20
-0.8325978777268417
  0
LWPOLYLINE
  5
174
330
1C
100
AcDbEntity
  8
ADP1DETAIL
100
AcDbPolyline
 90
        2
 70
     0
 43
0.0
 10
-0.8272777172973068
 20
-0.8815380223668043
 10
-0.7992010908923804
 20
-0.8988559433930563
  0
LWPOLYLINE
  5
178
330
1C
100
AcDbEntity
  8
ADP1DETAIL
100
AcDbPolyline
 90
        2
 70
     0
 43
0.0
 10
-0.8082656920557131
 20
-0.8541355645990982
 10
-0.827382833308809
 20
-0.8810194305648126
  0
LWPOLYLINE
  5
17C
330
1C
100
AcDbEntity
  8
ADP1DETAIL
100
AcDbPolyline
 90
        2
 70
     0
 43
0.0
 10
-0.7366975600220127
 20
-0.2604579345076969
 10
-0.7281596405203126
 20
-0.2923218838789847
  0
LWPOLYLINE
  5
180
330
1C
100
AcDbEntity
  8
ADP1DETAIL
100
AcDbPolyline
 90
        2
 70
     0
 43
0.0
 10
-0.7366975600220127
 20
-0.2604579345076958
 10
-0.7281596405203108
 20
-0.2923218838789829
  0
LWPOLYLINE
  5
184
330
1C
100
AcDbEntity
  8
ADP1DETAIL
100
AcDbPolyline
 90
        2
 70
     0
 43
0.0
 10
-0.7366975600220145
 20
-0.2604579345076954
 10
-0.7281596405203126
 20
-0.2923218838789841
  0
LWPOLYLINE
  5
188
330
1C
100
AcDbEntity
  8
ADP1DETAIL
100
AcDbPolyline
 90
        2
 70
     0
 43
0.0
 10
-0.5140658218146155
 20
-0.0388936632745194
 10
-0.5466698792618261
 20
-0.0338754188671133
  0
LWPOLYLINE
  5
18C
330
1C
100
AcDbEntity
  8
ADP1DETAIL
100
AcDbPolyline
 90
        2
 70
     0
 43
0.0
 10
-0.5470861338432998
 20
-0.0342020975416013
 10
-0.5499612264215786
 20
-0.0670645560865719
  0
LWPOLYLINE
  5
190
330
1C
100
AcDbEntity
  8
ADP1DETAIL
100
AcDbPolyline
 90
        2
 70
     0
 43
0.0
 10
-0.5083205489666925
 20
-0.0035110292388441
 10
-0.5131015593730451
 20
-0.036150717939073
  0
LWPOLYLINE
  5
194
330
1C
100
AcDbEntity
  8
ADP1DETAIL
100
AcDbPolyline
 90
        2
 70
     0
 43
0.0
 10
-0.5507643693964721
 20
-0.0698589276673294
 10
-0.5836050509012645
 20
-0.0667449306772701
  0
LWPOLYLINE
  5
198
330
1C
100
AcDbEntity
  8
ADP1DETAIL
100
AcDbPolyline
 90
        2
 70
     0
 43
0.0
 10
-0.5840016065702316
 20
-0.0670952597145707
 10
-0.5849610529172354
 20
-0.100069291946929
  0
LWPOLYLINE
  5
19C
330
1C
100
AcDbEntity
  8
ADP1DETAIL
100
AcDbPolyline
 90
        2
 70
     0
 43
0.0
 10
-0.5470861338432998
 20
-0.0342020975416009
 10
-0.549961226421575
 20
-0.0670645560865706
  0
LWPOLYLINE
  5
1A0
330
1C
100
AcDbEntity
  8
ADP1DETAIL
100
AcDbPolyline
 90
        2
 70
     0
 43
0.0
 10
-0.5470861338432998
 20
-0.0342020975416004
 10
-0.5499612264215786
 20
-0.067064556086571
  0
LWPOLYLINE
  5
1A4
330
1C
100
AcDbEntity
  8
ADP1DETAIL
100
AcDbPolyline
 90
        2
 70
     0
 43
0.0
 10
-0.5140658218146155
 20
-0.0388936632745189
 10
-0.5466698792618243
 20
-0.0338754188671124
  0
LWPOLYLINE
  5
1A8
330
1C
100
AcDbEntity
  8
ADP1DETAIL
100
AcDbPolyline
 90
        2
 70
     0
 43
0.0
 10
-0.6189420568730957
 20
-0.1020792157090391
 10
-0.6179826105260938
 20
-0.1350532479414002
  0
LWPOLYLINE
  5
1AC
330
1C
100
AcDbEntity
  8
ADP1DETAIL
100
AcDbPolyline
 90
        2
 70
     0
 43
0.0
 10
-0.618455916195551
 20
-0.137921964189607
 10
-0.6514360537456523
 20
-0.1386415933509399
  0
LWPOLYLINE
  5
1B0
330
1C
100
AcDbEntity
  8
ADP1DETAIL
100
AcDbPolyline
 90
        2
 70
     0
 43
0.0
 10
-0.618455916195551
 20
-0.1379219641896092
 10
-0.6514360537456523
 20
-0.1386415933509413
  0
LWPOLYLINE
  5
1B4
330
1C
100
AcDbEntity
  8
ADP1DETAIL
100
AcDbPolyline
 90
        2
 70
     0
 43
0.0
 10
-0.5856003588438559
 20
-0.1029056345041075
 10
-0.6185665419354938
 20
-0.1017064217115002
  0
LINE
  5
1B8
330
1C
100
AcDbEntity
  8
ADP1DETAIL
100
AcDbLine
 10
-0.4669523194088084
 20
-1.395455183068396
 30
0.0
 11
-0.4317385202586235
 21
-1.388752400003873
 31
0.0
  0
LINE
  5
1B9
330
1C
100
AcDbEntity
  8
ADP1DETAIL
100
AcDbLine
 10
-0.4253028830964714
 20
-1.421106532866159
 30
0.0
 11
-0.4083508540014856
 21
-1.430656635482145
 31
0.0
  0
ARC
  5
1BA
330
1C
100
AcDbEntity
  8
ADP1DETAIL
100
AcDbCircle
 10
-0.3867487726480943
 20
-1.391180692412961
 30
0.0
 40
0.045
100
AcDbArc
 50
241.3115771322809
 51
334.516117241473
  0
LINE
  5
1BB
330
1C
100
AcDbEntity
  8
ADP1DETAIL
100
AcDbLine
 10
-0.3460623720764393
 20
-1.410406699842643
 30
0.0
 11
-0.3461269868553995
 21
-1.410542265670636
 31
0.0
  0
ARC
  5
1BC
330
1C
100
AcDbEntity
  8
ADP1DETAIL
100
AcDbCircle
 10
-0.3866841578691358
 20
-1.391045126584968
 30
0.0
 40
0.045
100
AcDbArc
 50
334.5161172414742
 51
59.88199248496336
  0
LWPOLYLINE
  5
1BD
330
1C
100
AcDbEntity
  8
ADP1DETAIL
100
AcDbPolyline
 90
        2
 70
     0
 43
0.0
 10
-0.4317385202586235
 20
-1.388752400003873
 10
-0.4253028830964696
 20
-1.42110653286616
  0
LWPOLYLINE
  5
1C1
330
1C
100
AcDbEntity
  8
ADP1DETAIL
100
AcDbPolyline
 90
        2
 70
     0
 43
0.0
 10
-0.4669523194088084
 20
-1.395455183068396
 10
-0.4346458429280316
 20
-1.388784432259789
  0
LWPOLYLINE
  5
1C5
330
1C
100
AcDbEntity
  8
ADP1DETAIL
100
AcDbPolyline
 90
        2
 70
     0
 43
0.0
 10
-0.4719281808752905
 20
-1.362476514232855
 10
-0.4673846573124636
 20
-1.395150108044791
  0
LWPOLYLINE
  5
1C9
330
1C
100
AcDbEntity
  8
ADP1DETAIL
100
AcDbPolyline
 90
        2
 70
     0
 43
0.0
 10
-0.4317385202586253
 20
-1.388752400003871
 10
-0.4253028830964714
 20
-1.421106532866159
  0
LWPOLYLINE
  5
1CD
330
1C
100
AcDbEntity
  8
ADP1DETAIL
100
AcDbPolyline
 90
        2
 70
     0
 43
0.0
 10
0.5501412902993575
 20
-1.300140938461092
 10
0.5829819718041498
 20
-1.303254935451151
  0
LWPOLYLINE
  5
1D1
330
1C
100
AcDbEntity
  8
ADP1DETAIL
100
AcDbPolyline
 90
        2
 70
     0
 43
0.0
 10
0.5134427427175062
 20
-1.331106202853902
 10
0.5460468001647168
 20
-1.336124447261308
  0
LWPOLYLINE
  5
1D5
330
1C
100
AcDbEntity
  8
ADP1DETAIL
100
AcDbPolyline
 90
        2
 70
     0
 43
0.0
 10
0.5464630547461887
 20
-1.33579776858682
 10
0.5493381473244674
 20
-1.30293531004185
  0
LWPOLYLINE
  5
1D9
330
1C
100
AcDbEntity
  8
ADP1DETAIL
100
AcDbPolyline
 90
        2
 70
     0
 43
0.0
 10
0.5076974698695813
 20
-1.366488836889577
 10
0.5124784802759339
 20
-1.333849148189348
  0
LWPOLYLINE
  5
1DD
330
1C
100
AcDbEntity
  8
ADP1DETAIL
100
AcDbPolyline
 90
        2
 70
     0
 43
0.0
 10
0.5464630547461851
 20
-1.335797768586821
 10
0.5493381473244621
 20
-1.302935310041851
  0
LWPOLYLINE
  5
1E1
330
1C
100
AcDbEntity
  8
ADP1DETAIL
100
AcDbPolyline
 90
        2
 70
     0
 43
0.0
 10
0.5464630547461851
 20
-1.335797768586821
 10
0.5493381473244621
 20
-1.30293531004185
  0
LWPOLYLINE
  5
1E5
330
1C
100
AcDbEntity
  8
ADP1DETAIL
100
AcDbPolyline
 90
        2
 70
     0
 43
0.0
 10
0.5134427427175008
 20
-1.331106202853903
 10
0.5460468001647114
 20
-1.336124447261309
  0
LWPOLYLINE
  5
1E9
330
1C
100
AcDbEntity
  8
ADP1DETAIL
100
AcDbPolyline
 90
        2
 70
     0
 43
0.0
 10
0.4672129433115635
 20
-1.394873962462014
 10
0.4738836941201714
 20
-1.362567485981239
  0
LWPOLYLINE
  5
1ED
330
1C
100
AcDbEntity
  8
ADP1DETAIL
100
AcDbPolyline
 90
        2
 70
     0
 43
0.0
 10
0.4750058132695468
 20
-1.359885248149861
 10
0.5072629248493406
 20
-1.366790759824029
  0
LINE
  5
1F1
330
1C
100
AcDbEntity
  8
ADP1DETAIL
100
AcDbLine
 10
0.4071156058636887
 20
-1.430991301098208
 30
0.0
 11
0.4251464618949288
 21
-1.420857099024297
 31
0.0
  0
LINE
  5
1F2
330
1C
100
AcDbEntity
  8
ADP1DETAIL
100
AcDbLine
 10
0.3448508599476159
 20
-1.410705161284902
 30
0.0
 11
0.3449082694600949
 21
-1.410825864998332
 31
0.0
  0
ARC
  5
1F3
330
1C
100
AcDbEntity
  8
ADP1DETAIL
100
AcDbCircle
 10
0.3854885239470334
 20
-1.391376936724154
 30
0.0
 40
0.045
100
AcDbArc
 50
120.0687664065322
 51
205.4368546409617
  0
LWPOLYLINE
  5
1F4
330
1C
100
AcDbEntity
  8
ADP1DETAIL
100
AcDbPolyline
 90
        2
 70
     0
 43
0.0
 10
0.4251464618949306
 20
-1.420857099024298
 10
0.433684381396636
 20
-1.38899314965301
  0
LWPOLYLINE
  5
1F8
330
1C
100
AcDbEntity
  8
ADP1DETAIL
100
AcDbPolyline
 90
        2
 70
     0
 43
0.0
 10
0.4251464618949306
 20
-1.420857099024297
 10
0.4336843813966343
 20
-1.38899314965301
  0
LWPOLYLINE
  5
1FC
330
1C
100
AcDbEntity
  8
ADP1DETAIL
100
AcDbPolyline
 90
        2
 70
     0
 43
0.0
 10
0.4251464618949288
 20
-1.420857099024297
 10
0.4336843813966343
 20
-1.38899314965301
  0
ARC
  5
200
330
1C
100
AcDbEntity
  8
ADP1DETAIL
100
AcDbCircle
 10
0.3855459334595106
 20
-1.391497640437585
 30
0.0
 40
0.045
100
AcDbArc
 50
205.4368546409622
 51
298.6413947501542
  0
LWPOLYLINE
  5
201
330
1C
100
AcDbEntity
  8
ADP1DETAIL
100
AcDbPolyline
 90
        2
 70
     0
 43
0.0
 10
0.4349605603578115
 20
-1.386380695169478
 10
0.4667615782153507
 20
-1.395150108044793
  0
LWPOLYLINE
  5
205
330
1C
100
AcDbEntity
  8
ADP1DETAIL
100
AcDbPolyline
 90
        2
 70
     0
 43
0.0
 10
0.7676658550917366
 20
-0.9876672351134565
 10
0.7984109193111713
 20
-0.9757111335290641
  0
LWPOLYLINE
  5
209
330
1C
100
AcDbEntity
  8
ADP1DETAIL
100
AcDbPolyline
 90
        2
 70
     0
 43
0.0
 10
0.7986080670159246
 20
-0.9752200942073462
 10
0.7846667409544597
 20
-0.9453228239874498
  0
LWPOLYLINE
  5
20D
330
1C
100
AcDbEntity
  8
ADP1DETAIL
100
AcDbPolyline
 90
        2
 70
     0
 43
0.0
 10
0.7986080670159264
 20
-0.975220094207347
 10
0.7846667409544632
 20
-0.9453228239874524
  0
LWPOLYLINE
  5
211
330
1C
100
AcDbEntity
  8
ADP1DETAIL
100
AcDbPolyline
 90
        2
 70
     0
 43
0.0
 10
0.7986080670159264
 20
-0.975220094207347
 10
0.7846667409544632
 20
-0.9453228239874508
  0
LWPOLYLINE
  5
215
330
1C
100
AcDbEntity
  8
ADP1DETAIL
100
AcDbPolyline
 90
        2
 70
     0
 43
0.0
 10
0.7676658550917384
 20
-0.9876672351134576
 10
0.7984109193111731
 20
-0.9757111335290657
  0
LWPOLYLINE
  5
219
330
1C
100
AcDbEntity
  8
ADP1DETAIL
100
AcDbPolyline
 90
        2
 70
     0
 43
0.0
 10
0.7839650973832142
 20
-0.9425012557234545
 10
0.8139629603389867
 20
-0.9287777154717575
  0
LWPOLYLINE
  5
21D
330
1C
100
AcDbEntity
  8
ADP1DETAIL
100
AcDbPolyline
 90
        2
 70
     0
 43
0.0
 10
0.6818089843096505
 20
-1.192160529540811
 10
0.6770279739032979
 20
-1.159520840840584
  0
LWPOLYLINE
  5
221
330
1C
100
AcDbEntity
  8
ADP1DETAIL
100
AcDbPolyline
 90
        2
 70
     0
 43
0.0
 10
0.6178328370984363
 20
-1.232077901938814
 10
0.6508129746485394
 20
-1.231358272777482
  0
LWPOLYLINE
  5
225
330
1C
100
AcDbEntity
  8
ADP1DETAIL
100
AcDbPolyline
 90
        2
 70
     0
 43
0.0
 10
0.6511661782310934
 20
-1.230964275236584
 10
0.6482910856528199
 20
-1.198101816691613
  0
LWPOLYLINE
  5
229
330
1C
100
AcDbEntity
  8
ADP1DETAIL
100
AcDbPolyline
 90
        2
 70
     0
 43
0.0
 10
0.5849772797467412
 20
-1.267094231624315
 10
0.6179434628383791
 20
-1.268293444416922
  0
LWPOLYLINE
  5
22D
330
1C
100
AcDbEntity
  8
ADP1DETAIL
100
AcDbPolyline
 90
        2
 70
     0
 43
0.0
 10
0.618318977775981
 20
-1.267920650419383
 10
0.6173595314289791
 20
-1.234946618187023
  0
LWPOLYLINE
  5
231
330
1C
100
AcDbEntity
  8
ADP1DETAIL
100
AcDbPolyline
 90
        2
 70
     0
 43
0.0
 10
0.5833785274731187
 20
-1.302904606413852
 10
0.5843379738201207
 20
-1.269930574181493
  0
LWPOLYLINE
  5
235
330
1C
100
AcDbEntity
  8
ADP1DETAIL
100
AcDbPolyline
 90
        2
 70
     0
 43
0.0
 10
0.6485967895485519
 20
-1.19521043358009
 10
0.6814792872112601
 20
-1.192574397462109
  0
LWPOLYLINE
  5
239
330
1C
100
AcDbEntity
  8
ADP1DETAIL
100
AcDbPolyline
 90
        2
 70
     0
 43
0.0
 10
0.6511661782310952
 20
-1.230964275236584
 10
0.6482910856528199
 20
-1.198101816691615
  0
LWPOLYLINE
  5
23D
330
1C
100
AcDbEntity
  8
ADP1DETAIL
100
AcDbPolyline
 90
        2
 70
     0
 43
0.0
 10
0.6511661782310952
 20
-1.230964275236585
 10
0.6482910856528217
 20
-1.198101816691613
  0
LWPOLYLINE
  5
241
330
1C
100
AcDbEntity
  8
ADP1DETAIL
100
AcDbPolyline
 90
        2
 70
     0
 43
0.0
 10
0.6178328370984381
 20
-1.232077901938815
 10
0.6508129746485394
 20
-1.231358272777483
  0
LWPOLYLINE
  5
245
330
1C
100
AcDbEntity
  8
ADP1DETAIL
100
AcDbPolyline
 90
        2
 70
     0
 43
0.0
 10
0.7034409273911027
 20
-1.116426913774281
 10
0.7357950602533907
 20
-1.109991276612128
  0
LWPOLYLINE
  5
249
330
1C
100
AcDbEntity
  8
ADP1DETAIL
100
AcDbPolyline
 90
        2
 70
     0
 43
0.0
 10
0.7360744809248998
 20
-1.109541931620728
 10
0.7275365614231997
 20
-1.077677982249439
  0
LWPOLYLINE
  5
24D
330
1C
100
AcDbEntity
  8
ADP1DETAIL
100
AcDbPolyline
 90
        2
 70
     0
 43
0.0
 10
0.677165041620087
 20
-1.156616574390947
 10
0.7098386354320243
 20
-1.15207305082812
  0
LWPOLYLINE
  5
251
330
1C
100
AcDbEntity
  8
ADP1DETAIL
100
AcDbPolyline
 90
        2
 70
     0
 43
0.0
 10
0.7101437104556286
 20
-1.151640712924466
 10
0.7034729596470224
 20
-1.119334236443689
  0
LWPOLYLINE
  5
255
330
1C
100
AcDbEntity
  8
ADP1DETAIL
100
AcDbPolyline
 90
        2
 70
     0
 43
0.0
 10
0.7487680203943135
 20
-1.031809084160399
 10
0.7801562543122081
 20
-1.021660876906462
  0
LWPOLYLINE
  5
259
330
1C
100
AcDbEntity
  8
ADP1DETAIL
100
AcDbPolyline
 90
        2
 70
     0
 43
0.0
 10
0.727335537581586
 20
-1.07477744081988
 10
0.7592607333500765
 20
-1.066471466217406
  0
LWPOLYLINE
  5
25D
330
1C
100
AcDbEntity
  8
ADP1DETAIL
100
AcDbPolyline
 90
        2
 70
     0
 43
0.0
 10
0.7595135541983882
 20
-1.066006634579472
 10
0.7491373556205701
 20
-1.034693029836052
  0
LWPOLYLINE
  5
261
330
1C
100
AcDbEntity
  8
ADP1DETAIL
100
AcDbPolyline
 90
        2
 70
     0
 43
0.0
 10
0.7360744809248998
 20
-1.109541931620726
 10
0.7275365614231979
 20
-1.077677982249438
  0
LWPOLYLINE
  5
265
330
1C
100
AcDbEntity
  8
ADP1DETAIL
100
AcDbPolyline
 90
        2
 70
     0
 43
0.0
 10
0.7360744809248998
 20
-1.109541931620726
 10
0.7275365614231979
 20
-1.077677982249436
  0
LWPOLYLINE
  5
269
330
1C
100
AcDbEntity
  8
ADP1DETAIL
100
AcDbPolyline
 90
        2
 70
     0
 43
0.0
 10
0.7034409273911009
 20
-1.116426913774279
 10
0.7357950602533907
 20
-1.109991276612126
  0
LWPOLYLINE
  5
26D
330
1C
100
AcDbEntity
  8
ADP1DETAIL
100
AcDbPolyline
 90
        2
 70
     0
 43
0.0
 10
0.7803816198715992
 20
-1.021182131465122
 10
0.7682022519891443
 20
-0.9905248266759311
  0
LWPOLYLINE
  5
271
330
1C
100
AcDbEntity
  8
ADP1DETAIL
100
AcDbPolyline
 90
        2
 70
     0
 43
0.0
 10
0.2111525007549306
 20
0.1129222022765683
 10
0.195707957952052
 20
0.1420713606960409
  0
LWPOLYLINE
  5
275
330
1C
100
AcDbEntity
  8
ADP1DETAIL
100
AcDbPolyline
 90
        2
 70
     0
 43
0.0
 10
-0.1484333105904292
 20
0.1519948223736678
 10
-0.1673544430739349
 20
0.1249726447320494
  0
LWPOLYLINE
  5
279
330
1C
100
AcDbEntity
  8
ADP1DETAIL
100
AcDbPolyline
 90
        2
 70
     0
 43
0.0
 10
-0.1484333105904292
 20
0.1519948223736678
 10
-0.1673544430739349
 20
0.1249726447320494
  0
LWPOLYLINE
  5
27D
330
1C
100
AcDbEntity
  8
ADP1DETAIL
100
AcDbPolyline
 90
        2
 70
     0
 43
0.0
 10
-0.148433310590431
 20
0.1519948223736687
 10
-0.1673544430739366
 20
0.1249726447320494
  0
LWPOLYLINE
  5
281
330
1C
100
AcDbEntity
  8
ADP1DETAIL
100
AcDbPolyline
 90
        2
 70
     0
 43
0.0
 10
-0.2161393763292332
 20
0.111752926534572
 10
-0.2440893219560984
 20
0.1292745668233322
  0
LWPOLYLINE
  5
285
330
1C
100
AcDbEntity
  8
ADP1DETAIL
100
AcDbPolyline
 90
        2
 70
     0
 43
0.0
 10
-0.1694471710834446
 20
0.1229542194429467
 10
-0.1963310370491578
 20
0.1420713606960422
  0
LWPOLYLINE
  5
289
330
1C
100
AcDbEntity
  8
ADP1DETAIL
100
AcDbPolyline
 90
        2
 70
     0
 43
0.0
 10
-0.1968496288511497
 20
0.1419662446845413
 10
-0.2141675498774025
 20
0.113889618279613
  0
LWPOLYLINE
  5
28D
330
1C
100
AcDbEntity
  8
ADP1DETAIL
100
AcDbPolyline
 90
        2
 70
     0
 43
0.0
 10
-0.2621012884940499
 20
0.0978556741554855
 10
-0.2910227400134091
 20
0.1137225257955186
  0
LWPOLYLINE
  5
291
330
1C
100
AcDbEntity
  8
ADP1DETAIL
100
AcDbPolyline
 90
        2
 70
     0
 43
0.0
 10
-0.2915256220590572
 20
0.1135579157073494
 10
-0.3054669481205257
 20
0.0836606454874554
  0
LWPOLYLINE
  5
295
330
1C
100
AcDbEntity
  8
ADP1DETAIL
100
AcDbPolyline
 90
        2
 70
     0
 43
0.0
 10
-0.3940655635392347
 20
0.0405030255785579
 10
-0.4253028830964696
 20
0.0511066667377376
  0
LWPOLYLINE
  5
299
330
1C
100
AcDbEntity
  8
ADP1DETAIL
100
AcDbPolyline
 90
        2
 70
     0
 43
0.0
 10
-0.4257695409920399
 20
0.0508572328958763
 10
-0.4343074604937454
 20
0.018993283524589
  0
LWPOLYLINE
  5
29D
330
1C
100
AcDbEntity
  8
ADP1DETAIL
100
AcDbPolyline
 90
        2
 70
     0
 43
0.0
 10
-0.3512151486462636
 20
0.0621703497565573
 10
-0.3817830727017495
 20
0.0745723398344247
  0
LWPOLYLINE
  5
2A1
330
1C
100
AcDbEntity
  8
ADP1DETAIL
100
AcDbPolyline
 90
        2
 70
     0
 43
0.0
 10
-0.3822634443740776
 20
0.0743504617386435
 10
-0.3926396429518975
 20
0.0430368569952229
  0
LWPOLYLINE
  5
2A5
330
1C
100
AcDbEntity
  8
ADP1DETAIL
100
AcDbPolyline
 90
        2
 70
     0
 43
0.0
 10
-0.3071773870160261
 20
0.081309486208667
 10
-0.3369724833908045
 20
0.0954678607965567
  0
LWPOLYLINE
  5
2A9
330
1C
100
AcDbEntity
  8
ADP1DETAIL
100
AcDbPolyline
 90
        2
 70
     0
 43
0.0
 10
-0.3374649434142136
 20
0.0952742892120961
 10
-0.3496443112966685
 20
0.064616984422907
  0
LWPOLYLINE
  5
2AD
330
1C
100
AcDbEntity
  8
ADP1DETAIL
100
AcDbPolyline
 90
        2
 70
     0
 43
0.0
 10
-0.2915256220590572
 20
0.1135579157073494
 10
-0.3054669481205239
 20
0.0836606454874554
  0
LWPOLYLINE
  5
2B1
330
1C
100
AcDbEntity
  8
ADP1DETAIL
100
AcDbPolyline
 90
        2
 70
     0
 43
0.0
 10
-0.2915256220590572
 20
0.1135579157073503
 10
-0.3054669481205257
 20
0.0836606454874549
  0
LWPOLYLINE
  5
2B5
330
1C
100
AcDbEntity
  8
ADP1DETAIL
100
AcDbPolyline
 90
        2
 70
     0
 43
0.0
 10
-0.2621012884940499
 20
0.0978556741554855
 10
-0.2910227400134073
 20
0.1137225257955181
  0
LWPOLYLINE
  5
2B9
330
1C
100
AcDbEntity
  8
ADP1DETAIL
100
AcDbPolyline
 90
        2
 70
     0
 43
0.0
 10
-0.4355836394549227
 20
0.0163808290410572
 10
-0.4673846573124619
 20
0.0251502419163712
  0
LWPOLYLINE
  5
2BD
330
1C
100
AcDbEntity
  8
ADP1DETAIL
100
AcDbPolyline
 90
        2
 70
     0
 43
0.0
 10
-0.4678360224086747
 20
0.024874096333593
 10
-0.4745067732172826
 20
-0.0074323801471821
  0
LWPOLYLINE
  5
2C1
330
1C
100
AcDbEntity
  8
ADP1DETAIL
100
AcDbPolyline
 90
        2
 70
     0
 43
0.0
 10
-0.4257695409920417
 20
0.0508572328958759
 10
-0.4343074604937454
 20
0.018993283524589
  0
LWPOLYLINE
  5
2C5
330
1C
100
AcDbEntity
  8
ADP1DETAIL
100
AcDbPolyline
 90
        2
 70
     0
 43
0.0
 10
-0.4257695409920417
 20
0.0508572328958767
 10
-0.4343074604937472
 20
0.0189932835245885
  0
LWPOLYLINE
  5
2C9
330
1C
100
AcDbEntity
  8
ADP1DETAIL
100
AcDbPolyline
 90
        2
 70
     0
 43
0.0
 10
-0.3940655635392365
 20
0.0405030255785575
 10
-0.4253028830964714
 20
0.0511066667377371
  0
LWPOLYLINE
  5
2CD
330
1C
100
AcDbEntity
  8
ADP1DETAIL
100
AcDbPolyline
 90
        2
 70
     0
 43
0.0
 10
-0.244600924430332
 20
0.1291394752198862
 10
-0.2602570356364393
 20
0.1001034024679537
  0
LWPOLYLINE
  5
2D1
330
1C
100
AcDbEntity
  8
ADP1DETAIL
100
AcDbPolyline
 90
        2
 70
     0
 43
0.0
 10
0.1643996910241472
 20
0.1238677847558847
 10
0.1472864051140799
 20
0.1520696071139118
  0
LWPOLYLINE
  5
2D5
330
1C
100
AcDbEntity
  8
ADP1DETAIL
100
AcDbPolyline
 90
        2
 70
     0
 43
0.0
 10
0.1467685914433559
 20
0.1521784916186626
 10
0.1197464138017348
 20
0.1332573591351605
  0
LWPOLYLINE
  5
2D9
330
1C
100
AcDbEntity
  8
ADP1DETAIL
100
AcDbPolyline
 90
        2
 70
     0
 43
0.0
 10
0.1951973514110033
 20
0.1422101691727347
 10
0.1671207250060731
 20
0.1248922481464827
  0
LWPOLYLINE
  5
2DD
330
1C
100
AcDbEntity
  8
ADP1DETAIL
100
AcDbPolyline
 90
        2
 70
     0
 43
0.0
 10
0.1467685914433541
 20
0.1521784916186626
 10
0.1197464138017348
 20
0.13325735913516
  0
LWPOLYLINE
  5
2E1
330
1C
100
AcDbEntity
  8
ADP1DETAIL
100
AcDbPolyline
 90
        2
 70
     0
 43
0.0
 10
0.1467685914433559
 20
0.1521784916186635
 10
0.119746413801733
 20
0.1332573591351609
  0
LWPOLYLINE
  5
2E5
330
1C
100
AcDbEntity
  8
ADP1DETAIL
100
AcDbPolyline
 90
        2
 70
     0
 43
0.0
 10
0.1643996910241472
 20
0.1238677847558847
 10
0.1472864051140799
 20
0.1520696071139114
  0
LWPOLYLINE
  5
2E9
330
1C
100
AcDbEntity
  8
ADP1DETAIL
100
AcDbPolyline
 90
        2
 70
     0
 43
0.0
 10
-0.1221826643991588
 20
0.1314216512510942
 10
-0.1479094842111874
 20
0.1520696071139123
  0
LWPOLYLINE
  5
2ED
330
1C
100
AcDbEntity
  8
ADP1DETAIL
100
AcDbPolyline
 90
        2
 70
     0
 43
0.0
 10
-0.1221826643991588
 20
0.1314216512510942
 10
-0.1479094842111874
 20
0.1520696071139123
  0
LWPOLYLINE
  5
2F1
330
1C
100
AcDbEntity
  8
ADP1DETAIL
100
AcDbPolyline
 90
        2
 70
     0
 43
0.0
 10
-0.0502626038976986
 20
0.163531251311168
 10
-0.0721928818006554
 20
0.1388883973763557
  0
LWPOLYLINE
  5
2F5
330
1C
100
AcDbEntity
  8
ADP1DETAIL
100
AcDbPolyline
 90
        2
 70
     0
 43
0.0
 10
-0.0265778545734325
 20
0.1400496745978244
 10
-0.0497336374666078
 20
0.1635447178528906
  0
LWPOLYLINE
  5
2F9
330
1C
100
AcDbEntity
  8
ADP1DETAIL
100
AcDbPolyline
 90
        2
 70
     0
 43
0.0
 10
-0.0995157951433457
 20
0.159191274754835
 10
-0.1199761159611197
 20
0.1333149803719971
  0
LWPOLYLINE
  5
2FD
330
1C
100
AcDbEntity
  8
ADP1DETAIL
100
AcDbPolyline
 90
        2
 70
     0
 43
0.0
 10
-0.0745057844057766
 20
0.137126570850078
 10
-0.0989885066495036
 20
0.1592354751759351
  0
LWPOLYLINE
  5
301
330
1C
100
AcDbEntity
  8
ADP1DETAIL
100
AcDbPolyline
 90
        2
 70
     0
 43
0.0
 10
0.0693821621035702
 20
0.137520317360232
 10
0.049110558369502
 20
0.1635447178528901
  0
LWPOLYLINE
  5
305
330
1C
100
AcDbEntity
  8
ADP1DETAIL
100
AcDbPolyline
 90
        2
 70
     0
 43
0.0
 10
0.0485836052501152
 20
0.1635927516215647
 10
0.0239407513153025
 20
0.1416624737186078
  0
LWPOLYLINE
  5
309
330
1C
100
AcDbEntity
  8
ADP1DETAIL
100
AcDbPolyline
 90
        2
 70
     0
 43
0.0
 10
0.0978421588695464
 20
0.1593140672780458
 10
0.0719658644867098
 20
0.1388537464602726
  0
LWPOLYLINE
  5
30D
330
1C
100
AcDbEntity
  8
ADP1DETAIL
100
AcDbPolyline
 90
        2
 70
     0
 43
0.0
 10
-0.0032518247038458
 20
0.1633757044674076
 10
-0.0265778545734325
 20
0.1400496745978244
  0
LWPOLYLINE
  5
311
330
1C
100
AcDbEntity
  8
ADP1DETAIL
100
AcDbPolyline
 90
        2
 70
     0
 43
0.0
 10
-0.0032518247038493
 20
0.163375704467408
 10
-0.0265778545734343
 20
0.1400496745978235
  0
LWPOLYLINE
  5
315
330
1C
100
AcDbEntity
  8
ADP1DETAIL
100
AcDbPolyline
 90
        2
 70
     0
 43
0.0
 10
-0.0032518247038493
 20
0.163375704467408
 10
-0.0265778545734361
 20
0.1400496745978239
  0
LWPOLYLINE
  5
319
330
1C
100
AcDbEntity
  8
ADP1DETAIL
100
AcDbPolyline
 90
        2
 70
     0
 43
0.0
 10
0.019027521512633
 20
0.1385567091681554
 10
-0.0027229701904745
 20
0.1633583915632377
  0
LWPOLYLINE
  5
31D
330
1C
100
AcDbEntity
  8
ADP1DETAIL
100
AcDbPolyline
 90
        2
 70
     0
 43
0.0
 10
0.0190275215126294
 20
0.1385567091681568
 10
-0.0027229701904781
 20
0.1633583915632373
  0
LWPOLYLINE
  5
321
330
1C
100
AcDbEntity
  8
ADP1DETAIL
100
AcDbPolyline
 90
        2
 70
     0
 43
0.0
 10
-0.0032518247038476
 20
0.163375704467408
 10
-0.0265778545734343
 20
0.1400496745978244
  0
LWPOLYLINE
  5
325
330
1C
100
AcDbEntity
  8
ADP1DETAIL
100
AcDbPolyline
 90
        2
 70
     0
 43
0.0
 10
0.0190275215126312
 20
0.1385567091681568
 10
-0.0027229701904763
 20
0.1633583915632377
  0
LWPOLYLINE
  5
329
330
1C
100
AcDbEntity
  8
ADP1DETAIL
100
AcDbPolyline
 90
        2
 70
     0
 43
0.0
 10
-0.0032518247038511
 20
0.1633757044674076
 10
-0.0265778545734361
 20
0.1400496745978235
  0
LWPOLYLINE
  5
32D
330
1C
100
AcDbEntity
  8
ADP1DETAIL
100
AcDbPolyline
 90
        2
 70
     0
 43
0.0
 10
-0.0032518247038511
 20
0.1633757044674085
 10
-0.0265778545734379
 20
0.1400496745978239
  0
LWPOLYLINE
  5
331
330
1C
100
AcDbEntity
  8
ADP1DETAIL
100
AcDbPolyline
 90
        2
 70
     0
 43
0.0
 10
0.0190275215126277
 20
0.1385567091681568
 10
-0.0027229701904798
 20
0.1633583915632377
  0
LWPOLYLINE
  5
335
330
1C
100
AcDbEntity
  8
ADP1DETAIL
100
AcDbPolyline
 90
        2
 70
     0
 43
0.0
 10
0.1170895506272163
 20
0.1320764149191367
 10
0.0983654275523978
 20
0.1592354751759346
  0
LWPOLYLINE
  5
339
330
1C
100
AcDbEntity
  8
ADP1DETAIL
100
AcDbPolyline
 90
        2
 70
     0
 43
0.0
 10
0.6457947302411369
 20
-0.1712456507981526
 10
0.650812974648543
 20
-0.1386415933509417
  0
LWPOLYLINE
  5
33D
330
1C
100
AcDbEntity
  8
ADP1DETAIL
100
AcDbPolyline
 90
        2
 70
     0
 43
0.0
 10
0.6457947302411369
 20
-0.1712456507981539
 10
0.650812974648543
 20
-0.1386415933509453
  0
LWPOLYLINE
  5
341
330
1C
100
AcDbEntity
  8
ADP1DETAIL
100
AcDbPolyline
 90
        2
 70
     0
 43
0.0
 10
0.7355456264115339
 20
-0.2595419316207266
 10
0.703681677040247
 20
-0.2510040121190213
  0
LWPOLYLINE
  5
345
330
1C
100
AcDbEntity
  8
ADP1DETAIL
100
AcDbPolyline
 90
        2
 70
     0
 43
0.0
 10
0.674573775537096
 20
-0.2096825802461111
 10
0.6814792872112636
 20
-0.177425468666317
  0
LWPOLYLINE
  5
349
330
1C
100
AcDbEntity
  8
ADP1DETAIL
100
AcDbPolyline
 90
        2
 70
     0
 43
0.0
 10
0.6811773642768127
 20
-0.1769909236460763
 10
0.6485376755765837
 20
-0.1722099132397234
  0
LWPOLYLINE
  5
34D
330
1C
100
AcDbEntity
  8
ADP1DETAIL
100
AcDbPolyline
 90
        2
 70
     0
 43
0.0
 10
0.7010692225567126
 20
-0.2497278331578465
 10
0.7098386354320279
 20
-0.2179268153003067
  0
LWPOLYLINE
  5
351
330
1C
100
AcDbEntity
  8
ADP1DETAIL
100
AcDbPolyline
 90
        2
 70
     0
 43
0.0
 10
0.7095624898492488
 20
-0.2174754502040936
 10
0.6772560133684738
 20
-0.2108046993954868
  0
LWPOLYLINE
  5
355
330
1C
100
AcDbEntity
  8
ADP1DETAIL
100
AcDbPolyline
 90
        2
 70
     0
 43
0.0
 10
0.7355456264115321
 20
-0.2595419316207266
 10
0.7036816770402452
 20
-0.2510040121190238
  0
LWPOLYLINE
  5
359
330
1C
100
AcDbEntity
  8
ADP1DETAIL
100
AcDbPolyline
 90
        2
 70
     0
 43
0.0
 10
0.7355456264115321
 20
-0.2595419316207266
 10
0.7036816770402435
 20
-0.2510040121190222
  0
LWPOLYLINE
  5
35D
330
1C
100
AcDbEntity
  8
ADP1DETAIL
100
AcDbPolyline
 90
        2
 70
     0
 43
0.0
 10
0.7799626827277524
 20
-0.3478465291985533
 10
0.749305377938565
 20
-0.335667161316098
  0
LWPOLYLINE
  5
361
330
1C
100
AcDbEntity
  8
ADP1DETAIL
100
AcDbPolyline
 90
        2
 70
     0
 43
0.0
 10
0.7825440676711409
 20
-0.4232101841187195
 10
0.7984109193111748
 20
-0.3942887325993598
  0
LWPOLYLINE
  5
365
330
1C
100
AcDbEntity
  8
ADP1DETAIL
100
AcDbPolyline
 90
        2
 70
     0
 43
0.0
 10
0.7982463092230048
 20
-0.3937858505537113
 10
0.7683490390031103
 20
-0.3798445244922426
  0
LWPOLYLINE
  5
369
330
1C
100
AcDbEntity
  8
ADP1DETAIL
100
AcDbPolyline
 90
        2
 70
     0
 43
0.0
 10
0.7659978797243237
 20
-0.3781340855967405
 10
0.7801562543122134
 20
-0.3483389892219624
  0
LWPOLYLINE
  5
36D
330
1C
100
AcDbEntity
  8
ADP1DETAIL
100
AcDbPolyline
 90
        2
 70
     0
 43
0.0
 10
0.7982463092230066
 20
-0.3937858505537088
 10
0.7683490390031103
 20
-0.3798445244922424
  0
LWPOLYLINE
  5
371
330
1C
100
AcDbEntity
  8
ADP1DETAIL
100
AcDbPolyline
 90
        2
 70
     0
 43
0.0
 10
0.7982463092230084
 20
-0.3937858505537082
 10
0.7683490390031121
 20
-0.3798445244922401
  0
LWPOLYLINE
  5
375
330
1C
100
AcDbEntity
  8
ADP1DETAIL
100
AcDbPolyline
 90
        2
 70
     0
 43
0.0
 10
0.7825440676711426
 20
-0.4232101841187173
 10
0.7984109193111748
 20
-0.3942887325993587
  0
LWPOLYLINE
  5
379
330
1C
100
AcDbEntity
  8
ADP1DETAIL
100
AcDbPolyline
 90
        2
 70
     0
 43
0.0
 10
0.7468587432722145
 20
-0.3340963239665018
 10
0.7592607333500801
 20
-0.3035283999110179
  0
LWPOLYLINE
  5
37D
330
1C
100
AcDbEntity
  8
ADP1DETAIL
100
AcDbPolyline
 90
        2
 70
     0
 43
0.0
 10
0.7590388552543011
 20
-0.3030480282386885
 10
0.7277252505108787
 20
-0.2926718296608692
  0
LWPOLYLINE
  5
381
330
1C
100
AcDbEntity
  8
ADP1DETAIL
100
AcDbPolyline
 90
        2
 70
     0
 43
0.0
 10
0.8138278687355416
 20
-0.4407105481824372
 10
0.7847917959836077
 20
-0.425054436976329
  0
LWPOLYLINE
  5
385
330
1C
100
AcDbEntity
  8
ADP1DETAIL
100
AcDbPolyline
 90
        2
 70
     0
 43
0.0
 10
0.7251914190942155
 20
-0.2912459090735309
 10
0.7357950602533961
 20
-0.2600085895162956
  0
LWPOLYLINE
  5
389
330
1C
100
AcDbEntity
  8
ADP1DETAIL
100
AcDbPolyline
 90
        2
 70
     0
 43
0.0
 10
0.725191419094212
 20
-0.2912459090735322
 10
0.7357950602533943
 20
-0.2600085895162971
  0
LWPOLYLINE
  5
38D
330
1C
100
AcDbEntity
  8
ADP1DETAIL
100
AcDbPolyline
 90
        2
 70
     0
 43
0.0
 10
0.5826091778066167
 20
-0.0663694157396744
 10
0.5496351455742566
 20
-0.0673288620866759
  0
LWPOLYLINE
  5
391
330
1C
100
AcDbEntity
  8
ADP1DETAIL
100
AcDbPolyline
 90
        2
 70
     0
 43
0.0
 10
0.5467664293260479
 20
-0.0668555564172186
 10
0.5460468001647168
 20
-0.0338754188671164
  0
LWPOLYLINE
  5
395
330
1C
100
AcDbEntity
  8
ADP1DETAIL
100
AcDbPolyline
 90
        2
 70
     0
 43
0.0
 10
0.5456528026238181
 20
-0.033522215284562
 10
0.5127903440788475
 20
-0.0363973078628359
  0
LWPOLYLINE
  5
399
330
1C
100
AcDbEntity
  8
ADP1DETAIL
100
AcDbPolyline
 90
        2
 70
     0
 43
0.0
 10
0.4713051017781811
 20
-0.0075233518955666
 10
0.4667615782153543
 20
0.0251502419163694
  0
LWPOLYLINE
  5
39D
330
1C
100
AcDbEntity
  8
ADP1DETAIL
100
AcDbPolyline
 90
        2
 70
     0
 43
0.0
 10
0.5098989609673246
 20
-0.0360916039671027
 10
0.5072629248493424
 20
-0.0032091063043949
  0
LWPOLYLINE
  5
3A1
330
1C
100
AcDbEntity
  8
ADP1DETAIL
100
AcDbPolyline
 90
        2
 70
     0
 43
0.0
 10
0.5068490569280449
 20
-0.0028794092060036
 10
0.4742093682278177
 20
-0.0076604196123562
  0
LWPOLYLINE
  5
3A5
330
1C
100
AcDbEntity
  8
ADP1DETAIL
100
AcDbPolyline
 90
        2
 70
     0
 43
0.0
 10
0.5456528026238181
 20
-0.0335222152845589
 10
0.5127903440788493
 20
-0.0363973078628341
  0
LWPOLYLINE
  5
3A9
330
1C
100
AcDbEntity
  8
ADP1DETAIL
100
AcDbPolyline
 90
        2
 70
     0
 43
0.0
 10
0.5456528026238181
 20
-0.0335222152845589
 10
0.5127903440788475
 20
-0.0363973078628333
  0
LWPOLYLINE
  5
3AD
330
1C
100
AcDbEntity
  8
ADP1DETAIL
100
AcDbPolyline
 90
        2
 70
     0
 43
0.0
 10
0.5467664293260479
 20
-0.0668555564172164
 10
0.5460468001647168
 20
-0.0338754188671142
  0
LWPOLYLINE
  5
3B1
330
1C
100
AcDbEntity
  8
ADP1DETAIL
100
AcDbPolyline
 90
        2
 70
     0
 43
0.0
 10
0.4311154411615159
 20
0.0187525338754486
 10
0.424679803999362
 20
0.0511066667377367
  0
LWPOLYLINE
  5
3B5
330
1C
100
AcDbEntity
  8
ADP1DETAIL
100
AcDbPolyline
 90
        2
 70
     0
 43
0.0
 10
0.4242304590079616
 20
0.0513860874092462
 10
0.3923665096366729
 20
0.0428481679075448
  0
LWPOLYLINE
  5
3B9
330
1C
100
AcDbEntity
  8
ADP1DETAIL
100
AcDbPolyline
 90
        2
 70
     0
 43
0.0
 10
0.3023557625006918
 20
0.082977461576083
 10
0.2903996609162998
 20
0.1137225257955181
  0
LWPOLYLINE
  5
3BD
330
1C
100
AcDbEntity
  8
ADP1DETAIL
100
AcDbPolyline
 90
        2
 70
     0
 43
0.0
 10
0.2899086215945821
 20
0.1139196735002719
 10
0.2600113513746858
 20
0.099978347438807
  0
LWPOLYLINE
  5
3C1
330
1C
100
AcDbEntity
  8
ADP1DETAIL
100
AcDbPolyline
 90
        2
 70
     0
 43
0.0
 10
0.3464976115476346
 20
0.0640796268786599
 10
0.3363494042936987
 20
0.0954678607965549
  0
LWPOLYLINE
  5
3C5
330
1C
100
AcDbEntity
  8
ADP1DETAIL
100
AcDbPolyline
 90
        2
 70
     0
 43
0.0
 10
0.335870658852357
 20
0.0956932263559456
 10
0.3052133540631661
 20
0.0835138584734907
  0
LWPOLYLINE
  5
3C9
330
1C
100
AcDbEntity
  8
ADP1DETAIL
100
AcDbPolyline
 90
        2
 70
     0
 43
0.0
 10
0.3894659682071171
 20
0.0426471440659333
 10
0.3811599936046419
 20
0.074572339834422
  0
LWPOLYLINE
  5
3CD
330
1C
100
AcDbEntity
  8
ADP1DETAIL
100
AcDbPolyline
 90
        2
 70
     0
 43
0.0
 10
0.3806951619667074
 20
0.0748251606827355
 10
0.3493815572232886
 20
0.0644489621049169
  0
LWPOLYLINE
  5
3D1
330
1C
100
AcDbEntity
  8
ADP1DETAIL
100
AcDbPolyline
 90
        2
 70
     0
 43
0.0
 10
0.4242304590079616
 20
0.0513860874092462
 10
0.3923665096366746
 20
0.0428481679075443
  0
LWPOLYLINE
  5
3D5
330
1C
100
AcDbEntity
  8
ADP1DETAIL
100
AcDbPolyline
 90
        2
 70
     0
 43
0.0
 10
0.4242304590079616
 20
0.0513860874092467
 10
0.3923665096366729
 20
0.0428481679075452
  0
LWPOLYLINE
  5
3D9
330
1C
100
AcDbEntity
  8
ADP1DETAIL
100
AcDbPolyline
 90
        2
 70
     0
 43
0.0
 10
0.4311154411615159
 20
0.0187525338754491
 10
0.424679803999362
 20
0.0511066667377362
  0
LWPOLYLINE
  5
3DD
330
1C
100
AcDbEntity
  8
ADP1DETAIL
100
AcDbPolyline
 90
        2
 70
     0
 43
0.0
 10
0.2571897831106891
 20
0.0992767038675571
 10
0.2434662428589926
 20
0.1292745668233299
  0
LWPOLYLINE
  5
3E1
330
1C
100
AcDbEntity
  8
ADP1DETAIL
100
AcDbPolyline
 90
        2
 70
     0
 43
0.0
 10
0.2899086215945821
 20
0.1139196735002705
 10
0.2600113513746876
 20
0.0999783474388061
  0
LWPOLYLINE
  5
3E5
330
1C
100
AcDbEntity
  8
ADP1DETAIL
100
AcDbPolyline
 90
        2
 70
     0
 43
0.0
 10
0.2899086215945821
 20
0.1139196735002723
 10
0.2600113513746858
 20
0.0999783474388065
  0
LWPOLYLINE
  5
3E9
330
1C
100
AcDbEntity
  8
ADP1DETAIL
100
AcDbPolyline
 90
        2
 70
     0
 43
0.0
 10
0.3023557625006918
 20
0.0829774615760821
 10
0.2903996609162998
 20
0.1137225257955163
  0
LWPOLYLINE
  5
3ED
330
1C
100
AcDbEntity
  8
ADP1DETAIL
100
AcDbPolyline
 90
        2
 70
     0
 43
0.0
 10
0.2429645711785215
 20
0.1294428295880221
 10
0.2139284984265912
 20
0.1137867183819157
  0
LWPOLYLINE
  5
3F1
330
1C
100
AcDbEntity
  8
ADP1DETAIL
100
AcDbPolyline
 90
        2
 70
     0
 43
0.0
 10
0.4663292403117008
 20
0.0254553169399745
 10
0.434022763830924
 20
0.0187845661313675
  0
LWPOLYLINE
  5
3F5
330
1C
100
AcDbEntity
  8
ADP1DETAIL
100
AcDbPolyline
 90
        2
 70
     0
 43
0.0
 10
0.6148294658483269
 20
-0.1345471032162984
 10
0.6179434628383862
 20
-0.1017064217115065
  0
LWPOLYLINE
  5
3F9
330
1C
100
AcDbEntity
  8
ADP1DETAIL
100
AcDbPolyline
 90
        2
 70
     0
 43
0.0
 10
0.6504862959740563
 20
-0.1382253387694681
 10
0.6176238374290839
 20
-0.1353502461911906
  0
LWPOLYLINE
  5
3FD
330
1C
100
AcDbEntity
  8
ADP1DETAIL
100
AcDbPolyline
 90
        2
 70
     0
 43
0.0
 10
0.6504862959740545
 20
-0.1382253387694707
 10
0.6176238374290857
 20
-0.1353502461911942
  0
LWPOLYLINE
  5
401
330
1C
100
AcDbEntity
  8
ADP1DETAIL
100
AcDbPolyline
 90
        2
 70
     0
 43
0.0
 10
0.6504862959740563
 20
-0.1382253387694698
 10
0.6176238374290839
 20
-0.1353502461911928
  0
LWPOLYLINE
  5
405
330
1C
100
AcDbEntity
  8
ADP1DETAIL
100
AcDbPolyline
 90
        2
 70
     0
 43
0.0
 10
0.5817827590115488
 20
-0.0997111137689151
 10
0.5829819718041569
 20
-0.0667449306772763
  0
LWPOLYLINE
  5
409
330
1C
100
AcDbEntity
  8
ADP1DETAIL
100
AcDbPolyline
 90
        2
 70
     0
 43
0.0
 10
0.6175931338010865
 20
-0.1013098660425371
 10
0.5846191015687264
 20
-0.1003504196955347
  0
LWPOLYLINE
  5
40D
330
1C
100
AcDbEntity
  8
ADP1DETAIL
100
AcDbPolyline
 90
        2
 70
     0
 43
0.0
 10
0.8141312231036771
 20
-0.9282760437912875
 10
0.7984751118975697
 20
-0.8992399710393566
  0
LWPOLYLINE
  5
411
330
1C
100
AcDbEntity
  8
ADP1DETAIL
100
AcDbPolyline
 90
        2
 70
     0
 43
0.0
 10
0.836866885134318
 20
-0.8320800640561207
 10
0.8179457526508159
 20
-0.8050578864145002
  0
LWPOLYLINE
  5
415
330
1C
100
AcDbEntity
  8
ADP1DETAIL
100
AcDbPolyline
 90
        2
 70
     0
 43
0.0
 10
0.8248694651521933
 20
-0.7067504247673203
 10
0.8496711475472725
 20
-0.6849999330642116
  0
LWPOLYLINE
  5
419
330
1C
100
AcDbEntity
  8
ADP1DETAIL
100
AcDbPolyline
 90
        2
 70
     0
 43
0.0
 10
0.8496884604514423
 20
-0.6844710785508415
 10
0.8263624305818591
 20
-0.6611450486812549
  0
LWPOLYLINE
  5
41D
330
1C
100
AcDbEntity
  8
ADP1DETAIL
100
AcDbPolyline
 90
        2
 70
     0
 43
0.0
 10
0.8222087108758874
 20
-0.7546936347163353
 10
0.8482331113685464
 20
-0.7344220309822665
  0
LWPOLYLINE
  5
421
330
1C
100
AcDbEntity
  8
ADP1DETAIL
100
AcDbPolyline
 90
        2
 70
     0
 43
0.0
 10
0.8482811451372192
 20
-0.7338950778628803
 10
0.8263508672342624
 20
-0.7092522239280664
  0
LWPOLYLINE
  5
425
330
1C
100
AcDbEntity
  8
ADP1DETAIL
100
AcDbPolyline
 90
        2
 70
     0
 43
0.0
 10
0.8167648084347916
 20
-0.8024010232399804
 10
0.8439238686915896
 20
-0.783676900165162
  0
LWPOLYLINE
  5
429
330
1C
100
AcDbEntity
  8
ADP1DETAIL
100
AcDbPolyline
 90
        2
 70
     0
 43
0.0
 10
0.8440024607936994
 20
-0.7831536314823109
 10
0.8235421399759271
 20
-0.7572773370994741
  0
LWPOLYLINE
  5
42D
330
1C
100
AcDbEntity
  8
ADP1DETAIL
100
AcDbPolyline
 90
        2
 70
     0
 43
0.0
 10
0.836866885134318
 20
-0.8320800640561191
 10
0.8179457526508159
 20
-0.8050578864145002
  0
LWPOLYLINE
  5
431
330
1C
100
AcDbEntity
  8
ADP1DETAIL
100
AcDbPolyline
 90
        2
 70
     0
 43
0.0
 10
0.836866885134318
 20
-0.8320800640561191
 10
0.8179457526508159
 20
-0.8050578864144984
  0
LWPOLYLINE
  5
435
330
1C
100
AcDbEntity
  8
ADP1DETAIL
100
AcDbPolyline
 90
        2
 70
     0
 43
0.0
 10
0.8161100447667518
 20
-0.5631288082136084
 10
0.8367580006295685
 20
-0.53740198840158
  0
LWPOLYLINE
  5
439
330
1C
100
AcDbEntity
  8
ADP1DETAIL
100
AcDbPolyline
 90
        2
 70
     0
 43
0.0
 10
0.8366832158893245
 20
-0.5368781620223383
 10
0.809661038247707
 20
-0.5179570295388323
  0
LWPOLYLINE
  5
43D
330
1C
100
AcDbEntity
  8
ADP1DETAIL
100
AcDbPolyline
 90
        2
 70
     0
 43
0.0
 10
0.8218149643657334
 20
-0.6108056882069906
 10
0.8439238686915931
 20
-0.5863229659632639
  0
LWPOLYLINE
  5
441
330
1C
100
AcDbEntity
  8
ADP1DETAIL
100
AcDbPolyline
 90
        2
 70
     0
 43
0.0
 10
0.8438796682704921
 20
-0.5857956774694218
 10
0.8180033738876538
 20
-0.5653353566516475
  0
LWPOLYLINE
  5
445
330
1C
100
AcDbEntity
  8
ADP1DETAIL
100
AcDbPolyline
 90
        2
 70
     0
 43
0.0
 10
0.8247380681134806
 20
-0.6587336180393347
 10
0.8482331113685464
 20
-0.6355778351461597
  0
LWPOLYLINE
  5
449
330
1C
100
AcDbEntity
  8
ADP1DETAIL
100
AcDbPolyline
 90
        2
 70
     0
 43
0.0
 10
0.8482196448268229
 20
-0.6350488687150689
 10
0.8235767908920102
 20
-0.6131185908121118
  0
LWPOLYLINE
  5
44D
330
1C
100
AcDbEntity
  8
ADP1DETAIL
100
AcDbPolyline
 90
        2
 70
     0
 43
0.0
 10
0.8496884604514441
 20
-0.6844710785508406
 10
0.8263624305818609
 20
-0.6611450486812554
  0
LWPOLYLINE
  5
451
330
1C
100
AcDbEntity
  8
ADP1DETAIL
100
AcDbPolyline
 90
        2
 70
     0
 43
0.0
 10
0.8496884604514441
 20
-0.6844710785508406
 10
0.8263624305818609
 20
-0.6611450486812536
  0
LWPOLYLINE
  5
455
330
1C
100
AcDbEntity
  8
ADP1DETAIL
100
AcDbPolyline
 90
        2
 70
     0
 43
0.0
 10
0.8248694651521933
 20
-0.7067504247673191
 10
0.8496711475472743
 20
-0.6849999330642119
  0
LWPOLYLINE
  5
459
330
1C
100
AcDbEntity
  8
ADP1DETAIL
100
AcDbPolyline
 90
        2
 70
     0
 43
0.0
 10
0.8366832158893227
 20
-0.5368781620223392
 10
0.8096610382477035
 20
-0.5179570295388352
  0
LWPOLYLINE
  5
45D
330
1C
100
AcDbEntity
  8
ADP1DETAIL
100
AcDbPolyline
 90
        2
 70
     0
 43
0.0
 10
0.8366832158893245
 20
-0.5368781620223389
 10
0.8096610382477052
 20
-0.5179570295388332
  0
LWPOLYLINE
  5
461
330
1C
100
AcDbEntity
  8
ADP1DETAIL
100
AcDbPolyline
 90
        2
 70
     0
 43
0.0
 10
0.8161100447667482
 20
-0.5631288082136095
 10
0.8367580006295668
 20
-0.5374019884015818
  0
LWPOLYLINE
  5
465
330
1C
100
AcDbEntity
  8
ADP1DETAIL
100
AcDbPolyline
 90
        2
 70
     0
 43
0.0
 10
0.8268985626883914
 20
-0.880508824023769
 10
0.8095806416621385
 20
-0.8524321976188389
  0
LWPOLYLINE
  5
469
330
1C
100
AcDbEntity
  8
ADP1DETAIL
100
AcDbPolyline
 90
        2
 70
     0
 43
0.0
 10
0.8085561782715405
 20
-0.8497111636369131
 10
0.8367580006295668
 20
-0.832597877726844
  0
LWPOLYLINE
  5
46D
330
1C
100
AcDbEntity
  8
ADP1DETAIL
100
AcDbPolyline
 90
        2
 70
     0
 43
0.0
 10
0.8085561782715387
 20
-0.8497111636369115
 10
0.8367580006295668
 20
-0.8325978777268437
  0
LWPOLYLINE
  5
471
330
1C
100
AcDbEntity
  8
ADP1DETAIL
100
AcDbPolyline
 90
        2
 70
     0
 43
0.0
 10
0.7964413200502274
 20
-0.4691720962835352
 10
0.8139629603389867
 20
-0.441222150656671
  0
LWPOLYLINE
  5
475
330
1C
100
AcDbEntity
  8
ADP1DETAIL
100
AcDbPolyline
 90
        2
 70
     0
 43
0.0
 10
0.8076426129586003
 20
-0.5158643015293252
 10
0.826759754211698
 20
-0.4889804355636107
  0
LWPOLYLINE
  5
479
330
1C
100
AcDbEntity
  8
ADP1DETAIL
100
AcDbPolyline
 90
        2
 70
     0
 43
0.0
 10
0.8266546382001958
 20
-0.488461843761619
 10
0.7985780117952693
 20
-0.4711439227353669
  0
LWPOLYLINE
  5
47D
330
1C
100
AcDbEntity
  8
ADP1DETAIL
100
AcDbPolyline
 90
        2
 70
     0
 43
0.0
 10
0.7976105957922246
 20
-0.8964639733676955
 10
0.826759754211698
 20
-0.8810194305648177
  0
ENDBLK
  5
481
330
1C
100
AcDbEntity
  8
0
100
AcDbBlockEnd
  0
BLOCK
  5
482
330
1D
100
AcDbEntity
  8
0
100
AcDbBlockBegin
  2
*D1
 70
     1
 10
0.0
 20
0.0
 30
0.0
  3
*D1
  1

  0
LINE
  5
483
330
1D
100
AcDbEntity
  8
0
  6
BYBLOCK
 62
     0
100
AcDbLine
 10
12.7804535881522
 20
3.905839067929284
 30
0.0
 11
12.7804535881522
 21
3.504266666166425
 31
0.0
  0
LINE
  5
484
330
1D
100
AcDbEntity
  8
0
  6
BYBLOCK
 62
     0
100
AcDbLine
 10
10.7804535881522
 20
3.905839067929284
 30
0.0
 11
10.7804535881522
 21
3.504266666166425
 31
0.0
  0
LINE
  5
485
330
1D
100
AcDbEntity
  8
0
  6
BYBLOCK
 62
     0
100
AcDbLine
 10
12.7804535881522
 20
3.684266666166425
 30
0.0
 11
11.94712025481886
 21
3.684266666166425
 31
0.0
  0
LINE
  5
486
330
1D
100
AcDbEntity
  8
0
  6
BYBLOCK
 62
     0
100
AcDbLine
 10
10.7804535881522
 20
3.684266666166425
 30
0.0
 11
11.61378692148553
 21
3.684266666166425
 31
0.0
  0
LINE
  5
487
330
1D
100
AcDbEntity
  8
0
  6
BYBLOCK
 62
     0
100
AcDbLine
 10
12.6554535881522
 20
3.559266666166425
 30
0.0
 11
12.9054535881522
 21
3.809266666166425
 31
0.0
  0
LINE
  5
488
330
1D
100
AcDbEntity
  8
0
  6
BYBLOCK
 62
     0
100
AcDbLine
 10
10.6554535881522
 20
3.559266666166425
 30
0.0
 11
10.9054535881522
 21
3.809266666166425
 31
0.0
  0
TEXT
  5
489
330
1D
100
AcDbEntity
  8
0
  6
BYBLOCK
 62
     0
100
AcDbText
 10
11.73878692148553
 20
3.621766666166425
 30
0.0
 40
0.125
  1
2
 72
     1
 11
11.7804535881522
 21
3.684266666166425
 31
0.0
100
AcDbText
 73
     2
  0
POINT
  5
48A
330
1D
100
AcDbEntity
  8
DEFPOINTS
  6
BYBLOCK
 62
     0
100
AcDbPoint
 10
12.7804535881522
 20
3.968339067929284
 30
0.0
  0
POINT
  5
48B
330
1D
100
AcDbEntity
  8
DEFPOINTS
  6
BYBLOCK
 62
     0
100
AcDbPoint
 10
10.7804535881522
 20
3.968339067929284
 30
0.0
  0
POINT
  5
48C
330
1D
100
AcDbEntity
  8
DEFPOINTS
  6
BYBLOCK
 62
     0
100
AcDbPoint
 10
10.7804535881522
 20
3.684266666166425
 30
0.0
  0
ENDBLK
  5
48D
330
1D
100
AcDbEntity
  8
0
100
AcDbBlockEnd
  0
ENDSEC
  0
SECTION
  2
ENTITIES
  0
LINE
  5
48E
330
18
100
AcDbEntity
  8
ADP1DETAIL
100
AcDbLine
 10
11.7304535881522
 20
6.39921285413605
 30
0.0
 11
11.0028850834574
 21
7.260453031587092
 31
0.0
  0
LINE
  5
48F
330
18
100
AcDbEntity
  8
ADP2DETAIL
  6
HIDDEN2
100
AcDbLine
 10
12.1049535881522
 20
6.53921285413605
 30
0.0
 11
12.1049535881522
 21
8.15921285413605
 31
0.0
  0
LINE
  5
490
330
18
100
AcDbEntity
  8
ADP2DETAIL
  6
HIDDEN2
100
AcDbLine
 10
12.0424535881522
 20
6.539212854136051
 30
0.0
 11
12.0424535881522
 21
8.154212854136051
 31
0.0
  0
LINE
  5
491
330
18
100
AcDbEntity
  8
ADP2DETAIL
  6
HIDDEN2
100
AcDbLine
 10
11.8554535881522
 20
6.539212854136051
 30
0.0
 11
11.8554535881522
 21
8.154212854136051
 31
0.0
  0
LINE
  5
492
330
18
100
AcDbEntity
  8
ADP1DETAIL
100
AcDbLine
 10
12.7804535881522
 20
6.399212854136051
 30
0.0
 11
12.7804535881522
 21
8.299212854136051
 31
0.0
  0
LINE
  5
493
330
18
100
AcDbEntity
  8
ADP2DETAIL
  6
HIDDEN2
100
AcDbLine
 10
12.0424535881522
 20
6.716302727249203
 30
0.0
 11
12.0424535881522
 21
8.08574534106825
 31
0.0
  0
LINE
  5
494
330
18
100
AcDbEntity
  8
ADP1DETAIL
100
AcDbLine
 10
15.2974535881522
 20
8.127712854136049
 30
0.0
 11
15.2974535881522
 21
6.60171285413605
 31
0.0
  0
LINE
  5
495
330
18
100
AcDbEntity
  8
ADP1DETAIL
100
AcDbLine
 10
15.2349535881522
 20
8.190212854136049
 30
0.0
 11
15.2349535881522
 21
6.510704315102031
 31
0.0
  0
ARC
  5
496
330
18
100
AcDbEntity
  8
ADP1DETAIL
100
AcDbCircle
 10
10.83302657172899
 20
7.349212854469957
 30
0.0
 40
0.8974270164232059
100
AcDbArc
 50
314.8230124726548
 51
45.17698752734517
  0
DIMENSION
  5
497
330
18
100
AcDbEntity
  8
ADPDIM
100
AcDbDimension
  2
*D1
 10
10.7804535881522
 20
3.684266666166425
 30
0.0
 11
11.7804535881522
 21
3.684266666166425
 31
0.0
100
AcDbAlignedDimension
 13
12.7804535881522
 23
3.968339067929284
 33
0.0
 14
10.7804535881522
 24
3.968339067929284
 34
0.0
100
AcDbRotatedDimension
  0
LINE
  5
498
330
18
100
AcDbEntity
  8
ADP1DETAIL
100
AcDbLine
 10
10.97140122495349
 20
3.968339067929284
 30
0.0
 11
12.7804535881522
 21
3.968339067929284
 31
0.0
  0
LINE
  5
499
330
18
100
AcDbEntity
  8
ADP2DETAIL
  6
HIDDEN2
100
AcDbLine
 10
11.24914858492515
 20
4.077339067929283
 30
0.0
 11
12.7804535881522
 21
4.077339067929283
 31
0.0
  0
LINE
  5
49A
330
18
100
AcDbEntity
  8
ADP2DETAIL
  6
HIDDEN2
100
AcDbLine
 10
12.7804535881522
 20
4.167628824403838
 30
0.0
 11
12.1049535881522
 21
4.167628824403838
 31
0.0
  0
LINE
  5
49B
330
18
100
AcDbEntity
  8
ADP1DETAIL
100
AcDbLine
 10
11.7304535881522
 20
6.399212854136051
 30
0.0
 11
12.7804535881522
 21
6.399212854136051
 31
0.0
  0
LINE
  5
49C
330
18
100
AcDbEntity
  8
ADP2DETAIL
  6
HIDDEN2
100
AcDbLine
 10
11.61216712298897
 20
6.510704315102031
 30
0.0
 11
12.7804535881522
 21
6.510704315102031
 31
0.0
  0
LINE
  5
49D
330
18
100
AcDbEntity
  8
ADP1DETAIL
100
AcDbLine
 10
12.7804535881522
 20
5.868339067929285
 30
0.0
 11
11.7304535881522
 21
5.868339067929285
 31
0.0
  0
LINE
  5
49E
330
18
100
AcDbEntity
  8
ADP2DETAIL
  6
HIDDEN2
100
AcDbLine
 10
12.7804535881522
 20
5.759339067929284
 30
0.0
 11
11.6214535881522
 21
5.759339067929285
 31
0.0
  0
LINE
  5
49F
330
18
100
AcDbEntity
  8
ADP2DETAIL
  6
HIDDEN2
100
AcDbLine
 10
15.2974535881522
 20
5.560923587443958
 30
0.0
 11
12.0424535881522
 21
5.560923587443958
 31
0.0
  0
LINE
  5
4A0
330
18
100
AcDbEntity
  8
ADP2DETAIL
  6
HIDDEN2
100
AcDbLine
 10
15.2974535881522
 20
4.240607768492037
 30
0.0
 11
12.0424535881522
 21
4.240607768492037
 31
0.0
  0
LINE
  5
4A1
330
18
100
AcDbEntity
  8
ADP2DETAIL
  6
HIDDEN2
100
AcDbLine
 10
15.2974535881522
 20
6.641615128981755
 30
0.0
 11
12.1049535881522
 21
6.641615128981755
 31
0.0
  0
ARC
  5
4A2
330
18
100
AcDbEntity
  8
ADP1DETAIL
100
AcDbCircle
 10
10.7804535881522
 20
4.918339067929284
 30
0.0
 40
0.9690000000000001
100
AcDbArc
 50
281.3648769670335
 51
45.0
  0
LINE
  5
4A3
330
18
100
AcDbEntity
  8
ADP3DETAIL
  6
CENTER2
100
AcDbLine
 10
10.7804535881522
 20
5.868339067929285
 30
0.0
 11
10.7804535881522
 21
3.968339067929284
 31
0.0
  0
LINE
  5
4A4
330
18
100
AcDbEntity
  8
ADP2DETAIL
  6
HIDDEN2
100
AcDbLine
 10
12.1049535881522
 20
4.210936025868682
 30
0.0
 11
12.1049535881522
 21
5.728339067929284
 31
0.0
  0
LINE
  5
4A5
330
18
100
AcDbEntity
  8
ADP2DETAIL
  6
HIDDEN2
100
AcDbLine
 10
12.0424535881522
 20
4.108339067929284
 30
0.0
 11
12.0424535881522
 21
5.728339067929284
 31
0.0
  0
LINE
  5
4A6
330
18
100
AcDbEntity
  8
ADP2DETAIL
  6
HIDDEN2
100
AcDbLine
 10
11.8554535881522
 20
4.108339067929284
 30
0.0
 11
11.8554535881522
 21
5.728339067929284
 31
0.0
  0
LINE
  5
4A7
330
18
100
AcDbEntity
  8
ADP2DETAIL
  6
HIDDEN2
100
AcDbLine
 10
12.0424535881522
 20
4.285428941042436
 30
0.0
 11
12.0424535881522
 21
5.654871554861483
 31
0.0
  0
LINE
  5
4A8
330
18
100
AcDbEntity
  8
ADP2DETAIL
  6
HIDDEN2
100
AcDbLine
 10
12.0424535881522
 20
4.273436025868682
 30
0.0
 11
12.1049535881522
 21
4.210936025868682
 31
0.0
  0
LINE
  5
4A9
330
18
100
AcDbEntity
  8
ADP2DETAIL
  6
HIDDEN2
100
AcDbLine
 10
12.0424535881522
 20
4.778339067929284
 30
0.0
 11
11.8554535881522
 21
4.778339067929284
 31
0.0
  0
LINE
  5
4AA
330
18
100
AcDbEntity
  8
ADP2DETAIL
  6
HIDDEN2
100
AcDbLine
 10
11.8554535881522
 20
5.058339067929284
 30
0.0
 11
12.0424535881522
 21
5.058339067929284
 31
0.0
  0
LINE
  5
4AB
330
18
100
AcDbEntity
  8
ADP1DETAIL
100
AcDbLine
 10
11.46564005912196
 20
5.603525538899049
 30
0.0
 11
11.7304535881522
 21
5.868339067929285
 31
0.0
  0
LINE
  5
4AC
330
18
100
AcDbEntity
  8
ADP2DETAIL
  6
HIDDEN2
100
AcDbLine
 10
12.1049535881522
 20
5.762339067929284
 30
0.0
 11
12.0424535881522
 21
5.699839067929284
 31
0.0
  0
LINE
  5
4AD
330
18
100
AcDbEntity
  8
ADP2DETAIL
  6
HIDDEN2
100
AcDbLine
 10
12.0424535881522
 20
6.56771285413605
 30
0.0
 11
12.1049535881522
 21
6.50521285413605
 31
0.0
  0
LINE
  5
4AE
330
18
100
AcDbEntity
  8
ADP1DETAIL
100
AcDbLine
 10
12.7804535881522
 20
6.510704315102031
 30
0.0
 11
15.2349535881522
 21
6.510704315102031
 31
0.0
  0
LINE
  5
4AF
330
18
100
AcDbEntity
  8
ADP1DETAIL
100
AcDbLine
 10
15.23625013898322
 20
4.167628824403838
 30
0.0
 11
12.7804535881522
 21
4.167628824403838
 31
0.0
  0
LINE
  5
4B0
330
18
100
AcDbEntity
  8
ADP1DETAIL
100
AcDbLine
 10
12.7804535881522
 20
5.759339067929284
 30
0.0
 11
15.23625013898322
 21
5.759339067929284
 31
0.0
  0
LINE
  5
4B1
330
18
100
AcDbEntity
  8
ADP1DETAIL
100
AcDbLine
 10
12.7804535881522
 20
3.968339067929284
 30
0.0
 11
12.7804535881522
 21
5.868339067929285
 31
0.0
  0
CIRCLE
  5
4B2
330
18
100
AcDbEntity
  8
ADP1DETAIL
100
AcDbCircle
 10
17.02855723987405
 20
4.909638840922327
 30
0.0
 40
0.95
  0
CIRCLE
  5
4B3
330
18
100
AcDbEntity
  8
ADP1DETAIL
100
AcDbCircle
 10
17.02855723987405
 20
4.909638840922327
 30
0.0
 40
0.841
  0
INSERT
  5
4B4
330
18
100
AcDbEntity
  8
ADP1DETAIL
100
AcDbBlockReference
  2
7263X
 10
17.02855723987405
 20
5.580243822987016
 30
0.0
 41
0.9795894062366098
 42
0.9795894062366098
 43
0.9795894062366098
  0
LINE
  5
4B5
330
18
100
AcDbEntity
  8
ADP1DETAIL
100
AcDbLine
 10
15.23625013898322
 20
5.759339067929284
 30
0.0
 11
15.23625013898322
 21
4.167628824403838
 31
0.0
  0
LINE
  5
4B6
330
18
100
AcDbEntity
  8
ADP1DETAIL
100
AcDbLine
 10
15.29875013898322
 20
5.696839067929284
 30
0.0
 11
15.29875013898322
 21
4.230128824403838
 31
0.0
  0
LINE
  5
4B7
330
18
100
AcDbEntity
  8
ADP1DETAIL
100
AcDbLine
 10
15.29875013898322
 20
4.230128824403838
 30
0.0
 11
15.23625013898322
 21
4.167628824403838
 31
0.0
  0
LINE
  5
4B8
330
18
100
AcDbEntity
  8
ADP1DETAIL
100
AcDbLine
 10
15.23625013898322
 20
5.759339067929284
 30
0.0
 11
15.29875013898322
 21
5.696839067929284
 31
0.0
  0
LINE
  5
4B9
330
18
100
AcDbEntity
  8
ADP1DETAIL
100
AcDbLine
 10
15.2974535881522
 20
6.573204315102031
 30
0.0
 11
15.2349535881522
 21
6.510704315102031
 31
0.0
  0
CIRCLE
  5
4BA
330
18
100
AcDbEntity
  8
ADP1DETAIL
100
AcDbCircle
 10
17.02855723987405
 20
4.909638840922327
 30
0.0
 40
0.14
  0
LINE
  5
4BB
330
18
100
AcDbEntity
  8
ADP1DETAIL
100
AcDbLine
 10
12.7804535881522
 20
8.299212854136051
 30
0.0
 11
11.7304535881522
 21
8.299212854136051
 31
0.0
  0
LINE
  5
4BC
330
18
100
AcDbEntity
  8
ADP2DETAIL
  6
HIDDEN2
100
AcDbLine
 10
12.7804535881522
 20
8.190212854136049
 30
0.0
 11
11.61481042930801
 21
8.190212854136049
 31
0.0
  0
LINE
  5
4BD
330
18
100
AcDbEntity
  8
ADP2DETAIL
  6
HIDDEN2
100
AcDbLine
 10
15.2974535881522
 20
8.05740671928379
 30
0.0
 11
12.0424535881522
 21
8.05740671928379
 31
0.0
  0
ARC
  5
4BE
330
18
100
AcDbEntity
  8
ADP1DETAIL
100
AcDbCircle
 10
11.09090038745745
 20
7.349212855053451
 30
0.0
 40
0.125
100
AcDbArc
 50
134.7586901982504
 51
225.2413098017496
  0
LINE
  5
4BF
330
18
100
AcDbEntity
  8
ADP1DETAIL
100
AcDbLine
 10
11.7304535881522
 20
8.299212854136051
 30
0.0
 11
11.0028850834574
 21
7.43797267851981
 31
0.0
  0
LINE
  5
4C0
330
18
100
AcDbEntity
  8
ADP2DETAIL
  6
HIDDEN2
100
AcDbLine
 10
12.0424535881522
 20
7.20921285413605
 30
0.0
 11
11.8554535881522
 21
7.20921285413605
 31
0.0
  0
LINE
  5
4C1
330
18
100
AcDbEntity
  8
ADP2DETAIL
  6
HIDDEN2
100
AcDbLine
 10
11.8554535881522
 20
7.489212854136051
 30
0.0
 11
12.0424535881522
 21
7.489212854136051
 31
0.0
  0
LINE
  5
4C2
330
18
100
AcDbEntity
  8
ADP2DETAIL
  6
HIDDEN2
100
AcDbLine
 10
12.1049535881522
 20
8.14824534106825
 30
0.0
 11
12.0424535881522
 21
8.08574534106825
 31
0.0
  0
LINE
  5
4C3
330
18
100
AcDbEntity
  8
ADP1DETAIL
100
AcDbLine
 10
12.7804535881522
 20
8.190212854136049
 30
0.0
 11
15.2349535881522
 21
8.190212854136049
 31
0.0
  0
LINE
  5
4C4
330
18
100
AcDbEntity
  8
ADP1DETAIL
100
AcDbLine
 10
15.2349535881522
 20
8.190212854136049
 30
0.0
 11
15.2974535881522
 21
8.127712854136049
 31
0.0
  0
ARC
  5
4C5
330
18
100
AcDbEntity
  8
ADP1DETAIL
100
AcDbCircle
 10
12.26058417475473
 20
7.349212854469958
 30
0.0
 40
1.018386749891182
100
AcDbArc
 50
141.3147712775204
 51
218.6852287224796
  0
ARC
  5
4C6
330
18
100
AcDbEntity
  8
ADP1DETAIL
100
AcDbCircle
 10
10.83302657172899
 20
7.349212854469957
 30
0.0
 40
0.7884270164232059
100
AcDbArc
 50
314.8230124726548
 51
45.17698752734517
  0
TEXT
  5
4D4
330
18
100
AcDbEntity
  8
ADPDIM
100
AcDbText
 10
7.491430636981144
 20
2.794506554374901
 30
0.0
 40
0.125
  1
J U L I U S  B L U M  &  C O . ,  I N C .      ( 8 0 0 )  5 2 6 - 6 2 9 3        W W W . J U L I U S B L U M . C O M        P A R T  N o .  7 2 4 1
 41
1.25
  7
ARIAL_WIDE
 72
     1
 11
14.01715966153776
 21
2.919506554374901
 31
0.0
100
AcDbText
 73
     3
  0
ENDSEC
  0
SECTION
  2
OBJECTS
  0
DICTIONARY
  5
C
330
0
100
AcDbDictionary
  3
ACAD_GROUP
350
D
  3
ACAD_LAYOUT
350
4CD
  3
ACAD_MLINESTYLE
350
E
  3
ACAD_PLOTSETTINGS
350
4CE
  3
ACAD_PLOTSTYLENAME
350
4CB
  3
ACDBHEADERROUNDTRIPXREC
350
618
  3
ACDBVARIABLEDICTIONARY
350
52E
  0
DICTIONARY
  5
528
330
18
100
AcDbDictionary
280
     1
  3
ACAD_LAYOUTSELFREF
360
639
  0
DICTIONARY
  5
526
330
15
100
AcDbDictionary
280
     1
  3
ACAD_LAYOUTSELFREF
360
638
  0
DICTIONARY
  5
D
102
{ACAD_REACTORS
330
C
102
}
330
C
100
AcDbDictionary
  0
DICTIONARY
  5
4CD
102
{ACAD_REACTORS
330
C
102
}
330
C
100
AcDbDictionary
  0
DICTIONARY
  5
E
102
{ACAD_REACTORS
330
C
102
}
330
C
100
AcDbDictionary
  3
STANDARD
350
1B
  0
DICTIONARY
  5
4CE
102
{ACAD_REACTORS
330
C
102
}
330
C
100
AcDbDictionary
  0
ACDBDICTIONARYWDFLT
  5
4CB
102
{ACAD_REACTORS
330
C
102
}
330
C
100
AcDbDictionary
281
     1
  3
Normal
350
4CC
100
AcDbDictionaryWithDefault
340
4CC
  0
DICTIONARY
  5
618
102
{ACAD_REACTORS
330
C
102
}
330
C
100
AcDbDictionary
  3
CEPSNTYPE
350
622
  3
FINGERPRINTGUID
350
623
  3
HYPERLINKBASE
350
61B
  3
INSUNITS
350
621
  3
LAYOUTDICT
350
61D
  3
LWETCUNION
350
620
  3
PLOTSETDICT
350
61E
  3
PLOTSTYLNAMDICT
350
61F
  3
PSVPSCALE
350
625
  3
PUCSBASE
350
628
  3
PUCSORGBACK
350
62E
  3
PUCSORGBOTTOM
350
62A
  3
PUCSORGFRONT
350
62D
  3
PUCSORGLEFT
350
62B
  3
PUCSORGRIGHT
350
62C
  3
PUCSORGTOP
350
629
  3
PUCSORTHOREF
350
626
  3
PUCSORTHOVIEW
350
627
  3
STYLESHEET
350
61C
  3
TSTACKALIGN
350
619
  3
TSTACKSIZE
350
61A
  3
UCSBASE
350
631
  3
UCSORGBACK
350
637
  3
UCSORGBOTTOM
350
633
  3
UCSORGFRONT
350
636
  3
UCSORGLEFT
350
634
  3
UCSORGRIGHT
350
635
  3
UCSORGTOP
350
632
  3
UCSORTHOREF
350
62F
  3
UCSORTHOVIEW
350
630
  3
VERSIONGUID
350
624
  0
DICTIONARY
  5
52E
102
{ACAD_REACTORS
330
C
102
}
330
C
100
AcDbDictionary
  3
DIMASSOC
350
52F
  0
XRECORD
  5
639
102
{ACAD_REACTORS
330
528
102
}
330
528
100
AcDbXrecord
340
18
  0
XRECORD
  5
638
102
{ACAD_REACTORS
330
526
102
}
330
526
100
AcDbXrecord
340
15
  0
MLINESTYLE
  5
1B
102
{ACAD_REACTORS
330
E
102
}
330
E
100
AcDbMlineStyle
  2
STANDARD
 70
     0
  3

 62
     0
 51
90.0
 52
90.0
 71
     2
 49
0.5
 62
   256
  6
BYLAYER
 49
-0.5
 62
   256
  6
BYLAYER
  0
ACDBPLACEHOLDER
  5
4CC
102
{ACAD_REACTORS
330
4CB
102
}
330
4CB
100
AcDbPlaceHolder
280
     0
  0
XRECORD
  5
622
102
{ACAD_REACTORS
330
618
102
}
330
618
100
AcDbXrecord
 90
        0
  0
XRECORD
  5
623
102
{ACAD_REACTORS
330
618
102
}
330
618
100
AcDbXrecord
  1
{E58D2785-6EC0-4B03-9890-303CC207A94A}
  0
XRECORD
  5
61B
102
{ACAD_REACTORS
330
618
102
}
330
618
100
AcDbXrecord
  1

  0
XRECORD
  5
621
102
{ACAD_REACTORS
330
618
102
}
330
618
100
AcDbXrecord
 90
        0
  0
XRECORD
  5
61D
102
{ACAD_REACTORS
330
618
102
}
330
618
100
AcDbXrecord
340
4CD
  0
XRECORD
  5
620
102
{ACAD_REACTORS
330
618
102
}
330
618
100
AcDbXrecord
 90
    14877
  0
XRECORD
  5
61E
102
{ACAD_REACTORS
330
618
102
}
330
618
100
AcDbXrecord
340
4CE
  0
XRECORD
  5
61F
102
{ACAD_REACTORS
330
618
102
}
330
618
100
AcDbXrecord
340
4CB
  0
XRECORD
  5
625
102
{ACAD_REACTORS
330
618
102
}
330
618
100
AcDbXrecord
 40
0.0
  0
XRECORD
  5
628
102
{ACAD_REACTORS
330
618
102
}
330
618
100
AcDbXrecord
340
0
  0
XRECORD
  5
62E
102
{ACAD_REACTORS
330
618
102
}
330
618
100
AcDbXrecord
 10
0.0
 20
0.0
 30
0.0
  0
XRECORD
  5
62A
102
{ACAD_REACTORS
330
618
102
}
330
618
100
AcDbXrecord
 10
0.0
 20
0.0
 30
0.0
  0
XRECORD
  5
62D
102
{ACAD_REACTORS
330
618
102
}
330
618
100
AcDbXrecord
 10
0.0
 20
0.0
 30
0.0
  0
XRECORD
  5
62B
102
{ACAD_REACTORS
330
618
102
}
330
618
100
AcDbXrecord
 10
0.0
 20
0.0
 30
0.0
  0
XRECORD
  5
62C
102
{ACAD_REACTORS
330
618
102
}
330
618
100
AcDbXrecord
 10
0.0
 20
0.0
 30
0.0
  0
XRECORD
  5
629
102
{ACAD_REACTORS
330
618
102
}
330
618
100
AcDbXrecord
 10
0.0
 20
0.0
 30
0.0
  0
XRECORD
  5
626
102
{ACAD_REACTORS
330
618
102
}
330
618
100
AcDbXrecord
340
0
  0
XRECORD
  5
627
102
{ACAD_REACTORS
330
618
102
}
330
618
100
AcDbXrecord
 70
     0
  0
XRECORD
  5
61C
102
{ACAD_REACTORS
330
618
102
}
330
618
100
AcDbXrecord
  1

  0
XRECORD
  5
619
102
{ACAD_REACTORS
330
618
102
}
330
618
100
AcDbXrecord
 90
        1
  0
XRECORD
  5
61A
102
{ACAD_REACTORS
330
618
102
}
330
618
100
AcDbXrecord
 90
       70
  0
XRECORD
  5
631
102
{ACAD_REACTORS
330
618
102
}
330
618
100
AcDbXrecord
340
0
  0
XRECORD
  5
637
102
{ACAD_REACTORS
330
618
102
}
330
618
100
AcDbXrecord
 10
0.0
 20
0.0
 30
0.0
  0
XRECORD
  5
633
102
{ACAD_REACTORS
330
618
102
}
330
618
100
AcDbXrecord
 10
0.0
 20
0.0
 30
0.0
  0
XRECORD
  5
636
102
{ACAD_REACTORS
330
618
102
}
330
618
100
AcDbXrecord
 10
0.0
 20
0.0
 30
0.0
  0
XRECORD
  5
634
102
{ACAD_REACTORS
330
618
102
}
330
618
100
AcDbXrecord
 10
0.0
 20
0.0
 30
0.0
  0
XRECORD
  5
635
102
{ACAD_REACTORS
330
618
102
}
330
618
100
AcDbXrecord
 10
0.0
 20
0.0
 30
0.0
  0
XRECORD
  5
632
102
{ACAD_REACTORS
330
618
102
}
330
618
100
AcDbXrecord
 10
0.0
 20
0.0
 30
0.0
  0
XRECORD
  5
62F
102
{ACAD_REACTORS
330
618
102
}
330
618
100
AcDbXrecord
340
0
  0
XRECORD
  5
630
102
{ACAD_REACTORS
330
618
102
}
330
618
100
AcDbXrecord
 70
     0
  0
XRECORD
  5
624
102
{ACAD_REACTORS
330
618
102
}
330
618
100
AcDbXrecord
  1
{06CFB72C-293B-4C32-AB7C-C445D6AC7A22}
  0
DICTIONARYVAR
  5
52F
102
{ACAD_REACTORS
330
52E
102
}
330
52E
100
DictionaryVariables
280
     0
  1
1
  0
ENDSEC
  0
EOF
