  0
SECTION
  2
HEADER
  9
$ACADVER
  1
AC1014
  9
$ACADMAINTVER
 70
     9
  9
$DWGCODEPAGE
  3
ANSI_1252
  9
$INSBASE
 10
8.389932460385766
 20
1.964719668488276
 30
0.0
  9
$EXTMIN
 10
1.050282816459029
 20
-0.2641957745003105
 30
0.0
  9
$EXTMAX
 10
20.62746989012887
 20
10.08453209516884
 30
0.0
  9
$LIMMIN
 10
0.0
 20
0.0
  9
$LIMMAX
 10
36.0
 20
36.0
  9
$ORTHOMODE
 70
     1
  9
$REGENMODE
 70
     1
  9
$FILLMODE
 70
     1
  9
$QTEXTMODE
 70
     0
  9
$MIRRTEXT
 70
     1
  9
$DRAGMODE
 70
     0
  9
$LTSCALE
 40
1.0
  9
$OSMODE
 70
    37
  9
$ATTMODE
 70
     1
  9
$TEXTSIZE
 40
0.2
  9
$TRACEWID
 40
0.05
  9
$TEXTSTYLE
  7
STANDARD
  9
$CLAYER
  8
ADPDIM
  9
$CELTYPE
  6
BYLAYER
  9
$CECOLOR
 62
   256
  9
$CELTSCALE
 40
1.0
  9
$DELOBJ
 70
     1
  9
$DISPSILH
 70
     0
  9
$DIMSCALE
 40
1.0
  9
$DIMASZ
 40
0.125
  9
$DIMEXO
 40
0.0625
  9
$DIMDLI
 40
0.38
  9
$DIMRND
 40
0.0
  9
$DIMDLE
 40
0.0
  9
$DIMEXE
 40
0.18
  9
$DIMTP
 40
0.0
  9
$DIMTM
 40
0.0
  9
$DIMTXT
 40
0.125
  9
$DIMCEN
 40
0.1875
  9
$DIMTSZ
 40
0.125
  9
$DIMTOL
 70
     0
  9
$DIMLIM
 70
     0
  9
$DIMTIH
 70
     0
  9
$DIMTOH
 70
     0
  9
$DIMSE1
 70
     0
  9
$DIMSE2
 70
     0
  9
$DIMTAD
 70
     0
  9
$DIMZIN
 70
     3
  9
$DIMBLK
  1

  9
$DIMASO
 70
     1
  9
$DIMSHO
 70
     1
  9
$DIMPOST
  1

  9
$DIMAPOST
  1

  9
$DIMALT
 70
     0
  9
$DIMALTD
 70
     1
  9
$DIMALTF
 40
25.4
  9
$DIMLFAC
 40
1.0
  9
$DIMTOFL
 70
     0
  9
$DIMTVP
 40
0.0
  9
$DIMTIX
 70
     0
  9
$DIMSOXD
 70
     0
  9
$DIMSAH
 70
     0
  9
$DIMBLK1
  1

  9
$DIMBLK2
  1

  9
$DIMSTYLE
  2
STANDARD
  9
$DIMCLRD
 70
     0
  9
$DIMCLRE
 70
     0
  9
$DIMCLRT
 70
     0
  9
$DIMTFAC
 40
1.0
  9
$DIMGAP
 40
0.125
  9
$DIMJUST
 70
     0
  9
$DIMSD1
 70
     0
  9
$DIMSD2
 70
     0
  9
$DIMTOLJ
 70
     1
  9
$DIMTZIN
 70
     0
  9
$DIMALTZ
 70
     0
  9
$DIMALTTZ
 70
     0
  9
$DIMFIT
 70
     3
  9
$DIMUPT
 70
     0
  9
$DIMUNIT
 70
     2
  9
$DIMDEC
 70
     4
  9
$DIMTDEC
 70
     4
  9
$DIMALTU
 70
     2
  9
$DIMALTTD
 70
     2
  9
$DIMTXSTY
  7
STANDARD
  9
$DIMAUNIT
 70
     0
  9
$LUNITS
 70
     5
  9
$LUPREC
 70
     4
  9
$SKETCHINC
 40
0.1
  9
$FILLETRAD
 40
0.0
  9
$AUNITS
 70
     0
  9
$AUPREC
 70
     0
  9
$MENU
  1
acad
  9
$ELEVATION
 40
0.0
  9
$PELEVATION
 40
0.0
  9
$THICKNESS
 40
0.0
  9
$LIMCHECK
 70
     0
  9
$BLIPMODE
 70
     0
  9
$CHAMFERA
 40
0.0
  9
$CHAMFERB
 40
0.0
  9
$CHAMFERC
 40
0.0
  9
$CHAMFERD
 40
0.0
  9
$SKPOLY
 70
     0
  9
$TDCREATE
 40
2450227.384715659
  9
$TDUPDATE
 40
2452297.100115370
  9
$TDINDWG
 40
0.0218226505
  9
$TDUSRTIMER
 40
0.0218226505
  9
$USRTIMER
 70
     1
  9
$ANGBASE
 50
0.0
  9
$ANGDIR
 70
     0
  9
$PDMODE
 70
     0
  9
$PDSIZE
 40
0.0
  9
$PLINEWID
 40
0.0
  9
$COORDS
 70
     2
  9
$SPLFRAME
 70
     0
  9
$SPLINETYPE
 70
     6
  9
$SPLINESEGS
 70
     8
  9
$ATTDIA
 70
     0
  9
$ATTREQ
 70
     1
  9
$HANDLING
 70
 22529
  9
$HANDSEED
  5
AE1
  9
$SURFTAB1
 70
     6
  9
$SURFTAB2
 70
     6
  9
$SURFTYPE
 70
     6
  9
$SURFU
 70
     6
  9
$SURFV
 70
     6
  9
$UCSNAME
  2

  9
$UCSORG
 10
0.0
 20
0.0
 30
0.0
  9
$UCSXDIR
 10
1.0
 20
0.0
 30
0.0
  9
$UCSYDIR
 10
0.0
 20
1.0
 30
0.0
  9
$PUCSNAME
  2

  9
$PUCSORG
 10
0.0
 20
0.0
 30
0.0
  9
$PUCSXDIR
 10
1.0
 20
0.0
 30
0.0
  9
$PUCSYDIR
 10
0.0
 20
1.0
 30
0.0
  9
$USERI1
 70
     0
  9
$USERI2
 70
     0
  9
$USERI3
 70
     0
  9
$USERI4
 70
     0
  9
$USERI5
 70
     0
  9
$USERR1
 40
0.0
  9
$USERR2
 40
0.0
  9
$USERR3
 40
0.0
  9
$USERR4
 40
0.0
  9
$USERR5
 40
0.0
  9
$WORLDVIEW
 70
     1
  9
$SHADEDGE
 70
     3
  9
$SHADEDIF
 70
    70
  9
$TILEMODE
 70
     1
  9
$MAXACTVP
 70
    15
  9
$PINSBASE
 10
0.0004882947541773
 20
0.7501380653138911
 30
0.0
  9
$PLIMCHECK
 70
     0
  9
$PEXTMIN
 10
1.000000000000000E+20
 20
1.000000000000000E+20
 30
1.000000000000000E+20
  9
$PEXTMAX
 10
-1.000000000000000E+20
 20
-1.000000000000000E+20
 30
-1.000000000000000E+20
  9
$PLIMMIN
 10
0.0
 20
0.0
  9
$PLIMMAX
 10
12.0
 20
9.0
  9
$UNITMODE
 70
     0
  9
$VISRETAIN
 70
     0
  9
$PLINEGEN
 70
     0
  9
$PSLTSCALE
 70
     1
  9
$TREEDEPTH
 70
  3020
  9
$PICKSTYLE
 70
     1
  9
$CMLSTYLE
  2
STANDARD
  9
$CMLJUST
 70
     0
  9
$CMLSCALE
 40
1.0
  9
$PROXYGRAPHICS
 70
     1
  9
$MEASUREMENT
 70
     0
  0
ENDSEC
  0
SECTION
  2
CLASSES
  0
CLASS
  1
ACDBDICTIONARYWDFLT
  2
AcDbDictionaryWithDefault
  3
AutoCAD 2000
 90
        0
280
     0
281
     0
  0
CLASS
  1
ACDBPLACEHOLDER
  2
AcDbPlaceHolder
  3
AutoCAD 2000
 90
        0
280
     0
281
     0
  0
CLASS
  1
LAYOUT
  2
AcDbLayout
  3
AutoCAD 2000
 90
        0
280
     0
281
     0
  0
CLASS
  1
DICTIONARYVAR
  2
AcDbDictionaryVar
  3
AutoCAD 2000
 90
        0
280
     0
281
     0
  0
CLASS
  1
LONG_TRANSACTION
  2
AcDbLongTransaction
  3
AutoCAD 2000
 90
        0
280
     0
281
     0
  0
CLASS
  1
LWPOLYLINE
  2
AcDbPolyline
  3
AutoCAD 2000
 90
        0
280
     0
281
     1
  0
CLASS
  1
HATCH
  2
AcDbHatch
  3
AutoCAD 2000
 90
        0
280
     0
281
     1
  0
CLASS
  1
XRECORD
  2
AcDbXrecord
  3
AutoCAD 2000
 90
        0
280
     0
281
     0
  0
CLASS
  1
LONG_TRANSACTION
  2
AcDbLongTransaction
  3
AutoCAD 2000
 90
        0
280
     0
281
     0
  0
CLASS
  1
LWPOLYLINE
  2
AcDbPolyline
  3
AutoCAD 2000
 90
        0
280
     0
281
     1
  0
CLASS
  1
HATCH
  2
AcDbHatch
  3
AutoCAD 2000
 90
        0
280
     0
281
     1
  0
CLASS
  1
XRECORD
  2
AcDbXrecord
  3
AutoCAD 2000
 90
        0
280
     0
281
     0
  0
CLASS
  1
LONG_TRANSACTION
  2
AcDbLongTransaction
  3
AutoCAD 2000
 90
        0
280
     0
281
     0
  0
CLASS
  1
LWPOLYLINE
  2
AcDbPolyline
  3
AutoCAD 2000
 90
        0
280
     0
281
     1
  0
CLASS
  1
HATCH
  2
AcDbHatch
  3
AutoCAD 2000
 90
        0
280
     0
281
     1
  0
CLASS
  1
XRECORD
  2
AcDbXrecord
  3
AutoCAD 2000
 90
        0
280
     0
281
     0
  0
CLASS
  1
LONG_TRANSACTION
  2
AcDbLongTransaction
  3
AutoCAD 2000
 90
        0
280
     0
281
     0
  0
CLASS
  1
LWPOLYLINE
  2
AcDbPolyline
  3
AutoCAD 2000
 90
        0
280
     0
281
     1
  0
CLASS
  1
HATCH
  2
AcDbHatch
  3
AutoCAD 2000
 90
        0
280
     0
281
     1
  0
CLASS
  1
XRECORD
  2
AcDbXrecord
  3
AutoCAD 2000
 90
        0
280
     0
281
     0
  0
CLASS
  1
LONG_TRANSACTION
  2
AcDbLongTransaction
  3
AutoCAD 2000
 90
        0
280
     0
281
     0
  0
CLASS
  1
LWPOLYLINE
  2
AcDbPolyline
  3
AutoCAD 2000
 90
        0
280
     0
281
     1
  0
CLASS
  1
HATCH
  2
AcDbHatch
  3
AutoCAD 2000
 90
        0
280
     0
281
     1
  0
CLASS
  1
XRECORD
  2
AcDbXrecord
  3
AutoCAD 2000
 90
        0
280
     0
281
     0
  0
ENDSEC
  0
SECTION
  2
TABLES
  0
TABLE
  2
VPORT
  5
8
330
0
100
AcDbSymbolTable
 70
     2
  0
VPORT
  5
ABE
330
8
100
AcDbSymbolTableRecord
100
AcDbViewportTableRecord
  2
*ACTIVE
 70
     0
 10
0.0
 20
0.0
 11
1.0
 21
1.0
 12
10.85409034295606
 22
4.909747577127229
 13
0.0
 23
0.0
 14
0.5740882589684922
 24
0.5740882589684922
 15
0.5
 25
0.5
 16
0.0
 26
0.0
 36
1.0
 17
0.0
 27
0.0
 37
0.0
 40
12.54751368323494
 41
1.570528967254408
 42
50.0
 43
0.0
 44
0.0
 50
0.0
 51
0.0
 71
     0
 72
   100
 73
     1
 74
     0
 75
     0
 76
     0
 77
     0
 78
     0
  0
ENDTAB
  0
TABLE
  2
LTYPE
  5
5
330
0
100
AcDbSymbolTable
 70
     3
  0
LTYPE
  5
12
330
5
100
AcDbSymbolTableRecord
100
AcDbLinetypeTableRecord
  2
BYBLOCK
 70
     0
  3

 72
    65
 73
     0
 40
0.0
  0
LTYPE
  5
13
330
5
100
AcDbSymbolTableRecord
100
AcDbLinetypeTableRecord
  2
BYLAYER
 70
     0
  3

 72
    65
 73
     0
 40
0.0
  0
LTYPE
  5
14
330
5
100
AcDbSymbolTableRecord
100
AcDbLinetypeTableRecord
  2
CONTINUOUS
 70
     0
  3
Solid line
 72
    65
 73
     0
 40
0.0
  0
LTYPE
  5
3B
330
5
100
AcDbSymbolTableRecord
100
AcDbLinetypeTableRecord
  2
CENTER2
 70
     0
  3
___ _ ___ _ ___ _ ___ _ ___ _ ___ _ ___ _ ___ _
 72
    65
 73
     4
 40
1.125
 49
0.75
 74
     0
 49
-0.125
 74
     0
 49
0.125
 74
     0
 49
-0.125
 74
     0
  0
LTYPE
  5
4A
330
5
100
AcDbSymbolTableRecord
100
AcDbLinetypeTableRecord
  2
HIDDEN2
 70
     0
  3
_ _ _ _ _ _ _ _ _ _ _ _ _ _ _ _ _ _ _ _ _ _ _ _
 72
    65
 73
     2
 40
0.1875
 49
0.125
 74
     0
 49
-0.0625
 74
     0
  0
ENDTAB
  0
TABLE
  2
LAYER
  5
2
330
0
100
AcDbSymbolTable
 70
     6
  0
LAYER
  5
F
330
2
100
AcDbSymbolTableRecord
100
AcDbLayerTableRecord
  2
0
 70
     0
 62
     7
  6
CONTINUOUS
  0
LAYER
  5
4B
330
2
100
AcDbSymbolTableRecord
100
AcDbLayerTableRecord
  2
ADP2DETAIL
 70
     0
 62
     5
  6
CONTINUOUS
  0
LAYER
  5
4C
330
2
100
AcDbSymbolTableRecord
100
AcDbLayerTableRecord
  2
ADPDIM
 70
     0
 62
     3
  6
CONTINUOUS
  0
LAYER
  5
4E
330
2
100
AcDbSymbolTableRecord
100
AcDbLayerTableRecord
  2
ADP1DETAIL
 70
     0
 62
     7
  6
CONTINUOUS
  0
LAYER
  5
4F
330
2
100
AcDbSymbolTableRecord
100
AcDbLayerTableRecord
  2
ADP3DETAIL
 70
     0
 62
     1
  6
CONTINUOUS
  0
LAYER
  5
50
330
2
100
AcDbSymbolTableRecord
100
AcDbLayerTableRecord
  2
DEFPOINTS
 70
     0
 62
     7
  6
CONTINUOUS
  0
ENDTAB
  0
TABLE
  2
STYLE
  5
3
330
0
100
AcDbSymbolTable
 70
     2
  0
STYLE
  5
10
330
3
100
AcDbSymbolTableRecord
100
AcDbTextStyleTableRecord
  2
STANDARD
 70
     0
 40
0.0
 41
1.0
 50
0.0
 71
     0
 42
0.2
  3
txt
  4

  0
STYLE
  5
97A
330
3
100
AcDbSymbolTableRecord
100
AcDbTextStyleTableRecord
  2
ARIAL_WIDE
 70
     0
 40
0.0
 41
1.25
 50
0.0
 71
     0
 42
0.2
  3
ARIAL.TTF
  4

1001
ACAD
1000
Arial
1071
       34
  0
ENDTAB
  0
TABLE
  2
VIEW
  5
6
330
0
100
AcDbSymbolTable
 70
     0
  0
ENDTAB
  0
TABLE
  2
UCS
  5
7
330
0
100
AcDbSymbolTable
 70
     0
  0
ENDTAB
  0
TABLE
  2
APPID
  5
9
330
0
100
AcDbSymbolTable
 70
     1
  0
APPID
  5
11
330
9
100
AcDbSymbolTableRecord
100
AcDbRegAppTableRecord
  2
ACAD
 70
     0
  0
ENDTAB
  0
TABLE
  2
DIMSTYLE
  5
A
330
0
100
AcDbSymbolTable
 70
     1
  0
DIMSTYLE
105
96E
330
A
100
AcDbSymbolTableRecord
100
AcDbDimStyleTableRecord
  2
STANDARD
 70
     0
  3

  4

  5

  6

  7

 40
1.0
 41
0.18
 42
0.0625
 43
0.38
 44
0.18
 45
0.0
 46
0.0
 47
0.0
 48
0.0
140
0.18
141
0.09
142
0.0
143
25.4
144
1.0
145
0.0
146
1.0
147
0.09
 71
     0
 72
     0
 73
     1
 74
     1
 75
     0
 76
     0
 77
     0
 78
     0
170
     0
171
     2
172
     0
173
     0
174
     0
175
     0
176
     0
177
     0
178
     0
270
     2
271
     4
272
     4
273
     2
274
     2
340
10
275
     0
280
     0
281
     0
282
     0
283
     1
284
     0
285
     0
286
     0
287
     3
288
     0
  0
ENDTAB
  0
TABLE
  2
BLOCK_RECORD
  5
1
330
0
100
AcDbSymbolTable
 70
     3
  0
BLOCK_RECORD
  5
18
102
{ACAD_XDICTIONARY
360
9CF
102
}
330
1
100
AcDbSymbolTableRecord
100
AcDbBlockTableRecord
  2
*MODEL_SPACE
  0
BLOCK_RECORD
  5
15
102
{ACAD_XDICTIONARY
360
9CD
102
}
330
1
100
AcDbSymbolTableRecord
100
AcDbBlockTableRecord
  2
*PAPER_SPACE
  0
BLOCK_RECORD
  5
2B
330
1
100
AcDbSymbolTableRecord
100
AcDbBlockTableRecord
  2
7263X
  0
BLOCK_RECORD
  5
35
330
1
100
AcDbSymbolTableRecord
100
AcDbBlockTableRecord
  2
*D1
  0
BLOCK_RECORD
  5
36
330
1
100
AcDbSymbolTableRecord
100
AcDbBlockTableRecord
  2
*D2
  0
ENDTAB
  0
ENDSEC
  0
SECTION
  2
BLOCKS
  0
BLOCK
  5
53
330
18
100
AcDbEntity
  8
0
100
AcDbBlockBegin
  2
*MODEL_SPACE
 70
     0
 10
0.0
 20
0.0
 30
0.0
  3
*MODEL_SPACE
  1

  0
ENDBLK
  5
54
330
18
100
AcDbEntity
  8
0
100
AcDbBlockEnd
  0
BLOCK
  5
51
330
15
100
AcDbEntity
 67
     1
  8
0
100
AcDbBlockBegin
  2
*PAPER_SPACE
 70
     0
 10
0.0
 20
0.0
 30
0.0
  3
*PAPER_SPACE
  1

  0
ENDBLK
  5
52
330
15
100
AcDbEntity
 67
     1
  8
0
100
AcDbBlockEnd
  0
BLOCK
  5
56
330
2B
100
AcDbEntity
  8
0
100
AcDbBlockBegin
  2
7263X
 70
     0
 10
0.0
 20
0.0
 30
0.0
  3
7263X
  1

  0
LWPOLYLINE
  5
57
330
2B
100
AcDbEntity
  8
ADP1DETAIL
100
AcDbPolyline
 90
        2
 70
     0
 43
0.0
 10
-0.4756288923666579
 20
-0.0101146179785607
 10
-0.5078860039464517
 20
-0.0032091063043922
  0
LWPOLYLINE
  5
5B
330
2B
100
AcDbEntity
  8
ADP1DETAIL
100
AcDbPolyline
 90
        2
 70
     0
 43
0.0
 10
-0.5074721360251542
 20
-1.367120456922418
 10
-0.4748324473249271
 20
-1.362339446516066
  0
ARC
  5
5F
330
2B
100
AcDbEntity
  8
ADP1DETAIL
100
AcDbCircle
 10
-0.0003115395485556
 20
-0.7249999330642105
 30
0.0
 40
0.725
100
AcDbArc
 50
300.0687664065313
 51
239.8819924849639
  0
LWPOLYLINE
  5
60
330
2B
100
AcDbEntity
  8
ADP1DETAIL
100
AcDbPolyline
 90
        2
 70
     0
 43
0.0
 10
-0.7970643991473385
 20
-0.9008277698448882
 10
-0.8145860394360976
 20
-0.9287777154717524
  0
LWPOLYLINE
  5
64
330
2B
100
AcDbEntity
  8
ADP1DETAIL
100
AcDbPolyline
 90
        2
 70
     0
 43
0.0
 10
-0.783167146768252
 20
-0.9467896820097038
 10
-0.799033998408286
 20
-0.9757111335290634
  0
LWPOLYLINE
  5
68
330
2B
100
AcDbEntity
  8
ADP1DETAIL
100
AcDbPolyline
 90
        2
 70
     0
 43
0.0
 10
-0.7988693883201159
 20
-0.976214015574712
 10
-0.7689721181002232
 20
-0.9901553416361805
  0
LWPOLYLINE
  5
6C
330
2B
100
AcDbEntity
  8
ADP1DETAIL
100
AcDbPolyline
 90
        2
 70
     0
 43
0.0
 10
-0.8144509478326526
 20
-0.9292893179459863
 10
-0.7854148750807206
 20
-0.9449454291520943
  0
LWPOLYLINE
  5
70
330
2B
100
AcDbEntity
  8
ADP1DETAIL
100
AcDbPolyline
 90
        2
 70
     0
 43
0.0
 10
-0.7988693883201142
 20
-0.9762140155747122
 10
-0.7689721181002196
 20
-0.9901553416361792
  0
LWPOLYLINE
  5
74
330
2B
100
AcDbEntity
  8
ADP1DETAIL
100
AcDbPolyline
 90
        2
 70
     0
 43
0.0
 10
-0.7988693883201142
 20
-0.9762140155747122
 10
-0.7689721181002196
 20
-0.990155341636181
  0
LWPOLYLINE
  5
78
330
2B
100
AcDbEntity
  8
ADP1DETAIL
100
AcDbPolyline
 90
        2
 70
     0
 43
0.0
 10
-0.7831671467682502
 20
-0.9467896820097038
 10
-0.7990339984082824
 20
-0.9757111335290623
  0
LWPOLYLINE
  5
7C
330
2B
100
AcDbEntity
  8
ADP1DETAIL
100
AcDbPolyline
 90
        2
 70
     0
 43
0.0
 10
-0.5473895084231555
 20
-1.303144309711206
 10
-0.5466698792618226
 20
-1.336124447261308
  0
LWPOLYLINE
  5
80
330
2B
100
AcDbEntity
  8
ADP1DETAIL
100
AcDbPolyline
 90
        2
 70
     0
 43
0.0
 10
-0.5824058381086546
 20
-1.270288752359509
 10
-0.5836050509012627
 20
-1.303254935451148
  0
LWPOLYLINE
  5
84
330
2B
100
AcDbEntity
  8
ADP1DETAIL
100
AcDbPolyline
 90
        2
 70
     0
 43
0.0
 10
-0.5832322569037225
 20
-1.30363045038875
 10
-0.5502582246713624
 20
-1.302671004041748
  0
LWPOLYLINE
  5
88
330
2B
100
AcDbEntity
  8
ADP1DETAIL
100
AcDbPolyline
 90
        2
 70
     0
 43
0.0
 10
-0.5473895084231573
 20
-1.303144309711207
 10
-0.5466698792618261
 20
-1.336124447261308
  0
LWPOLYLINE
  5
8C
330
2B
100
AcDbEntity
  8
ADP1DETAIL
100
AcDbPolyline
 90
        2
 70
     0
 43
0.0
 10
-0.5462758817209275
 20
-1.336477650843864
 10
-0.5134134231759569
 20
-1.33360255826559
  0
LWPOLYLINE
  5
90
330
2B
100
AcDbEntity
  8
ADP1DETAIL
100
AcDbPolyline
 90
        2
 70
     0
 43
0.0
 10
-0.5462758817209275
 20
-1.336477650843863
 10
-0.5134134231759587
 20
-1.333602558265588
  0
LWPOLYLINE
  5
94
330
2B
100
AcDbEntity
  8
ADP1DETAIL
100
AcDbPolyline
 90
        2
 70
     0
 43
0.0
 10
-0.5105220400644322
 20
-1.33390826216132
 10
-0.5078860039464535
 20
-1.366790759824028
  0
LWPOLYLINE
  5
98
330
2B
100
AcDbEntity
  8
ADP1DETAIL
100
AcDbPolyline
 90
        2
 70
     0
 43
0.0
 10
-0.5462758817209239
 20
-1.336477650843862
 10
-0.5134134231759533
 20
-1.333602558265589
  0
LWPOLYLINE
  5
9C
330
2B
100
AcDbEntity
  8
ADP1DETAIL
100
AcDbPolyline
 90
        2
 70
     0
 43
0.0
 10
-0.6751968546342089
 20
-1.160317285882309
 10
-0.6821023663083783
 20
-1.192574397462104
  0
LWPOLYLINE
  5
A0
330
2B
100
AcDbEntity
  8
ADP1DETAIL
100
AcDbPolyline
 90
        2
 70
     0
 43
0.0
 10
-0.6464178093382516
 20
-1.198754215330268
 10
-0.6514360537456559
 20
-1.231358272777478
  0
LWPOLYLINE
  5
A4
330
2B
100
AcDbEntity
  8
ADP1DETAIL
100
AcDbPolyline
 90
        2
 70
     0
 43
0.0
 10
-0.6511093750711692
 20
-1.231774527358952
 10
-0.6182469165261986
 20
-1.23464961993723
  0
LWPOLYLINE
  5
A8
330
2B
100
AcDbEntity
  8
ADP1DETAIL
100
AcDbPolyline
 90
        2
 70
     0
 43
0.0
 10
-0.6818004433739256
 20
-1.193008942482344
 10
-0.6491607546736966
 20
-1.197789952888697
  0
LWPOLYLINE
  5
AC
330
2B
100
AcDbEntity
  8
ADP1DETAIL
100
AcDbPolyline
 90
        2
 70
     0
 43
0.0
 10
-0.6154525449454327
 20
-1.235452762912126
 10
-0.618566541935492
 20
-1.268293444416918
  0
LWPOLYLINE
  5
B0
330
2B
100
AcDbEntity
  8
ADP1DETAIL
100
AcDbPolyline
 90
        2
 70
     0
 43
0.0
 10
-0.6511093750711621
 20
-1.231774527358954
 10
-0.6182469165261915
 20
-1.23464961993723
  0
LWPOLYLINE
  5
B4
330
2B
100
AcDbEntity
  8
ADP1DETAIL
100
AcDbPolyline
 90
        2
 70
     0
 43
0.0
 10
-0.6511093750711621
 20
-1.231774527358955
 10
-0.6182469165261915
 20
-1.234649619937232
  0
LWPOLYLINE
  5
B8
330
2B
100
AcDbEntity
  8
ADP1DETAIL
100
AcDbPolyline
 90
        2
 70
     0
 43
0.0
 10
-0.6464178093382427
 20
-1.19875421533027
 10
-0.6514360537456488
 20
-1.23135827277748
  0
LWPOLYLINE
  5
BC
330
2B
100
AcDbEntity
  8
ADP1DETAIL
100
AcDbPolyline
 90
        2
 70
     0
 43
0.0
 10
-0.7258144981913231
 20
-1.07875395705489
 10
-0.7364181393505019
 20
-1.109991276612124
  0
LWPOLYLINE
  5
C0
330
2B
100
AcDbEntity
  8
ADP1DETAIL
100
AcDbPolyline
 90
        2
 70
     0
 43
0.0
 10
-0.7361687055086397
 20
-1.110457934507694
 10
-0.7043047561373546
 20
-1.118995854009399
  0
LWPOLYLINE
  5
C4
330
2B
100
AcDbEntity
  8
ADP1DETAIL
100
AcDbPolyline
 90
        2
 70
     0
 43
0.0
 10
-0.7474818223693221
 20
-1.035903542161919
 10
-0.7598838124471894
 20
-1.066471466217403
  0
LWPOLYLINE
  5
C8
330
2B
100
AcDbEntity
  8
ADP1DETAIL
100
AcDbPolyline
 90
        2
 70
     0
 43
0.0
 10
-0.7596619343514086
 20
-1.066951837889732
 10
-0.7283483296079863
 20
-1.077328036467551
  0
LWPOLYLINE
  5
CC
330
2B
100
AcDbEntity
  8
ADP1DETAIL
100
AcDbPolyline
 90
        2
 70
     0
 43
0.0
 10
-0.78058576182486
 20
-1.022153336929867
 10
-0.7499284570356708
 20
-1.034332704812322
  0
LWPOLYLINE
  5
D0
330
2B
100
AcDbEntity
  8
ADP1DETAIL
100
AcDbPolyline
 90
        2
 70
     0
 43
0.0
 10
-0.701692301653829
 20
-1.120272032970575
 10
-0.7104617145291426
 20
-1.152073050828114
  0
LWPOLYLINE
  5
D4
330
2B
100
AcDbEntity
  8
ADP1DETAIL
100
AcDbPolyline
 90
        2
 70
     0
 43
0.0
 10
-0.7101855689463635
 20
-1.152524415924326
 10
-0.6778790924655867
 20
-1.159195166732933
  0
LWPOLYLINE
  5
D8
330
2B
100
AcDbEntity
  8
ADP1DETAIL
100
AcDbPolyline
 90
        2
 70
     0
 43
0.0
 10
-0.7361687055086468
 20
-1.110457934507694
 10
-0.7043047561373599
 20
-1.118995854009397
  0
LWPOLYLINE
  5
DC
330
2B
100
AcDbEntity
  8
ADP1DETAIL
100
AcDbPolyline
 90
        2
 70
     0
 43
0.0
 10
-0.7361687055086468
 20
-1.110457934507694
 10
-0.7043047561373599
 20
-1.118995854009399
  0
LWPOLYLINE
  5
E0
330
2B
100
AcDbEntity
  8
ADP1DETAIL
100
AcDbPolyline
 90
        2
 70
     0
 43
0.0
 10
-0.7258144981913284
 20
-1.078753957054889
 10
-0.7364181393505072
 20
-1.109991276612123
  0
LWPOLYLINE
  5
E4
330
2B
100
AcDbEntity
  8
ADP1DETAIL
100
AcDbPolyline
 90
        2
 70
     0
 43
0.0
 10
-0.6182162128981923
 20
-1.268690000085886
 10
-0.5852421806658339
 20
-1.269649446432889
  0
LWPOLYLINE
  5
E8
330
2B
100
AcDbEntity
  8
ADP1DETAIL
100
AcDbPolyline
 90
        2
 70
     0
 43
0.0
 10
-0.766620958821433
 20
-0.991865780531681
 10
-0.780779333409321
 20
-1.021660876906458
  0
LWPOLYLINE
  5
EC
330
2B
100
AcDbEntity
  8
ADP1DETAIL
100
AcDbPolyline
 90
        2
 70
     0
 43
0.0
 10
-0.6517892573282081
 20
-0.1390355908918381
 10
-0.6489141647499346
 20
-0.1718980494368083
  0
LWPOLYLINE
  5
F0
330
2B
100
AcDbEntity
  8
ADP1DETAIL
100
AcDbPolyline
 90
        2
 70
     0
 43
0.0
 10
-0.6517892573282081
 20
-0.1390355908918395
 10
-0.6489141647499328
 20
-0.1718980494368092
  0
LWPOLYLINE
  5
F4
330
2B
100
AcDbEntity
  8
ADP1DETAIL
100
AcDbPolyline
 90
        2
 70
     0
 43
0.0
 10
-0.6517892573282081
 20
-0.139035590891839
 10
-0.6489141647499346
 20
-0.1718980494368101
  0
LWPOLYLINE
  5
F8
330
2B
100
AcDbEntity
  8
ADP1DETAIL
100
AcDbPolyline
 90
        2
 70
     0
 43
0.0
 10
-0.7040640064882156
 20
-0.2535729523541426
 10
-0.7364181393505036
 20
-0.2600085895162967
  0
LWPOLYLINE
  5
FC
330
2B
100
AcDbEntity
  8
ADP1DETAIL
100
AcDbPolyline
 90
        2
 70
     0
 43
0.0
 10
-0.6777881207171999
 20
-0.2133832917374774
 10
-0.7104617145291355
 20
-0.2179268153003038
  0
LWPOLYLINE
  5
100
330
2B
100
AcDbEntity
  8
ADP1DETAIL
100
AcDbPolyline
 90
        2
 70
     0
 43
0.0
 10
-0.7107667895527415
 20
-0.2183591532039582
 10
-0.7040960387441336
 20
-0.2506656296847354
  0
LWPOLYLINE
  5
104
330
2B
100
AcDbEntity
  8
ADP1DETAIL
100
AcDbPolyline
 90
        2
 70
     0
 43
0.0
 10
-0.6492198686456648
 20
-0.1747894325483341
 10
-0.682102366308373
 20
-0.1774254686663144
  0
LWPOLYLINE
  5
108
330
2B
100
AcDbEntity
  8
ADP1DETAIL
100
AcDbPolyline
 90
        2
 70
     0
 43
0.0
 10
-0.6824320634067634
 20
-0.1778393365876132
 10
-0.6776510530004108
 20
-0.2104790252878403
  0
LWPOLYLINE
  5
10C
330
2B
100
AcDbEntity
  8
ADP1DETAIL
100
AcDbPolyline
 90
        2
 70
     0
 43
0.0
 10
-0.7040640064882156
 20
-0.2535729523541419
 10
-0.7364181393505036
 20
-0.2600085895162951
  0
LWPOLYLINE
  5
110
330
2B
100
AcDbEntity
  8
ADP1DETAIL
100
AcDbPolyline
 90
        2
 70
     0
 43
0.0
 10
-0.8254925442493043
 20
-0.663249441361103
 10
-0.850294226644387
 20
-0.6849999330642112
  0
LWPOLYLINE
  5
114
330
2B
100
AcDbEntity
  8
ADP1DETAIL
100
AcDbPolyline
 90
        2
 70
     0
 43
0.0
 10
-0.8503115395485551
 20
-0.6855287875775817
 10
-0.8269855096789719
 20
-0.7088548174471681
  0
LWPOLYLINE
  5
118
330
2B
100
AcDbEntity
  8
ADP1DETAIL
100
AcDbPolyline
 90
        2
 70
     0
 43
0.0
 10
-0.8503115395485551
 20
-0.6855287875775829
 10
-0.8269855096789719
 20
-0.7088548174471679
  0
LWPOLYLINE
  5
11C
330
2B
100
AcDbEntity
  8
ADP1DETAIL
100
AcDbPolyline
 90
        2
 70
     0
 43
0.0
 10
-0.8503115395485551
 20
-0.6855287875775829
 10
-0.8269855096789719
 20
-0.7088548174471696
  0
LWPOLYLINE
  5
120
330
2B
100
AcDbEntity
  8
ADP1DETAIL
100
AcDbPolyline
 90
        2
 70
     0
 43
0.0
 10
-0.8254925442493043
 20
-0.6632494413611041
 10
-0.8502942266443852
 20
-0.6849999330642116
  0
LWPOLYLINE
  5
124
330
2B
100
AcDbEntity
  8
ADP1DETAIL
100
AcDbPolyline
 90
        2
 70
     0
 43
0.0
 10
-0.7493910994914264
 20
-0.3381907819680219
 10
-0.780779333409321
 20
-0.3483389892219593
  0
LWPOLYLINE
  5
128
330
2B
100
AcDbEntity
  8
ADP1DETAIL
100
AcDbPolyline
 90
        2
 70
     0
 43
0.0
 10
-0.7682889341888495
 20
-0.3823326310149646
 10
-0.7990339984082842
 20
-0.3942887325993574
  0
LWPOLYLINE
  5
12C
330
2B
100
AcDbEntity
  8
ADP1DETAIL
100
AcDbPolyline
 90
        2
 70
     0
 43
0.0
 10
-0.7992311461130375
 20
-0.3947797719210757
 10
-0.7852898200515744
 20
-0.4246770421409714
  0
LWPOLYLINE
  5
130
330
2B
100
AcDbEntity
  8
ADP1DETAIL
100
AcDbPolyline
 90
        2
 70
     0
 43
0.0
 10
-0.7810046989687121
 20
-0.3488177346632999
 10
-0.7688253310862572
 20
-0.3794750394524908
  0
LWPOLYLINE
  5
134
330
2B
100
AcDbEntity
  8
ADP1DETAIL
100
AcDbPolyline
 90
        2
 70
     0
 43
0.0
 10
-0.7982336748893375
 20
-0.4735358927607268
 10
-0.827382833308809
 20
-0.4889804355636045
  0
LWPOLYLINE
  5
138
330
2B
100
AcDbEntity
  8
ADP1DETAIL
100
AcDbPolyline
 90
        2
 70
     0
 43
0.0
 10
-0.8275216417855023
 20
-0.4894910421046533
 10
-0.8102037207592495
 20
-0.5175676685095834
  0
LWPOLYLINE
  5
13C
330
2B
100
AcDbEntity
  8
ADP1DETAIL
100
AcDbPolyline
 90
        2
 70
     0
 43
0.0
 10
-0.7845881764803253
 20
-0.4274986104049679
 10
-0.8145860394360994
 20
-0.4412221506566649
  0
LWPOLYLINE
  5
140
330
2B
100
AcDbEntity
  8
ADP1DETAIL
100
AcDbPolyline
 90
        2
 70
     0
 43
0.0
 10
-0.8147543022007898
 20
-0.4417238223371348
 10
-0.7990981909946826
 20
-0.4707598950890657
  0
LWPOLYLINE
  5
144
330
2B
100
AcDbEntity
  8
ADP1DETAIL
100
AcDbPolyline
 90
        2
 70
     0
 43
0.0
 10
-0.7992311461130393
 20
-0.3947797719210753
 10
-0.7852898200515744
 20
-0.4246770421409698
  0
LWPOLYLINE
  5
148
330
2B
100
AcDbEntity
  8
ADP1DETAIL
100
AcDbPolyline
 90
        2
 70
     0
 43
0.0
 10
-0.7992311461130393
 20
-0.3947797719210753
 10
-0.7852898200515761
 20
-0.4246770421409714
  0
LWPOLYLINE
  5
14C
330
2B
100
AcDbEntity
  8
ADP1DETAIL
100
AcDbPolyline
 90
        2
 70
     0
 43
0.0
 10
-0.7682889341888513
 20
-0.3823326310149646
 10
-0.799033998408286
 20
-0.3942887325993565
  0
LWPOLYLINE
  5
150
330
2B
100
AcDbEntity
  8
ADP1DETAIL
100
AcDbPolyline
 90
        2
 70
     0
 43
0.0
 10
-0.7279586166787007
 20
-0.2952224253085407
 10
-0.7598838124471894
 20
-0.3035283999110143
  0
LWPOLYLINE
  5
154
330
2B
100
AcDbEntity
  8
ADP1DETAIL
100
AcDbPolyline
 90
        2
 70
     0
 43
0.0
 10
-0.7601366332955011
 20
-0.3039932315489497
 10
-0.749760434717683
 20
-0.335306836292369
  0
LWPOLYLINE
  5
158
330
2B
100
AcDbEntity
  8
ADP1DETAIL
100
AcDbPolyline
 90
        2
 70
     0
 43
0.0
 10
-0.8091792573686532
 20
-0.5202887024915091
 10
-0.8373810797266777
 20
-0.5374019884015784
  0
LWPOLYLINE
  5
15C
330
2B
100
AcDbEntity
  8
ADP1DETAIL
100
AcDbPolyline
 90
        2
 70
     0
 43
0.0
 10
-0.8374899642314289
 20
-0.5379198020723017
 10
-0.8185688317479286
 20
-0.5649419797139222
  0
LWPOLYLINE
  5
160
330
2B
100
AcDbEntity
  8
ADP1DETAIL
100
AcDbPolyline
 90
        2
 70
     0
 43
0.0
 10
-0.8228317899730001
 20
-0.6153062314120877
 10
-0.8488561904656574
 20
-0.635577835146157
  0
LWPOLYLINE
  5
164
330
2B
100
AcDbEntity
  8
ADP1DETAIL
100
AcDbPolyline
 90
        2
 70
     0
 43
0.0
 10
-0.848904224234332
 20
-0.6361047882655429
 10
-0.8269739463313733
 20
-0.6607476422003567
  0
LWPOLYLINE
  5
168
330
2B
100
AcDbEntity
  8
ADP1DETAIL
100
AcDbPolyline
 90
        2
 70
     0
 43
0.0
 10
-0.8173878875319026
 20
-0.5675988428884427
 10
-0.8445469477887023
 20
-0.586322965963261
  0
LWPOLYLINE
  5
16C
330
2B
100
AcDbEntity
  8
ADP1DETAIL
100
AcDbPolyline
 90
        2
 70
     0
 43
0.0
 10
-0.8446255398908121
 20
-0.5868462346461121
 10
-0.8241652190730416
 20
-0.6127225290289486
  0
LWPOLYLINE
  5
170
330
2B
100
AcDbEntity
  8
ADP1DETAIL
100
AcDbPolyline
 90
        2
 70
     0
 43
0.0
 10
-0.8374899642314307
 20
-0.5379198020723038
 10
-0.8185688317479268
 20
-0.5649419797139233
  0
LWPOLYLINE
  5
174
330
2B
100
AcDbEntity
  8
ADP1DETAIL
100
AcDbPolyline
 90
        2
 70
     0
 43
0.0
 10
-0.8374899642314325
 20
-0.5379198020723035
 10
-0.8185688317479286
 20
-0.5649419797139246
  0
LWPOLYLINE
  5
178
330
2B
100
AcDbEntity
  8
ADP1DETAIL
100
AcDbPolyline
 90
        2
 70
     0
 43
0.0
 10
-0.8091792573686515
 20
-0.5202887024915113
 10
-0.8373810797266795
 20
-0.5374019884015795
  0
LWPOLYLINE
  5
17C
330
2B
100
AcDbEntity
  8
ADP1DETAIL
100
AcDbPolyline
 90
        2
 70
     0
 43
0.0
 10
-0.816733123863861
 20
-0.8068710579148149
 10
-0.8373810797266777
 20
-0.8325978777268435
  0
LWPOLYLINE
  5
180
330
2B
100
AcDbEntity
  8
ADP1DETAIL
100
AcDbPolyline
 90
        2
 70
     0
 43
0.0
 10
-0.8373062949864337
 20
-0.8331217041060853
 10
-0.8102841173448162
 20
-0.8520428365895909
  0
LWPOLYLINE
  5
184
330
2B
100
AcDbEntity
  8
ADP1DETAIL
100
AcDbPolyline
 90
        2
 70
     0
 43
0.0
 10
-0.8224380434628443
 20
-0.7591941779214327
 10
-0.8445469477887023
 20
-0.7836769001651596
  0
LWPOLYLINE
  5
188
330
2B
100
AcDbEntity
  8
ADP1DETAIL
100
AcDbPolyline
 90
        2
 70
     0
 43
0.0
 10
-0.8445027473676013
 20
-0.7842041886590017
 10
-0.818626452984763
 20
-0.8046645094767757
  0
LWPOLYLINE
  5
18C
330
2B
100
AcDbEntity
  8
ADP1DETAIL
100
AcDbPolyline
 90
        2
 70
     0
 43
0.0
 10
-0.8253611472105916
 20
-0.7112662480890886
 10
-0.8488561904656574
 20
-0.7344220309822638
  0
LWPOLYLINE
  5
190
330
2B
100
AcDbEntity
  8
ADP1DETAIL
100
AcDbPolyline
 90
        2
 70
     0
 43
0.0
 10
-0.8488427239239339
 20
-0.7349509974133546
 10
-0.8241998699891212
 20
-0.7568812753163115
  0
LWPOLYLINE
  5
194
330
2B
100
AcDbEntity
  8
ADP1DETAIL
100
AcDbPolyline
 90
        2
 70
     0
 43
0.0
 10
-0.8373062949864337
 20
-0.8331217041060842
 10
-0.8102841173448144
 20
-0.8520428365895881
  0
LWPOLYLINE
  5
198
330
2B
100
AcDbEntity
  8
ADP1DETAIL
100
AcDbPolyline
 90
        2
 70
     0
 43
0.0
 10
-0.8373062949864355
 20
-0.8331217041060847
 10
-0.8102841173448162
 20
-0.8520428365895902
  0
LWPOLYLINE
  5
19C
330
2B
100
AcDbEntity
  8
ADP1DETAIL
100
AcDbPolyline
 90
        2
 70
     0
 43
0.0
 10
-0.816733123863861
 20
-0.8068710579148138
 10
-0.8373810797266795
 20
-0.8325978777268417
  0
LWPOLYLINE
  5
1A0
330
2B
100
AcDbEntity
  8
ADP1DETAIL
100
AcDbPolyline
 90
        2
 70
     0
 43
0.0
 10
-0.8272777172973068
 20
-0.8815380223668043
 10
-0.7992010908923804
 20
-0.8988559433930563
  0
LWPOLYLINE
  5
1A4
330
2B
100
AcDbEntity
  8
ADP1DETAIL
100
AcDbPolyline
 90
        2
 70
     0
 43
0.0
 10
-0.8082656920557131
 20
-0.8541355645990982
 10
-0.827382833308809
 20
-0.8810194305648126
  0
LWPOLYLINE
  5
1A8
330
2B
100
AcDbEntity
  8
ADP1DETAIL
100
AcDbPolyline
 90
        2
 70
     0
 43
0.0
 10
-0.7366975600220127
 20
-0.2604579345076969
 10
-0.7281596405203126
 20
-0.2923218838789847
  0
LWPOLYLINE
  5
1AC
330
2B
100
AcDbEntity
  8
ADP1DETAIL
100
AcDbPolyline
 90
        2
 70
     0
 43
0.0
 10
-0.7366975600220127
 20
-0.2604579345076958
 10
-0.7281596405203108
 20
-0.2923218838789829
  0
LWPOLYLINE
  5
1B0
330
2B
100
AcDbEntity
  8
ADP1DETAIL
100
AcDbPolyline
 90
        2
 70
     0
 43
0.0
 10
-0.7366975600220145
 20
-0.2604579345076954
 10
-0.7281596405203126
 20
-0.2923218838789841
  0
LWPOLYLINE
  5
1B4
330
2B
100
AcDbEntity
  8
ADP1DETAIL
100
AcDbPolyline
 90
        2
 70
     0
 43
0.0
 10
-0.5140658218146155
 20
-0.0388936632745194
 10
-0.5466698792618261
 20
-0.0338754188671133
  0
LWPOLYLINE
  5
1B8
330
2B
100
AcDbEntity
  8
ADP1DETAIL
100
AcDbPolyline
 90
        2
 70
     0
 43
0.0
 10
-0.5470861338432998
 20
-0.0342020975416013
 10
-0.5499612264215786
 20
-0.0670645560865719
  0
LWPOLYLINE
  5
1BC
330
2B
100
AcDbEntity
  8
ADP1DETAIL
100
AcDbPolyline
 90
        2
 70
     0
 43
0.0
 10
-0.5083205489666925
 20
-0.0035110292388441
 10
-0.5131015593730451
 20
-0.036150717939073
  0
LWPOLYLINE
  5
1C0
330
2B
100
AcDbEntity
  8
ADP1DETAIL
100
AcDbPolyline
 90
        2
 70
     0
 43
0.0
 10
-0.5507643693964721
 20
-0.0698589276673294
 10
-0.5836050509012645
 20
-0.0667449306772701
  0
LWPOLYLINE
  5
1C4
330
2B
100
AcDbEntity
  8
ADP1DETAIL
100
AcDbPolyline
 90
        2
 70
     0
 43
0.0
 10
-0.5840016065702316
 20
-0.0670952597145707
 10
-0.5849610529172354
 20
-0.100069291946929
  0
LWPOLYLINE
  5
1C8
330
2B
100
AcDbEntity
  8
ADP1DETAIL
100
AcDbPolyline
 90
        2
 70
     0
 43
0.0
 10
-0.5470861338432998
 20
-0.0342020975416009
 10
-0.549961226421575
 20
-0.0670645560865706
  0
LWPOLYLINE
  5
1CC
330
2B
100
AcDbEntity
  8
ADP1DETAIL
100
AcDbPolyline
 90
        2
 70
     0
 43
0.0
 10
-0.5470861338432998
 20
-0.0342020975416004
 10
-0.5499612264215786
 20
-0.067064556086571
  0
LWPOLYLINE
  5
1D0
330
2B
100
AcDbEntity
  8
ADP1DETAIL
100
AcDbPolyline
 90
        2
 70
     0
 43
0.0
 10
-0.5140658218146155
 20
-0.0388936632745189
 10
-0.5466698792618243
 20
-0.0338754188671124
  0
LWPOLYLINE
  5
1D4
330
2B
100
AcDbEntity
  8
ADP1DETAIL
100
AcDbPolyline
 90
        2
 70
     0
 43
0.0
 10
-0.6189420568730957
 20
-0.1020792157090391
 10
-0.6179826105260938
 20
-0.1350532479414002
  0
LWPOLYLINE
  5
1D8
330
2B
100
AcDbEntity
  8
ADP1DETAIL
100
AcDbPolyline
 90
        2
 70
     0
 43
0.0
 10
-0.618455916195551
 20
-0.137921964189607
 10
-0.6514360537456523
 20
-0.1386415933509399
  0
LWPOLYLINE
  5
1DC
330
2B
100
AcDbEntity
  8
ADP1DETAIL
100
AcDbPolyline
 90
        2
 70
     0
 43
0.0
 10
-0.618455916195551
 20
-0.1379219641896092
 10
-0.6514360537456523
 20
-0.1386415933509413
  0
LWPOLYLINE
  5
1E0
330
2B
100
AcDbEntity
  8
ADP1DETAIL
100
AcDbPolyline
 90
        2
 70
     0
 43
0.0
 10
-0.5856003588438559
 20
-0.1029056345041075
 10
-0.6185665419354938
 20
-0.1017064217115002
  0
LINE
  5
1E4
330
2B
100
AcDbEntity
  8
ADP1DETAIL
100
AcDbLine
 10
-0.4669523194088084
 20
-1.395455183068396
 30
0.0
 11
-0.4317385202586235
 21
-1.388752400003873
 31
0.0
  0
LINE
  5
1E5
330
2B
100
AcDbEntity
  8
ADP1DETAIL
100
AcDbLine
 10
-0.4253028830964714
 20
-1.421106532866159
 30
0.0
 11
-0.4083508540014856
 21
-1.430656635482145
 31
0.0
  0
ARC
  5
1E6
330
2B
100
AcDbEntity
  8
ADP1DETAIL
100
AcDbCircle
 10
-0.3867487726480943
 20
-1.391180692412961
 30
0.0
 40
0.045
100
AcDbArc
 50
241.3115771322809
 51
334.516117241473
  0
LINE
  5
1E7
330
2B
100
AcDbEntity
  8
ADP1DETAIL
100
AcDbLine
 10
-0.3460623720764393
 20
-1.410406699842643
 30
0.0
 11
-0.3461269868553995
 21
-1.410542265670636
 31
0.0
  0
ARC
  5
1E8
330
2B
100
AcDbEntity
  8
ADP1DETAIL
100
AcDbCircle
 10
-0.3866841578691358
 20
-1.391045126584968
 30
0.0
 40
0.045
100
AcDbArc
 50
334.5161172414742
 51
59.88199248496336
  0
LWPOLYLINE
  5
1E9
330
2B
100
AcDbEntity
  8
ADP1DETAIL
100
AcDbPolyline
 90
        2
 70
     0
 43
0.0
 10
-0.4317385202586235
 20
-1.388752400003873
 10
-0.4253028830964696
 20
-1.42110653286616
  0
LWPOLYLINE
  5
1ED
330
2B
100
AcDbEntity
  8
ADP1DETAIL
100
AcDbPolyline
 90
        2
 70
     0
 43
0.0
 10
-0.4669523194088084
 20
-1.395455183068396
 10
-0.4346458429280316
 20
-1.388784432259789
  0
LWPOLYLINE
  5
1F1
330
2B
100
AcDbEntity
  8
ADP1DETAIL
100
AcDbPolyline
 90
        2
 70
     0
 43
0.0
 10
-0.4719281808752905
 20
-1.362476514232855
 10
-0.4673846573124636
 20
-1.395150108044791
  0
LWPOLYLINE
  5
1F5
330
2B
100
AcDbEntity
  8
ADP1DETAIL
100
AcDbPolyline
 90
        2
 70
     0
 43
0.0
 10
-0.4317385202586253
 20
-1.388752400003871
 10
-0.4253028830964714
 20
-1.421106532866159
  0
LWPOLYLINE
  5
1F9
330
2B
100
AcDbEntity
  8
ADP1DETAIL
100
AcDbPolyline
 90
        2
 70
     0
 43
0.0
 10
0.5501412902993575
 20
-1.300140938461092
 10
0.5829819718041498
 20
-1.303254935451151
  0
LWPOLYLINE
  5
1FD
330
2B
100
AcDbEntity
  8
ADP1DETAIL
100
AcDbPolyline
 90
        2
 70
     0
 43
0.0
 10
0.5134427427175062
 20
-1.331106202853902
 10
0.5460468001647168
 20
-1.336124447261308
  0
LWPOLYLINE
  5
201
330
2B
100
AcDbEntity
  8
ADP1DETAIL
100
AcDbPolyline
 90
        2
 70
     0
 43
0.0
 10
0.5464630547461887
 20
-1.33579776858682
 10
0.5493381473244674
 20
-1.30293531004185
  0
LWPOLYLINE
  5
205
330
2B
100
AcDbEntity
  8
ADP1DETAIL
100
AcDbPolyline
 90
        2
 70
     0
 43
0.0
 10
0.5076974698695813
 20
-1.366488836889577
 10
0.5124784802759339
 20
-1.333849148189348
  0
LWPOLYLINE
  5
209
330
2B
100
AcDbEntity
  8
ADP1DETAIL
100
AcDbPolyline
 90
        2
 70
     0
 43
0.0
 10
0.5464630547461851
 20
-1.335797768586821
 10
0.5493381473244621
 20
-1.302935310041851
  0
LWPOLYLINE
  5
20D
330
2B
100
AcDbEntity
  8
ADP1DETAIL
100
AcDbPolyline
 90
        2
 70
     0
 43
0.0
 10
0.5464630547461851
 20
-1.335797768586821
 10
0.5493381473244621
 20
-1.30293531004185
  0
LWPOLYLINE
  5
211
330
2B
100
AcDbEntity
  8
ADP1DETAIL
100
AcDbPolyline
 90
        2
 70
     0
 43
0.0
 10
0.5134427427175008
 20
-1.331106202853903
 10
0.5460468001647114
 20
-1.336124447261309
  0
LWPOLYLINE
  5
215
330
2B
100
AcDbEntity
  8
ADP1DETAIL
100
AcDbPolyline
 90
        2
 70
     0
 43
0.0
 10
0.4672129433115635
 20
-1.394873962462014
 10
0.4738836941201714
 20
-1.362567485981239
  0
LWPOLYLINE
  5
219
330
2B
100
AcDbEntity
  8
ADP1DETAIL
100
AcDbPolyline
 90
        2
 70
     0
 43
0.0
 10
0.4750058132695468
 20
-1.359885248149861
 10
0.5072629248493406
 20
-1.366790759824029
  0
LINE
  5
21D
330
2B
100
AcDbEntity
  8
ADP1DETAIL
100
AcDbLine
 10
0.4071156058636887
 20
-1.430991301098208
 30
0.0
 11
0.4251464618949288
 21
-1.420857099024297
 31
0.0
  0
LINE
  5
21E
330
2B
100
AcDbEntity
  8
ADP1DETAIL
100
AcDbLine
 10
0.3448508599476159
 20
-1.410705161284902
 30
0.0
 11
0.3449082694600949
 21
-1.410825864998332
 31
0.0
  0
ARC
  5
21F
330
2B
100
AcDbEntity
  8
ADP1DETAIL
100
AcDbCircle
 10
0.3854885239470334
 20
-1.391376936724154
 30
0.0
 40
0.045
100
AcDbArc
 50
120.0687664065322
 51
205.4368546409617
  0
LWPOLYLINE
  5
220
330
2B
100
AcDbEntity
  8
ADP1DETAIL
100
AcDbPolyline
 90
        2
 70
     0
 43
0.0
 10
0.4251464618949306
 20
-1.420857099024298
 10
0.433684381396636
 20
-1.38899314965301
  0
LWPOLYLINE
  5
224
330
2B
100
AcDbEntity
  8
ADP1DETAIL
100
AcDbPolyline
 90
        2
 70
     0
 43
0.0
 10
0.4251464618949306
 20
-1.420857099024297
 10
0.4336843813966343
 20
-1.38899314965301
  0
LWPOLYLINE
  5
228
330
2B
100
AcDbEntity
  8
ADP1DETAIL
100
AcDbPolyline
 90
        2
 70
     0
 43
0.0
 10
0.4251464618949288
 20
-1.420857099024297
 10
0.4336843813966343
 20
-1.38899314965301
  0
ARC
  5
22C
330
2B
100
AcDbEntity
  8
ADP1DETAIL
100
AcDbCircle
 10
0.3855459334595106
 20
-1.391497640437585
 30
0.0
 40
0.045
100
AcDbArc
 50
205.4368546409622
 51
298.6413947501542
  0
LWPOLYLINE
  5
22D
330
2B
100
AcDbEntity
  8
ADP1DETAIL
100
AcDbPolyline
 90
        2
 70
     0
 43
0.0
 10
0.4349605603578115
 20
-1.386380695169478
 10
0.4667615782153507
 20
-1.395150108044793
  0
LWPOLYLINE
  5
231
330
2B
100
AcDbEntity
  8
ADP1DETAIL
100
AcDbPolyline
 90
        2
 70
     0
 43
0.0
 10
0.7676658550917366
 20
-0.9876672351134565
 10
0.7984109193111713
 20
-0.9757111335290641
  0
LWPOLYLINE
  5
235
330
2B
100
AcDbEntity
  8
ADP1DETAIL
100
AcDbPolyline
 90
        2
 70
     0
 43
0.0
 10
0.7986080670159246
 20
-0.9752200942073462
 10
0.7846667409544597
 20
-0.9453228239874498
  0
LWPOLYLINE
  5
239
330
2B
100
AcDbEntity
  8
ADP1DETAIL
100
AcDbPolyline
 90
        2
 70
     0
 43
0.0
 10
0.7986080670159264
 20
-0.975220094207347
 10
0.7846667409544632
 20
-0.9453228239874524
  0
LWPOLYLINE
  5
23D
330
2B
100
AcDbEntity
  8
ADP1DETAIL
100
AcDbPolyline
 90
        2
 70
     0
 43
0.0
 10
0.7986080670159264
 20
-0.975220094207347
 10
0.7846667409544632
 20
-0.9453228239874508
  0
LWPOLYLINE
  5
241
330
2B
100
AcDbEntity
  8
ADP1DETAIL
100
AcDbPolyline
 90
        2
 70
     0
 43
0.0
 10
0.7676658550917384
 20
-0.9876672351134576
 10
0.7984109193111731
 20
-0.9757111335290657
  0
LWPOLYLINE
  5
245
330
2B
100
AcDbEntity
  8
ADP1DETAIL
100
AcDbPolyline
 90
        2
 70
     0
 43
0.0
 10
0.7839650973832142
 20
-0.9425012557234545
 10
0.8139629603389867
 20
-0.9287777154717575
  0
LWPOLYLINE
  5
249
330
2B
100
AcDbEntity
  8
ADP1DETAIL
100
AcDbPolyline
 90
        2
 70
     0
 43
0.0
 10
0.6818089843096505
 20
-1.192160529540811
 10
0.6770279739032979
 20
-1.159520840840584
  0
LWPOLYLINE
  5
24D
330
2B
100
AcDbEntity
  8
ADP1DETAIL
100
AcDbPolyline
 90
        2
 70
     0
 43
0.0
 10
0.6178328370984363
 20
-1.232077901938814
 10
0.6508129746485394
 20
-1.231358272777482
  0
LWPOLYLINE
  5
251
330
2B
100
AcDbEntity
  8
ADP1DETAIL
100
AcDbPolyline
 90
        2
 70
     0
 43
0.0
 10
0.6511661782310934
 20
-1.230964275236584
 10
0.6482910856528199
 20
-1.198101816691613
  0
LWPOLYLINE
  5
255
330
2B
100
AcDbEntity
  8
ADP1DETAIL
100
AcDbPolyline
 90
        2
 70
     0
 43
0.0
 10
0.5849772797467412
 20
-1.267094231624315
 10
0.6179434628383791
 20
-1.268293444416922
  0
LWPOLYLINE
  5
259
330
2B
100
AcDbEntity
  8
ADP1DETAIL
100
AcDbPolyline
 90
        2
 70
     0
 43
0.0
 10
0.618318977775981
 20
-1.267920650419383
 10
0.6173595314289791
 20
-1.234946618187023
  0
LWPOLYLINE
  5
25D
330
2B
100
AcDbEntity
  8
ADP1DETAIL
100
AcDbPolyline
 90
        2
 70
     0
 43
0.0
 10
0.5833785274731187
 20
-1.302904606413852
 10
0.5843379738201207
 20
-1.269930574181493
  0
LWPOLYLINE
  5
261
330
2B
100
AcDbEntity
  8
ADP1DETAIL
100
AcDbPolyline
 90
        2
 70
     0
 43
0.0
 10
0.6485967895485519
 20
-1.19521043358009
 10
0.6814792872112601
 20
-1.192574397462109
  0
LWPOLYLINE
  5
265
330
2B
100
AcDbEntity
  8
ADP1DETAIL
100
AcDbPolyline
 90
        2
 70
     0
 43
0.0
 10
0.6511661782310952
 20
-1.230964275236584
 10
0.6482910856528199
 20
-1.198101816691615
  0
LWPOLYLINE
  5
269
330
2B
100
AcDbEntity
  8
ADP1DETAIL
100
AcDbPolyline
 90
        2
 70
     0
 43
0.0
 10
0.6511661782310952
 20
-1.230964275236585
 10
0.6482910856528217
 20
-1.198101816691613
  0
LWPOLYLINE
  5
26D
330
2B
100
AcDbEntity
  8
ADP1DETAIL
100
AcDbPolyline
 90
        2
 70
     0
 43
0.0
 10
0.6178328370984381
 20
-1.232077901938815
 10
0.6508129746485394
 20
-1.231358272777483
  0
LWPOLYLINE
  5
271
330
2B
100
AcDbEntity
  8
ADP1DETAIL
100
AcDbPolyline
 90
        2
 70
     0
 43
0.0
 10
0.7034409273911027
 20
-1.116426913774281
 10
0.7357950602533907
 20
-1.109991276612128
  0
LWPOLYLINE
  5
275
330
2B
100
AcDbEntity
  8
ADP1DETAIL
100
AcDbPolyline
 90
        2
 70
     0
 43
0.0
 10
0.7360744809248998
 20
-1.109541931620728
 10
0.7275365614231997
 20
-1.077677982249439
  0
LWPOLYLINE
  5
279
330
2B
100
AcDbEntity
  8
ADP1DETAIL
100
AcDbPolyline
 90
        2
 70
     0
 43
0.0
 10
0.677165041620087
 20
-1.156616574390947
 10
0.7098386354320243
 20
-1.15207305082812
  0
LWPOLYLINE
  5
27D
330
2B
100
AcDbEntity
  8
ADP1DETAIL
100
AcDbPolyline
 90
        2
 70
     0
 43
0.0
 10
0.7101437104556286
 20
-1.151640712924466
 10
0.7034729596470224
 20
-1.119334236443689
  0
LWPOLYLINE
  5
281
330
2B
100
AcDbEntity
  8
ADP1DETAIL
100
AcDbPolyline
 90
        2
 70
     0
 43
0.0
 10
0.7487680203943135
 20
-1.031809084160399
 10
0.7801562543122081
 20
-1.021660876906462
  0
LWPOLYLINE
  5
285
330
2B
100
AcDbEntity
  8
ADP1DETAIL
100
AcDbPolyline
 90
        2
 70
     0
 43
0.0
 10
0.727335537581586
 20
-1.07477744081988
 10
0.7592607333500765
 20
-1.066471466217406
  0
LWPOLYLINE
  5
289
330
2B
100
AcDbEntity
  8
ADP1DETAIL
100
AcDbPolyline
 90
        2
 70
     0
 43
0.0
 10
0.7595135541983882
 20
-1.066006634579472
 10
0.7491373556205701
 20
-1.034693029836052
  0
LWPOLYLINE
  5
28D
330
2B
100
AcDbEntity
  8
ADP1DETAIL
100
AcDbPolyline
 90
        2
 70
     0
 43
0.0
 10
0.7360744809248998
 20
-1.109541931620726
 10
0.7275365614231979
 20
-1.077677982249438
  0
LWPOLYLINE
  5
291
330
2B
100
AcDbEntity
  8
ADP1DETAIL
100
AcDbPolyline
 90
        2
 70
     0
 43
0.0
 10
0.7360744809248998
 20
-1.109541931620726
 10
0.7275365614231979
 20
-1.077677982249436
  0
LWPOLYLINE
  5
295
330
2B
100
AcDbEntity
  8
ADP1DETAIL
100
AcDbPolyline
 90
        2
 70
     0
 43
0.0
 10
0.7034409273911009
 20
-1.116426913774279
 10
0.7357950602533907
 20
-1.109991276612126
  0
LWPOLYLINE
  5
299
330
2B
100
AcDbEntity
  8
ADP1DETAIL
100
AcDbPolyline
 90
        2
 70
     0
 43
0.0
 10
0.7803816198715992
 20
-1.021182131465122
 10
0.7682022519891443
 20
-0.9905248266759311
  0
LWPOLYLINE
  5
29D
330
2B
100
AcDbEntity
  8
ADP1DETAIL
100
AcDbPolyline
 90
        2
 70
     0
 43
0.0
 10
0.2111525007549306
 20
0.1129222022765683
 10
0.195707957952052
 20
0.1420713606960409
  0
LWPOLYLINE
  5
2A1
330
2B
100
AcDbEntity
  8
ADP1DETAIL
100
AcDbPolyline
 90
        2
 70
     0
 43
0.0
 10
-0.1484333105904292
 20
0.1519948223736678
 10
-0.1673544430739349
 20
0.1249726447320494
  0
LWPOLYLINE
  5
2A5
330
2B
100
AcDbEntity
  8
ADP1DETAIL
100
AcDbPolyline
 90
        2
 70
     0
 43
0.0
 10
-0.1484333105904292
 20
0.1519948223736678
 10
-0.1673544430739349
 20
0.1249726447320494
  0
LWPOLYLINE
  5
2A9
330
2B
100
AcDbEntity
  8
ADP1DETAIL
100
AcDbPolyline
 90
        2
 70
     0
 43
0.0
 10
-0.148433310590431
 20
0.1519948223736687
 10
-0.1673544430739366
 20
0.1249726447320494
  0
LWPOLYLINE
  5
2AD
330
2B
100
AcDbEntity
  8
ADP1DETAIL
100
AcDbPolyline
 90
        2
 70
     0
 43
0.0
 10
-0.2161393763292332
 20
0.111752926534572
 10
-0.2440893219560984
 20
0.1292745668233322
  0
LWPOLYLINE
  5
2B1
330
2B
100
AcDbEntity
  8
ADP1DETAIL
100
AcDbPolyline
 90
        2
 70
     0
 43
0.0
 10
-0.1694471710834446
 20
0.1229542194429467
 10
-0.1963310370491578
 20
0.1420713606960422
  0
LWPOLYLINE
  5
2B5
330
2B
100
AcDbEntity
  8
ADP1DETAIL
100
AcDbPolyline
 90
        2
 70
     0
 43
0.0
 10
-0.1968496288511497
 20
0.1419662446845413
 10
-0.2141675498774025
 20
0.113889618279613
  0
LWPOLYLINE
  5
2B9
330
2B
100
AcDbEntity
  8
ADP1DETAIL
100
AcDbPolyline
 90
        2
 70
     0
 43
0.0
 10
-0.2621012884940499
 20
0.0978556741554855
 10
-0.2910227400134091
 20
0.1137225257955186
  0
LWPOLYLINE
  5
2BD
330
2B
100
AcDbEntity
  8
ADP1DETAIL
100
AcDbPolyline
 90
        2
 70
     0
 43
0.0
 10
-0.2915256220590572
 20
0.1135579157073494
 10
-0.3054669481205257
 20
0.0836606454874554
  0
LWPOLYLINE
  5
2C1
330
2B
100
AcDbEntity
  8
ADP1DETAIL
100
AcDbPolyline
 90
        2
 70
     0
 43
0.0
 10
-0.3940655635392347
 20
0.0405030255785579
 10
-0.4253028830964696
 20
0.0511066667377376
  0
LWPOLYLINE
  5
2C5
330
2B
100
AcDbEntity
  8
ADP1DETAIL
100
AcDbPolyline
 90
        2
 70
     0
 43
0.0
 10
-0.4257695409920399
 20
0.0508572328958763
 10
-0.4343074604937454
 20
0.018993283524589
  0
LWPOLYLINE
  5
2C9
330
2B
100
AcDbEntity
  8
ADP1DETAIL
100
AcDbPolyline
 90
        2
 70
     0
 43
0.0
 10
-0.3512151486462636
 20
0.0621703497565573
 10
-0.3817830727017495
 20
0.0745723398344247
  0
LWPOLYLINE
  5
2CD
330
2B
100
AcDbEntity
  8
ADP1DETAIL
100
AcDbPolyline
 90
        2
 70
     0
 43
0.0
 10
-0.3822634443740776
 20
0.0743504617386435
 10
-0.3926396429518975
 20
0.0430368569952229
  0
LWPOLYLINE
  5
2D1
330
2B
100
AcDbEntity
  8
ADP1DETAIL
100
AcDbPolyline
 90
        2
 70
     0
 43
0.0
 10
-0.3071773870160261
 20
0.081309486208667
 10
-0.3369724833908045
 20
0.0954678607965567
  0
LWPOLYLINE
  5
2D5
330
2B
100
AcDbEntity
  8
ADP1DETAIL
100
AcDbPolyline
 90
        2
 70
     0
 43
0.0
 10
-0.3374649434142136
 20
0.0952742892120961
 10
-0.3496443112966685
 20
0.064616984422907
  0
LWPOLYLINE
  5
2D9
330
2B
100
AcDbEntity
  8
ADP1DETAIL
100
AcDbPolyline
 90
        2
 70
     0
 43
0.0
 10
-0.2915256220590572
 20
0.1135579157073494
 10
-0.3054669481205239
 20
0.0836606454874554
  0
LWPOLYLINE
  5
2DD
330
2B
100
AcDbEntity
  8
ADP1DETAIL
100
AcDbPolyline
 90
        2
 70
     0
 43
0.0
 10
-0.2915256220590572
 20
0.1135579157073503
 10
-0.3054669481205257
 20
0.0836606454874549
  0
LWPOLYLINE
  5
2E1
330
2B
100
AcDbEntity
  8
ADP1DETAIL
100
AcDbPolyline
 90
        2
 70
     0
 43
0.0
 10
-0.2621012884940499
 20
0.0978556741554855
 10
-0.2910227400134073
 20
0.1137225257955181
  0
LWPOLYLINE
  5
2E5
330
2B
100
AcDbEntity
  8
ADP1DETAIL
100
AcDbPolyline
 90
        2
 70
     0
 43
0.0
 10
-0.4355836394549227
 20
0.0163808290410572
 10
-0.4673846573124619
 20
0.0251502419163712
  0
LWPOLYLINE
  5
2E9
330
2B
100
AcDbEntity
  8
ADP1DETAIL
100
AcDbPolyline
 90
        2
 70
     0
 43
0.0
 10
-0.4678360224086747
 20
0.024874096333593
 10
-0.4745067732172826
 20
-0.0074323801471821
  0
LWPOLYLINE
  5
2ED
330
2B
100
AcDbEntity
  8
ADP1DETAIL
100
AcDbPolyline
 90
        2
 70
     0
 43
0.0
 10
-0.4257695409920417
 20
0.0508572328958759
 10
-0.4343074604937454
 20
0.018993283524589
  0
LWPOLYLINE
  5
2F1
330
2B
100
AcDbEntity
  8
ADP1DETAIL
100
AcDbPolyline
 90
        2
 70
     0
 43
0.0
 10
-0.4257695409920417
 20
0.0508572328958767
 10
-0.4343074604937472
 20
0.0189932835245885
  0
LWPOLYLINE
  5
2F5
330
2B
100
AcDbEntity
  8
ADP1DETAIL
100
AcDbPolyline
 90
        2
 70
     0
 43
0.0
 10
-0.3940655635392365
 20
0.0405030255785575
 10
-0.4253028830964714
 20
0.0511066667377371
  0
LWPOLYLINE
  5
2F9
330
2B
100
AcDbEntity
  8
ADP1DETAIL
100
AcDbPolyline
 90
        2
 70
     0
 43
0.0
 10
-0.244600924430332
 20
0.1291394752198862
 10
-0.2602570356364393
 20
0.1001034024679537
  0
LWPOLYLINE
  5
2FD
330
2B
100
AcDbEntity
  8
ADP1DETAIL
100
AcDbPolyline
 90
        2
 70
     0
 43
0.0
 10
0.1643996910241472
 20
0.1238677847558847
 10
0.1472864051140799
 20
0.1520696071139118
  0
LWPOLYLINE
  5
301
330
2B
100
AcDbEntity
  8
ADP1DETAIL
100
AcDbPolyline
 90
        2
 70
     0
 43
0.0
 10
0.1467685914433559
 20
0.1521784916186626
 10
0.1197464138017348
 20
0.1332573591351605
  0
LWPOLYLINE
  5
305
330
2B
100
AcDbEntity
  8
ADP1DETAIL
100
AcDbPolyline
 90
        2
 70
     0
 43
0.0
 10
0.1951973514110033
 20
0.1422101691727347
 10
0.1671207250060731
 20
0.1248922481464827
  0
LWPOLYLINE
  5
309
330
2B
100
AcDbEntity
  8
ADP1DETAIL
100
AcDbPolyline
 90
        2
 70
     0
 43
0.0
 10
0.1467685914433541
 20
0.1521784916186626
 10
0.1197464138017348
 20
0.13325735913516
  0
LWPOLYLINE
  5
30D
330
2B
100
AcDbEntity
  8
ADP1DETAIL
100
AcDbPolyline
 90
        2
 70
     0
 43
0.0
 10
0.1467685914433559
 20
0.1521784916186635
 10
0.119746413801733
 20
0.1332573591351609
  0
LWPOLYLINE
  5
311
330
2B
100
AcDbEntity
  8
ADP1DETAIL
100
AcDbPolyline
 90
        2
 70
     0
 43
0.0
 10
0.1643996910241472
 20
0.1238677847558847
 10
0.1472864051140799
 20
0.1520696071139114
  0
LWPOLYLINE
  5
315
330
2B
100
AcDbEntity
  8
ADP1DETAIL
100
AcDbPolyline
 90
        2
 70
     0
 43
0.0
 10
-0.1221826643991588
 20
0.1314216512510942
 10
-0.1479094842111874
 20
0.1520696071139123
  0
LWPOLYLINE
  5
319
330
2B
100
AcDbEntity
  8
ADP1DETAIL
100
AcDbPolyline
 90
        2
 70
     0
 43
0.0
 10
-0.1221826643991588
 20
0.1314216512510942
 10
-0.1479094842111874
 20
0.1520696071139123
  0
LWPOLYLINE
  5
31D
330
2B
100
AcDbEntity
  8
ADP1DETAIL
100
AcDbPolyline
 90
        2
 70
     0
 43
0.0
 10
-0.0502626038976986
 20
0.163531251311168
 10
-0.0721928818006554
 20
0.1388883973763557
  0
LWPOLYLINE
  5
321
330
2B
100
AcDbEntity
  8
ADP1DETAIL
100
AcDbPolyline
 90
        2
 70
     0
 43
0.0
 10
-0.0265778545734325
 20
0.1400496745978244
 10
-0.0497336374666078
 20
0.1635447178528906
  0
LWPOLYLINE
  5
325
330
2B
100
AcDbEntity
  8
ADP1DETAIL
100
AcDbPolyline
 90
        2
 70
     0
 43
0.0
 10
-0.0995157951433457
 20
0.159191274754835
 10
-0.1199761159611197
 20
0.1333149803719971
  0
LWPOLYLINE
  5
329
330
2B
100
AcDbEntity
  8
ADP1DETAIL
100
AcDbPolyline
 90
        2
 70
     0
 43
0.0
 10
-0.0745057844057766
 20
0.137126570850078
 10
-0.0989885066495036
 20
0.1592354751759351
  0
LWPOLYLINE
  5
32D
330
2B
100
AcDbEntity
  8
ADP1DETAIL
100
AcDbPolyline
 90
        2
 70
     0
 43
0.0
 10
0.0693821621035702
 20
0.137520317360232
 10
0.049110558369502
 20
0.1635447178528901
  0
LWPOLYLINE
  5
331
330
2B
100
AcDbEntity
  8
ADP1DETAIL
100
AcDbPolyline
 90
        2
 70
     0
 43
0.0
 10
0.0485836052501152
 20
0.1635927516215647
 10
0.0239407513153025
 20
0.1416624737186078
  0
LWPOLYLINE
  5
335
330
2B
100
AcDbEntity
  8
ADP1DETAIL
100
AcDbPolyline
 90
        2
 70
     0
 43
0.0
 10
0.0978421588695464
 20
0.1593140672780458
 10
0.0719658644867098
 20
0.1388537464602726
  0
LWPOLYLINE
  5
339
330
2B
100
AcDbEntity
  8
ADP1DETAIL
100
AcDbPolyline
 90
        2
 70
     0
 43
0.0
 10
-0.0032518247038458
 20
0.1633757044674076
 10
-0.0265778545734325
 20
0.1400496745978244
  0
LWPOLYLINE
  5
33D
330
2B
100
AcDbEntity
  8
ADP1DETAIL
100
AcDbPolyline
 90
        2
 70
     0
 43
0.0
 10
-0.0032518247038493
 20
0.163375704467408
 10
-0.0265778545734343
 20
0.1400496745978235
  0
LWPOLYLINE
  5
341
330
2B
100
AcDbEntity
  8
ADP1DETAIL
100
AcDbPolyline
 90
        2
 70
     0
 43
0.0
 10
-0.0032518247038493
 20
0.163375704467408
 10
-0.0265778545734361
 20
0.1400496745978239
  0
LWPOLYLINE
  5
345
330
2B
100
AcDbEntity
  8
ADP1DETAIL
100
AcDbPolyline
 90
        2
 70
     0
 43
0.0
 10
0.019027521512633
 20
0.1385567091681554
 10
-0.0027229701904745
 20
0.1633583915632377
  0
LWPOLYLINE
  5
349
330
2B
100
AcDbEntity
  8
ADP1DETAIL
100
AcDbPolyline
 90
        2
 70
     0
 43
0.0
 10
0.0190275215126294
 20
0.1385567091681568
 10
-0.0027229701904781
 20
0.1633583915632373
  0
LWPOLYLINE
  5
34D
330
2B
100
AcDbEntity
  8
ADP1DETAIL
100
AcDbPolyline
 90
        2
 70
     0
 43
0.0
 10
-0.0032518247038476
 20
0.163375704467408
 10
-0.0265778545734343
 20
0.1400496745978244
  0
LWPOLYLINE
  5
351
330
2B
100
AcDbEntity
  8
ADP1DETAIL
100
AcDbPolyline
 90
        2
 70
     0
 43
0.0
 10
0.0190275215126312
 20
0.1385567091681568
 10
-0.0027229701904763
 20
0.1633583915632377
  0
LWPOLYLINE
  5
355
330
2B
100
AcDbEntity
  8
ADP1DETAIL
100
AcDbPolyline
 90
        2
 70
     0
 43
0.0
 10
-0.0032518247038511
 20
0.1633757044674076
 10
-0.0265778545734361
 20
0.1400496745978235
  0
LWPOLYLINE
  5
359
330
2B
100
AcDbEntity
  8
ADP1DETAIL
100
AcDbPolyline
 90
        2
 70
     0
 43
0.0
 10
-0.0032518247038511
 20
0.1633757044674085
 10
-0.0265778545734379
 20
0.1400496745978239
  0
LWPOLYLINE
  5
35D
330
2B
100
AcDbEntity
  8
ADP1DETAIL
100
AcDbPolyline
 90
        2
 70
     0
 43
0.0
 10
0.0190275215126277
 20
0.1385567091681568
 10
-0.0027229701904798
 20
0.1633583915632377
  0
LWPOLYLINE
  5
361
330
2B
100
AcDbEntity
  8
ADP1DETAIL
100
AcDbPolyline
 90
        2
 70
     0
 43
0.0
 10
0.1170895506272163
 20
0.1320764149191367
 10
0.0983654275523978
 20
0.1592354751759346
  0
LWPOLYLINE
  5
365
330
2B
100
AcDbEntity
  8
ADP1DETAIL
100
AcDbPolyline
 90
        2
 70
     0
 43
0.0
 10
0.6457947302411369
 20
-0.1712456507981526
 10
0.650812974648543
 20
-0.1386415933509417
  0
LWPOLYLINE
  5
369
330
2B
100
AcDbEntity
  8
ADP1DETAIL
100
AcDbPolyline
 90
        2
 70
     0
 43
0.0
 10
0.6457947302411369
 20
-0.1712456507981539
 10
0.650812974648543
 20
-0.1386415933509453
  0
LWPOLYLINE
  5
36D
330
2B
100
AcDbEntity
  8
ADP1DETAIL
100
AcDbPolyline
 90
        2
 70
     0
 43
0.0
 10
0.7355456264115339
 20
-0.2595419316207266
 10
0.703681677040247
 20
-0.2510040121190213
  0
LWPOLYLINE
  5
371
330
2B
100
AcDbEntity
  8
ADP1DETAIL
100
AcDbPolyline
 90
        2
 70
     0
 43
0.0
 10
0.674573775537096
 20
-0.2096825802461111
 10
0.6814792872112636
 20
-0.177425468666317
  0
LWPOLYLINE
  5
375
330
2B
100
AcDbEntity
  8
ADP1DETAIL
100
AcDbPolyline
 90
        2
 70
     0
 43
0.0
 10
0.6811773642768127
 20
-0.1769909236460763
 10
0.6485376755765837
 20
-0.1722099132397234
  0
LWPOLYLINE
  5
379
330
2B
100
AcDbEntity
  8
ADP1DETAIL
100
AcDbPolyline
 90
        2
 70
     0
 43
0.0
 10
0.7010692225567126
 20
-0.2497278331578465
 10
0.7098386354320279
 20
-0.2179268153003067
  0
LWPOLYLINE
  5
37D
330
2B
100
AcDbEntity
  8
ADP1DETAIL
100
AcDbPolyline
 90
        2
 70
     0
 43
0.0
 10
0.7095624898492488
 20
-0.2174754502040936
 10
0.6772560133684738
 20
-0.2108046993954868
  0
LWPOLYLINE
  5
381
330
2B
100
AcDbEntity
  8
ADP1DETAIL
100
AcDbPolyline
 90
        2
 70
     0
 43
0.0
 10
0.7355456264115321
 20
-0.2595419316207266
 10
0.7036816770402452
 20
-0.2510040121190238
  0
LWPOLYLINE
  5
385
330
2B
100
AcDbEntity
  8
ADP1DETAIL
100
AcDbPolyline
 90
        2
 70
     0
 43
0.0
 10
0.7355456264115321
 20
-0.2595419316207266
 10
0.7036816770402435
 20
-0.2510040121190222
  0
LWPOLYLINE
  5
389
330
2B
100
AcDbEntity
  8
ADP1DETAIL
100
AcDbPolyline
 90
        2
 70
     0
 43
0.0
 10
0.7799626827277524
 20
-0.3478465291985533
 10
0.749305377938565
 20
-0.335667161316098
  0
LWPOLYLINE
  5
38D
330
2B
100
AcDbEntity
  8
ADP1DETAIL
100
AcDbPolyline
 90
        2
 70
     0
 43
0.0
 10
0.7825440676711409
 20
-0.4232101841187195
 10
0.7984109193111748
 20
-0.3942887325993598
  0
LWPOLYLINE
  5
391
330
2B
100
AcDbEntity
  8
ADP1DETAIL
100
AcDbPolyline
 90
        2
 70
     0
 43
0.0
 10
0.7982463092230048
 20
-0.3937858505537113
 10
0.7683490390031103
 20
-0.3798445244922426
  0
LWPOLYLINE
  5
395
330
2B
100
AcDbEntity
  8
ADP1DETAIL
100
AcDbPolyline
 90
        2
 70
     0
 43
0.0
 10
0.7659978797243237
 20
-0.3781340855967405
 10
0.7801562543122134
 20
-0.3483389892219624
  0
LWPOLYLINE
  5
399
330
2B
100
AcDbEntity
  8
ADP1DETAIL
100
AcDbPolyline
 90
        2
 70
     0
 43
0.0
 10
0.7982463092230066
 20
-0.3937858505537088
 10
0.7683490390031103
 20
-0.3798445244922424
  0
LWPOLYLINE
  5
39D
330
2B
100
AcDbEntity
  8
ADP1DETAIL
100
AcDbPolyline
 90
        2
 70
     0
 43
0.0
 10
0.7982463092230084
 20
-0.3937858505537082
 10
0.7683490390031121
 20
-0.3798445244922401
  0
LWPOLYLINE
  5
3A1
330
2B
100
AcDbEntity
  8
ADP1DETAIL
100
AcDbPolyline
 90
        2
 70
     0
 43
0.0
 10
0.7825440676711426
 20
-0.4232101841187173
 10
0.7984109193111748
 20
-0.3942887325993587
  0
LWPOLYLINE
  5
3A5
330
2B
100
AcDbEntity
  8
ADP1DETAIL
100
AcDbPolyline
 90
        2
 70
     0
 43
0.0
 10
0.7468587432722145
 20
-0.3340963239665018
 10
0.7592607333500801
 20
-0.3035283999110179
  0
LWPOLYLINE
  5
3A9
330
2B
100
AcDbEntity
  8
ADP1DETAIL
100
AcDbPolyline
 90
        2
 70
     0
 43
0.0
 10
0.7590388552543011
 20
-0.3030480282386885
 10
0.7277252505108787
 20
-0.2926718296608692
  0
LWPOLYLINE
  5
3AD
330
2B
100
AcDbEntity
  8
ADP1DETAIL
100
AcDbPolyline
 90
        2
 70
     0
 43
0.0
 10
0.8138278687355416
 20
-0.4407105481824372
 10
0.7847917959836077
 20
-0.425054436976329
  0
LWPOLYLINE
  5
3B1
330
2B
100
AcDbEntity
  8
ADP1DETAIL
100
AcDbPolyline
 90
        2
 70
     0
 43
0.0
 10
0.7251914190942155
 20
-0.2912459090735309
 10
0.7357950602533961
 20
-0.2600085895162956
  0
LWPOLYLINE
  5
3B5
330
2B
100
AcDbEntity
  8
ADP1DETAIL
100
AcDbPolyline
 90
        2
 70
     0
 43
0.0
 10
0.725191419094212
 20
-0.2912459090735322
 10
0.7357950602533943
 20
-0.2600085895162971
  0
LWPOLYLINE
  5
3B9
330
2B
100
AcDbEntity
  8
ADP1DETAIL
100
AcDbPolyline
 90
        2
 70
     0
 43
0.0
 10
0.5826091778066167
 20
-0.0663694157396744
 10
0.5496351455742566
 20
-0.0673288620866759
  0
LWPOLYLINE
  5
3BD
330
2B
100
AcDbEntity
  8
ADP1DETAIL
100
AcDbPolyline
 90
        2
 70
     0
 43
0.0
 10
0.5467664293260479
 20
-0.0668555564172186
 10
0.5460468001647168
 20
-0.0338754188671164
  0
LWPOLYLINE
  5
3C1
330
2B
100
AcDbEntity
  8
ADP1DETAIL
100
AcDbPolyline
 90
        2
 70
     0
 43
0.0
 10
0.5456528026238181
 20
-0.033522215284562
 10
0.5127903440788475
 20
-0.0363973078628359
  0
LWPOLYLINE
  5
3C5
330
2B
100
AcDbEntity
  8
ADP1DETAIL
100
AcDbPolyline
 90
        2
 70
     0
 43
0.0
 10
0.4713051017781811
 20
-0.0075233518955666
 10
0.4667615782153543
 20
0.0251502419163694
  0
LWPOLYLINE
  5
3C9
330
2B
100
AcDbEntity
  8
ADP1DETAIL
100
AcDbPolyline
 90
        2
 70
     0
 43
0.0
 10
0.5098989609673246
 20
-0.0360916039671027
 10
0.5072629248493424
 20
-0.0032091063043949
  0
LWPOLYLINE
  5
3CD
330
2B
100
AcDbEntity
  8
ADP1DETAIL
100
AcDbPolyline
 90
        2
 70
     0
 43
0.0
 10
0.5068490569280449
 20
-0.0028794092060036
 10
0.4742093682278177
 20
-0.0076604196123562
  0
LWPOLYLINE
  5
3D1
330
2B
100
AcDbEntity
  8
ADP1DETAIL
100
AcDbPolyline
 90
        2
 70
     0
 43
0.0
 10
0.5456528026238181
 20
-0.0335222152845589
 10
0.5127903440788493
 20
-0.0363973078628341
  0
LWPOLYLINE
  5
3D5
330
2B
100
AcDbEntity
  8
ADP1DETAIL
100
AcDbPolyline
 90
        2
 70
     0
 43
0.0
 10
0.5456528026238181
 20
-0.0335222152845589
 10
0.5127903440788475
 20
-0.0363973078628333
  0
LWPOLYLINE
  5
3D9
330
2B
100
AcDbEntity
  8
ADP1DETAIL
100
AcDbPolyline
 90
        2
 70
     0
 43
0.0
 10
0.5467664293260479
 20
-0.0668555564172164
 10
0.5460468001647168
 20
-0.0338754188671142
  0
LWPOLYLINE
  5
3DD
330
2B
100
AcDbEntity
  8
ADP1DETAIL
100
AcDbPolyline
 90
        2
 70
     0
 43
0.0
 10
0.4311154411615159
 20
0.0187525338754486
 10
0.424679803999362
 20
0.0511066667377367
  0
LWPOLYLINE
  5
3E1
330
2B
100
AcDbEntity
  8
ADP1DETAIL
100
AcDbPolyline
 90
        2
 70
     0
 43
0.0
 10
0.4242304590079616
 20
0.0513860874092462
 10
0.3923665096366729
 20
0.0428481679075448
  0
LWPOLYLINE
  5
3E5
330
2B
100
AcDbEntity
  8
ADP1DETAIL
100
AcDbPolyline
 90
        2
 70
     0
 43
0.0
 10
0.3023557625006918
 20
0.082977461576083
 10
0.2903996609162998
 20
0.1137225257955181
  0
LWPOLYLINE
  5
3E9
330
2B
100
AcDbEntity
  8
ADP1DETAIL
100
AcDbPolyline
 90
        2
 70
     0
 43
0.0
 10
0.2899086215945821
 20
0.1139196735002719
 10
0.2600113513746858
 20
0.099978347438807
  0
LWPOLYLINE
  5
3ED
330
2B
100
AcDbEntity
  8
ADP1DETAIL
100
AcDbPolyline
 90
        2
 70
     0
 43
0.0
 10
0.3464976115476346
 20
0.0640796268786599
 10
0.3363494042936987
 20
0.0954678607965549
  0
LWPOLYLINE
  5
3F1
330
2B
100
AcDbEntity
  8
ADP1DETAIL
100
AcDbPolyline
 90
        2
 70
     0
 43
0.0
 10
0.335870658852357
 20
0.0956932263559456
 10
0.3052133540631661
 20
0.0835138584734907
  0
LWPOLYLINE
  5
3F5
330
2B
100
AcDbEntity
  8
ADP1DETAIL
100
AcDbPolyline
 90
        2
 70
     0
 43
0.0
 10
0.3894659682071171
 20
0.0426471440659333
 10
0.3811599936046419
 20
0.074572339834422
  0
LWPOLYLINE
  5
3F9
330
2B
100
AcDbEntity
  8
ADP1DETAIL
100
AcDbPolyline
 90
        2
 70
     0
 43
0.0
 10
0.3806951619667074
 20
0.0748251606827355
 10
0.3493815572232886
 20
0.0644489621049169
  0
LWPOLYLINE
  5
3FD
330
2B
100
AcDbEntity
  8
ADP1DETAIL
100
AcDbPolyline
 90
        2
 70
     0
 43
0.0
 10
0.4242304590079616
 20
0.0513860874092462
 10
0.3923665096366746
 20
0.0428481679075443
  0
LWPOLYLINE
  5
401
330
2B
100
AcDbEntity
  8
ADP1DETAIL
100
AcDbPolyline
 90
        2
 70
     0
 43
0.0
 10
0.4242304590079616
 20
0.0513860874092467
 10
0.3923665096366729
 20
0.0428481679075452
  0
LWPOLYLINE
  5
405
330
2B
100
AcDbEntity
  8
ADP1DETAIL
100
AcDbPolyline
 90
        2
 70
     0
 43
0.0
 10
0.4311154411615159
 20
0.0187525338754491
 10
0.424679803999362
 20
0.0511066667377362
  0
LWPOLYLINE
  5
409
330
2B
100
AcDbEntity
  8
ADP1DETAIL
100
AcDbPolyline
 90
        2
 70
     0
 43
0.0
 10
0.2571897831106891
 20
0.0992767038675571
 10
0.2434662428589926
 20
0.1292745668233299
  0
LWPOLYLINE
  5
40D
330
2B
100
AcDbEntity
  8
ADP1DETAIL
100
AcDbPolyline
 90
        2
 70
     0
 43
0.0
 10
0.2899086215945821
 20
0.1139196735002705
 10
0.2600113513746876
 20
0.0999783474388061
  0
LWPOLYLINE
  5
411
330
2B
100
AcDbEntity
  8
ADP1DETAIL
100
AcDbPolyline
 90
        2
 70
     0
 43
0.0
 10
0.2899086215945821
 20
0.1139196735002723
 10
0.2600113513746858
 20
0.0999783474388065
  0
LWPOLYLINE
  5
415
330
2B
100
AcDbEntity
  8
ADP1DETAIL
100
AcDbPolyline
 90
        2
 70
     0
 43
0.0
 10
0.3023557625006918
 20
0.0829774615760821
 10
0.2903996609162998
 20
0.1137225257955163
  0
LWPOLYLINE
  5
419
330
2B
100
AcDbEntity
  8
ADP1DETAIL
100
AcDbPolyline
 90
        2
 70
     0
 43
0.0
 10
0.2429645711785215
 20
0.1294428295880221
 10
0.2139284984265912
 20
0.1137867183819157
  0
LWPOLYLINE
  5
41D
330
2B
100
AcDbEntity
  8
ADP1DETAIL
100
AcDbPolyline
 90
        2
 70
     0
 43
0.0
 10
0.4663292403117008
 20
0.0254553169399745
 10
0.434022763830924
 20
0.0187845661313675
  0
LWPOLYLINE
  5
421
330
2B
100
AcDbEntity
  8
ADP1DETAIL
100
AcDbPolyline
 90
        2
 70
     0
 43
0.0
 10
0.6148294658483269
 20
-0.1345471032162984
 10
0.6179434628383862
 20
-0.1017064217115065
  0
LWPOLYLINE
  5
425
330
2B
100
AcDbEntity
  8
ADP1DETAIL
100
AcDbPolyline
 90
        2
 70
     0
 43
0.0
 10
0.6504862959740563
 20
-0.1382253387694681
 10
0.6176238374290839
 20
-0.1353502461911906
  0
LWPOLYLINE
  5
429
330
2B
100
AcDbEntity
  8
ADP1DETAIL
100
AcDbPolyline
 90
        2
 70
     0
 43
0.0
 10
0.6504862959740545
 20
-0.1382253387694707
 10
0.6176238374290857
 20
-0.1353502461911942
  0
LWPOLYLINE
  5
42D
330
2B
100
AcDbEntity
  8
ADP1DETAIL
100
AcDbPolyline
 90
        2
 70
     0
 43
0.0
 10
0.6504862959740563
 20
-0.1382253387694698
 10
0.6176238374290839
 20
-0.1353502461911928
  0
LWPOLYLINE
  5
431
330
2B
100
AcDbEntity
  8
ADP1DETAIL
100
AcDbPolyline
 90
        2
 70
     0
 43
0.0
 10
0.5817827590115488
 20
-0.0997111137689151
 10
0.5829819718041569
 20
-0.0667449306772763
  0
LWPOLYLINE
  5
435
330
2B
100
AcDbEntity
  8
ADP1DETAIL
100
AcDbPolyline
 90
        2
 70
     0
 43
0.0
 10
0.6175931338010865
 20
-0.1013098660425371
 10
0.5846191015687264
 20
-0.1003504196955347
  0
LWPOLYLINE
  5
439
330
2B
100
AcDbEntity
  8
ADP1DETAIL
100
AcDbPolyline
 90
        2
 70
     0
 43
0.0
 10
0.8141312231036771
 20
-0.9282760437912875
 10
0.7984751118975697
 20
-0.8992399710393566
  0
LWPOLYLINE
  5
43D
330
2B
100
AcDbEntity
  8
ADP1DETAIL
100
AcDbPolyline
 90
        2
 70
     0
 43
0.0
 10
0.836866885134318
 20
-0.8320800640561207
 10
0.8179457526508159
 20
-0.8050578864145002
  0
LWPOLYLINE
  5
441
330
2B
100
AcDbEntity
  8
ADP1DETAIL
100
AcDbPolyline
 90
        2
 70
     0
 43
0.0
 10
0.8248694651521933
 20
-0.7067504247673203
 10
0.8496711475472725
 20
-0.6849999330642116
  0
LWPOLYLINE
  5
445
330
2B
100
AcDbEntity
  8
ADP1DETAIL
100
AcDbPolyline
 90
        2
 70
     0
 43
0.0
 10
0.8496884604514423
 20
-0.6844710785508415
 10
0.8263624305818591
 20
-0.6611450486812549
  0
LWPOLYLINE
  5
449
330
2B
100
AcDbEntity
  8
ADP1DETAIL
100
AcDbPolyline
 90
        2
 70
     0
 43
0.0
 10
0.8222087108758874
 20
-0.7546936347163353
 10
0.8482331113685464
 20
-0.7344220309822665
  0
LWPOLYLINE
  5
44D
330
2B
100
AcDbEntity
  8
ADP1DETAIL
100
AcDbPolyline
 90
        2
 70
     0
 43
0.0
 10
0.8482811451372192
 20
-0.7338950778628803
 10
0.8263508672342624
 20
-0.7092522239280664
  0
LWPOLYLINE
  5
451
330
2B
100
AcDbEntity
  8
ADP1DETAIL
100
AcDbPolyline
 90
        2
 70
     0
 43
0.0
 10
0.8167648084347916
 20
-0.8024010232399804
 10
0.8439238686915896
 20
-0.783676900165162
  0
LWPOLYLINE
  5
455
330
2B
100
AcDbEntity
  8
ADP1DETAIL
100
AcDbPolyline
 90
        2
 70
     0
 43
0.0
 10
0.8440024607936994
 20
-0.7831536314823109
 10
0.8235421399759271
 20
-0.7572773370994741
  0
LWPOLYLINE
  5
459
330
2B
100
AcDbEntity
  8
ADP1DETAIL
100
AcDbPolyline
 90
        2
 70
     0
 43
0.0
 10
0.836866885134318
 20
-0.8320800640561191
 10
0.8179457526508159
 20
-0.8050578864145002
  0
LWPOLYLINE
  5
45D
330
2B
100
AcDbEntity
  8
ADP1DETAIL
100
AcDbPolyline
 90
        2
 70
     0
 43
0.0
 10
0.836866885134318
 20
-0.8320800640561191
 10
0.8179457526508159
 20
-0.8050578864144984
  0
LWPOLYLINE
  5
461
330
2B
100
AcDbEntity
  8
ADP1DETAIL
100
AcDbPolyline
 90
        2
 70
     0
 43
0.0
 10
0.8161100447667518
 20
-0.5631288082136084
 10
0.8367580006295685
 20
-0.53740198840158
  0
LWPOLYLINE
  5
465
330
2B
100
AcDbEntity
  8
ADP1DETAIL
100
AcDbPolyline
 90
        2
 70
     0
 43
0.0
 10
0.8366832158893245
 20
-0.5368781620223383
 10
0.809661038247707
 20
-0.5179570295388323
  0
LWPOLYLINE
  5
469
330
2B
100
AcDbEntity
  8
ADP1DETAIL
100
AcDbPolyline
 90
        2
 70
     0
 43
0.0
 10
0.8218149643657334
 20
-0.6108056882069906
 10
0.8439238686915931
 20
-0.5863229659632639
  0
LWPOLYLINE
  5
46D
330
2B
100
AcDbEntity
  8
ADP1DETAIL
100
AcDbPolyline
 90
        2
 70
     0
 43
0.0
 10
0.8438796682704921
 20
-0.5857956774694218
 10
0.8180033738876538
 20
-0.5653353566516475
  0
LWPOLYLINE
  5
471
330
2B
100
AcDbEntity
  8
ADP1DETAIL
100
AcDbPolyline
 90
        2
 70
     0
 43
0.0
 10
0.8247380681134806
 20
-0.6587336180393347
 10
0.8482331113685464
 20
-0.6355778351461597
  0
LWPOLYLINE
  5
475
330
2B
100
AcDbEntity
  8
ADP1DETAIL
100
AcDbPolyline
 90
        2
 70
     0
 43
0.0
 10
0.8482196448268229
 20
-0.6350488687150689
 10
0.8235767908920102
 20
-0.6131185908121118
  0
LWPOLYLINE
  5
479
330
2B
100
AcDbEntity
  8
ADP1DETAIL
100
AcDbPolyline
 90
        2
 70
     0
 43
0.0
 10
0.8496884604514441
 20
-0.6844710785508406
 10
0.8263624305818609
 20
-0.6611450486812554
  0
LWPOLYLINE
  5
47D
330
2B
100
AcDbEntity
  8
ADP1DETAIL
100
AcDbPolyline
 90
        2
 70
     0
 43
0.0
 10
0.8496884604514441
 20
-0.6844710785508406
 10
0.8263624305818609
 20
-0.6611450486812536
  0
LWPOLYLINE
  5
481
330
2B
100
AcDbEntity
  8
ADP1DETAIL
100
AcDbPolyline
 90
        2
 70
     0
 43
0.0
 10
0.8248694651521933
 20
-0.7067504247673191
 10
0.8496711475472743
 20
-0.6849999330642119
  0
LWPOLYLINE
  5
485
330
2B
100
AcDbEntity
  8
ADP1DETAIL
100
AcDbPolyline
 90
        2
 70
     0
 43
0.0
 10
0.8366832158893227
 20
-0.5368781620223392
 10
0.8096610382477035
 20
-0.5179570295388352
  0
LWPOLYLINE
  5
489
330
2B
100
AcDbEntity
  8
ADP1DETAIL
100
AcDbPolyline
 90
        2
 70
     0
 43
0.0
 10
0.8366832158893245
 20
-0.5368781620223389
 10
0.8096610382477052
 20
-0.5179570295388332
  0
LWPOLYLINE
  5
48D
330
2B
100
AcDbEntity
  8
ADP1DETAIL
100
AcDbPolyline
 90
        2
 70
     0
 43
0.0
 10
0.8161100447667482
 20
-0.5631288082136095
 10
0.8367580006295668
 20
-0.5374019884015818
  0
LWPOLYLINE
  5
491
330
2B
100
AcDbEntity
  8
ADP1DETAIL
100
AcDbPolyline
 90
        2
 70
     0
 43
0.0
 10
0.8268985626883914
 20
-0.880508824023769
 10
0.8095806416621385
 20
-0.8524321976188389
  0
LWPOLYLINE
  5
495
330
2B
100
AcDbEntity
  8
ADP1DETAIL
100
AcDbPolyline
 90
        2
 70
     0
 43
0.0
 10
0.8085561782715405
 20
-0.8497111636369131
 10
0.8367580006295668
 20
-0.832597877726844
  0
LWPOLYLINE
  5
499
330
2B
100
AcDbEntity
  8
ADP1DETAIL
100
AcDbPolyline
 90
        2
 70
     0
 43
0.0
 10
0.8085561782715387
 20
-0.8497111636369115
 10
0.8367580006295668
 20
-0.8325978777268437
  0
LWPOLYLINE
  5
49D
330
2B
100
AcDbEntity
  8
ADP1DETAIL
100
AcDbPolyline
 90
        2
 70
     0
 43
0.0
 10
0.7964413200502274
 20
-0.4691720962835352
 10
0.8139629603389867
 20
-0.441222150656671
  0
LWPOLYLINE
  5
4A1
330
2B
100
AcDbEntity
  8
ADP1DETAIL
100
AcDbPolyline
 90
        2
 70
     0
 43
0.0
 10
0.8076426129586003
 20
-0.5158643015293252
 10
0.826759754211698
 20
-0.4889804355636107
  0
LWPOLYLINE
  5
4A5
330
2B
100
AcDbEntity
  8
ADP1DETAIL
100
AcDbPolyline
 90
        2
 70
     0
 43
0.0
 10
0.8266546382001958
 20
-0.488461843761619
 10
0.7985780117952693
 20
-0.4711439227353669
  0
LWPOLYLINE
  5
4A9
330
2B
100
AcDbEntity
  8
ADP1DETAIL
100
AcDbPolyline
 90
        2
 70
     0
 43
0.0
 10
0.7976105957922246
 20
-0.8964639733676955
 10
0.826759754211698
 20
-0.8810194305648177
  0
ENDBLK
  5
4AD
330
2B
100
AcDbEntity
  8
0
100
AcDbBlockEnd
  0
BLOCK
  5
4AE
330
35
100
AcDbEntity
  8
0
100
AcDbBlockBegin
  2
*D1
 70
     1
 10
0.0
 20
0.0
 30
0.0
  3
*D1
  1

  0
LINE
  5
4AF
330
35
100
AcDbEntity
  8
0
  6
BYBLOCK
 62
     0
100
AcDbLine
 10
11.40243246038576
 20
4.914719668488277
 30
0.0
 11
13.10160477419587
 21
4.914719668488277
 31
0.0
  0
LINE
  5
4B0
330
35
100
AcDbEntity
  8
0
  6
BYBLOCK
 62
     0
100
AcDbLine
 10
11.40243246038576
 20
3.014719668488276
 30
0.0
 11
13.10160477419587
 21
3.014719668488276
 31
0.0
  0
LINE
  5
4B1
330
35
100
AcDbEntity
  8
0
  6
BYBLOCK
 62
     0
100
AcDbLine
 10
12.92160477419587
 20
4.914719668488277
 30
0.0
 11
12.92160477419587
 21
4.308469668488276
 31
0.0
  0
LINE
  5
4B2
330
35
100
AcDbEntity
  8
0
  6
BYBLOCK
 62
     0
100
AcDbLine
 10
12.92160477419587
 20
3.014719668488276
 30
0.0
 11
12.92160477419587
 21
3.620969668488276
 31
0.0
  0
LINE
  5
4B3
330
35
100
AcDbEntity
  8
0
  6
BYBLOCK
 62
     0
100
AcDbLine
 10
13.04660477419587
 20
4.789719668488277
 30
0.0
 11
12.79660477419587
 21
5.039719668488277
 31
0.0
  0
LINE
  5
4B4
330
35
100
AcDbEntity
  8
0
  6
BYBLOCK
 62
     0
100
AcDbLine
 10
13.04660477419587
 20
2.889719668488276
 30
0.0
 11
12.79660477419587
 21
3.139719668488276
 31
0.0
  0
TEXT
  5
4B5
330
35
100
AcDbEntity
  8
0
  6
BYBLOCK
 62
     0
100
AcDbText
 10
12.98410477419587
 20
3.745969668488276
 30
0.0
 40
0.125
  1
1.990
 50
90.0
 72
     1
 11
12.92160477419587
 21
3.964719668488276
 31
0.0
100
AcDbText
 73
     2
  0
POINT
  5
4B6
330
35
100
AcDbEntity
  8
DEFPOINTS
  6
BYBLOCK
 62
     0
100
AcDbPoint
 10
11.33993246038576
 20
4.914719668488277
 30
0.0
  0
POINT
  5
4B7
330
35
100
AcDbEntity
  8
DEFPOINTS
  6
BYBLOCK
 62
     0
100
AcDbPoint
 10
11.33993246038576
 20
3.014719668488276
 30
0.0
  0
POINT
  5
4B8
330
35
100
AcDbEntity
  8
DEFPOINTS
  6
BYBLOCK
 62
     0
100
AcDbPoint
 10
12.92160477419587
 20
3.014719668488276
 30
0.0
  0
ENDBLK
  5
4B9
330
35
100
AcDbEntity
  8
0
100
AcDbBlockEnd
  0
BLOCK
  5
4BA
330
36
100
AcDbEntity
  8
0
100
AcDbBlockBegin
  2
*D2
 70
     1
 10
0.0
 20
0.0
 30
0.0
  3
*D2
  1

  0
LINE
  5
4BB
330
36
100
AcDbEntity
  8
0
  6
BYBLOCK
 62
     0
100
AcDbLine
 10
9.339932460385767
 20
4.027219668488276
 30
0.0
 11
9.339932460385767
 21
5.377884302938682
 31
0.0
  0
LINE
  5
4BC
330
36
100
AcDbEntity
  8
0
  6
BYBLOCK
 62
     0
100
AcDbLine
 10
11.33993246038576
 20
4.977219668488277
 30
0.0
 11
11.33993246038576
 21
5.377884302938682
 31
0.0
  0
LINE
  5
4BD
330
36
100
AcDbEntity
  8
0
  6
BYBLOCK
 62
     0
100
AcDbLine
 10
9.339932460385767
 20
5.197884302938682
 30
0.0
 11
10.1732657937191
 21
5.197884302938682
 31
0.0
  0
LINE
  5
4BE
330
36
100
AcDbEntity
  8
0
  6
BYBLOCK
 62
     0
100
AcDbLine
 10
11.33993246038576
 20
5.197884302938682
 30
0.0
 11
10.50659912705243
 21
5.197884302938682
 31
0.0
  0
LINE
  5
4BF
330
36
100
AcDbEntity
  8
0
  6
BYBLOCK
 62
     0
100
AcDbLine
 10
9.214932460385767
 20
5.072884302938682
 30
0.0
 11
9.464932460385767
 21
5.322884302938682
 31
0.0
  0
LINE
  5
4C0
330
36
100
AcDbEntity
  8
0
  6
BYBLOCK
 62
     0
100
AcDbLine
 10
11.21493246038576
 20
5.072884302938682
 30
0.0
 11
11.46493246038576
 21
5.322884302938682
 31
0.0
  0
TEXT
  5
4C1
330
36
100
AcDbEntity
  8
0
  6
BYBLOCK
 62
     0
100
AcDbText
 10
10.2982657937191
 20
5.135384302938682
 30
0.0
 40
0.125
  1
2
 72
     1
 11
10.33993246038576
 21
5.197884302938682
 31
0.0
100
AcDbText
 73
     2
  0
POINT
  5
4C2
330
36
100
AcDbEntity
  8
DEFPOINTS
  6
BYBLOCK
 62
     0
100
AcDbPoint
 10
9.339932460385767
 20
3.964719668488277
 30
0.0
  0
POINT
  5
4C3
330
36
100
AcDbEntity
  8
DEFPOINTS
  6
BYBLOCK
 62
     0
100
AcDbPoint
 10
11.33993246038576
 20
4.914719668488277
 30
0.0
  0
POINT
  5
4C4
330
36
100
AcDbEntity
  8
DEFPOINTS
  6
BYBLOCK
 62
     0
100
AcDbPoint
 10
11.33993246038576
 20
5.197884302938682
 30
0.0
  0
ENDBLK
  5
4C5
330
36
100
AcDbEntity
  8
0
100
AcDbBlockEnd
  0
ENDSEC
  0
SECTION
  2
ENTITIES
  0
LINE
  5
4C6
330
18
100
AcDbEntity
  8
ADP2DETAIL
  6
HIDDEN2
100
AcDbLine
 10
10.0481263255335
 20
5.693631719109522
 30
0.0
 11
10.0481263255335
 21
7.985117285295046
 31
0.0
  0
LINE
  5
4C7
330
18
100
AcDbEntity
  8
ADP1DETAIL
100
AcDbLine
 10
10.18093246038576
 20
6.937780653041624
 30
0.0
 11
10.18093246038576
 21
5.756131719109522
 31
0.0
  0
LINE
  5
4C8
330
18
100
AcDbEntity
  8
ADP2DETAIL
  6
HIDDEN2
100
AcDbLine
 10
8.632334735231468
 20
5.693631719109522
 30
0.0
 11
8.632334735231468
 21
7.922617285295046
 31
0.0
  0
LINE
  5
4C9
330
18
100
AcDbEntity
  8
ADP1DETAIL
100
AcDbLine
 10
8.501423921351745
 20
6.937780653041624
 30
0.0
 11
8.501423921351745
 21
5.756131719109518
 31
0.0
  0
LINE
  5
4CA
330
18
100
AcDbEntity
  8
ADP1DETAIL
100
AcDbLine
 10
11.33993246038576
 20
4.805719668488276
 30
0.0
 11
12.52280676363987
 21
4.805719668488276
 31
0.0
  0
LINE
  5
4CB
330
18
100
AcDbEntity
  8
ADP1DETAIL
100
AcDbLine
 10
12.52280676363987
 20
3.214009424962829
 30
0.0
 11
11.33993246038576
 21
3.214009424962829
 31
0.0
  0
LINE
  5
4CC
330
18
100
AcDbEntity
  8
ADP2DETAIL
  6
HIDDEN2
100
AcDbLine
 10
12.58401021280885
 20
3.286988369051029
 30
0.0
 11
10.35355254375316
 21
3.286988369051029
 31
0.0
  0
LINE
  5
4CD
330
18
100
AcDbEntity
  8
ADP2DETAIL
  6
HIDDEN2
100
AcDbLine
 10
12.58401021280885
 20
4.60730418800295
 30
0.0
 11
10.35355254375315
 21
4.607304188002951
 31
0.0
  0
LINE
  5
4CE
330
18
100
AcDbEntity
  8
ADP3DETAIL
  6
CENTER2
100
AcDbLine
 10
9.339932460385767
 20
3.964719668488277
 30
0.0
 11
12.76067691603918
 21
3.964719668488275
 31
0.0
  0
DIMENSION
  5
4CF
330
18
100
AcDbEntity
  8
ADPDIM
100
AcDbDimension
  2
*D1
 10
12.92160477419587
 20
3.014719668488276
 30
0.0
 11
12.92160477419587
 21
3.964719668488276
 31
0.0
  1
1.990
100
AcDbAlignedDimension
 13
11.33993246038576
 23
4.914719668488277
 33
0.0
 14
11.33993246038576
 24
3.014719668488276
 34
0.0
 50
90.0
100
AcDbRotatedDimension
  0
LINE
  5
4D0
330
18
100
AcDbEntity
  8
ADP1DETAIL
100
AcDbLine
 10
10.18093246038576
 20
1.964719668488276
 30
0.0
 11
10.18093246038576
 21
0.7750031734594529
 31
0.0
  0
LINE
  5
4D1
330
18
100
AcDbEntity
  8
ADP2DETAIL
  6
HIDDEN2
100
AcDbLine
 10
9.98251697990044
 20
0.7137997242904781
 30
0.0
 11
9.982516979900442
 21
2.949405457931734
 31
0.0
  0
LINE
  5
4D2
330
18
100
AcDbEntity
  8
ADP1DETAIL
100
AcDbLine
 10
8.589222216860319
 20
0.7750031734594529
 30
0.0
 11
8.589222216860321
 21
1.964719668488276
 31
0.0
  0
LINE
  5
4D3
330
18
100
AcDbEntity
  8
ADP2DETAIL
  6
HIDDEN2
100
AcDbLine
 10
8.662201160948519
 20
0.7137997242904781
 30
0.0
 11
8.662201160948519
 21
2.949405457931731
 31
0.0
  0
LINE
  5
4D4
330
18
100
AcDbEntity
  8
ADP3DETAIL
  6
CENTER2
100
AcDbLine
 10
9.339932460385767
 20
0.5475236286185488
 30
0.0
 11
9.339932460385767
 21
3.964719668488277
 31
0.0
  0
LINE
  5
4D5
330
18
100
AcDbEntity
  8
ADP1DETAIL
100
AcDbLine
 10
10.18093246038576
 20
0.7750031734594529
 30
0.0
 11
8.589222216860319
 21
0.7750031734594529
 31
0.0
  0
LINE
  5
4D6
330
18
100
AcDbEntity
  8
ADP1DETAIL
100
AcDbLine
 10
10.11843246038576
 20
0.7125031734594529
 30
0.0
 11
8.651722216860319
 21
0.7125031734594529
 31
0.0
  0
LINE
  5
4D7
330
18
100
AcDbEntity
  8
ADP1DETAIL
100
AcDbLine
 10
8.651722216860319
 20
0.7125031734594529
 30
0.0
 11
8.589222216860319
 21
0.7750031734594529
 31
0.0
  0
LINE
  5
4D8
330
18
100
AcDbEntity
  8
ADP1DETAIL
100
AcDbLine
 10
10.18093246038576
 20
0.7750031734594529
 30
0.0
 11
10.11843246038576
 21
0.7125031734594529
 31
0.0
  0
LINE
  5
4D9
330
18
100
AcDbEntity
  8
ADP1DETAIL
100
AcDbLine
 10
10.11843246038576
 20
5.693631719109522
 30
0.0
 11
8.592432460385763
 21
5.693631719109518
 31
0.0
  0
LINE
  5
4DA
330
18
100
AcDbEntity
  8
ADP1DETAIL
100
AcDbLine
 10
10.18093246038576
 20
5.756131719109522
 30
0.0
 11
8.501423921351745
 21
5.756131719109518
 31
0.0
  0
LINE
  5
4DB
330
18
100
AcDbEntity
  8
ADP2DETAIL
  6
HIDDEN2
100
AcDbLine
 10
11.33993246038576
 20
4.805719668488276
 30
0.0
 11
9.339932460385767
 21
4.805719668488277
 31
0.0
  0
LINE
  5
4DC
330
18
100
AcDbEntity
  8
ADP1DETAIL
100
AcDbLine
 10
11.33993246038576
 20
4.914719668488277
 30
0.0
 11
9.339932460385767
 21
4.914719668488277
 31
0.0
  0
CIRCLE
  5
4DD
330
18
100
AcDbEntity
  8
ADP1DETAIL
100
AcDbCircle
 10
9.339932460385767
 20
3.964719668488277
 30
0.0
 40
0.95
  0
CIRCLE
  5
4DE
330
18
100
AcDbEntity
  8
ADP1DETAIL
100
AcDbCircle
 10
9.339932460385767
 20
3.964719668488277
 30
0.0
 40
0.841
  0
INSERT
  5
4DF
330
18
100
AcDbEntity
  8
ADP1DETAIL
100
AcDbBlockReference
  2
7263X
 10
9.339932460385767
 20
4.635324650552966
 30
0.0
 41
0.9795894062366098
 42
0.9795894062366098
 43
0.9795894062366098
  0
LINE
  5
4E0
330
18
100
AcDbEntity
  8
ADP2DETAIL
  6
HIDDEN2
100
AcDbLine
 10
8.632529418325166
 20
2.949405457931731
 30
0.0
 11
10.14993246038576
 21
2.949405457931735
 31
0.0
  0
LINE
  5
4E1
330
18
100
AcDbEntity
  8
ADP2DETAIL
  6
HIDDEN2
100
AcDbLine
 10
8.707022333498919
 20
3.011905457931733
 30
0.0
 11
10.07646494731796
 21
3.011905457931735
 31
0.0
  0
LINE
  5
4E2
330
18
100
AcDbEntity
  8
ADP1DETAIL
100
AcDbLine
 10
8.389932460385766
 20
1.964719668488276
 30
0.0
 11
10.28993246038576
 21
1.964719668488275
 31
0.0
  0
DIMENSION
  5
4E3
330
18
100
AcDbEntity
  8
ADPDIM
100
AcDbDimension
  2
*D2
 10
11.33993246038576
 20
5.197884302938682
 30
0.0
 11
10.33993246038576
 21
5.197884302938682
 31
0.0
100
AcDbAlignedDimension
 13
9.339932460385767
 23
3.964719668488277
 33
0.0
 14
11.33993246038576
 24
4.914719668488277
 34
0.0
100
AcDbRotatedDimension
  0
LINE
  5
4E4
330
18
100
AcDbEntity
  8
ADP2DETAIL
  6
HIDDEN2
100
AcDbLine
 10
8.498932460385768
 20
3.964719668488277
 30
0.0
 11
8.498932460385766
 21
1.964719668488276
 31
0.0
  0
LINE
  5
4E5
330
18
100
AcDbEntity
  8
ADP1DETAIL
100
AcDbLine
 10
8.389932460385766
 20
3.964719668488277
 30
0.0
 11
8.389932460385766
 21
1.964719668488276
 31
0.0
  0
LINE
  5
4E6
330
18
100
AcDbEntity
  8
ADP2DETAIL
  6
HIDDEN2
100
AcDbLine
 10
8.589222216860321
 20
1.964719668488276
 30
0.0
 11
8.589222216860321
 21
2.949405457931731
 31
0.0
  0
LINE
  5
4E7
330
18
100
AcDbEntity
  8
ADP2DETAIL
  6
HIDDEN2
100
AcDbLine
 10
8.695029418325166
 20
3.011905457931731
 30
0.0
 11
8.632529418325166
 21
2.949405457931731
 31
0.0
  0
LINE
  5
4E8
330
18
100
AcDbEntity
  8
ADP1DETAIL
100
AcDbLine
 10
8.563923921351745
 20
5.693631719109518
 30
0.0
 11
8.501423921351745
 21
5.756131719109518
 31
0.0
  0
LINE
  5
4E9
330
18
100
AcDbEntity
  8
ADP2DETAIL
  6
HIDDEN2
100
AcDbLine
 10
10.29105254375315
 20
3.331809541601428
 30
0.0
 11
10.29105254375315
 21
4.701252155420475
 31
0.0
  0
LINE
  5
4EA
330
18
100
AcDbEntity
  8
ADP2DETAIL
  6
HIDDEN2
100
AcDbLine
 10
10.35355254375316
 20
3.257316626427674
 30
0.0
 11
10.35355254375315
 21
4.774719668488276
 31
0.0
  0
LINE
  5
4EB
330
18
100
AcDbEntity
  8
ADP1DETAIL
100
AcDbLine
 10
11.33993246038576
 20
3.014719668488276
 30
0.0
 11
11.33993246038576
 21
4.914719668488277
 31
0.0
  0
LINE
  5
4EC
330
18
100
AcDbEntity
  8
ADP2DETAIL
  6
HIDDEN2
100
AcDbLine
 10
10.18093246038576
 20
3.123719668488276
 30
0.0
 11
11.33993246038576
 21
3.123719668488276
 31
0.0
  0
LINE
  5
4ED
330
18
100
AcDbEntity
  8
ADP2DETAIL
  6
HIDDEN2
100
AcDbLine
 10
11.33993246038576
 20
3.214009424962829
 30
0.0
 11
10.35355254375316
 21
3.214009424962829
 31
0.0
  0
LINE
  5
4EE
330
18
100
AcDbEntity
  8
ADP1DETAIL
100
AcDbLine
 10
10.28993246038576
 20
3.014719668488275
 30
0.0
 11
11.33993246038576
 21
3.014719668488276
 31
0.0
  0
LINE
  5
4EF
330
18
100
AcDbEntity
  8
ADP1DETAIL
100
AcDbLine
 10
10.28993246038576
 20
1.964719668488275
 30
0.0
 11
10.28993246038576
 21
3.014719668488275
 31
0.0
  0
LINE
  5
4F0
330
18
100
AcDbEntity
  8
ADP2DETAIL
  6
HIDDEN2
100
AcDbLine
 10
10.18093246038576
 20
1.964719668488276
 30
0.0
 11
10.18093246038576
 21
3.123719668488276
 31
0.0
  0
LINE
  5
4F1
330
18
100
AcDbEntity
  8
ADP1DETAIL
100
AcDbLine
 10
10.28993246038576
 20
3.014719668488275
 30
0.0
 11
10.01168390251298
 21
3.292968226361056
 31
0.0
  0
LINE
  5
4F2
330
18
100
AcDbEntity
  8
ADP2DETAIL
  6
HIDDEN2
100
AcDbLine
 10
10.18393246038576
 20
2.949405457931735
 30
0.0
 11
10.12143246038576
 21
3.011905457931735
 31
0.0
  0
LINE
  5
4F3
330
18
100
AcDbEntity
  8
ADP2DETAIL
  6
HIDDEN2
100
AcDbLine
 10
10.29105254375316
 20
3.319816626427674
 30
0.0
 11
10.35355254375316
 21
3.257316626427674
 31
0.0
  0
LINE
  5
4F4
330
18
100
AcDbEntity
  8
ADP2DETAIL
  6
HIDDEN2
100
AcDbLine
 10
10.35355254375315
 20
4.808719668488276
 30
0.0
 11
10.29105254375315
 21
4.746219668488276
 31
0.0
  0
LINE
  5
4F5
330
18
100
AcDbEntity
  8
ADP1DETAIL
100
AcDbLine
 10
10.18093246038576
 20
5.756131719109522
 30
0.0
 11
10.11843246038576
 21
5.693631719109522
 31
0.0
  0
LINE
  5
4F6
330
18
100
AcDbEntity
  8
ADP1DETAIL
100
AcDbLine
 10
12.58530676363987
 20
4.743219668488276
 30
0.0
 11
12.58530676363987
 21
3.276509424962829
 31
0.0
  0
LINE
  5
4F7
330
18
100
AcDbEntity
  8
ADP1DETAIL
100
AcDbLine
 10
12.52280676363987
 20
4.805719668488276
 30
0.0
 11
12.52280676363987
 21
3.214009424962829
 31
0.0
  0
LINE
  5
4F8
330
18
100
AcDbEntity
  8
ADP1DETAIL
100
AcDbLine
 10
12.58530676363987
 20
3.276509424962829
 30
0.0
 11
12.52280676363987
 21
3.214009424962829
 31
0.0
  0
LINE
  5
4F9
330
18
100
AcDbEntity
  8
ADP1DETAIL
100
AcDbLine
 10
12.52280676363987
 20
4.805719668488276
 30
0.0
 11
12.58530676363987
 21
4.743219668488276
 31
0.0
  0
LINE
  5
4FA
330
18
100
AcDbEntity
  8
ADP2DETAIL
  6
HIDDEN2
100
AcDbLine
 10
12.58408139431786
 20
9.645974518189362
 30
0.0
 11
10.29259582813234
 21
9.645974518189362
 31
0.0
  0
LINE
  5
4FB
330
18
100
AcDbEntity
  8
ADP1DETAIL
100
AcDbLine
 10
11.33993246038576
 20
9.778780653041625
 30
0.0
 11
12.52158139431786
 21
9.778780653041625
 31
0.0
  0
LINE
  5
4FC
330
18
100
AcDbEntity
  8
ADP2DETAIL
  6
HIDDEN2
100
AcDbLine
 10
12.58408139431786
 20
8.230182927887327
 30
0.0
 11
10.35509582813234
 21
8.230182927887327
 31
0.0
  0
LINE
  5
4FD
330
18
100
AcDbEntity
  8
ADP1DETAIL
100
AcDbLine
 10
11.33993246038576
 20
8.099272114007604
 30
0.0
 11
12.52158139431787
 21
8.099272114007604
 31
0.0
  0
LINE
  5
4FE
330
18
100
AcDbEntity
  8
ADP1DETAIL
100
AcDbLine
 10
10.28993246038576
 20
7.987780653041624
 30
0.0
 11
8.668181018258547
 21
9.609532095168844
 31
0.0
  0
LINE
  5
4FF
330
18
100
AcDbEntity
  8
ADP2DETAIL
  6
HIDDEN2
100
AcDbLine
 10
8.558432460385764
 20
7.985117285295046
 30
0.0
 11
10.07646494731796
 21
7.985117285295046
 31
0.0
  0
LWPOLYLINE
  5
500
330
18
100
AcDbEntity
  8
ADP2DETAIL
  6
HIDDEN2
100
AcDbPolyline
 90
        2
 70
     0
 43
0.0
 10
9.55176881850488
 20
8.156984811548543
 10
9.579148289145846
 20
8.139820798341785
  0
LINE
  5
504
330
18
100
AcDbEntity
  8
ADP2DETAIL
  6
HIDDEN2
100
AcDbLine
 10
11.33993246038576
 20
9.778780653041625
 30
0.0
 11
9.339932460385769
 21
9.778780653041625
 31
0.0
  0
ARC
  5
505
330
18
100
AcDbEntity
  8
ADP2DETAIL
  6
HIDDEN2
100
AcDbCircle
 10
9.339932460385766
 20
8.937780653041624
 30
0.0
 40
0.95
100
AcDbArc
 50
180.0
 51
90.0
  0
ARC
  5
506
330
18
100
AcDbEntity
  8
ADP2DETAIL
  6
HIDDEN2
100
AcDbCircle
 10
9.379529732273031
 20
8.937475472200235
 30
0.0
 40
0.7102023195215423
100
AcDbArc
 50
30.06876640653137
 51
329.8819924849639
  0
LWPOLYLINE
  5
507
330
18
100
AcDbEntity
  8
ADP2DETAIL
  6
HIDDEN2
100
AcDbPolyline
 90
        2
 70
     0
 43
0.0
 10
9.578656856882254
 20
9.73529497448044
 10
9.550213427615748
 20
9.719958413800075
  0
CIRCLE
  5
50B
330
18
100
AcDbEntity
  8
ADP2DETAIL
  6
HIDDEN2
100
AcDbCircle
 10
9.339932460385766
 20
8.937780653041624
 30
0.0
 40
0.841
  0
LINE
  5
50C
330
18
100
AcDbEntity
  8
ADP1DETAIL
100
AcDbLine
 10
11.33993246038576
 20
9.887780653041623
 30
0.0
 11
9.339932460385769
 21
9.887780653041623
 31
0.0
  0
LINE
  5
50D
330
18
100
AcDbEntity
  8
ADP1DETAIL
100
AcDbLine
 10
8.389932460385765
 20
6.937780653041624
 30
0.0
 11
10.28993246038576
 21
6.937780653041624
 31
0.0
  0
LINE
  5
50E
330
18
100
AcDbEntity
  8
ADP2DETAIL
  6
HIDDEN2
100
AcDbLine
 10
8.529932460385763
 20
7.922617285295046
 30
0.0
 11
10.14993246038576
 21
7.922617285295046
 31
0.0
  0
LWPOLYLINE
  5
50F
330
18
100
AcDbEntity
  8
ADP2DETAIL
  6
HIDDEN2
100
AcDbPolyline
 90
        2
 70
     0
 43
0.0
 10
8.804731555853114
 20
9.574990137479902
 10
8.801915145621485
 20
9.542798421226358
  0
LWPOLYLINE
  5
513
330
18
100
AcDbEntity
  8
ADP2DETAIL
  6
HIDDEN2
100
AcDbPolyline
 90
        2
 70
     0
 43
0.0
 10
8.804731555853118
 20
9.5749901374799
 10
8.801915145621489
 20
9.542798421226359
  0
LWPOLYLINE
  5
517
330
18
100
AcDbEntity
  8
ADP2DETAIL
  6
HIDDEN2
100
AcDbPolyline
 90
        2
 70
     0
 43
0.0
 10
8.804731555853116
 20
9.574990137479902
 10
8.801915145621487
 20
9.542798421226358
  0
ARC
  5
51B
330
18
100
AcDbEntity
  8
ADP1DETAIL
100
AcDbCircle
 10
9.339932460385766
 20
8.937780653041624
 30
0.0
 40
0.9499999999999992
100
AcDbArc
 50
89.99999999999978
 51
180.0
  0
LWPOLYLINE
  5
51C
330
18
100
AcDbEntity
  8
ADP2DETAIL
  6
HIDDEN2
100
AcDbPolyline
 90
        2
 70
     0
 43
0.0
 10
9.043856473321907
 20
8.185172952181412
 10
9.055568543773867
 20
8.155055412977988
  0
LWPOLYLINE
  5
520
330
18
100
AcDbEntity
  8
ADP2DETAIL
  6
HIDDEN2
100
AcDbPolyline
 90
        2
 70
     0
 43
0.0
 10
9.056049560691469
 20
8.154862289174948
 10
9.085336609874271
 20
8.168519064493649
  0
LWPOLYLINE
  5
524
330
18
100
AcDbEntity
  8
ADP2DETAIL
  6
HIDDEN2
100
AcDbPolyline
 90
        2
 70
     0
 43
0.0
 10
9.088100588254656
 20
8.169206387102997
 10
9.101544022901281
 20
8.139820798341784
  0
LWPOLYLINE
  5
528
330
18
100
AcDbEntity
  8
ADP2DETAIL
  6
HIDDEN2
100
AcDbPolyline
 90
        2
 70
     0
 43
0.0
 10
9.056049560691468
 20
8.154862289174946
 10
9.08533660987427
 20
8.168519064493649
  0
LWPOLYLINE
  5
52C
330
18
100
AcDbEntity
  8
ADP2DETAIL
  6
HIDDEN2
100
AcDbPolyline
 90
        2
 70
     0
 43
0.0
 10
9.056049560691468
 20
8.154862289174946
 10
9.085336609874271
 20
8.168519064493647
  0
LWPOLYLINE
  5
530
330
18
100
AcDbEntity
  8
ADP2DETAIL
  6
HIDDEN2
100
AcDbPolyline
 90
        2
 70
     0
 43
0.0
 10
9.043856473321907
 20
8.18517295218141
 10
9.055568543773867
 20
8.155055412977986
  0
LINE
  5
534
330
18
100
AcDbEntity
  8
ADP1DETAIL
100
AcDbLine
 10
8.389932460385765
 20
8.937780653041624
 30
0.0
 11
8.389932460385765
 21
6.937780653041624
 31
0.0
  0
LINE
  5
535
330
18
100
AcDbEntity
  8
ADP2DETAIL
  6
HIDDEN2
100
AcDbLine
 10
8.501423921351745
 20
8.937780653041624
 30
0.0
 11
8.501423921351745
 21
6.937780653041624
 31
0.0
  0
LINE
  5
536
330
18
100
AcDbEntity
  8
ADP2DETAIL
  6
HIDDEN2
100
AcDbLine
 10
8.558432460385764
 20
7.985117285295046
 30
0.0
 11
8.495932460385764
 21
7.922617285295046
 31
0.0
  0
LWPOLYLINE
  5
537
330
18
100
AcDbEntity
  8
ADP2DETAIL
  6
HIDDEN2
100
AcDbPolyline
 90
        2
 70
     0
 43
0.0
 10
9.196268017836001
 20
8.117384356251035
 10
9.222738656787177
 20
8.135919297185875
  0
LWPOLYLINE
  5
53B
330
18
100
AcDbEntity
  8
ADP2DETAIL
  6
HIDDEN2
100
AcDbPolyline
 90
        2
 70
     0
 43
0.0
 10
9.196268017836001
 20
8.117384356251037
 10
9.222738656787175
 20
8.135919297185877
  0
LWPOLYLINE
  5
53F
330
18
100
AcDbEntity
  8
ADP2DETAIL
  6
HIDDEN2
100
AcDbPolyline
 90
        2
 70
     0
 43
0.0
 10
9.196268017835999
 20
8.117384356251038
 10
9.222738656787173
 20
8.135919297185875
  0
LWPOLYLINE
  5
543
330
18
100
AcDbEntity
  8
ADP2DETAIL
  6
HIDDEN2
100
AcDbPolyline
 90
        2
 70
     0
 43
0.0
 10
9.102035455164877
 20
8.139655969920029
 10
9.130478884431383
 20
8.154992530600393
  0
LWPOLYLINE
  5
547
330
18
100
AcDbEntity
  8
ADP2DETAIL
  6
HIDDEN2
100
AcDbPolyline
 90
        2
 70
     0
 43
0.0
 10
9.133198222342281
 20
8.155839401418711
 10
9.148327532856148
 20
8.127285194630283
  0
LWPOLYLINE
  5
54B
330
18
100
AcDbEntity
  8
ADP2DETAIL
  6
HIDDEN2
100
AcDbPolyline
 90
        2
 70
     0
 43
0.0
 10
9.148827717614514
 20
8.127149219317018
 10
9.176331283403646
 20
8.144113671292378
  0
LWPOLYLINE
  5
54F
330
18
100
AcDbEntity
  8
ADP2DETAIL
  6
HIDDEN2
100
AcDbPolyline
 90
        2
 70
     0
 43
0.0
 10
9.178996779466352
 20
8.145117224776884
 10
9.195760773049753
 20
8.117491018358396
  0
LWPOLYLINE
  5
553
330
18
100
AcDbEntity
  8
ADP2DETAIL
  6
HIDDEN2
100
AcDbPolyline
 90
        2
 70
     0
 43
0.0
 10
9.178996779466352
 20
8.145117224776885
 10
9.195760773049755
 20
8.117491018358395
  0
LWPOLYLINE
  5
557
330
18
100
AcDbEntity
  8
ADP2DETAIL
  6
HIDDEN2
100
AcDbPolyline
 90
        2
 70
     0
 43
0.0
 10
9.319039604770763
 20
8.129136901767699
 10
9.340346156023565
 20
8.104841436436633
  0
LWPOLYLINE
  5
55B
330
18
100
AcDbEntity
  8
ADP2DETAIL
  6
HIDDEN2
100
AcDbPolyline
 90
        2
 70
     0
 43
0.0
 10
9.340864216302303
 20
8.104824476899118
 10
9.36371414805211
 20
8.127674408648919
  0
LWPOLYLINE
  5
55F
330
18
100
AcDbEntity
  8
ADP2DETAIL
  6
HIDDEN2
100
AcDbPolyline
 90
        2
 70
     0
 43
0.0
 10
9.340864216302305
 20
8.104824476899118
 10
9.36371414805211
 20
8.127674408648919
  0
LWPOLYLINE
  5
563
330
18
100
AcDbEntity
  8
ADP2DETAIL
  6
HIDDEN2
100
AcDbPolyline
 90
        2
 70
     0
 43
0.0
 10
9.340864216302305
 20
8.104824476899118
 10
9.36371414805211
 20
8.127674408648919
  0
LWPOLYLINE
  5
567
330
18
100
AcDbEntity
  8
ADP2DETAIL
  6
HIDDEN2
100
AcDbPolyline
 90
        2
 70
     0
 43
0.0
 10
9.319039604770765
 20
8.129136901767699
 10
9.340346156023567
 20
8.104841436436633
  0
LWPOLYLINE
  5
56B
330
18
100
AcDbEntity
  8
ADP2DETAIL
  6
HIDDEN2
100
AcDbPolyline
 90
        2
 70
     0
 43
0.0
 10
9.272074944203732
 20
8.131743348469367
 10
9.291932792469051
 20
8.1062501214431
  0
LWPOLYLINE
  5
56F
330
18
100
AcDbEntity
  8
ADP2DETAIL
  6
HIDDEN2
100
AcDbPolyline
 90
        2
 70
     0
 43
0.0
 10
9.292448990162386
 20
8.106203068072165
 10
9.316588868816365
 20
8.127685735981728
  0
LWPOLYLINE
  5
573
330
18
100
AcDbEntity
  8
ADP2DETAIL
  6
HIDDEN2
100
AcDbPolyline
 90
        2
 70
     0
 43
0.0
 10
9.244195832870252
 20
8.110394421927708
 10
9.269543976720338
 20
8.130437135448998
  0
LWPOLYLINE
  5
577
330
18
100
AcDbEntity
  8
ADP2DETAIL
  6
HIDDEN2
100
AcDbPolyline
 90
        2
 70
     0
 43
0.0
 10
9.413026052289426
 20
8.132129058379458
 10
9.437009067635214
 20
8.110471409918348
  0
LWPOLYLINE
  5
57B
330
18
100
AcDbEntity
  8
ADP2DETAIL
  6
HIDDEN2
100
AcDbPolyline
 90
        2
 70
     0
 43
0.0
 10
9.366076359962809
 20
8.129265616914834
 10
9.388759519578078
 20
8.1062501214431
  0
LWPOLYLINE
  5
57F
330
18
100
AcDbEntity
  8
ADP2DETAIL
  6
HIDDEN2
100
AcDbPolyline
 90
        2
 70
     0
 43
0.0
 10
9.38927768949023
 20
8.106263313124712
 10
9.410760357399791
 20
8.13040319177869
  0
LWPOLYLINE
  5
583
330
18
100
AcDbEntity
  8
ADP2DETAIL
  6
HIDDEN2
100
AcDbPolyline
 90
        2
 70
     0
 43
0.0
 10
9.225341291806753
 20
8.13707613762925
 10
9.243683244411915
 20
8.110471409918348
  0
LWPOLYLINE
  5
587
330
18
100
AcDbEntity
  8
ADP2DETAIL
  6
HIDDEN2
100
AcDbPolyline
 90
        2
 70
     0
 43
0.0
 10
9.459729818853357
 20
8.137717537182053
 10
9.484931538997377
 20
8.117491018358396
  0
LWPOLYLINE
  5
58B
330
18
100
AcDbEntity
  8
ADP2DETAIL
  6
HIDDEN2
100
AcDbPolyline
 90
        2
 70
     0
 43
0.0
 10
9.48544467376919
 20
8.117564276697688
 10
9.503979614704032
 20
8.144034915648861
  0
LWPOLYLINE
  5
58F
330
18
100
AcDbEntity
  8
ADP2DETAIL
  6
HIDDEN2
100
AcDbPolyline
 90
        2
 70
     0
 43
0.0
 10
9.437525593857811
 20
8.110514708182609
 10
9.457568307379105
 20
8.135862852032698
  0
LWPOLYLINE
  5
593
330
18
100
AcDbEntity
  8
ADP2DETAIL
  6
HIDDEN2
100
AcDbPolyline
 90
        2
 70
     0
 43
0.0
 10
9.485444673769189
 20
8.117564276697688
 10
9.503979614704029
 20
8.144034915648862
  0
LWPOLYLINE
  5
597
330
18
100
AcDbEntity
  8
ADP2DETAIL
  6
HIDDEN2
100
AcDbPolyline
 90
        2
 70
     0
 43
0.0
 10
9.48544467376919
 20
8.117564276697686
 10
9.50397961470403
 20
8.144034915648861
  0
LWPOLYLINE
  5
59B
330
18
100
AcDbEntity
  8
ADP2DETAIL
  6
HIDDEN2
100
AcDbPolyline
 90
        2
 70
     0
 43
0.0
 10
9.459729818853356
 20
8.137717537182053
 10
9.484931538997376
 20
8.117491018358395
  0
LWPOLYLINE
  5
59F
330
18
100
AcDbEntity
  8
ADP2DETAIL
  6
HIDDEN2
100
AcDbPolyline
 90
        2
 70
     0
 43
0.0
 10
9.53287278622637
 20
8.127388165161578
 10
9.54983723820173
 20
8.154891730950707
  0
LWPOLYLINE
  5
5A3
330
18
100
AcDbEntity
  8
ADP2DETAIL
  6
HIDDEN2
100
AcDbPolyline
 90
        2
 70
     0
 43
0.0
 10
9.506029628892278
 20
8.146012143679346
 10
9.532364779190977
 20
8.127285194630283
  0
LWPOLYLINE
  5
5A7
330
18
100
AcDbEntity
  8
ADP2DETAIL
  6
HIDDEN2
100
AcDbPolyline
 90
        2
 70
     0
 43
0.0
 10
8.84353700845445
 20
8.269277433252169
 10
8.875510501728054
 20
8.273960860397339
  0
LWPOLYLINE
  5
5AB
330
18
100
AcDbEntity
  8
ADP2DETAIL
  6
HIDDEN2
100
AcDbPolyline
 90
        2
 70
     0
 43
0.0
 10
8.534999742202787
 20
8.864795575934376
 10
8.513342093741679
 20
8.840812560588588
  0
LWPOLYLINE
  5
5AF
330
18
100
AcDbEntity
  8
ADP2DETAIL
  6
HIDDEN2
100
AcDbPolyline
 90
        2
 70
     0
 43
0.0
 10
8.679235650941006
 20
8.471859628779194
 10
8.672471084860347
 20
8.440260903999835
  0
LWPOLYLINE
  5
5B3
330
18
100
AcDbEntity
  8
ADP2DETAIL
  6
HIDDEN2
100
AcDbPolyline
 90
        2
 70
     0
 43
0.0
 10
8.805525270248569
 20
8.299294801464084
 10
8.837716986502112
 20
8.302111211695709
  0
LWPOLYLINE
  5
5B7
330
18
100
AcDbEntity
  8
ADP2DETAIL
  6
HIDDEN2
100
AcDbPolyline
 90
        2
 70
     0
 43
0.0
 10
8.805525270248571
 20
8.299294801464084
 10
8.837716986502112
 20
8.302111211695711
  0
LWPOLYLINE
  5
5BB
330
18
100
AcDbEntity
  8
ADP2DETAIL
  6
HIDDEN2
100
AcDbPolyline
 90
        2
 70
     0
 43
0.0
 10
8.805525270248569
 20
8.299294801464084
 10
8.837716986502114
 20
8.302111211695709
  0
LWPOLYLINE
  5
5BF
330
18
100
AcDbEntity
  8
ADP2DETAIL
  6
HIDDEN2
100
AcDbPolyline
 90
        2
 70
     0
 43
0.0
 10
8.840549354767533
 20
8.301811747398009
 10
8.843131587823163
 20
8.269600401037019
  0
LWPOLYLINE
  5
5C3
330
18
100
AcDbEntity
  8
ADP2DETAIL
  6
HIDDEN2
100
AcDbPolyline
 90
        2
 70
     0
 43
0.0
 10
8.707427298834531
 20
8.43420721988371
 10
8.702511479775129
 20
8.402268630608093
  0
LWPOLYLINE
  5
5C7
330
18
100
AcDbEntity
  8
ADP2DETAIL
  6
HIDDEN2
100
AcDbPolyline
 90
        2
 70
     0
 43
0.0
 10
8.702831490743902
 20
8.401860872029784
 10
8.735023206997444
 20
8.399044461798153
  0
LWPOLYLINE
  5
5CB
330
18
100
AcDbEntity
  8
ADP2DETAIL
  6
HIDDEN2
100
AcDbPolyline
 90
        2
 70
     0
 43
0.0
 10
8.672766845368435
 20
8.439835228301474
 10
8.704740338642041
 20
8.435151801156305
  0
LWPOLYLINE
  5
5CF
330
18
100
AcDbEntity
  8
ADP2DETAIL
  6
HIDDEN2
100
AcDbPolyline
 90
        2
 70
     0
 43
0.0
 10
8.737760543795044
 20
8.398257711448254
 10
8.734710105332528
 20
8.366087327752568
  0
LWPOLYLINE
  5
5D3
330
18
100
AcDbEntity
  8
ADP2DETAIL
  6
HIDDEN2
100
AcDbPolyline
 90
        2
 70
     0
 43
0.0
 10
8.735053283946164
 20
8.365698866020265
 10
8.767354296601887
 20
8.364759002542887
  0
LWPOLYLINE
  5
5D7
330
18
100
AcDbEntity
  8
ADP2DETAIL
  6
HIDDEN2
100
AcDbPolyline
 90
        2
 70
     0
 43
0.0
 10
8.7028314907439
 20
8.401860872029784
 10
8.735023206997443
 20
8.399044461798157
  0
LWPOLYLINE
  5
5DB
330
18
100
AcDbEntity
  8
ADP2DETAIL
  6
HIDDEN2
100
AcDbPolyline
 90
        2
 70
     0
 43
0.0
 10
8.7028314907439
 20
8.401860872029784
 10
8.735023206997443
 20
8.399044461798153
  0
LWPOLYLINE
  5
5DF
330
18
100
AcDbEntity
  8
ADP2DETAIL
  6
HIDDEN2
100
AcDbPolyline
 90
        2
 70
     0
 43
0.0
 10
8.707427298834531
 20
8.43420721988371
 10
8.702511479775127
 20
8.402268630608094
  0
LWPOLYLINE
  5
5E3
330
18
100
AcDbEntity
  8
ADP2DETAIL
  6
HIDDEN2
100
AcDbPolyline
 90
        2
 70
     0
 43
0.0
 10
8.769323196626594
 20
8.331471571054443
 10
8.801624209282319
 20
8.332411434531818
  0
LWPOLYLINE
  5
5E7
330
18
100
AcDbEntity
  8
ADP2DETAIL
  6
HIDDEN2
100
AcDbPolyline
 90
        2
 70
     0
 43
0.0
 10
8.804434373328561
 20
8.331947789312106
 10
8.805139314431421
 20
8.2996407959518
  0
LWPOLYLINE
  5
5EB
330
18
100
AcDbEntity
  8
ADP2DETAIL
  6
HIDDEN2
100
AcDbPolyline
 90
        2
 70
     0
 43
0.0
 10
8.804434373328563
 20
8.331947789312106
 10
8.805139314431423
 20
8.2996407959518
  0
LWPOLYLINE
  5
5EF
330
18
100
AcDbEntity
  8
ADP2DETAIL
  6
HIDDEN2
100
AcDbPolyline
 90
        2
 70
     0
 43
0.0
 10
8.770132747723359
 20
8.364132745229825
 10
8.768958011575895
 20
8.331839421509201
  0
LWPOLYLINE
  5
5F3
330
18
100
AcDbEntity
  8
ADP2DETAIL
  6
HIDDEN2
100
AcDbPolyline
 90
        2
 70
     0
 43
0.0
 10
8.520434960521017
 20
8.792376954454612
 10
8.546905599472191
 20
8.77384201351977
  0
LWPOLYLINE
  5
5F7
330
18
100
AcDbEntity
  8
ADP2DETAIL
  6
HIDDEN2
100
AcDbPolyline
 90
        2
 70
     0
 43
0.0
 10
8.520434960521017
 20
8.792376954454612
 10
8.546905599472191
 20
8.77384201351977
  0
LWPOLYLINE
  5
5FB
330
18
100
AcDbEntity
  8
ADP2DETAIL
  6
HIDDEN2
100
AcDbPolyline
 90
        2
 70
     0
 43
0.0
 10
8.520434960521017
 20
8.79237695445461
 10
8.546905599472191
 20
8.773842013519768
  0
LWPOLYLINE
  5
5FF
330
18
100
AcDbEntity
  8
ADP2DETAIL
  6
HIDDEN2
100
AcDbPolyline
 90
        2
 70
     0
 43
0.0
 10
8.559855495371872
 20
8.72605280971892
 10
8.542691482165114
 20
8.698673339077954
  0
LWPOLYLINE
  5
603
330
18
100
AcDbEntity
  8
ADP2DETAIL
  6
HIDDEN2
100
AcDbPolyline
 90
        2
 70
     0
 43
0.0
 10
8.548882827502675
 20
8.771791999331519
 10
8.530155878453614
 20
8.745456849032821
  0
LWPOLYLINE
  5
607
330
18
100
AcDbEntity
  8
ADP2DETAIL
  6
HIDDEN2
100
AcDbPolyline
 90
        2
 70
     0
 43
0.0
 10
8.530258848984907
 20
8.74494884199743
 10
8.557762414774037
 20
8.72798439002207
  0
LWPOLYLINE
  5
60B
330
18
100
AcDbEntity
  8
ADP2DETAIL
  6
HIDDEN2
100
AcDbPolyline
 90
        2
 70
     0
 43
0.0
 10
8.573469096578222
 20
8.681029007471888
 10
8.557926096801319
 20
8.652697859950537
  0
LWPOLYLINE
  5
60F
330
18
100
AcDbEntity
  8
ADP2DETAIL
  6
HIDDEN2
100
AcDbPolyline
 90
        2
 70
     0
 43
0.0
 10
8.558087347099847
 20
8.652205242026035
 10
8.587374396282649
 20
8.638548466707328
  0
LWPOLYLINE
  5
613
330
18
100
AcDbEntity
  8
ADP2DETAIL
  6
HIDDEN2
100
AcDbPolyline
 90
        2
 70
     0
 43
0.0
 10
8.629651143543792
 20
8.55175820163593
 10
8.619263928996724
 20
8.521158454318435
  0
LWPOLYLINE
  5
617
330
18
100
AcDbEntity
  8
ADP2DETAIL
  6
HIDDEN2
100
AcDbPolyline
 90
        2
 70
     0
 43
0.0
 10
8.61950827174577
 20
8.520701321187598
 10
8.650721858990742
 20
8.512337665692426
  0
LWPOLYLINE
  5
61B
330
18
100
AcDbEntity
  8
ADP2DETAIL
  6
HIDDEN2
100
AcDbPolyline
 90
        2
 70
     0
 43
0.0
 10
8.608426062317528
 20
8.593734014117929
 10
8.596277204220998
 20
8.56378999954253
  0
LWPOLYLINE
  5
61F
330
18
100
AcDbEntity
  8
ADP2DETAIL
  6
HIDDEN2
100
AcDbPolyline
 90
        2
 70
     0
 43
0.0
 10
8.596494553653103
 20
8.563319432541261
 10
8.627169029130838
 20
8.55315501833742
  0
LWPOLYLINE
  5
623
330
18
100
AcDbEntity
  8
ADP2DETAIL
  6
HIDDEN2
100
AcDbPolyline
 90
        2
 70
     0
 43
0.0
 10
8.589677567004525
 20
8.636872938885282
 10
8.575808173248699
 20
8.60768597811875
  0
LWPOLYLINE
  5
627
330
18
100
AcDbEntity
  8
ADP2DETAIL
  6
HIDDEN2
100
AcDbPolyline
 90
        2
 70
     0
 43
0.0
 10
8.575997793922185
 20
8.607203569496824
 10
8.606029364917441
 20
8.595272789744512
  0
LWPOLYLINE
  5
62B
330
18
100
AcDbEntity
  8
ADP2DETAIL
  6
HIDDEN2
100
AcDbPolyline
 90
        2
 70
     0
 43
0.0
 10
8.558087347099847
 20
8.652205242026035
 10
8.587374396282649
 20
8.63854846670733
  0
LWPOLYLINE
  5
62F
330
18
100
AcDbEntity
  8
ADP2DETAIL
  6
HIDDEN2
100
AcDbPolyline
 90
        2
 70
     0
 43
0.0
 10
8.558087347099847
 20
8.652205242026035
 10
8.587374396282649
 20
8.638548466707328
  0
LWPOLYLINE
  5
633
330
18
100
AcDbEntity
  8
ADP2DETAIL
  6
HIDDEN2
100
AcDbPolyline
 90
        2
 70
     0
 43
0.0
 10
8.573469096578222
 20
8.681029007471888
 10
8.557926096801319
 20
8.652697859950539
  0
LWPOLYLINE
  5
637
330
18
100
AcDbEntity
  8
ADP2DETAIL
  6
HIDDEN2
100
AcDbPolyline
 90
        2
 70
     0
 43
0.0
 10
8.653280991727084
 20
8.511087534301594
 10
8.644690567775512
 20
8.479935594100808
  0
LWPOLYLINE
  5
63B
330
18
100
AcDbEntity
  8
ADP2DETAIL
  6
HIDDEN2
100
AcDbPolyline
 90
        2
 70
     0
 43
0.0
 10
8.644961077062982
 20
8.479493441634213
 10
8.676608159176382
 20
8.472958844810456
  0
LWPOLYLINE
  5
63F
330
18
100
AcDbEntity
  8
ADP2DETAIL
  6
HIDDEN2
100
AcDbPolyline
 90
        2
 70
     0
 43
0.0
 10
8.61950827174577
 20
8.520701321187596
 10
8.650721858990742
 20
8.512337665692426
  0
LWPOLYLINE
  5
643
330
18
100
AcDbEntity
  8
ADP2DETAIL
  6
HIDDEN2
100
AcDbPolyline
 90
        2
 70
     0
 43
0.0
 10
8.619508271745768
 20
8.520701321187596
 10
8.650721858990742
 20
8.512337665692424
  0
LWPOLYLINE
  5
647
330
18
100
AcDbEntity
  8
ADP2DETAIL
  6
HIDDEN2
100
AcDbPolyline
 90
        2
 70
     0
 43
0.0
 10
8.629651143543792
 20
8.551758201635928
 10
8.619263928996724
 20
8.521158454318433
  0
LWPOLYLINE
  5
64B
330
18
100
AcDbEntity
  8
ADP2DETAIL
  6
HIDDEN2
100
AcDbPolyline
 90
        2
 70
     0
 43
0.0
 10
8.542823816468722
 20
8.69817217871399
 10
8.571267245735231
 20
8.682835618033625
  0
LWPOLYLINE
  5
64F
330
18
100
AcDbEntity
  8
ADP2DETAIL
  6
HIDDEN2
100
AcDbPolyline
 90
        2
 70
     0
 43
0.0
 10
8.540588221005384
 20
8.818091809370445
 10
8.520361702181725
 20
8.792890089226425
  0
LWPOLYLINE
  5
653
330
18
100
AcDbEntity
  8
ADP2DETAIL
  6
HIDDEN2
100
AcDbPolyline
 90
        2
 70
     0
 43
0.0
 10
8.540588221005384
 20
8.818091809370445
 10
8.520361702181725
 20
8.792890089226425
  0
LWPOLYLINE
  5
657
330
18
100
AcDbEntity
  8
ADP2DETAIL
  6
HIDDEN2
100
AcDbPolyline
 90
        2
 70
     0
 43
0.0
 10
8.51338539200594
 20
8.840296034365991
 10
8.538733535856028
 20
8.820253320844697
  0
LWPOLYLINE
  5
65B
330
18
100
AcDbEntity
  8
ADP2DETAIL
  6
HIDDEN2
100
AcDbPolyline
 90
        2
 70
     0
 43
0.0
 10
8.558710085242044
 20
9.144623405881523
 10
8.530155878453614
 20
9.129494095367654
  0
LWPOLYLINE
  5
65F
330
18
100
AcDbEntity
  8
ADP2DETAIL
  6
HIDDEN2
100
AcDbPolyline
 90
        2
 70
     0
 43
0.0
 10
8.547987908600216
 20
9.09882484875745
 10
8.520361702181725
 20
9.08206085517405
  0
LWPOLYLINE
  5
663
330
18
100
AcDbEntity
  8
ADP2DETAIL
  6
HIDDEN2
100
AcDbPolyline
 90
        2
 70
     0
 43
0.0
 10
8.520255040074369
 20
9.081553610387805
 10
8.538789981009205
 20
9.055082971436629
  0
LWPOLYLINE
  5
667
330
18
100
AcDbEntity
  8
ADP2DETAIL
  6
HIDDEN2
100
AcDbPolyline
 90
        2
 70
     0
 43
0.0
 10
8.530019903140351
 20
9.128993910609288
 10
8.546984355115709
 20
9.101490344820156
  0
LWPOLYLINE
  5
66B
330
18
100
AcDbEntity
  8
ADP2DETAIL
  6
HIDDEN2
100
AcDbPolyline
 90
        2
 70
     0
 43
0.0
 10
8.520255040074369
 20
9.081553610387803
 10
8.538789981009207
 20
9.055082971436629
  0
LWPOLYLINE
  5
66F
330
18
100
AcDbEntity
  8
ADP2DETAIL
  6
HIDDEN2
100
AcDbPolyline
 90
        2
 70
     0
 43
0.0
 10
8.520255040074369
 20
9.081553610387805
 10
8.538789981009205
 20
9.055082971436627
  0
LWPOLYLINE
  5
673
330
18
100
AcDbEntity
  8
ADP2DETAIL
  6
HIDDEN2
100
AcDbPolyline
 90
        2
 70
     0
 43
0.0
 10
8.547987908600216
 20
9.09882484875745
 10
8.520361702181725
 20
9.08206085517405
  0
LWPOLYLINE
  5
677
330
18
100
AcDbEntity
  8
ADP2DETAIL
  6
HIDDEN2
100
AcDbPolyline
 90
        2
 70
     0
 43
0.0
 10
8.50913399694804
 20
8.888543938733572
 10
8.533273875602018
 20
8.867061270824011
  0
LWPOLYLINE
  5
67B
330
18
100
AcDbEntity
  8
ADP2DETAIL
  6
HIDDEN2
100
AcDbPolyline
 90
        2
 70
     0
 43
0.0
 10
8.532136300738164
 20
8.911745268260993
 10
8.50912080526643
 20
8.889062108645724
  0
LWPOLYLINE
  5
67F
330
18
100
AcDbEntity
  8
ADP2DETAIL
  6
HIDDEN2
100
AcDbPolyline
 90
        2
 70
     0
 43
0.0
 10
8.534614032292697
 20
9.005746684020072
 10
8.50912080526643
 20
8.985888835754753
  0
LWPOLYLINE
  5
683
330
18
100
AcDbEntity
  8
ADP2DETAIL
  6
HIDDEN2
100
AcDbPolyline
 90
        2
 70
     0
 43
0.0
 10
8.509073751895495
 20
8.985372638061418
 10
8.530556419805057
 20
8.96123275940744
  0
LWPOLYLINE
  5
687
330
18
100
AcDbEntity
  8
ADP2DETAIL
  6
HIDDEN2
100
AcDbPolyline
 90
        2
 70
     0
 43
0.0
 10
8.513265105751036
 20
9.033625795353552
 10
8.53330781927233
 20
9.008277651503465
  0
LWPOLYLINE
  5
68B
330
18
100
AcDbEntity
  8
ADP2DETAIL
  6
HIDDEN2
100
AcDbPolyline
 90
        2
 70
     0
 43
0.0
 10
8.509286368988362
 20
8.934595200010798
 10
8.532136300738164
 20
8.911745268260993
  0
LWPOLYLINE
  5
68F
330
18
100
AcDbEntity
  8
ADP2DETAIL
  6
HIDDEN2
100
AcDbPolyline
 90
        2
 70
     0
 43
0.0
 10
8.509286368988362
 20
8.934595200010795
 10
8.532136300738164
 20
8.911745268260991
  0
LWPOLYLINE
  5
693
330
18
100
AcDbEntity
  8
ADP2DETAIL
  6
HIDDEN2
100
AcDbPolyline
 90
        2
 70
     0
 43
0.0
 10
8.509286368988362
 20
8.934595200010795
 10
8.532136300738164
 20
8.91174526826099
  0
LWPOLYLINE
  5
697
330
18
100
AcDbEntity
  8
ADP2DETAIL
  6
HIDDEN2
100
AcDbPolyline
 90
        2
 70
     0
 43
0.0
 10
8.533598793856945
 20
8.956419811542339
 10
8.509303328525877
 20
8.935113260289538
  0
LWPOLYLINE
  5
69B
330
18
100
AcDbEntity
  8
ADP2DETAIL
  6
HIDDEN2
100
AcDbPolyline
 90
        2
 70
     0
 43
0.0
 10
8.533598793856944
 20
8.956419811542335
 10
8.509303328525877
 20
8.935113260289535
  0
LWPOLYLINE
  5
69F
330
18
100
AcDbEntity
  8
ADP2DETAIL
  6
HIDDEN2
100
AcDbPolyline
 90
        2
 70
     0
 43
0.0
 10
8.509286368988362
 20
8.934595200010797
 10
8.532136300738164
 20
8.911745268260991
  0
LWPOLYLINE
  5
6A3
330
18
100
AcDbEntity
  8
ADP2DETAIL
  6
HIDDEN2
100
AcDbPolyline
 90
        2
 70
     0
 43
0.0
 10
8.533598793856944
 20
8.956419811542337
 10
8.509303328525877
 20
8.935113260289536
  0
LWPOLYLINE
  5
6A7
330
18
100
AcDbEntity
  8
ADP2DETAIL
  6
HIDDEN2
100
AcDbPolyline
 90
        2
 70
     0
 43
0.0
 10
8.509286368988362
 20
8.934595200010793
 10
8.532136300738164
 20
8.91174526826099
  0
LWPOLYLINE
  5
6AB
330
18
100
AcDbEntity
  8
ADP2DETAIL
  6
HIDDEN2
100
AcDbPolyline
 90
        2
 70
     0
 43
0.0
 10
8.509286368988361
 20
8.934595200010793
 10
8.532136300738164
 20
8.911745268260988
  0
LWPOLYLINE
  5
6AF
330
18
100
AcDbEntity
  8
ADP2DETAIL
  6
HIDDEN2
100
AcDbPolyline
 90
        2
 70
     0
 43
0.0
 10
8.533598793856944
 20
8.956419811542334
 10
8.509303328525877
 20
8.935113260289533
  0
LWPOLYLINE
  5
6B3
330
18
100
AcDbEntity
  8
ADP2DETAIL
  6
HIDDEN2
100
AcDbPolyline
 90
        2
 70
     0
 43
0.0
 10
8.539946821452581
 20
9.052480336417051
 10
8.513342093741679
 20
9.034138383811887
  0
LWPOLYLINE
  5
6B7
330
18
100
AcDbEntity
  8
ADP2DETAIL
  6
HIDDEN2
100
AcDbPolyline
 90
        2
 70
     0
 43
0.0
 10
8.734342254877775
 20
9.508498431597207
 10
8.735282118355151
 20
9.476197418941483
  0
LWPOLYLINE
  5
6BB
330
18
100
AcDbEntity
  8
ADP2DETAIL
  6
HIDDEN2
100
AcDbPolyline
 90
        2
 70
     0
 43
0.0
 10
8.734818473135439
 20
9.473387254895239
 10
8.702511479775132
 20
9.472682313792381
  0
LWPOLYLINE
  5
6BF
330
18
100
AcDbEntity
  8
ADP2DETAIL
  6
HIDDEN2
100
AcDbPolyline
 90
        2
 70
     0
 43
0.0
 10
8.702165485287416
 20
9.472296357975233
 10
8.704981895519045
 20
9.44010464172169
  0
LWPOLYLINE
  5
6C3
330
18
100
AcDbEntity
  8
ADP2DETAIL
  6
HIDDEN2
100
AcDbPolyline
 90
        2
 70
     0
 43
0.0
 10
8.676697274137364
 20
9.399466137848797
 10
8.644690567775514
 20
9.395015350299667
  0
LWPOLYLINE
  5
6C7
330
18
100
AcDbEntity
  8
ADP2DETAIL
  6
HIDDEN2
100
AcDbPolyline
 90
        2
 70
     0
 43
0.0
 10
8.704682431221339
 20
9.437272273456271
 10
8.672471084860349
 20
9.434690040400639
  0
LWPOLYLINE
  5
6CB
330
18
100
AcDbEntity
  8
ADP2DETAIL
  6
HIDDEN2
100
AcDbPolyline
 90
        2
 70
     0
 43
0.0
 10
8.672148117075499
 20
9.434284619769353
 10
8.67683154422067
 20
9.402311126495749
  0
LWPOLYLINE
  5
6CF
330
18
100
AcDbEntity
  8
ADP2DETAIL
  6
HIDDEN2
100
AcDbPolyline
 90
        2
 70
     0
 43
0.0
 10
8.702165485287414
 20
9.472296357975233
 10
8.704981895519043
 20
9.440104641721692
  0
LWPOLYLINE
  5
6D3
330
18
100
AcDbEntity
  8
ADP2DETAIL
  6
HIDDEN2
100
AcDbPolyline
 90
        2
 70
     0
 43
0.0
 10
8.702165485287414
 20
9.472296357975233
 10
8.704981895519042
 20
9.44010464172169
  0
LWPOLYLINE
  5
6D7
330
18
100
AcDbEntity
  8
ADP2DETAIL
  6
HIDDEN2
100
AcDbPolyline
 90
        2
 70
     0
 43
0.0
 10
8.734818473135437
 20
9.473387254895239
 10
8.702511479775129
 20
9.472682313792381
  0
LWPOLYLINE
  5
6DB
330
18
100
AcDbEntity
  8
ADP2DETAIL
  6
HIDDEN2
100
AcDbPolyline
 90
        2
 70
     0
 43
0.0
 10
8.650957694796595
 20
9.360096772068468
 10
8.619263928996726
 20
9.353792490082039
  0
LWPOLYLINE
  5
6DF
330
18
100
AcDbEntity
  8
ADP2DETAIL
  6
HIDDEN2
100
AcDbPolyline
 90
        2
 70
     0
 43
0.0
 10
8.61899021146703
 20
9.353352316488718
 10
8.627353866962199
 20
9.322138729243743
  0
LWPOLYLINE
  5
6E3
330
18
100
AcDbEntity
  8
ADP2DETAIL
  6
HIDDEN2
100
AcDbPolyline
 90
        2
 70
     0
 43
0.0
 10
8.588043636004741
 20
9.233965154901895
 10
8.557926096801319
 20
9.222253084449935
  0
LWPOLYLINE
  5
6E7
330
18
100
AcDbEntity
  8
ADP2DETAIL
  6
HIDDEN2
100
AcDbPolyline
 90
        2
 70
     0
 43
0.0
 10
8.557732972998278
 20
9.221772067532334
 10
8.571389748316979
 20
9.192485018349531
  0
LWPOLYLINE
  5
6EB
330
18
100
AcDbEntity
  8
ADP2DETAIL
  6
HIDDEN2
100
AcDbPolyline
 90
        2
 70
     0
 43
0.0
 10
8.606555754675147
 20
9.277206042599976
 10
8.575808173248701
 20
9.267264966281727
  0
LWPOLYLINE
  5
6EF
330
18
100
AcDbEntity
  8
ADP2DETAIL
  6
HIDDEN2
100
AcDbPolyline
 90
        2
 70
     0
 43
0.0
 10
8.575587407534191
 20
9.266795992319103
 10
8.587518187286502
 20
9.236764421323846
  0
LWPOLYLINE
  5
6F3
330
18
100
AcDbEntity
  8
ADP2DETAIL
  6
HIDDEN2
100
AcDbPolyline
 90
        2
 70
     0
 43
0.0
 10
8.627550787787843
 20
9.319297389587001
 10
8.596277204221001
 20
9.311160944857945
  0
LWPOLYLINE
  5
6F7
330
18
100
AcDbEntity
  8
ADP2DETAIL
  6
HIDDEN2
100
AcDbPolyline
 90
        2
 70
     0
 43
0.0
 10
8.596029543596317
 20
9.310705600709741
 10
8.606193957800156
 20
9.280031125232008
  0
LWPOLYLINE
  5
6FB
330
18
100
AcDbEntity
  8
ADP2DETAIL
  6
HIDDEN2
100
AcDbPolyline
 90
        2
 70
     0
 43
0.0
 10
8.61899021146703
 20
9.353352316488718
 10
8.627353866962199
 20
9.322138729243745
  0
LWPOLYLINE
  5
6FF
330
18
100
AcDbEntity
  8
ADP2DETAIL
  6
HIDDEN2
100
AcDbPolyline
 90
        2
 70
     0
 43
0.0
 10
8.61899021146703
 20
9.353352316488718
 10
8.627353866962199
 20
9.322138729243743
  0
LWPOLYLINE
  5
703
330
18
100
AcDbEntity
  8
ADP2DETAIL
  6
HIDDEN2
100
AcDbPolyline
 90
        2
 70
     0
 43
0.0
 10
8.650957694796593
 20
9.360096772068468
 10
8.619263928996726
 20
9.353792490082039
  0
LWPOLYLINE
  5
707
330
18
100
AcDbEntity
  8
ADP2DETAIL
  6
HIDDEN2
100
AcDbPolyline
 90
        2
 70
     0
 43
0.0
 10
8.572077070926329
 20
9.189721039969146
 10
8.542691482165116
 20
9.176277605322523
  0
LWPOLYLINE
  5
70B
330
18
100
AcDbEntity
  8
ADP2DETAIL
  6
HIDDEN2
100
AcDbPolyline
 90
        2
 70
     0
 43
0.0
 10
8.55773297299828
 20
9.221772067532334
 10
8.571389748316979
 20
9.192485018349533
  0
LWPOLYLINE
  5
70F
330
18
100
AcDbEntity
  8
ADP2DETAIL
  6
HIDDEN2
100
AcDbPolyline
 90
        2
 70
     0
 43
0.0
 10
8.557732972998278
 20
9.221772067532334
 10
8.571389748316979
 20
9.192485018349531
  0
LWPOLYLINE
  5
713
330
18
100
AcDbEntity
  8
ADP2DETAIL
  6
HIDDEN2
100
AcDbPolyline
 90
        2
 70
     0
 43
0.0
 10
8.588043636004742
 20
9.233965154901895
 10
8.55792609680132
 20
9.222253084449935
  0
LWPOLYLINE
  5
717
330
18
100
AcDbEntity
  8
ADP2DETAIL
  6
HIDDEN2
100
AcDbPolyline
 90
        2
 70
     0
 43
0.0
 10
8.54252665374336
 20
9.175786173058925
 10
8.557863214423726
 20
9.147342743792419
  0
LWPOLYLINE
  5
71B
330
18
100
AcDbEntity
  8
ADP2DETAIL
  6
HIDDEN2
100
AcDbPolyline
 90
        2
 70
     0
 43
0.0
 10
8.644391719514283
 20
9.394591836669333
 10
8.650926316338038
 20
9.362944754555931
  0
LWPOLYLINE
  5
71F
330
18
100
AcDbEntity
  8
ADP2DETAIL
  6
HIDDEN2
100
AcDbPolyline
 90
        2
 70
     0
 43
0.0
 10
8.767003429053159
 20
9.507688880500444
 10
8.734710105332533
 20
9.508863616647907
  0
LWPOLYLINE
  5
723
330
18
100
AcDbEntity
  8
ADP2DETAIL
  6
HIDDEN2
100
AcDbPolyline
 90
        2
 70
     0
 43
0.0
 10
8.768569549843597
 20
9.542768344277638
 10
8.76762968636622
 20
9.510467331621914
  0
LWPOLYLINE
  5
727
330
18
100
AcDbEntity
  8
ADP2DETAIL
  6
HIDDEN2
100
AcDbPolyline
 90
        2
 70
     0
 43
0.0
 10
8.801128395271588
 20
9.540061084428758
 10
8.768958011575902
 20
9.543111522891274
  0
LWPOLYLINE
  5
72B
330
18
100
AcDbEntity
  8
ADP2DETAIL
  6
HIDDEN2
100
AcDbPolyline
 90
        2
 70
     0
 43
0.0
 10
9.000615585623826
 20
8.203685070851818
 10
9.010556661942077
 20
8.172937489425372
  0
LWPOLYLINE
  5
72F
330
18
100
AcDbEntity
  8
ADP2DETAIL
  6
HIDDEN2
100
AcDbPolyline
 90
        2
 70
     0
 43
0.0
 10
9.011025635904697
 20
8.172716723710861
 10
9.041057206899957
 20
8.184647503463173
  0
LWPOLYLINE
  5
733
330
18
100
AcDbEntity
  8
ADP2DETAIL
  6
HIDDEN2
100
AcDbPolyline
 90
        2
 70
     0
 43
0.0
 10
8.967116027514061
 20
8.193158859772989
 10
8.997790502991795
 20
8.203323273976828
  0
LWPOLYLINE
  5
737
330
18
100
AcDbEntity
  8
ADP2DETAIL
  6
HIDDEN2
100
AcDbPolyline
 90
        2
 70
     0
 43
0.0
 10
8.958524238636803
 20
8.224680103964512
 10
8.966660683365857
 20
8.193406520397671
  0
LWPOLYLINE
  5
73B
330
18
100
AcDbEntity
  8
ADP2DETAIL
  6
HIDDEN2
100
AcDbPolyline
 90
        2
 70
     0
 43
0.0
 10
8.917724856155336
 20
8.248087010973264
 10
8.924029138141765
 20
8.216393245173396
  0
LWPOLYLINE
  5
73F
330
18
100
AcDbEntity
  8
ADP2DETAIL
  6
HIDDEN2
100
AcDbPolyline
 90
        2
 70
     0
 43
0.0
 10
8.878355490375007
 20
8.273826590314035
 10
8.882806277924137
 20
8.241819883952185
  0
LWPOLYLINE
  5
743
330
18
100
AcDbEntity
  8
ADP2DETAIL
  6
HIDDEN2
100
AcDbPolyline
 90
        2
 70
     0
 43
0.0
 10
8.883229791554471
 20
8.241521035690952
 10
8.914876873667873
 20
8.248055632514709
  0
LWPOLYLINE
  5
747
330
18
100
AcDbEntity
  8
ADP2DETAIL
  6
HIDDEN2
100
AcDbPolyline
 90
        2
 70
     0
 43
0.0
 10
8.917724856155336
 20
8.248087010973264
 10
8.924029138141763
 20
8.216393245173396
  0
LWPOLYLINE
  5
74B
330
18
100
AcDbEntity
  8
ADP2DETAIL
  6
HIDDEN2
100
AcDbPolyline
 90
        2
 70
     0
 43
0.0
 10
8.924469311735085
 20
8.216119527643702
 10
8.955682898980059
 20
8.224483183138868
  0
LWPOLYLINE
  5
74F
330
18
100
AcDbEntity
  8
ADP2DETAIL
  6
HIDDEN2
100
AcDbPolyline
 90
        2
 70
     0
 43
0.0
 10
8.924469311735085
 20
8.216119527643702
 10
8.955682898980057
 20
8.22448318313887
  0
LWPOLYLINE
  5
753
330
18
100
AcDbEntity
  8
ADP2DETAIL
  6
HIDDEN2
100
AcDbPolyline
 90
        2
 70
     0
 43
0.0
 10
8.924469311735084
 20
8.2161195276437
 10
8.955682898980057
 20
8.224483183138868
  0
LWPOLYLINE
  5
757
330
18
100
AcDbEntity
  8
ADP2DETAIL
  6
HIDDEN2
100
AcDbPolyline
 90
        2
 70
     0
 43
0.0
 10
8.874730312602526
 20
9.598585977282796
 10
8.843131587823167
 20
9.605350543363455
  0
LWPOLYLINE
  5
75B
330
18
100
AcDbEntity
  8
ADP2DETAIL
  6
HIDDEN2
100
AcDbPolyline
 90
        2
 70
     0
 43
0.0
 10
8.837077903707042
 20
9.570394329389271
 10
8.805139314431423
 20
9.575310148448672
  0
LWPOLYLINE
  5
75F
330
18
100
AcDbEntity
  8
ADP2DETAIL
  6
HIDDEN2
100
AcDbPolyline
 90
        2
 70
     0
 43
0.0
 10
8.837077903707044
 20
9.570394329389271
 10
8.805139314431427
 20
9.575310148448672
  0
LWPOLYLINE
  5
763
330
18
100
AcDbEntity
  8
ADP2DETAIL
  6
HIDDEN2
100
AcDbPolyline
 90
        2
 70
     0
 43
0.0
 10
8.842705912124808
 20
9.605054782855367
 10
8.838022484979637
 20
9.573081289581761
  0
LWPOLYLINE
  5
767
330
18
100
AcDbEntity
  8
ADP2DETAIL
  6
HIDDEN2
100
AcDbPolyline
 90
        2
 70
     0
 43
0.0
 10
9.220962493193777
 20
9.73723340721842
 10
9.195760773049755
 20
9.757459926042077
  0
LWPOLYLINE
  5
76B
330
18
100
AcDbEntity
  8
ADP2DETAIL
  6
HIDDEN2
100
AcDbPolyline
 90
        2
 70
     0
 43
0.0
 10
9.220962493193777
 20
9.737233407218417
 10
9.195760773049757
 20
9.757459926042075
  0
LWPOLYLINE
  5
76F
330
18
100
AcDbEntity
  8
ADP2DETAIL
  6
HIDDEN2
100
AcDbPolyline
 90
        2
 70
     0
 43
0.0
 10
8.923572005010926
 20
9.658313356478034
 10
8.915208349515756
 20
9.627099769233062
  0
LWPOLYLINE
  5
773
330
18
100
AcDbEntity
  8
ADP2DETAIL
  6
HIDDEN2
100
AcDbPolyline
 90
        2
 70
     0
 43
0.0
 10
8.913958218124928
 20
9.624540636496716
 10
8.882806277924141
 20
9.63313106044829
  0
LWPOLYLINE
  5
777
330
18
100
AcDbEntity
  8
ADP2DETAIL
  6
HIDDEN2
100
AcDbPolyline
 90
        2
 70
     0
 43
0.0
 10
8.882364125457545
 20
9.63286055116082
 10
8.87582952863379
 20
9.60121346904742
  0
LWPOLYLINE
  5
77B
330
18
100
AcDbEntity
  8
ADP2DETAIL
  6
HIDDEN2
100
AcDbPolyline
 90
        2
 70
     0
 43
0.0
 10
8.923572005010926
 20
9.658313356478032
 10
8.91520834951576
 20
9.62709976923306
  0
LWPOLYLINE
  5
77F
330
18
100
AcDbEntity
  8
ADP2DETAIL
  6
HIDDEN2
100
AcDbPolyline
 90
        2
 70
     0
 43
0.0
 10
8.923572005010926
 20
9.658313356478032
 10
8.915208349515758
 20
9.627099769233058
  0
LWPOLYLINE
  5
783
330
18
100
AcDbEntity
  8
ADP2DETAIL
  6
HIDDEN2
100
AcDbPolyline
 90
        2
 70
     0
 43
0.0
 10
9.010074253320155
 20
9.701823834301617
 10
8.998143473567841
 20
9.671792263306361
  0
LWPOLYLINE
  5
787
330
18
100
AcDbEntity
  8
ADP2DETAIL
  6
HIDDEN2
100
AcDbPolyline
 90
        2
 70
     0
 43
0.0
 10
8.996604697941258
 20
9.669395565906274
 10
8.96666068336586
 20
9.681544424002803
  0
LWPOLYLINE
  5
78B
330
18
100
AcDbEntity
  8
ADP2DETAIL
  6
HIDDEN2
100
AcDbPolyline
 90
        2
 70
     0
 43
0.0
 10
8.96619011636459
 20
9.681327074570701
 10
8.956025702160751
 20
9.650652599092964
  0
LWPOLYLINE
  5
78F
330
18
100
AcDbEntity
  8
ADP2DETAIL
  6
HIDDEN2
100
AcDbPolyline
 90
        2
 70
     0
 43
0.0
 10
8.954628885459259
 20
9.648170484680012
 10
8.924029138141765
 20
9.658557699227079
  0
LWPOLYLINE
  5
793
330
18
100
AcDbEntity
  8
ADP2DETAIL
  6
HIDDEN2
100
AcDbPolyline
 90
        2
 70
     0
 43
0.0
 10
8.954628885459261
 20
9.648170484680008
 10
8.924029138141767
 20
9.658557699227078
  0
LWPOLYLINE
  5
797
330
18
100
AcDbEntity
  8
ADP2DETAIL
  6
HIDDEN2
100
AcDbPolyline
 90
        2
 70
     0
 43
0.0
 10
9.147819525820763
 20
9.747562779238894
 10
9.130855073845403
 20
9.720059213449765
  0
LWPOLYLINE
  5
79B
330
18
100
AcDbEntity
  8
ADP2DETAIL
  6
HIDDEN2
100
AcDbPolyline
 90
        2
 70
     0
 43
0.0
 10
9.08389969129522
 20
9.704352531645579
 10
9.055568543773871
 20
9.719895531422483
  0
LWPOLYLINE
  5
79F
330
18
100
AcDbEntity
  8
ADP2DETAIL
  6
HIDDEN2
100
AcDbPolyline
 90
        2
 70
     0
 43
0.0
 10
9.055075925849365
 20
9.719734281123953
 10
9.041419150530661
 20
9.690447231941151
  0
LWPOLYLINE
  5
7A3
330
18
100
AcDbEntity
  8
ADP2DETAIL
  6
HIDDEN2
100
AcDbPolyline
 90
        2
 70
     0
 43
0.0
 10
9.039743622708611
 20
9.688144061219277
 10
9.01055666194208
 20
9.702013454975103
  0
LWPOLYLINE
  5
7A7
330
18
100
AcDbEntity
  8
ADP2DETAIL
  6
HIDDEN2
100
AcDbPolyline
 90
        2
 70
     0
 43
0.0
 10
9.055075925849363
 20
9.719734281123955
 10
9.041419150530661
 20
9.690447231941151
  0
LWPOLYLINE
  5
7AB
330
18
100
AcDbEntity
  8
ADP2DETAIL
  6
HIDDEN2
100
AcDbPolyline
 90
        2
 70
     0
 43
0.0
 10
9.055075925849363
 20
9.719734281123956
 10
9.041419150530659
 20
9.690447231941153
  0
LWPOLYLINE
  5
7AF
330
18
100
AcDbEntity
  8
ADP2DETAIL
  6
HIDDEN2
100
AcDbPolyline
 90
        2
 70
     0
 43
0.0
 10
9.083899691295219
 20
9.70435253164558
 10
9.055568543773869
 20
9.719895531422483
  0
LWPOLYLINE
  5
7B3
330
18
100
AcDbEntity
  8
ADP2DETAIL
  6
HIDDEN2
100
AcDbPolyline
 90
        2
 70
     0
 43
0.0
 10
9.101042862537322
 20
9.734997811755079
 10
9.085706301856955
 20
9.706554382488569
  0
LWPOLYLINE
  5
7B7
330
18
100
AcDbEntity
  8
ADP2DETAIL
  6
HIDDEN2
100
AcDbPolyline
 90
        2
 70
     0
 43
0.0
 10
9.12892349354225
 20
9.717966132851929
 10
9.101544022901286
 20
9.735130146058686
  0
LWPOLYLINE
  5
7BB
330
18
100
AcDbEntity
  8
ADP2DETAIL
  6
HIDDEN2
100
AcDbPolyline
 90
        2
 70
     0
 43
0.0
 10
9.195247638277942
 20
9.757386667702785
 10
9.1767126973431
 20
9.730916028751613
  0
LWPOLYLINE
  5
7BF
330
18
100
AcDbEntity
  8
ADP2DETAIL
  6
HIDDEN2
100
AcDbPolyline
 90
        2
 70
     0
 43
0.0
 10
9.195247638277942
 20
9.757386667702784
 10
9.176712697343102
 20
9.730916028751609
  0
LWPOLYLINE
  5
7C3
330
18
100
AcDbEntity
  8
ADP2DETAIL
  6
HIDDEN2
100
AcDbPolyline
 90
        2
 70
     0
 43
0.0
 10
9.195247638277942
 20
9.757386667702785
 10
9.1767126973431
 20
9.730916028751611
  0
LWPOLYLINE
  5
7C7
330
18
100
AcDbEntity
  8
ADP2DETAIL
  6
HIDDEN2
100
AcDbPolyline
 90
        2
 70
     0
 43
0.0
 10
9.174662683154853
 20
9.728938800721124
 10
9.148327532856153
 20
9.747665749770186
  0
LWPOLYLINE
  5
7CB
330
18
100
AcDbEntity
  8
ADP2DETAIL
  6
HIDDEN2
100
AcDbPolyline
 90
        2
 70
     0
 43
0.0
 10
9.484424294211132
 20
9.757566588149432
 10
9.457953655259958
 20
9.739031647214593
  0
LWPOLYLINE
  5
7CF
330
18
100
AcDbEntity
  8
ADP2DETAIL
  6
HIDDEN2
100
AcDbPolyline
 90
        2
 70
     0
 43
0.0
 10
9.361652707276368
 20
9.745814042632771
 10
9.340346156023567
 20
9.770109507963836
  0
LWPOLYLINE
  5
7D3
330
18
100
AcDbEntity
  8
ADP2DETAIL
  6
HIDDEN2
100
AcDbPolyline
 90
        2
 70
     0
 43
0.0
 10
9.339828095744827
 20
9.770126467501352
 10
9.316978163995022
 20
9.747276535751549
  0
LWPOLYLINE
  5
7D7
330
18
100
AcDbEntity
  8
ADP2DETAIL
  6
HIDDEN2
100
AcDbPolyline
 90
        2
 70
     0
 43
0.0
 10
9.408617367843401
 20
9.743207595931103
 10
9.38875951957808
 20
9.76870082295737
  0
LWPOLYLINE
  5
7DB
330
18
100
AcDbEntity
  8
ADP2DETAIL
  6
HIDDEN2
100
AcDbPolyline
 90
        2
 70
     0
 43
0.0
 10
9.388243321884747
 20
9.768747876328305
 10
9.364103443230767
 20
9.747265208418744
  0
LWPOLYLINE
  5
7DF
330
18
100
AcDbEntity
  8
ADP2DETAIL
  6
HIDDEN2
100
AcDbPolyline
 90
        2
 70
     0
 43
0.0
 10
9.455351020240378
 20
9.73787480677122
 10
9.437009067635216
 20
9.764479534482122
  0
LWPOLYLINE
  5
7E3
330
18
100
AcDbEntity
  8
ADP2DETAIL
  6
HIDDEN2
100
AcDbPolyline
 90
        2
 70
     0
 43
0.0
 10
9.436496479176879
 20
9.764556522472762
 10
9.411148335326792
 20
9.74451380895147
  0
LWPOLYLINE
  5
7E7
330
18
100
AcDbEntity
  8
ADP2DETAIL
  6
HIDDEN2
100
AcDbPolyline
 90
        2
 70
     0
 43
0.0
 10
9.484424294211132
 20
9.757566588149432
 10
9.457953655259958
 20
9.739031647214593
  0
LWPOLYLINE
  5
7EB
330
18
100
AcDbEntity
  8
ADP2DETAIL
  6
HIDDEN2
100
AcDbPolyline
 90
        2
 70
     0
 43
0.0
 10
9.484424294211132
 20
9.757566588149432
 10
9.457953655259956
 20
9.739031647214593
  0
LWPOLYLINE
  5
7EF
330
18
100
AcDbEntity
  8
ADP2DETAIL
  6
HIDDEN2
100
AcDbPolyline
 90
        2
 70
     0
 43
0.0
 10
9.267666259757708
 20
9.742821886021014
 10
9.243683244411919
 20
9.764479534482125
  0
LWPOLYLINE
  5
7F3
330
18
100
AcDbEntity
  8
ADP2DETAIL
  6
HIDDEN2
100
AcDbPolyline
 90
        2
 70
     0
 43
0.0
 10
9.243166718189321
 20
9.764436236217862
 10
9.223124004668028
 20
9.739088092367774
  0
LWPOLYLINE
  5
7F7
330
18
100
AcDbEntity
  8
ADP2DETAIL
  6
HIDDEN2
100
AcDbPolyline
 90
        2
 70
     0
 43
0.0
 10
9.314615952084324
 20
9.745685327485638
 10
9.291932792469054
 20
9.76870082295737
  0
LWPOLYLINE
  5
7FB
330
18
100
AcDbEntity
  8
ADP2DETAIL
  6
HIDDEN2
100
AcDbPolyline
 90
        2
 70
     0
 43
0.0
 10
9.291414622556903
 20
9.76868763127576
 10
9.269931954647342
 20
9.744547752621782
  0
LWPOLYLINE
  5
7FF
330
18
100
AcDbEntity
  8
ADP2DETAIL
  6
HIDDEN2
100
AcDbPolyline
 90
        2
 70
     0
 43
0.0
 10
9.339828095744827
 20
9.770126467501354
 10
9.316978163995024
 20
9.74727653575155
  0
LWPOLYLINE
  5
803
330
18
100
AcDbEntity
  8
ADP2DETAIL
  6
HIDDEN2
100
AcDbPolyline
 90
        2
 70
     0
 43
0.0
 10
9.339828095744827
 20
9.770126467501354
 10
9.316978163995022
 20
9.74727653575155
  0
LWPOLYLINE
  5
807
330
18
100
AcDbEntity
  8
ADP2DETAIL
  6
HIDDEN2
100
AcDbPolyline
 90
        2
 70
     0
 43
0.0
 10
9.361652707276368
 20
9.745814042632771
 10
9.340346156023567
 20
9.770109507963837
  0
LWPOLYLINE
  5
80B
330
18
100
AcDbEntity
  8
ADP2DETAIL
  6
HIDDEN2
100
AcDbPolyline
 90
        2
 70
     0
 43
0.0
 10
9.531864594432617
 20
9.747801725083451
 10
9.504361028643485
 20
9.730837273108093
  0
LWPOLYLINE
  5
80F
330
18
100
AcDbEntity
  8
ADP2DETAIL
  6
HIDDEN2
100
AcDbPolyline
 90
        2
 70
     0
 43
0.0
 10
9.501695532580781
 20
9.729833719623584
 10
9.484931538997377
 20
9.757459926042075
  0
LWPOLYLINE
  5
813
330
18
100
AcDbEntity
  8
ADP2DETAIL
  6
HIDDEN2
100
AcDbPolyline
 90
        2
 70
     0
 43
0.0
 10
9.501695532580779
 20
9.729833719623584
 10
9.484931538997377
 20
9.757459926042075
  0
LWPOLYLINE
  5
817
330
18
100
AcDbEntity
  8
ADP2DETAIL
  6
HIDDEN2
100
AcDbPolyline
 90
        2
 70
     0
 43
0.0
 10
9.547494089704851
 20
9.719111542981758
 10
9.532364779190983
 20
9.747665749770186
  0
LWPOLYLINE
  5
81B
330
18
100
AcDbEntity
  8
ADP2DETAIL
  6
HIDDEN2
100
AcDbPolyline
 90
        2
 70
     0
 43
0.0
 10
9.876257938718568
 20
9.543003155088362
 10
9.875552997615709
 20
9.575310148448668
  0
LWPOLYLINE
  5
81F
330
18
100
AcDbEntity
  8
ADP2DETAIL
  6
HIDDEN2
100
AcDbPolyline
 90
        2
 70
     0
 43
0.0
 10
9.87625793871857
 20
9.543003155088364
 10
9.875552997615709
 20
9.575310148448668
  0
LINE
  5
823
330
18
100
AcDbEntity
  8
ADP2DETAIL
  6
HIDDEN2
100
AcDbLine
 10
10.29259582813234
 20
8.156280653041623
 30
0.0
 11
10.29259582813234
 21
9.674313139973822
 31
0.0
  0
LINE
  5
824
330
18
100
AcDbEntity
  8
ADP1DETAIL
100
AcDbLine
 10
11.33993246038576
 20
7.987780653041624
 30
0.0
 11
11.33993246038576
 21
9.887780653041623
 31
0.0
  0
LINE
  5
825
330
18
100
AcDbEntity
  8
ADP2DETAIL
  6
HIDDEN2
100
AcDbLine
 10
10.35509582813234
 20
8.127780653041622
 30
0.0
 11
10.35509582813234
 21
9.747780653041623
 31
0.0
  0
LINE
  5
826
330
18
100
AcDbEntity
  8
ADP2DETAIL
  6
HIDDEN2
100
AcDbLine
 10
10.18093246038576
 20
8.099272114007604
 30
0.0
 11
11.33993246038576
 21
8.099272114007604
 31
0.0
  0
LINE
  5
827
330
18
100
AcDbEntity
  8
ADP1DETAIL
100
AcDbLine
 10
10.28993246038576
 20
7.987780653041624
 30
0.0
 11
11.33993246038576
 21
7.987780653041624
 31
0.0
  0
LINE
  5
828
330
18
100
AcDbEntity
  8
ADP2DETAIL
  6
HIDDEN2
100
AcDbLine
 10
10.29259582813234
 20
8.156280653041623
 30
0.0
 11
10.35509582813234
 21
8.093780653041623
 31
0.0
  0
LWPOLYLINE
  5
829
330
18
100
AcDbEntity
  8
ADP2DETAIL
  6
HIDDEN2
100
AcDbPolyline
 90
        2
 70
     0
 43
0.0
 10
9.596792620751912
 20
8.170598412754893
 10
9.625123768273262
 20
8.155055412977986
  0
LWPOLYLINE
  5
82D
330
18
100
AcDbEntity
  8
ADP2DETAIL
  6
HIDDEN2
100
AcDbPolyline
 90
        2
 70
     0
 43
0.0
 10
9.625616386197766
 20
8.155216663276519
 10
9.63927316151647
 20
8.184503712459319
  0
LWPOLYLINE
  5
831
330
18
100
AcDbEntity
  8
ADP2DETAIL
  6
HIDDEN2
100
AcDbPolyline
 90
        2
 70
     0
 43
0.0
 10
9.57964944950981
 20
8.139953132645391
 10
9.594986010190176
 20
8.168396561911901
  0
LWPOLYLINE
  5
835
330
18
100
AcDbEntity
  8
ADP2DETAIL
  6
HIDDEN2
100
AcDbPolyline
 90
        2
 70
     0
 43
0.0
 10
9.625616386197766
 20
8.155216663276521
 10
9.63927316151647
 20
8.184503712459322
  0
LWPOLYLINE
  5
839
330
18
100
AcDbEntity
  8
ADP2DETAIL
  6
HIDDEN2
100
AcDbPolyline
 90
        2
 70
     0
 43
0.0
 10
9.625616386197766
 20
8.155216663276521
 10
9.63927316151647
 20
8.184503712459322
  0
LWPOLYLINE
  5
83D
330
18
100
AcDbEntity
  8
ADP2DETAIL
  6
HIDDEN2
100
AcDbPolyline
 90
        2
 70
     0
 43
0.0
 10
9.596792620751912
 20
8.170598412754895
 10
9.625123768273262
 20
8.15505541297799
  0
LINE
  5
841
330
18
100
AcDbEntity
  8
ADP2DETAIL
  6
HIDDEN2
100
AcDbLine
 10
10.18093246038576
 20
6.937780653041624
 30
0.0
 11
10.18093246038576
 21
8.099272114007604
 31
0.0
  0
LINE
  5
842
330
18
100
AcDbEntity
  8
ADP2DETAIL
  6
HIDDEN2
100
AcDbLine
 10
10.13896494731796
 20
7.922617285295046
 30
0.0
 11
10.07646494731796
 21
7.985117285295046
 31
0.0
  0
LINE
  5
843
330
18
100
AcDbEntity
  8
ADP1DETAIL
100
AcDbLine
 10
10.28993246038576
 20
6.937780653041624
 30
0.0
 11
10.28993246038576
 21
7.987780653041624
 31
0.0
  0
LWPOLYLINE
  5
844
330
18
100
AcDbEntity
  8
ADP2DETAIL
  6
HIDDEN2
100
AcDbPolyline
 90
        2
 70
     0
 43
0.0
 10
9.913688882993975
 20
8.367262063900032
 10
9.945982206714599
 20
8.36608732775257
  0
LWPOLYLINE
  5
848
330
18
100
AcDbEntity
  8
ADP2DETAIL
  6
HIDDEN2
100
AcDbPolyline
 90
        2
 70
     0
 43
0.0
 10
9.805961999444603
 20
8.276364967117673
 10
9.837560724223964
 20
8.269600401037013
  0
LWPOLYLINE
  5
84C
330
18
100
AcDbEntity
  8
ADP2DETAIL
  6
HIDDEN2
100
AcDbPolyline
 90
        2
 70
     0
 43
0.0
 10
9.843614408340089
 20
8.304556615011197
 10
9.875552997615706
 20
8.299640795951797
  0
LWPOLYLINE
  5
850
330
18
100
AcDbEntity
  8
ADP2DETAIL
  6
HIDDEN2
100
AcDbPolyline
 90
        2
 70
     0
 43
0.0
 10
9.875960756194015
 20
8.299960806920568
 10
9.878777166425646
 20
8.33215252317411
  0
LWPOLYLINE
  5
854
330
18
100
AcDbEntity
  8
ADP2DETAIL
  6
HIDDEN2
100
AcDbPolyline
 90
        2
 70
     0
 43
0.0
 10
9.837986399922321
 20
8.269896161545103
 10
9.842669827067492
 20
8.301869654818709
  0
LWPOLYLINE
  5
858
330
18
100
AcDbEntity
  8
ADP2DETAIL
  6
HIDDEN2
100
AcDbPolyline
 90
        2
 70
     0
 43
0.0
 10
9.879563916775547
 20
8.334889859971717
 10
9.911734300471232
 20
8.331839421509203
  0
LWPOLYLINE
  5
85C
330
18
100
AcDbEntity
  8
ADP2DETAIL
  6
HIDDEN2
100
AcDbPolyline
 90
        2
 70
     0
 43
0.0
 10
9.875960756194016
 20
8.299960806920575
 10
9.878777166425646
 20
8.332152523174118
  0
LWPOLYLINE
  5
860
330
18
100
AcDbEntity
  8
ADP2DETAIL
  6
HIDDEN2
100
AcDbPolyline
 90
        2
 70
     0
 43
0.0
 10
9.875960756194016
 20
8.299960806920575
 10
9.878777166425647
 20
8.332152523174118
  0
LWPOLYLINE
  5
864
330
18
100
AcDbEntity
  8
ADP2DETAIL
  6
HIDDEN2
100
AcDbPolyline
 90
        2
 70
     0
 43
0.0
 10
9.843614408340091
 20
8.304556615011206
 10
9.875552997615708
 20
8.299640795951804
  0
LWPOLYLINE
  5
868
330
18
100
AcDbEntity
  8
ADP2DETAIL
  6
HIDDEN2
100
AcDbPolyline
 90
        2
 70
     0
 43
0.0
 10
9.72606342658787
 20
8.226780459720464
 10
9.756663173905366
 20
8.216393245173398
  0
LWPOLYLINE
  5
86C
330
18
100
AcDbEntity
  8
ADP2DETAIL
  6
HIDDEN2
100
AcDbPolyline
 90
        2
 70
     0
 43
0.0
 10
9.757120307036203
 20
8.216637587922441
 10
9.765483962531373
 20
8.247851175167413
  0
LWPOLYLINE
  5
870
330
18
100
AcDbEntity
  8
ADP2DETAIL
  6
HIDDEN2
100
AcDbPolyline
 90
        2
 70
     0
 43
0.0
 10
9.684087614105873
 20
8.205555378494201
 10
9.71403162868127
 20
8.193406520397671
  0
LWPOLYLINE
  5
874
330
18
100
AcDbEntity
  8
ADP2DETAIL
  6
HIDDEN2
100
AcDbPolyline
 90
        2
 70
     0
 43
0.0
 10
9.714502195682539
 20
8.193623869829773
 10
9.72466660988638
 20
8.224298345307511
  0
LWPOLYLINE
  5
878
330
18
100
AcDbEntity
  8
ADP2DETAIL
  6
HIDDEN2
100
AcDbPolyline
 90
        2
 70
     0
 43
0.0
 10
9.670618058726976
 20
8.173127110098858
 10
9.682548838479288
 20
8.203158681094114
  0
LWPOLYLINE
  5
87C
330
18
100
AcDbEntity
  8
ADP2DETAIL
  6
HIDDEN2
100
AcDbPolyline
 90
        2
 70
     0
 43
0.0
 10
9.766734093922202
 20
8.25041030790375
 10
9.79788603412299
 20
8.241819883952178
  0
LWPOLYLINE
  5
880
330
18
100
AcDbEntity
  8
ADP2DETAIL
  6
HIDDEN2
100
AcDbPolyline
 90
        2
 70
     0
 43
0.0
 10
9.798328186589586
 20
8.242090393239648
 10
9.804862783413341
 20
8.273737475353048
  0
LWPOLYLINE
  5
884
330
18
100
AcDbEntity
  8
ADP2DETAIL
  6
HIDDEN2
100
AcDbPolyline
 90
        2
 70
     0
 43
0.0
 10
9.757120307036203
 20
8.216637587922436
 10
9.765483962531373
 20
8.247851175167408
  0
LWPOLYLINE
  5
888
330
18
100
AcDbEntity
  8
ADP2DETAIL
  6
HIDDEN2
100
AcDbPolyline
 90
        2
 70
     0
 43
0.0
 10
9.757120307036203
 20
8.216637587922436
 10
9.765483962531373
 20
8.247851175167408
  0
LWPOLYLINE
  5
88C
330
18
100
AcDbEntity
  8
ADP2DETAIL
  6
HIDDEN2
100
AcDbPolyline
 90
        2
 70
     0
 43
0.0
 10
9.72606342658787
 20
8.226780459720458
 10
9.756663173905366
 20
8.216393245173392
  0
LWPOLYLINE
  5
890
330
18
100
AcDbEntity
  8
ADP2DETAIL
  6
HIDDEN2
100
AcDbPolyline
 90
        2
 70
     0
 43
0.0
 10
9.912122762203535
 20
8.332182600122838
 10
9.913062625680913
 20
8.364483612778562
  0
LWPOLYLINE
  5
894
330
18
100
AcDbEntity
  8
ADP2DETAIL
  6
HIDDEN2
100
AcDbPolyline
 90
        2
 70
     0
 43
0.0
 10
9.640948689338518
 20
8.186806883181196
 10
9.67013565010505
 20
8.172937489425372
  0
LWPOLYLINE
  5
898
330
18
100
AcDbEntity
  8
ADP2DETAIL
  6
HIDDEN2
100
AcDbPolyline
 90
        2
 70
     0
 43
0.0
 10
10.00854419497163
 20
8.44066632463112
 10
10.00386076782646
 20
8.472639817904722
  0
LINE
  5
89C
330
18
100
AcDbEntity
  8
ADP2DETAIL
  6
HIDDEN2
100
AcDbLine
 10
10.03630059253284
 20
8.480359107731143
 30
0.0
 11
10.02973461725054
 21
8.514854172332007
 31
0.0
  0
LINE
  5
89D
330
18
100
AcDbEntity
  8
ADP2DETAIL
  6
HIDDEN2
100
AcDbLine
 10
10.0614283830504
 20
8.521158454318433
 30
0.0
 11
10.07078356240149
 21
8.537764482434097
 31
0.0
  0
ARC
  5
89E
330
18
100
AcDbEntity
  8
ADP2DETAIL
  6
HIDDEN2
100
AcDbCircle
 10
10.03211334676972
 20
8.558925652480541
 30
0.0
 40
0.0440815232806475
100
AcDbArc
 50
331.3115771322809
 51
64.51611724147305
  0
LINE
  5
89F
330
18
100
AcDbEntity
  8
ADP2DETAIL
  6
HIDDEN2
100
AcDbLine
 10
10.05094693997206
 20
8.598781619458433
 30
0.0
 11
10.05107973882102
 21
8.598718323505476
 31
0.0
  0
ARC
  5
8A0
330
18
100
AcDbEntity
  8
ADP2DETAIL
  6
HIDDEN2
100
AcDbCircle
 10
10.03198054792077
 20
8.558988948433494
 30
0.0
 40
0.0440815232806475
100
AcDbArc
 50
64.51611724147425
 51
149.8819924849633
  0
LWPOLYLINE
  5
8A1
330
18
100
AcDbEntity
  8
ADP2DETAIL
  6
HIDDEN2
100
AcDbPolyline
 90
        2
 70
     0
 43
0.0
 10
10.02973461725054
 20
8.514854172332007
 10
10.0614283830504
 20
8.521158454318435
  0
LWPOLYLINE
  5
8A5
330
18
100
AcDbEntity
  8
ADP2DETAIL
  6
HIDDEN2
100
AcDbPolyline
 90
        2
 70
     0
 43
0.0
 10
10.03630059253284
 20
8.480359107731143
 10
10.02976599570909
 20
8.512006189844543
  0
LWPOLYLINE
  5
8A9
330
18
100
AcDbEntity
  8
ADP2DETAIL
  6
HIDDEN2
100
AcDbPolyline
 90
        2
 70
     0
 43
0.0
 10
10.00399503790976
 20
8.475484806551675
 10
10.03600174427161
 20
8.479935594100806
  0
LWPOLYLINE
  5
8AD
330
18
100
AcDbEntity
  8
ADP2DETAIL
  6
HIDDEN2
100
AcDbPolyline
 90
        2
 70
     0
 43
0.0
 10
10.02973461725053
 20
8.514854172332006
 10
10.0614283830504
 20
8.521158454318433
  0
LWPOLYLINE
  5
8B1
330
18
100
AcDbEntity
  8
ADP2DETAIL
  6
HIDDEN2
100
AcDbPolyline
 90
        2
 70
     0
 43
0.0
 10
9.945873838911694
 20
8.401563689505236
 10
9.978180832272002
 20
8.402268630608096
  0
LWPOLYLINE
  5
8B5
330
18
100
AcDbEntity
  8
ADP2DETAIL
  6
HIDDEN2
100
AcDbPolyline
 90
        2
 70
     0
 43
0.0
 10
9.946350057169357
 20
8.366452512803268
 10
9.945410193691982
 20
8.398753525458994
  0
LWPOLYLINE
  5
8B9
330
18
100
AcDbEntity
  8
ADP2DETAIL
  6
HIDDEN2
100
AcDbPolyline
 90
        2
 70
     0
 43
0.0
 10
9.945873838911696
 20
8.401563689505234
 10
9.978180832272002
 20
8.402268630608093
  0
LWPOLYLINE
  5
8BD
330
18
100
AcDbEntity
  8
ADP2DETAIL
  6
HIDDEN2
100
AcDbPolyline
 90
        2
 70
     0
 43
0.0
 10
9.978526826759718
 20
8.40265458642524
 10
9.975710416528091
 20
8.434846302678783
  0
LWPOLYLINE
  5
8C1
330
18
100
AcDbEntity
  8
ADP2DETAIL
  6
HIDDEN2
100
AcDbPolyline
 90
        2
 70
     0
 43
0.0
 10
9.978526826759717
 20
8.40265458642524
 10
9.975710416528091
 20
8.434846302678781
  0
LWPOLYLINE
  5
8C5
330
18
100
AcDbEntity
  8
ADP2DETAIL
  6
HIDDEN2
100
AcDbPolyline
 90
        2
 70
     0
 43
0.0
 10
9.976009880825792
 20
8.437678670944205
 10
10.00822122718678
 20
8.440260903999833
  0
LWPOLYLINE
  5
8C9
330
18
100
AcDbEntity
  8
ADP2DETAIL
  6
HIDDEN2
100
AcDbPolyline
 90
        2
 70
     0
 43
0.0
 10
9.978526826759717
 20
8.402654586425244
 10
9.975710416528091
 20
8.434846302678787
  0
LWPOLYLINE
  5
8CD
330
18
100
AcDbEntity
  8
ADP2DETAIL
  6
HIDDEN2
100
AcDbPolyline
 90
        2
 70
     0
 43
0.0
 10
9.945639028100966
 20
9.509252078380205
 10
9.913338015445244
 20
9.510191941857581
  0
LWPOLYLINE
  5
8D1
330
18
100
AcDbEntity
  8
ADP2DETAIL
  6
HIDDEN2
100
AcDbPolyline
 90
        2
 70
     0
 43
0.0
 10
9.910559564323772
 20
9.510818199170643
 10
9.911734300471236
 20
9.543111522891267
  0
LWPOLYLINE
  5
8D5
330
18
100
AcDbEntity
  8
ADP2DETAIL
  6
HIDDEN2
100
AcDbPolyline
 90
        2
 70
     0
 43
0.0
 10
9.911369115420537
 20
9.543479373346025
 10
9.879068102764811
 20
9.54253950986865
  0
LWPOLYLINE
  5
8D9
330
18
100
AcDbEntity
  8
ADP2DETAIL
  6
HIDDEN2
100
AcDbPolyline
 90
        2
 70
     0
 43
0.0
 10
9.942931768252089
 20
9.476693232952214
 10
9.945982206714603
 20
9.5088636166479
  0
LWPOLYLINE
  5
8DD
330
18
100
AcDbEntity
  8
ADP2DETAIL
  6
HIDDEN2
100
AcDbPolyline
 90
        2
 70
     0
 43
0.0
 10
9.9732650132126
 20
9.440743724516762
 10
9.978180832272002
 20
9.472682313792381
  0
LWPOLYLINE
  5
8E1
330
18
100
AcDbEntity
  8
ADP2DETAIL
  6
HIDDEN2
100
AcDbPolyline
 90
        2
 70
     0
 43
0.0
 10
9.977860821303229
 20
9.473090072370688
 10
9.945669105049686
 20
9.475906482602319
  0
LWPOLYLINE
  5
8E5
330
18
100
AcDbEntity
  8
ADP2DETAIL
  6
HIDDEN2
100
AcDbPolyline
 90
        2
 70
     0
 43
0.0
 10
10.00792546667869
 20
9.435115716098996
 10
9.975951973405088
 20
9.439799143244167
  0
LWPOLYLINE
  5
8E9
330
18
100
AcDbEntity
  8
ADP2DETAIL
  6
HIDDEN2
100
AcDbPolyline
 90
        2
 70
     0
 43
0.0
 10
9.977860821303231
 20
9.473090072370684
 10
9.945669105049688
 20
9.475906482602313
  0
LWPOLYLINE
  5
8ED
330
18
100
AcDbEntity
  8
ADP2DETAIL
  6
HIDDEN2
100
AcDbPolyline
 90
        2
 70
     0
 43
0.0
 10
9.977860821303231
 20
9.473090072370684
 10
9.945669105049688
 20
9.475906482602313
  0
LWPOLYLINE
  5
8F1
330
18
100
AcDbEntity
  8
ADP2DETAIL
  6
HIDDEN2
100
AcDbPolyline
 90
        2
 70
     0
 43
0.0
 10
9.9732650132126
 20
9.440743724516757
 10
9.978180832272002
 20
9.472682313792375
  0
LWPOLYLINE
  5
8F5
330
18
100
AcDbEntity
  8
ADP2DETAIL
  6
HIDDEN2
100
AcDbPolyline
 90
        2
 70
     0
 43
0.0
 10
10.03573123498415
 20
9.395457502766257
 10
10.00408415287075
 20
9.401992099590014
  0
LWPOLYLINE
  5
8F9
330
18
100
AcDbEntity
  8
ADP2DETAIL
  6
HIDDEN2
100
AcDbPolyline
 90
        2
 70
     0
 43
0.0
 10
10.00145666110612
 20
9.403091315621278
 10
10.00822122718678
 20
9.434690040400635
  0
LINE
  5
8FD
330
18
100
AcDbEntity
  8
ADP2DETAIL
  6
HIDDEN2
100
AcDbLine
 10
10.07111139729362
 20
9.336586787659292
 30
0.0
 11
10.06118404030136
 21
9.354249623212874
 31
0.0
  0
LINE
  5
8FE
330
18
100
AcDbEntity
  8
ADP2DETAIL
  6
HIDDEN2
100
AcDbLine
 10
10.05123930963907
 20
9.275592902177894
 30
0.0
 11
10.05135754971804
 21
9.275649139928136
 31
0.0
  0
ARC
  5
8FF
330
18
100
AcDbEntity
  8
ADP2DETAIL
  6
HIDDEN2
100
AcDbCircle
 10
10.032305585618
 20
9.315401127325927
 30
0.0
 40
0.0440815232806475
100
AcDbArc
 50
210.0687664065322
 51
295.4368546409617
  0
LWPOLYLINE
  5
900
330
18
100
AcDbEntity
  8
ADP2DETAIL
  6
HIDDEN2
100
AcDbPolyline
 90
        2
 70
     0
 43
0.0
 10
10.06118404030136
 20
9.354249623212876
 10
10.02997045305638
 20
9.362613278708046
  0
LWPOLYLINE
  5
904
330
18
100
AcDbEntity
  8
ADP2DETAIL
  6
HIDDEN2
100
AcDbPolyline
 90
        2
 70
     0
 43
0.0
 10
10.06118404030136
 20
9.354249623212876
 10
10.02997045305638
 20
9.362613278708044
  0
LWPOLYLINE
  5
908
330
18
100
AcDbEntity
  8
ADP2DETAIL
  6
HIDDEN2
100
AcDbPolyline
 90
        2
 70
     0
 43
0.0
 10
10.06118404030136
 20
9.354249623212874
 10
10.02997045305638
 20
9.362613278708044
  0
ARC
  5
90C
330
18
100
AcDbEntity
  8
ADP2DETAIL
  6
HIDDEN2
100
AcDbCircle
 10
10.03242382569697
 20
9.315457365076166
 30
0.0
 40
0.0440815232806475
100
AcDbArc
 50
295.4368546409622
 51
28.64139475015427
  0
LWPOLYLINE
  5
90D
330
18
100
AcDbEntity
  8
ADP2DETAIL
  6
HIDDEN2
100
AcDbPolyline
 90
        2
 70
     0
 43
0.0
 10
10.02741132032004
 20
9.363863410098876
 10
10.03600174427161
 20
9.395015350299663
  0
LWPOLYLINE
  5
911
330
18
100
AcDbEntity
  8
ADP2DETAIL
  6
HIDDEN2
100
AcDbPolyline
 90
        2
 70
     0
 43
0.0
 10
9.636835838725222
 20
9.689777992219058
 10
9.625123768273262
 20
9.71989553142248
  0
LWPOLYLINE
  5
915
330
18
100
AcDbEntity
  8
ADP2DETAIL
  6
HIDDEN2
100
AcDbPolyline
 90
        2
 70
     0
 43
0.0
 10
9.624642751355663
 20
9.72008865522552
 10
9.595355702172859
 20
9.706431879906819
  0
LWPOLYLINE
  5
919
330
18
100
AcDbEntity
  8
ADP2DETAIL
  6
HIDDEN2
100
AcDbPolyline
 90
        2
 70
     0
 43
0.0
 10
9.624642751355663
 20
9.720088655225522
 10
9.595355702172861
 20
9.706431879906823
  0
LWPOLYLINE
  5
91D
330
18
100
AcDbEntity
  8
ADP2DETAIL
  6
HIDDEN2
100
AcDbPolyline
 90
        2
 70
     0
 43
0.0
 10
9.624642751355663
 20
9.720088655225522
 10
9.595355702172861
 20
9.706431879906823
  0
LWPOLYLINE
  5
921
330
18
100
AcDbEntity
  8
ADP2DETAIL
  6
HIDDEN2
100
AcDbPolyline
 90
        2
 70
     0
 43
0.0
 10
9.636835838725223
 20
9.68977799221906
 10
9.625123768273265
 20
9.719895531422482
  0
LWPOLYLINE
  5
925
330
18
100
AcDbEntity
  8
ADP2DETAIL
  6
HIDDEN2
100
AcDbPolyline
 90
        2
 70
     0
 43
0.0
 10
9.592591723792477
 20
9.705744557297473
 10
9.579148289145852
 20
9.735130146058686
  0
LWPOLYLINE
  5
929
330
18
100
AcDbEntity
  8
ADP2DETAIL
  6
HIDDEN2
100
AcDbPolyline
 90
        2
 70
     0
 43
0.0
 10
9.837155303592684
 20
9.605673511148301
 10
9.80518181031908
 20
9.600990084003131
  0
LWPOLYLINE
  5
92D
330
18
100
AcDbEntity
  8
ADP2DETAIL
  6
HIDDEN2
100
AcDbPolyline
 90
        2
 70
     0
 43
0.0
 10
9.762967455891796
 20
9.626863933427205
 10
9.756663173905369
 20
9.658557699227074
  0
LWPOLYLINE
  5
931
330
18
100
AcDbEntity
  8
ADP2DETAIL
  6
HIDDEN2
100
AcDbPolyline
 90
        2
 70
     0
 43
0.0
 10
9.756223000312047
 20
9.658831416756768
 10
9.725009413067073
 20
9.650467761261602
  0
LWPOLYLINE
  5
935
330
18
100
AcDbEntity
  8
ADP2DETAIL
  6
HIDDEN2
100
AcDbPolyline
 90
        2
 70
     0
 43
0.0
 10
9.802336821672128
 20
9.601124354086435
 10
9.797886034122996
 20
9.633131060448286
  0
LWPOLYLINE
  5
939
330
18
100
AcDbEntity
  8
ADP2DETAIL
  6
HIDDEN2
100
AcDbPolyline
 90
        2
 70
     0
 43
0.0
 10
9.797462520492661
 20
9.633429908709516
 10
9.765815438379261
 20
9.626895311885762
  0
LWPOLYLINE
  5
93D
330
18
100
AcDbEntity
  8
ADP2DETAIL
  6
HIDDEN2
100
AcDbPolyline
 90
        2
 70
     0
 43
0.0
 10
9.680076726423305
 20
9.671265873548652
 10
9.670135650105054
 20
9.702013454975098
  0
LWPOLYLINE
  5
941
330
18
100
AcDbEntity
  8
ADP2DETAIL
  6
HIDDEN2
100
AcDbPolyline
 90
        2
 70
     0
 43
0.0
 10
9.722168073410328
 20
9.650270840435956
 10
9.714031628681272
 20
9.681544424002799
  0
LWPOLYLINE
  5
945
330
18
100
AcDbEntity
  8
ADP2DETAIL
  6
HIDDEN2
100
AcDbPolyline
 90
        2
 70
     0
 43
0.0
 10
9.713576284533068
 20
9.681792084627481
 10
9.682901809055335
 20
9.671627670423642
  0
LWPOLYLINE
  5
949
330
18
100
AcDbEntity
  8
ADP2DETAIL
  6
HIDDEN2
100
AcDbPolyline
 90
        2
 70
     0
 43
0.0
 10
9.756223000312045
 20
9.658831416756768
 10
9.725009413067073
 20
9.6504677612616
  0
LWPOLYLINE
  5
94D
330
18
100
AcDbEntity
  8
ADP2DETAIL
  6
HIDDEN2
100
AcDbPolyline
 90
        2
 70
     0
 43
0.0
 10
9.756223000312045
 20
9.658831416756768
 10
9.725009413067072
 20
9.6504677612616
  0
LWPOLYLINE
  5
951
330
18
100
AcDbEntity
  8
ADP2DETAIL
  6
HIDDEN2
100
AcDbPolyline
 90
        2
 70
     0
 43
0.0
 10
9.762967455891793
 20
9.626863933427204
 10
9.756663173905366
 20
9.658557699227074
  0
LWPOLYLINE
  5
955
330
18
100
AcDbEntity
  8
ADP2DETAIL
  6
HIDDEN2
100
AcDbPolyline
 90
        2
 70
     0
 43
0.0
 10
9.669666676142433
 20
9.702234220689607
 10
9.639635105147174
 20
9.690303440937297
  0
LWPOLYLINE
  5
959
330
18
100
AcDbEntity
  8
ADP2DETAIL
  6
HIDDEN2
100
AcDbPolyline
 90
        2
 70
     0
 43
0.0
 10
9.875167041798563
 20
9.575656142936384
 10
9.842975325545019
 20
9.572839732704757
  0
LWPOLYLINE
  5
95D
330
18
100
AcDbEntity
  8
ADP2DETAIL
  6
HIDDEN2
100
AcDbPolyline
 90
        2
 70
     0
 43
0.0
 10
9.875167041798563
 20
9.575656142936384
 10
9.842975325545021
 20
9.572839732704757
  0
LWPOLYLINE
  5
961
330
18
100
AcDbEntity
  8
ADP2DETAIL
  6
HIDDEN2
100
AcDbPolyline
 90
        2
 70
     0
 43
0.0
 10
9.875167041798563
 20
9.575656142936384
 10
9.842975325545019
 20
9.572839732704759
  0
LWPOLYLINE
  5
965
330
18
100
AcDbEntity
  8
ADP2DETAIL
  6
HIDDEN2
100
AcDbPolyline
 90
        2
 70
     0
 43
0.0
 10
9.840142957279599
 20
9.573139197002461
 10
9.837560724223969
 20
9.605350543363451
  0
LINE
  5
969
330
18
100
AcDbEntity
  8
ADP2DETAIL
  6
HIDDEN2
100
AcDbLine
 10
10.35509582813234
 20
9.736813139973822
 30
0.0
 11
10.29259582813234
 21
9.674313139973822
 31
0.0
  0
LINE
  5
96A
330
18
100
AcDbEntity
  8
ADP1DETAIL
100
AcDbLine
 10
12.58408139431786
 20
9.716280653041625
 30
0.0
 11
12.58408139431787
 21
8.190280653041622
 31
0.0
  0
LINE
  5
96B
330
18
100
AcDbEntity
  8
ADP1DETAIL
100
AcDbLine
 10
12.52158139431786
 20
9.778780653041625
 30
0.0
 11
12.52158139431787
 21
8.099272114007604
 31
0.0
  0
LINE
  5
96C
330
18
100
AcDbEntity
  8
ADP1DETAIL
100
AcDbLine
 10
12.58408139431787
 20
8.161772114007604
 30
0.0
 11
12.52158139431787
 21
8.099272114007604
 31
0.0
  0
LINE
  5
96D
330
18
100
AcDbEntity
  8
ADP1DETAIL
100
AcDbLine
 10
12.52158139431786
 20
9.778780653041625
 30
0.0
 11
12.58408139431786
 21
9.716280653041625
 31
0.0
  0
TEXT
  5
97B
330
18
100
AcDbEntity
  8
ADPDIM
100
AcDbText
 10
1.050282816459029
 20
-0.2086875889614292
 30
0.0
 40
0.1875
  1
J U L I U S  B L U M  &  C O . ,  I N C .      ( 8 0 0 )  5 2 6 - 6 2 9 3        W W W . J U L I U S B L U M . C O M        P A R T  N o .  7 2 3 0
 41
1.25
  7
ARIAL_WIDE
 72
     1
 11
10.83887635329395
 21
-0.0211875889614293
 31
0.0
100
AcDbText
 73
     3
  0
ENDSEC
  0
SECTION
  2
OBJECTS
  0
DICTIONARY
  5
C
330
0
100
AcDbDictionary
  3
ACAD_GROUP
350
D
  3
ACAD_LAYOUT
350
974
  3
ACAD_MLINESTYLE
350
E
  3
ACAD_PLOTSETTINGS
350
975
  3
ACAD_PLOTSTYLENAME
350
972
  3
ACDBHEADERROUNDTRIPXREC
350
ABF
  3
ACDBVARIABLEDICTIONARY
350
9D5
  0
DICTIONARY
  5
9CF
330
18
100
AcDbDictionary
280
     1
  3
ACAD_LAYOUTSELFREF
360
AE0
  0
DICTIONARY
  5
9CD
330
15
100
AcDbDictionary
280
     1
  3
ACAD_LAYOUTSELFREF
360
ADF
  0
DICTIONARY
  5
D
102
{ACAD_REACTORS
330
C
102
}
330
C
100
AcDbDictionary
  0
DICTIONARY
  5
974
102
{ACAD_REACTORS
330
C
102
}
330
C
100
AcDbDictionary
  0
DICTIONARY
  5
E
102
{ACAD_REACTORS
330
C
102
}
330
C
100
AcDbDictionary
  3
STANDARD
350
1B
  0
DICTIONARY
  5
975
102
{ACAD_REACTORS
330
C
102
}
330
C
100
AcDbDictionary
  0
ACDBDICTIONARYWDFLT
  5
972
102
{ACAD_REACTORS
330
C
102
}
330
C
100
AcDbDictionary
281
     1
  3
Normal
350
973
100
AcDbDictionaryWithDefault
340
973
  0
DICTIONARY
  5
ABF
102
{ACAD_REACTORS
330
C
102
}
330
C
100
AcDbDictionary
  3
CEPSNTYPE
350
AC9
  3
FINGERPRINTGUID
350
ACA
  3
HYPERLINKBASE
350
AC2
  3
INSUNITS
350
AC8
  3
LAYOUTDICT
350
AC4
  3
LWETCUNION
350
AC7
  3
PLOTSETDICT
350
AC5
  3
PLOTSTYLNAMDICT
350
AC6
  3
PSVPSCALE
350
ACC
  3
PUCSBASE
350
ACF
  3
PUCSORGBACK
350
AD5
  3
PUCSORGBOTTOM
350
AD1
  3
PUCSORGFRONT
350
AD4
  3
PUCSORGLEFT
350
AD2
  3
PUCSORGRIGHT
350
AD3
  3
PUCSORGTOP
350
AD0
  3
PUCSORTHOREF
350
ACD
  3
PUCSORTHOVIEW
350
ACE
  3
STYLESHEET
350
AC3
  3
TSTACKALIGN
350
AC0
  3
TSTACKSIZE
350
AC1
  3
UCSBASE
350
AD8
  3
UCSORGBACK
350
ADE
  3
UCSORGBOTTOM
350
ADA
  3
UCSORGFRONT
350
ADD
  3
UCSORGLEFT
350
ADB
  3
UCSORGRIGHT
350
ADC
  3
UCSORGTOP
350
AD9
  3
UCSORTHOREF
350
AD6
  3
UCSORTHOVIEW
350
AD7
  3
VERSIONGUID
350
ACB
  0
DICTIONARY
  5
9D5
102
{ACAD_REACTORS
330
C
102
}
330
C
100
AcDbDictionary
  3
DIMASSOC
350
9D6
  0
XRECORD
  5
AE0
102
{ACAD_REACTORS
330
9CF
102
}
330
9CF
100
AcDbXrecord
340
18
  0
XRECORD
  5
ADF
102
{ACAD_REACTORS
330
9CD
102
}
330
9CD
100
AcDbXrecord
340
15
  0
MLINESTYLE
  5
1B
102
{ACAD_REACTORS
330
E
102
}
330
E
100
AcDbMlineStyle
  2
STANDARD
 70
     0
  3

 62
     0
 51
90.0
 52
90.0
 71
     2
 49
0.5
 62
   256
  6
BYLAYER
 49
-0.5
 62
   256
  6
BYLAYER
  0
ACDBPLACEHOLDER
  5
973
102
{ACAD_REACTORS
330
972
102
}
330
972
100
AcDbPlaceHolder
280
     0
  0
XRECORD
  5
AC9
102
{ACAD_REACTORS
330
ABF
102
}
330
ABF
100
AcDbXrecord
 90
        0
  0
XRECORD
  5
ACA
102
{ACAD_REACTORS
330
ABF
102
}
330
ABF
100
AcDbXrecord
  1
{44FA5447-A52A-46EE-9DBA-207A8034FF38}
  0
XRECORD
  5
AC2
102
{ACAD_REACTORS
330
ABF
102
}
330
ABF
100
AcDbXrecord
  1

  0
XRECORD
  5
AC8
102
{ACAD_REACTORS
330
ABF
102
}
330
ABF
100
AcDbXrecord
 90
        0
  0
XRECORD
  5
AC4
102
{ACAD_REACTORS
330
ABF
102
}
330
ABF
100
AcDbXrecord
340
974
  0
XRECORD
  5
AC7
102
{ACAD_REACTORS
330
ABF
102
}
330
ABF
100
AcDbXrecord
 90
    14877
  0
XRECORD
  5
AC5
102
{ACAD_REACTORS
330
ABF
102
}
330
ABF
100
AcDbXrecord
340
975
  0
XRECORD
  5
AC6
102
{ACAD_REACTORS
330
ABF
102
}
330
ABF
100
AcDbXrecord
340
972
  0
XRECORD
  5
ACC
102
{ACAD_REACTORS
330
ABF
102
}
330
ABF
100
AcDbXrecord
 40
0.0
  0
XRECORD
  5
ACF
102
{ACAD_REACTORS
330
ABF
102
}
330
ABF
100
AcDbXrecord
340
0
  0
XRECORD
  5
AD5
102
{ACAD_REACTORS
330
ABF
102
}
330
ABF
100
AcDbXrecord
 10
0.0
 20
0.0
 30
0.0
  0
XRECORD
  5
AD1
102
{ACAD_REACTORS
330
ABF
102
}
330
ABF
100
AcDbXrecord
 10
0.0
 20
0.0
 30
0.0
  0
XRECORD
  5
AD4
102
{ACAD_REACTORS
330
ABF
102
}
330
ABF
100
AcDbXrecord
 10
0.0
 20
0.0
 30
0.0
  0
XRECORD
  5
AD2
102
{ACAD_REACTORS
330
ABF
102
}
330
ABF
100
AcDbXrecord
 10
0.0
 20
0.0
 30
0.0
  0
XRECORD
  5
AD3
102
{ACAD_REACTORS
330
ABF
102
}
330
ABF
100
AcDbXrecord
 10
0.0
 20
0.0
 30
0.0
  0
XRECORD
  5
AD0
102
{ACAD_REACTORS
330
ABF
102
}
330
ABF
100
AcDbXrecord
 10
0.0
 20
0.0
 30
0.0
  0
XRECORD
  5
ACD
102
{ACAD_REACTORS
330
ABF
102
}
330
ABF
100
AcDbXrecord
340
0
  0
XRECORD
  5
ACE
102
{ACAD_REACTORS
330
ABF
102
}
330
ABF
100
AcDbXrecord
 70
     0
  0
XRECORD
  5
AC3
102
{ACAD_REACTORS
330
ABF
102
}
330
ABF
100
AcDbXrecord
  1

  0
XRECORD
  5
AC0
102
{ACAD_REACTORS
330
ABF
102
}
330
ABF
100
AcDbXrecord
 90
        1
  0
XRECORD
  5
AC1
102
{ACAD_REACTORS
330
ABF
102
}
330
ABF
100
AcDbXrecord
 90
       70
  0
XRECORD
  5
AD8
102
{ACAD_REACTORS
330
ABF
102
}
330
ABF
100
AcDbXrecord
340
0
  0
XRECORD
  5
ADE
102
{ACAD_REACTORS
330
ABF
102
}
330
ABF
100
AcDbXrecord
 10
0.0
 20
0.0
 30
0.0
  0
XRECORD
  5
ADA
102
{ACAD_REACTORS
330
ABF
102
}
330
ABF
100
AcDbXrecord
 10
0.0
 20
0.0
 30
0.0
  0
XRECORD
  5
ADD
102
{ACAD_REACTORS
330
ABF
102
}
330
ABF
100
AcDbXrecord
 10
0.0
 20
0.0
 30
0.0
  0
XRECORD
  5
ADB
102
{ACAD_REACTORS
330
ABF
102
}
330
ABF
100
AcDbXrecord
 10
0.0
 20
0.0
 30
0.0
  0
XRECORD
  5
ADC
102
{ACAD_REACTORS
330
ABF
102
}
330
ABF
100
AcDbXrecord
 10
0.0
 20
0.0
 30
0.0
  0
XRECORD
  5
AD9
102
{ACAD_REACTORS
330
ABF
102
}
330
ABF
100
AcDbXrecord
 10
0.0
 20
0.0
 30
0.0
  0
XRECORD
  5
AD6
102
{ACAD_REACTORS
330
ABF
102
}
330
ABF
100
AcDbXrecord
340
0
  0
XRECORD
  5
AD7
102
{ACAD_REACTORS
330
ABF
102
}
330
ABF
100
AcDbXrecord
 70
     0
  0
XRECORD
  5
ACB
102
{ACAD_REACTORS
330
ABF
102
}
330
ABF
100
AcDbXrecord
  1
{D8C013D9-DFFF-4FD2-995A-D7A9CA6AF3D6}
  0
DICTIONARYVAR
  5
9D6
102
{ACAD_REACTORS
330
9D5
102
}
330
9D5
100
DictionaryVariables
280
     0
  1
1
  0
ENDSEC
  0
EOF
