  0
SECTION
  2
HEADER
  9
$ACADVER
  1
AC1014
  9
$ACADMAINTVER
 70
     9
  9
$DWGCODEPAGE
  3
ANSI_1252
  9
$INSBASE
 10
31.26802685863607
 20
8.587122853012841
 30
0.0
  9
$EXTMIN
 10
26.23228444737685
 20
6.899378210207849
 30
0.0
  9
$EXTMAX
 10
45.8094715210467
 20
15.35504969196978
 30
0.0
  9
$LIMMIN
 10
0.0
 20
0.0
  9
$LIMMAX
 10
36.0
 20
36.0
  9
$ORTHOMODE
 70
     1
  9
$REGENMODE
 70
     1
  9
$FILLMODE
 70
     1
  9
$QTEXTMODE
 70
     0
  9
$MIRRTEXT
 70
     1
  9
$DRAGMODE
 70
     0
  9
$LTSCALE
 40
1.0
  9
$OSMODE
 70
    37
  9
$ATTMODE
 70
     1
  9
$TEXTSIZE
 40
0.2
  9
$TRACEWID
 40
0.05
  9
$TEXTSTYLE
  7
STANDARD
  9
$CLAYER
  8
ADP1DETAIL
  9
$CELTYPE
  6
BYLAYER
  9
$CECOLOR
 62
   256
  9
$CELTSCALE
 40
1.0
  9
$DELOBJ
 70
     1
  9
$DISPSILH
 70
     0
  9
$DIMSCALE
 40
1.0
  9
$DIMASZ
 40
0.125
  9
$DIMEXO
 40
0.0625
  9
$DIMDLI
 40
0.38
  9
$DIMRND
 40
0.0
  9
$DIMDLE
 40
0.0
  9
$DIMEXE
 40
0.18
  9
$DIMTP
 40
0.0
  9
$DIMTM
 40
0.0
  9
$DIMTXT
 40
0.125
  9
$DIMCEN
 40
0.1875
  9
$DIMTSZ
 40
0.125
  9
$DIMTOL
 70
     0
  9
$DIMLIM
 70
     0
  9
$DIMTIH
 70
     0
  9
$DIMTOH
 70
     0
  9
$DIMSE1
 70
     0
  9
$DIMSE2
 70
     0
  9
$DIMTAD
 70
     0
  9
$DIMZIN
 70
     3
  9
$DIMBLK
  1

  9
$DIMASO
 70
     1
  9
$DIMSHO
 70
     1
  9
$DIMPOST
  1

  9
$DIMAPOST
  1

  9
$DIMALT
 70
     0
  9
$DIMALTD
 70
     1
  9
$DIMALTF
 40
25.4
  9
$DIMLFAC
 40
1.0
  9
$DIMTOFL
 70
     0
  9
$DIMTVP
 40
0.0
  9
$DIMTIX
 70
     0
  9
$DIMSOXD
 70
     0
  9
$DIMSAH
 70
     0
  9
$DIMBLK1
  1

  9
$DIMBLK2
  1

  9
$DIMSTYLE
  2
STANDARD
  9
$DIMCLRD
 70
     0
  9
$DIMCLRE
 70
     0
  9
$DIMCLRT
 70
     0
  9
$DIMTFAC
 40
1.0
  9
$DIMGAP
 40
0.125
  9
$DIMJUST
 70
     0
  9
$DIMSD1
 70
     0
  9
$DIMSD2
 70
     0
  9
$DIMTOLJ
 70
     1
  9
$DIMTZIN
 70
     0
  9
$DIMALTZ
 70
     0
  9
$DIMALTTZ
 70
     0
  9
$DIMFIT
 70
     3
  9
$DIMUPT
 70
     0
  9
$DIMUNIT
 70
     2
  9
$DIMDEC
 70
     4
  9
$DIMTDEC
 70
     4
  9
$DIMALTU
 70
     2
  9
$DIMALTTD
 70
     2
  9
$DIMTXSTY
  7
STANDARD
  9
$DIMAUNIT
 70
     0
  9
$LUNITS
 70
     5
  9
$LUPREC
 70
     4
  9
$SKETCHINC
 40
0.1
  9
$FILLETRAD
 40
0.062
  9
$AUNITS
 70
     0
  9
$AUPREC
 70
     0
  9
$MENU
  1
acad
  9
$ELEVATION
 40
0.0
  9
$PELEVATION
 40
0.0
  9
$THICKNESS
 40
0.0
  9
$LIMCHECK
 70
     0
  9
$BLIPMODE
 70
     0
  9
$CHAMFERA
 40
0.0
  9
$CHAMFERB
 40
0.0
  9
$CHAMFERC
 40
0.0
  9
$CHAMFERD
 40
0.0
  9
$SKPOLY
 70
     0
  9
$TDCREATE
 40
2450387.466793785
  9
$TDUPDATE
 40
2452297.099814815
  9
$TDINDWG
 40
0.0265032176
  9
$TDUSRTIMER
 40
0.0265032176
  9
$USRTIMER
 70
     1
  9
$ANGBASE
 50
0.0
  9
$ANGDIR
 70
     0
  9
$PDMODE
 70
     0
  9
$PDSIZE
 40
0.0
  9
$PLINEWID
 40
0.0
  9
$COORDS
 70
     2
  9
$SPLFRAME
 70
     0
  9
$SPLINETYPE
 70
     6
  9
$SPLINESEGS
 70
     8
  9
$ATTDIA
 70
     0
  9
$ATTREQ
 70
     1
  9
$HANDLING
 70
 22529
  9
$HANDSEED
  5
31C
  9
$SURFTAB1
 70
     6
  9
$SURFTAB2
 70
     6
  9
$SURFTYPE
 70
     6
  9
$SURFU
 70
     6
  9
$SURFV
 70
     6
  9
$UCSNAME
  2

  9
$UCSORG
 10
0.0
 20
0.0
 30
0.0
  9
$UCSXDIR
 10
1.0
 20
0.0
 30
0.0
  9
$UCSYDIR
 10
0.0
 20
1.0
 30
0.0
  9
$PUCSNAME
  2

  9
$PUCSORG
 10
0.0
 20
0.0
 30
0.0
  9
$PUCSXDIR
 10
1.0
 20
0.0
 30
0.0
  9
$PUCSYDIR
 10
0.0
 20
1.0
 30
0.0
  9
$USERI1
 70
     0
  9
$USERI2
 70
     0
  9
$USERI3
 70
     0
  9
$USERI4
 70
     0
  9
$USERI5
 70
     0
  9
$USERR1
 40
0.0
  9
$USERR2
 40
0.0
  9
$USERR3
 40
0.0
  9
$USERR4
 40
0.0
  9
$USERR5
 40
0.0
  9
$WORLDVIEW
 70
     1
  9
$SHADEDGE
 70
     3
  9
$SHADEDIF
 70
    70
  9
$TILEMODE
 70
     1
  9
$MAXACTVP
 70
    15
  9
$PINSBASE
 10
0.0
 20
0.0
 30
0.0
  9
$PLIMCHECK
 70
     0
  9
$PEXTMIN
 10
1.000000000000000E+20
 20
1.000000000000000E+20
 30
1.000000000000000E+20
  9
$PEXTMAX
 10
-1.000000000000000E+20
 20
-1.000000000000000E+20
 30
-1.000000000000000E+20
  9
$PLIMMIN
 10
0.0
 20
0.0
  9
$PLIMMAX
 10
12.0
 20
9.0
  9
$UNITMODE
 70
     0
  9
$VISRETAIN
 70
     0
  9
$PLINEGEN
 70
     0
  9
$PSLTSCALE
 70
     1
  9
$TREEDEPTH
 70
  3020
  9
$PICKSTYLE
 70
     1
  9
$CMLSTYLE
  2
STANDARD
  9
$CMLJUST
 70
     0
  9
$CMLSCALE
 40
1.0
  9
$PROXYGRAPHICS
 70
     1
  9
$MEASUREMENT
 70
     0
  0
ENDSEC
  0
SECTION
  2
CLASSES
  0
CLASS
  1
ACDBDICTIONARYWDFLT
  2
AcDbDictionaryWithDefault
  3
AutoCAD 2000
 90
        0
280
     0
281
     0
  0
CLASS
  1
ACDBPLACEHOLDER
  2
AcDbPlaceHolder
  3
AutoCAD 2000
 90
        0
280
     0
281
     0
  0
CLASS
  1
LAYOUT
  2
AcDbLayout
  3
AutoCAD 2000
 90
        0
280
     0
281
     0
  0
CLASS
  1
DICTIONARYVAR
  2
AcDbDictionaryVar
  3
AutoCAD 2000
 90
        0
280
     0
281
     0
  0
CLASS
  1
LONG_TRANSACTION
  2
AcDbLongTransaction
  3
AutoCAD 2000
 90
        0
280
     0
281
     0
  0
CLASS
  1
LWPOLYLINE
  2
AcDbPolyline
  3
AutoCAD 2000
 90
        0
280
     0
281
     1
  0
CLASS
  1
HATCH
  2
AcDbHatch
  3
AutoCAD 2000
 90
        0
280
     0
281
     1
  0
CLASS
  1
XRECORD
  2
AcDbXrecord
  3
AutoCAD 2000
 90
        0
280
     0
281
     0
  0
CLASS
  1
LONG_TRANSACTION
  2
AcDbLongTransaction
  3
AutoCAD 2000
 90
        0
280
     0
281
     0
  0
CLASS
  1
LWPOLYLINE
  2
AcDbPolyline
  3
AutoCAD 2000
 90
        0
280
     0
281
     1
  0
CLASS
  1
HATCH
  2
AcDbHatch
  3
AutoCAD 2000
 90
        0
280
     0
281
     1
  0
CLASS
  1
XRECORD
  2
AcDbXrecord
  3
AutoCAD 2000
 90
        0
280
     0
281
     0
  0
CLASS
  1
LONG_TRANSACTION
  2
AcDbLongTransaction
  3
AutoCAD 2000
 90
        0
280
     0
281
     0
  0
CLASS
  1
LWPOLYLINE
  2
AcDbPolyline
  3
AutoCAD 2000
 90
        0
280
     0
281
     1
  0
CLASS
  1
HATCH
  2
AcDbHatch
  3
AutoCAD 2000
 90
        0
280
     0
281
     1
  0
CLASS
  1
XRECORD
  2
AcDbXrecord
  3
AutoCAD 2000
 90
        0
280
     0
281
     0
  0
CLASS
  1
LONG_TRANSACTION
  2
AcDbLongTransaction
  3
AutoCAD 2000
 90
        0
280
     0
281
     0
  0
CLASS
  1
LWPOLYLINE
  2
AcDbPolyline
  3
AutoCAD 2000
 90
        0
280
     0
281
     1
  0
CLASS
  1
HATCH
  2
AcDbHatch
  3
AutoCAD 2000
 90
        0
280
     0
281
     1
  0
CLASS
  1
XRECORD
  2
AcDbXrecord
  3
AutoCAD 2000
 90
        0
280
     0
281
     0
  0
CLASS
  1
LONG_TRANSACTION
  2
AcDbLongTransaction
  3
AutoCAD 2000
 90
        0
280
     0
281
     0
  0
CLASS
  1
LWPOLYLINE
  2
AcDbPolyline
  3
AutoCAD 2000
 90
        0
280
     0
281
     1
  0
CLASS
  1
HATCH
  2
AcDbHatch
  3
AutoCAD 2000
 90
        0
280
     0
281
     1
  0
CLASS
  1
XRECORD
  2
AcDbXrecord
  3
AutoCAD 2000
 90
        0
280
     0
281
     0
  0
ENDSEC
  0
SECTION
  2
TABLES
  0
TABLE
  2
VPORT
  5
8
330
0
100
AcDbSymbolTable
 70
     2
  0
VPORT
  5
2F9
330
8
100
AcDbSymbolTableRecord
100
AcDbViewportTableRecord
  2
*ACTIVE
 70
     0
 10
0.0
 20
0.0
 11
1.0
 21
1.0
 12
36.03650495513224
 22
11.12805183363153
 13
0.0
 23
0.0
 14
0.5740882589684922
 24
0.5740882589684922
 15
0.5
 25
0.5
 16
0.0
 26
0.0
 36
1.0
 17
0.0
 27
0.0
 37
0.0
 40
12.54606833036051
 41
1.570528967254407
 42
50.0
 43
0.0
 44
0.0
 50
0.0
 51
0.0
 71
     0
 72
   100
 73
     1
 74
     0
 75
     0
 76
     0
 77
     0
 78
     0
  0
ENDTAB
  0
TABLE
  2
LTYPE
  5
5
330
0
100
AcDbSymbolTable
 70
     2
  0
LTYPE
  5
12
330
5
100
AcDbSymbolTableRecord
100
AcDbLinetypeTableRecord
  2
BYBLOCK
 70
     0
  3

 72
    65
 73
     0
 40
0.0
  0
LTYPE
  5
13
330
5
100
AcDbSymbolTableRecord
100
AcDbLinetypeTableRecord
  2
BYLAYER
 70
     0
  3

 72
    65
 73
     0
 40
0.0
  0
LTYPE
  5
14
330
5
100
AcDbSymbolTableRecord
100
AcDbLinetypeTableRecord
  2
CONTINUOUS
 70
     0
  3
Solid line
 72
    65
 73
     0
 40
0.0
  0
LTYPE
  5
15A
330
5
100
AcDbSymbolTableRecord
100
AcDbLinetypeTableRecord
  2
CENTER
 70
     0
  3
____ _ ____ _ ____ _ ____ _ ____ _ ____ _ ____ 
 72
    65
 73
     4
 40
2.0
 49
1.25
 74
     0
 49
-0.25
 74
     0
 49
0.25
 74
     0
 49
-0.25
 74
     0
  0
ENDTAB
  0
TABLE
  2
LAYER
  5
2
330
0
100
AcDbSymbolTable
 70
     5
  0
LAYER
  5
F
330
2
100
AcDbSymbolTableRecord
100
AcDbLayerTableRecord
  2
0
 70
     0
 62
     7
  6
CONTINUOUS
  0
LAYER
  5
15E
330
2
100
AcDbSymbolTableRecord
100
AcDbLayerTableRecord
  2
ADP1DETAIL
 70
     0
 62
     7
  6
CONTINUOUS
  0
LAYER
  5
15F
330
2
100
AcDbSymbolTableRecord
100
AcDbLayerTableRecord
  2
ADP3DETAIL
 70
     0
 62
     1
  6
CONTINUOUS
  0
LAYER
  5
160
330
2
100
AcDbSymbolTableRecord
100
AcDbLayerTableRecord
  2
DEFPOINTS
 70
     0
 62
     7
  6
CONTINUOUS
  0
LAYER
  5
167
330
2
100
AcDbSymbolTableRecord
100
AcDbLayerTableRecord
  2
ADPDIM
 70
     0
 62
     3
  6
CONTINUOUS
  0
ENDTAB
  0
TABLE
  2
STYLE
  5
3
330
0
100
AcDbSymbolTable
 70
     2
  0
STYLE
  5
10
330
3
100
AcDbSymbolTableRecord
100
AcDbTextStyleTableRecord
  2
STANDARD
 70
     0
 40
0.0
 41
1.0
 50
0.0
 71
     0
 42
0.2
  3
txt
  4

  0
STYLE
  5
1B5
330
3
100
AcDbSymbolTableRecord
100
AcDbTextStyleTableRecord
  2
ARIAL_WIDE
 70
     0
 40
0.0
 41
1.25
 50
0.0
 71
     0
 42
0.2
  3
ARIAL.TTF
  4

1001
ACAD
1000
Arial
1071
       34
  0
ENDTAB
  0
TABLE
  2
VIEW
  5
6
330
0
100
AcDbSymbolTable
 70
     0
  0
ENDTAB
  0
TABLE
  2
UCS
  5
7
330
0
100
AcDbSymbolTable
 70
     0
  0
ENDTAB
  0
TABLE
  2
APPID
  5
9
330
0
100
AcDbSymbolTable
 70
     1
  0
APPID
  5
11
330
9
100
AcDbSymbolTableRecord
100
AcDbRegAppTableRecord
  2
ACAD
 70
     0
  0
ENDTAB
  0
TABLE
  2
DIMSTYLE
  5
A
330
0
100
AcDbSymbolTable
 70
     1
  0
DIMSTYLE
105
1A9
330
A
100
AcDbSymbolTableRecord
100
AcDbDimStyleTableRecord
  2
STANDARD
 70
     0
  3

  4

  5

  6

  7

 40
1.0
 41
0.18
 42
0.0625
 43
0.38
 44
0.18
 45
0.0
 46
0.0
 47
0.0
 48
0.0
140
0.18
141
0.09
142
0.0
143
25.4
144
1.0
145
0.0
146
1.0
147
0.09
 71
     0
 72
     0
 73
     1
 74
     1
 75
     0
 76
     0
 77
     0
 78
     0
170
     0
171
     2
172
     0
173
     0
174
     0
175
     0
176
     0
177
     0
178
     0
270
     2
271
     4
272
     4
273
     2
274
     2
340
10
275
     0
280
     0
281
     0
282
     0
283
     1
284
     0
285
     0
286
     0
287
     3
288
     0
  0
ENDTAB
  0
TABLE
  2
BLOCK_RECORD
  5
1
330
0
100
AcDbSymbolTable
 70
     4
  0
BLOCK_RECORD
  5
18
102
{ACAD_XDICTIONARY
360
20A
102
}
330
1
100
AcDbSymbolTableRecord
100
AcDbBlockTableRecord
  2
*MODEL_SPACE
  0
BLOCK_RECORD
  5
15
102
{ACAD_XDICTIONARY
360
208
102
}
330
1
100
AcDbSymbolTableRecord
100
AcDbBlockTableRecord
  2
*PAPER_SPACE
  0
BLOCK_RECORD
  5
151
330
1
100
AcDbSymbolTableRecord
100
AcDbBlockTableRecord
  2
*D0
  0
BLOCK_RECORD
  5
152
330
1
100
AcDbSymbolTableRecord
100
AcDbBlockTableRecord
  2
*D1
  0
BLOCK_RECORD
  5
153
330
1
100
AcDbSymbolTableRecord
100
AcDbBlockTableRecord
  2
*D2
  0
BLOCK_RECORD
  5
154
330
1
100
AcDbSymbolTableRecord
100
AcDbBlockTableRecord
  2
*D3
  0
ENDTAB
  0
ENDSEC
  0
SECTION
  2
BLOCKS
  0
BLOCK
  5
16A
330
18
100
AcDbEntity
  8
0
100
AcDbBlockBegin
  2
*MODEL_SPACE
 70
     0
 10
0.0
 20
0.0
 30
0.0
  3
*MODEL_SPACE
  1

  0
ENDBLK
  5
16B
330
18
100
AcDbEntity
  8
0
100
AcDbBlockEnd
  0
BLOCK
  5
168
330
15
100
AcDbEntity
 67
     1
  8
0
100
AcDbBlockBegin
  2
*PAPER_SPACE
 70
     0
 10
0.0
 20
0.0
 30
0.0
  3
*PAPER_SPACE
  1

  0
ENDBLK
  5
169
330
15
100
AcDbEntity
 67
     1
  8
0
100
AcDbBlockEnd
  0
BLOCK
  5
16D
330
151
100
AcDbEntity
  8
0
100
AcDbBlockBegin
  2
*D0
 70
     1
 10
0.0
 20
0.0
 30
0.0
  3
*D0
  1

  0
LINE
  5
16E
330
151
100
AcDbEntity
  8
0
  6
BYBLOCK
 62
     0
100
AcDbLine
 10
33.23052685863606
 20
8.587122853012841
 30
0.0
 11
34.64094963811718
 21
8.587122853012841
 31
0.0
  0
LINE
  5
16F
330
151
100
AcDbEntity
  8
0
  6
BYBLOCK
 62
     0
100
AcDbLine
 10
35.1551782658346
 20
10.58748622669437
 30
0.0
 11
34.28094963811718
 21
10.58748622669437
 31
0.0
  0
LINE
  5
170
330
151
100
AcDbEntity
  8
0
  6
BYBLOCK
 62
     0
100
AcDbLine
 10
34.46094963811718
 20
8.587122853012841
 30
0.0
 11
34.46094963811718
 21
9.420637873186942
 31
0.0
  0
LINE
  5
171
330
151
100
AcDbEntity
  8
0
  6
BYBLOCK
 62
     0
100
AcDbLine
 10
34.46094963811718
 20
10.58748622669437
 30
0.0
 11
34.46094963811718
 21
9.753971206520274
 31
0.0
  0
LINE
  5
172
330
151
100
AcDbEntity
  8
0
  6
BYBLOCK
 62
     0
100
AcDbLine
 10
34.58594963811718
 20
8.462122853012841
 30
0.0
 11
34.33594963811718
 21
8.712122853012841
 31
0.0
  0
LINE
  5
173
330
151
100
AcDbEntity
  8
0
  6
BYBLOCK
 62
     0
100
AcDbLine
 10
34.58594963811718
 20
10.46248622669437
 30
0.0
 11
34.33594963811718
 21
10.71248622669437
 31
0.0
  0
TEXT
  5
174
330
151
100
AcDbEntity
  8
0
  6
BYBLOCK
 62
     0
100
AcDbText
 10
34.52344963811718
 20
9.545637873186942
 30
0.0
 40
0.125
  1
2
 50
90.0
 72
     1
 11
34.46094963811718
 21
9.587304539853608
 31
0.0
100
AcDbText
 73
     2
  0
POINT
  5
175
330
151
100
AcDbEntity
  8
DEFPOINTS
  6
BYBLOCK
 62
     0
100
AcDbPoint
 10
33.16802685863606
 20
8.587122853012841
 30
0.0
  0
POINT
  5
176
330
151
100
AcDbEntity
  8
DEFPOINTS
  6
BYBLOCK
 62
     0
100
AcDbPoint
 10
35.2176782658346
 20
10.58748622669437
 30
0.0
  0
POINT
  5
177
330
151
100
AcDbEntity
  8
DEFPOINTS
  6
BYBLOCK
 62
     0
100
AcDbPoint
 10
34.46094963811718
 20
10.58748622669437
 30
0.0
  0
ENDBLK
  5
178
330
151
100
AcDbEntity
  8
0
100
AcDbBlockEnd
  0
BLOCK
  5
179
330
152
100
AcDbEntity
  8
0
100
AcDbBlockBegin
  2
*D1
 70
     1
 10
0.0
 20
0.0
 30
0.0
  3
*D1
  1

  0
LINE
  5
17A
330
152
100
AcDbEntity
  8
0
  6
BYBLOCK
 62
     0
100
AcDbLine
 10
31.26802685863606
 20
8.524622853012841
 30
0.0
 11
31.26802685863606
 21
7.749414649703856
 31
0.0
  0
LINE
  5
17B
330
152
100
AcDbEntity
  8
0
  6
BYBLOCK
 62
     0
100
AcDbLine
 10
33.16802685863606
 20
8.524622853012841
 30
0.0
 11
33.16802685863606
 21
7.749414649703856
 31
0.0
  0
LINE
  5
17C
330
152
100
AcDbEntity
  8
0
  6
BYBLOCK
 62
     0
100
AcDbLine
 10
31.26802685863606
 20
7.929414649703856
 30
0.0
 11
31.88469352530273
 21
7.929414649703856
 31
0.0
  0
LINE
  5
17D
330
152
100
AcDbEntity
  8
0
  6
BYBLOCK
 62
     0
100
AcDbLine
 10
33.16802685863606
 20
7.929414649703856
 30
0.0
 11
32.5513601919694
 21
7.929414649703856
 31
0.0
  0
LINE
  5
17E
330
152
100
AcDbEntity
  8
0
  6
BYBLOCK
 62
     0
100
AcDbLine
 10
31.14302685863606
 20
7.804414649703856
 30
0.0
 11
31.39302685863606
 21
8.054414649703856
 31
0.0
  0
LINE
  5
17F
330
152
100
AcDbEntity
  8
0
  6
BYBLOCK
 62
     0
100
AcDbLine
 10
33.04302685863607
 20
7.804414649703856
 30
0.0
 11
33.29302685863607
 21
8.054414649703856
 31
0.0
  0
TEXT
  5
180
330
152
100
AcDbEntity
  8
0
  6
BYBLOCK
 62
     0
100
AcDbText
 10
32.00969352530273
 20
7.866914649703856
 30
0.0
 40
0.125
  1
1.900
 72
     1
 11
32.21802685863606
 21
7.929414649703856
 31
0.0
100
AcDbText
 73
     2
  0
POINT
  5
181
330
152
100
AcDbEntity
  8
DEFPOINTS
  6
BYBLOCK
 62
     0
100
AcDbPoint
 10
31.26802685863606
 20
8.587122853012841
 30
0.0
  0
POINT
  5
182
330
152
100
AcDbEntity
  8
DEFPOINTS
  6
BYBLOCK
 62
     0
100
AcDbPoint
 10
33.16802685863606
 20
8.587122853012841
 30
0.0
  0
POINT
  5
183
330
152
100
AcDbEntity
  8
DEFPOINTS
  6
BYBLOCK
 62
     0
100
AcDbPoint
 10
33.16802685863606
 20
7.929414649703856
 30
0.0
  0
ENDBLK
  5
184
330
152
100
AcDbEntity
  8
0
100
AcDbBlockEnd
  0
BLOCK
  5
185
330
153
100
AcDbEntity
  8
0
100
AcDbBlockBegin
  2
*D2
 70
     1
 10
0.0
 20
0.0
 30
0.0
  3
*D2
  1

  0
LINE
  5
186
330
153
100
AcDbEntity
  8
0
  6
BYBLOCK
 62
     0
100
AcDbLine
 10
33.14119399735161
 20
12.75201667634206
 30
0.0
 11
35.21767826583461
 21
10.58748622669437
 31
0.0
  0
LINE
  5
187
330
153
100
AcDbEntity
  8
0
  6
BYBLOCK
 62
     0
100
AcDbLine
 10
32.96445538549271
 20
12.75568588309393
 30
0.0
 11
33.31793260921052
 21
12.7483474695902
 31
0.0
  0
TEXT
  5
188
330
153
100
AcDbEntity
  8
0
  6
BYBLOCK
 62
     0
100
AcDbText
 10
35.25911101373544
 20
10.45401496611223
 30
0.0
 40
0.125
  1
R3
 50
313.8106737781024
 72
     1
 11
35.37632522051606
 21
10.42211239296783
 31
0.0
100
AcDbText
 73
     2
  0
POINT
  5
189
330
153
100
AcDbEntity
  8
DEFPOINTS
  6
BYBLOCK
 62
     0
100
AcDbPoint
 10
33.14119399735161
 20
12.75201667634206
 30
0.0
  0
POINT
  5
18A
330
153
100
AcDbEntity
  8
DEFPOINTS
  6
BYBLOCK
 62
     0
100
AcDbPoint
 10
35.21802685863607
 20
10.58712285301284
 30
0.0
  0
ENDBLK
  5
18B
330
153
100
AcDbEntity
  8
0
100
AcDbBlockEnd
  0
BLOCK
  5
18C
330
154
100
AcDbEntity
  8
0
100
AcDbBlockBegin
  2
*D3
 70
     1
 10
0.0
 20
0.0
 30
0.0
  3
*D3
  1

  0
LINE
  5
18D
330
154
100
AcDbEntity
  8
0
  6
BYBLOCK
 62
     0
100
AcDbLine
 10
39.9054653001684
 20
13.64089164796385
 30
0.0
 11
39.9054653001684
 21
13.76894157661009
 31
0.0
  0
LINE
  5
18E
330
154
100
AcDbEntity
  8
0
  6
BYBLOCK
 62
     0
100
AcDbLine
 10
40.0144653001684
 20
13.64089164796385
 30
0.0
 11
40.0144653001684
 21
13.76894157661009
 31
0.0
  0
LINE
  5
18F
330
154
100
AcDbEntity
  8
0
  6
BYBLOCK
 62
     0
100
AcDbLine
 10
39.9054653001684
 20
13.58894157661009
 30
0.0
 11
39.6554653001684
 21
13.58894157661009
 31
0.0
  0
LINE
  5
190
330
154
100
AcDbEntity
  8
0
  6
BYBLOCK
 62
     0
100
AcDbLine
 10
40.0144653001684
 20
13.58894157661009
 30
0.0
 11
40.2644653001684
 21
13.58894157661009
 31
0.0
  0
LINE
  5
191
330
154
100
AcDbEntity
  8
0
  6
BYBLOCK
 62
     0
100
AcDbLine
 10
39.7804653001684
 20
13.46394157661009
 30
0.0
 11
40.0304653001684
 21
13.71394157661009
 31
0.0
  0
LINE
  5
192
330
154
100
AcDbEntity
  8
0
  6
BYBLOCK
 62
     0
100
AcDbLine
 10
39.8894653001684
 20
13.46394157661009
 30
0.0
 11
40.1394653001684
 21
13.71394157661009
 31
0.0
  0
TEXT
  5
193
330
154
100
AcDbEntity
  8
0
  6
BYBLOCK
 62
     0
100
AcDbText
 10
40.3894653001684
 20
13.52644157661009
 30
0.0
 40
0.125
  1
0.109
 72
     1
 11
40.59779863350174
 21
13.58894157661009
 31
0.0
100
AcDbText
 73
     2
  0
POINT
  5
194
330
154
100
AcDbEntity
  8
DEFPOINTS
  6
BYBLOCK
 62
     0
100
AcDbPoint
 10
39.9054653001684
 20
13.57839164796385
 30
0.0
  0
POINT
  5
195
330
154
100
AcDbEntity
  8
DEFPOINTS
  6
BYBLOCK
 62
     0
100
AcDbPoint
 10
40.0144653001684
 20
13.57839164796385
 30
0.0
  0
POINT
  5
196
330
154
100
AcDbEntity
  8
DEFPOINTS
  6
BYBLOCK
 62
     0
100
AcDbPoint
 10
40.0144653001684
 20
13.58894157661009
 30
0.0
  0
ENDBLK
  5
197
330
154
100
AcDbEntity
  8
0
100
AcDbBlockEnd
  0
ENDSEC
  0
SECTION
  2
ENTITIES
  0
ARC
  5
198
330
18
100
AcDbEntity
  8
ADP3DETAIL
  6
CENTER
100
AcDbCircle
 10
35.21802685863606
 20
10.58712285301284
 30
0.0
 40
3.0
100
AcDbArc
 50
90.00121140551682
 51
180.0
  0
LINE
  5
199
330
18
100
AcDbEntity
  8
ADP1DETAIL
  6
CONTINUOUS
100
AcDbLine
 10
37.2171621376692
 20
14.53894118448429
 30
0.0
 11
37.21888992572361
 21
12.63894197007697
 31
0.0
  0
CIRCLE
  5
19A
330
18
100
AcDbEntity
  8
ADP1DETAIL
  6
CONTINUOUS
100
AcDbCircle
 10
39.06788230438817
 20
13.58894157661009
 30
0.0
 40
0.95
  0
CIRCLE
  5
19B
330
18
100
AcDbEntity
  8
ADP1DETAIL
  6
CONTINUOUS
100
AcDbCircle
 10
39.06788230438817
 20
13.58894157661009
 30
0.0
 40
0.841
  0
ARC
  5
19C
330
18
100
AcDbEntity
  8
ADP1DETAIL
  6
CONTINUOUS
100
AcDbCircle
 10
35.21802685863606
 20
10.58712285301284
 30
0.0
 40
3.95
100
AcDbArc
 50
90.00594614939746
 51
180.0
  0
DIMENSION
  5
19D
330
18
100
AcDbEntity
  8
ADPDIM
100
AcDbDimension
  2
*D1
 10
33.16802685863606
 20
7.929414649703856
 30
0.0
 11
32.21802685863606
 21
7.929414649703856
 31
0.0
  1
1.900
100
AcDbAlignedDimension
 13
31.26802685863606
 23
8.587122853012841
 33
0.0
 14
33.16802685863606
 24
8.587122853012841
 34
0.0
100
AcDbRotatedDimension
  0
LINE
  5
19E
330
18
100
AcDbEntity
  8
ADP1DETAIL
  6
CONTINUOUS
100
AcDbLine
 10
33.16802685863606
 20
8.587122853012841
 30
0.0
 11
31.26802685863607
 21
8.587122853012841
 31
0.0
  0
LINE
  5
19F
330
18
100
AcDbEntity
  8
ADP3DETAIL
  6
CENTER
100
AcDbLine
 10
32.21802685863606
 20
8.156238011946484
 30
0.0
 11
32.21802685863606
 21
10.58712285301284
 31
0.0
  0
LINE
  5
1A0
330
18
100
AcDbEntity
  8
ADP1DETAIL
  6
CONTINUOUS
100
AcDbLine
 10
31.26802685863607
 20
8.587122853012841
 30
0.0
 11
31.26802685863607
 21
10.58712285301284
 31
0.0
  0
LINE
  5
1A1
330
18
100
AcDbEntity
  8
ADP3DETAIL
  6
CENTER
100
AcDbLine
 10
35.21716296460887
 20
13.5871228523423
 30
0.0
 11
37.79585245890323
 21
13.58894157661009
 31
0.0
  0
LINE
  5
1A2
330
18
100
AcDbEntity
  8
ADP1DETAIL
  6
CONTINUOUS
100
AcDbLine
 10
37.21888992572361
 20
12.63894197007697
 30
0.0
 11
35.21889075266327
 21
12.63712324580918
 31
0.0
  0
DIMENSION
  5
1A3
330
18
100
AcDbEntity
  8
ADPDIM
100
AcDbDimension
  2
*D0
 10
34.46094963811718
 20
10.58748622669437
 30
0.0
 11
34.46094963811718
 21
9.587304539853608
 31
0.0
100
AcDbAlignedDimension
 13
33.16802685863606
 23
8.587122853012841
 33
0.0
 14
35.2176782658346
 24
10.58748622669437
 34
0.0
 50
90.0
100
AcDbRotatedDimension
  0
DIMENSION
  5
1A4
330
18
100
AcDbEntity
  8
ADPDIM
100
AcDbDimension
  2
*D2
 10
35.21802685863607
 20
10.58712285301284
 30
0.0
 11
35.37632522051606
 21
10.42211239296783
 31
0.0
 70
     4
100
AcDbRadialDimension
 15
33.14119399735161
 25
12.75201667634206
 35
0.0
 40
-2.999496455192002
  0
LINE
  5
1A5
330
18
100
AcDbEntity
  8
ADP1DETAIL
  6
CONTINUOUS
100
AcDbLine
 10
33.16802685863606
 20
10.58712285301284
 30
0.0
 11
33.16802685863606
 21
8.587122853012841
 31
0.0
  0
ARC
  5
1A6
330
18
100
AcDbEntity
  8
ADP1DETAIL
  6
CONTINUOUS
100
AcDbCircle
 10
35.21802685863606
 20
10.58712285301284
 30
0.0
 40
2.05
100
AcDbArc
 50
89.99208836202253
 51
180.0
  0
DIMENSION
  5
1A7
330
18
100
AcDbEntity
  8
ADPDIM
100
AcDbDimension
  2
*D3
 10
40.0144653001684
 20
13.58894157661009
 30
0.0
 11
40.59779863350174
 21
13.58894157661009
 31
0.0
  1
0.109
100
AcDbAlignedDimension
 13
39.9054653001684
 23
13.57839164796385
 33
0.0
 14
40.0144653001684
 24
13.57839164796385
 34
0.0
100
AcDbRotatedDimension
  0
LINE
  5
1A8
330
18
100
AcDbEntity
  8
ADP1DETAIL
  6
CONTINUOUS
100
AcDbLine
 10
35.21716296460887
 20
14.5371224602165
 30
0.0
 11
37.2171621376692
 21
14.53894118448429
 31
0.0
  0
TEXT
  5
1B6
330
18
100
AcDbEntity
  8
ADPDIM
100
AcDbText
 10
26.23228444737685
 20
6.954886395746731
 30
0.0
 40
0.1875
  1
J U L I U S  B L U M  &  C O . ,  I N C .      ( 8 0 0 )  5 2 6 - 6 2 9 3        W W W . J U L I U S B L U M . C O M        P A R T  N o .  7 2 1 0
 41
1.25
  7
ARIAL_WIDE
 72
     1
 11
36.02087798421178
 21
7.142386395746731
 31
0.0
100
AcDbText
 73
     3
  0
ENDSEC
  0
SECTION
  2
OBJECTS
  0
DICTIONARY
  5
C
330
0
100
AcDbDictionary
  3
ACAD_GROUP
350
D
  3
ACAD_LAYOUT
350
1AF
  3
ACAD_MLINESTYLE
350
E
  3
ACAD_PLOTSETTINGS
350
1B0
  3
ACAD_PLOTSTYLENAME
350
1AD
  3
ACDBHEADERROUNDTRIPXREC
350
2FA
  3
ACDBVARIABLEDICTIONARY
350
210
  0
DICTIONARY
  5
20A
330
18
100
AcDbDictionary
280
     1
  3
ACAD_LAYOUTSELFREF
360
31B
  0
DICTIONARY
  5
208
330
15
100
AcDbDictionary
280
     1
  3
ACAD_LAYOUTSELFREF
360
31A
  0
DICTIONARY
  5
D
102
{ACAD_REACTORS
330
C
102
}
330
C
100
AcDbDictionary
  0
DICTIONARY
  5
1AF
102
{ACAD_REACTORS
330
C
102
}
330
C
100
AcDbDictionary
  0
DICTIONARY
  5
E
102
{ACAD_REACTORS
330
C
102
}
330
C
100
AcDbDictionary
  3
STANDARD
350
1B
  0
DICTIONARY
  5
1B0
102
{ACAD_REACTORS
330
C
102
}
330
C
100
AcDbDictionary
  0
ACDBDICTIONARYWDFLT
  5
1AD
102
{ACAD_REACTORS
330
C
102
}
330
C
100
AcDbDictionary
281
     1
  3
Normal
350
1AE
100
AcDbDictionaryWithDefault
340
1AE
  0
DICTIONARY
  5
2FA
102
{ACAD_REACTORS
330
C
102
}
330
C
100
AcDbDictionary
  3
CEPSNTYPE
350
304
  3
FINGERPRINTGUID
350
305
  3
HYPERLINKBASE
350
2FD
  3
INSUNITS
350
303
  3
LAYOUTDICT
350
2FF
  3
LWETCUNION
350
302
  3
PLOTSETDICT
350
300
  3
PLOTSTYLNAMDICT
350
301
  3
PSVPSCALE
350
307
  3
PUCSBASE
350
30A
  3
PUCSORGBACK
350
310
  3
PUCSORGBOTTOM
350
30C
  3
PUCSORGFRONT
350
30F
  3
PUCSORGLEFT
350
30D
  3
PUCSORGRIGHT
350
30E
  3
PUCSORGTOP
350
30B
  3
PUCSORTHOREF
350
308
  3
PUCSORTHOVIEW
350
309
  3
STYLESHEET
350
2FE
  3
TSTACKALIGN
350
2FB
  3
TSTACKSIZE
350
2FC
  3
UCSBASE
350
313
  3
UCSORGBACK
350
319
  3
UCSORGBOTTOM
350
315
  3
UCSORGFRONT
350
318
  3
UCSORGLEFT
350
316
  3
UCSORGRIGHT
350
317
  3
UCSORGTOP
350
314
  3
UCSORTHOREF
350
311
  3
UCSORTHOVIEW
350
312
  3
VERSIONGUID
350
306
  0
DICTIONARY
  5
210
102
{ACAD_REACTORS
330
C
102
}
330
C
100
AcDbDictionary
  3
DIMASSOC
350
211
  0
XRECORD
  5
31B
102
{ACAD_REACTORS
330
20A
102
}
330
20A
100
AcDbXrecord
340
18
  0
XRECORD
  5
31A
102
{ACAD_REACTORS
330
208
102
}
330
208
100
AcDbXrecord
340
15
  0
MLINESTYLE
  5
1B
102
{ACAD_REACTORS
330
E
102
}
330
E
100
AcDbMlineStyle
  2
STANDARD
 70
     0
  3

 62
     0
 51
90.0
 52
90.0
 71
     2
 49
0.5
 62
   256
  6
BYLAYER
 49
-0.5
 62
   256
  6
BYLAYER
  0
ACDBPLACEHOLDER
  5
1AE
102
{ACAD_REACTORS
330
1AD
102
}
330
1AD
100
AcDbPlaceHolder
280
     0
  0
XRECORD
  5
304
102
{ACAD_REACTORS
330
2FA
102
}
330
2FA
100
AcDbXrecord
 90
        0
  0
XRECORD
  5
305
102
{ACAD_REACTORS
330
2FA
102
}
330
2FA
100
AcDbXrecord
  1
{2C6AF5BD-088E-4CCC-948E-ECF6828DE4D1}
  0
XRECORD
  5
2FD
102
{ACAD_REACTORS
330
2FA
102
}
330
2FA
100
AcDbXrecord
  1

  0
XRECORD
  5
303
102
{ACAD_REACTORS
330
2FA
102
}
330
2FA
100
AcDbXrecord
 90
        0
  0
XRECORD
  5
2FF
102
{ACAD_REACTORS
330
2FA
102
}
330
2FA
100
AcDbXrecord
340
1AF
  0
XRECORD
  5
302
102
{ACAD_REACTORS
330
2FA
102
}
330
2FA
100
AcDbXrecord
 90
    14877
  0
XRECORD
  5
300
102
{ACAD_REACTORS
330
2FA
102
}
330
2FA
100
AcDbXrecord
340
1B0
  0
XRECORD
  5
301
102
{ACAD_REACTORS
330
2FA
102
}
330
2FA
100
AcDbXrecord
340
1AD
  0
XRECORD
  5
307
102
{ACAD_REACTORS
330
2FA
102
}
330
2FA
100
AcDbXrecord
 40
0.0
  0
XRECORD
  5
30A
102
{ACAD_REACTORS
330
2FA
102
}
330
2FA
100
AcDbXrecord
340
0
  0
XRECORD
  5
310
102
{ACAD_REACTORS
330
2FA
102
}
330
2FA
100
AcDbXrecord
 10
0.0
 20
0.0
 30
0.0
  0
XRECORD
  5
30C
102
{ACAD_REACTORS
330
2FA
102
}
330
2FA
100
AcDbXrecord
 10
0.0
 20
0.0
 30
0.0
  0
XRECORD
  5
30F
102
{ACAD_REACTORS
330
2FA
102
}
330
2FA
100
AcDbXrecord
 10
0.0
 20
0.0
 30
0.0
  0
XRECORD
  5
30D
102
{ACAD_REACTORS
330
2FA
102
}
330
2FA
100
AcDbXrecord
 10
0.0
 20
0.0
 30
0.0
  0
XRECORD
  5
30E
102
{ACAD_REACTORS
330
2FA
102
}
330
2FA
100
AcDbXrecord
 10
0.0
 20
0.0
 30
0.0
  0
XRECORD
  5
30B
102
{ACAD_REACTORS
330
2FA
102
}
330
2FA
100
AcDbXrecord
 10
0.0
 20
0.0
 30
0.0
  0
XRECORD
  5
308
102
{ACAD_REACTORS
330
2FA
102
}
330
2FA
100
AcDbXrecord
340
0
  0
XRECORD
  5
309
102
{ACAD_REACTORS
330
2FA
102
}
330
2FA
100
AcDbXrecord
 70
     0
  0
XRECORD
  5
2FE
102
{ACAD_REACTORS
330
2FA
102
}
330
2FA
100
AcDbXrecord
  1

  0
XRECORD
  5
2FB
102
{ACAD_REACTORS
330
2FA
102
}
330
2FA
100
AcDbXrecord
 90
        1
  0
XRECORD
  5
2FC
102
{ACAD_REACTORS
330
2FA
102
}
330
2FA
100
AcDbXrecord
 90
       70
  0
XRECORD
  5
313
102
{ACAD_REACTORS
330
2FA
102
}
330
2FA
100
AcDbXrecord
340
0
  0
XRECORD
  5
319
102
{ACAD_REACTORS
330
2FA
102
}
330
2FA
100
AcDbXrecord
 10
0.0
 20
0.0
 30
0.0
  0
XRECORD
  5
315
102
{ACAD_REACTORS
330
2FA
102
}
330
2FA
100
AcDbXrecord
 10
0.0
 20
0.0
 30
0.0
  0
XRECORD
  5
318
102
{ACAD_REACTORS
330
2FA
102
}
330
2FA
100
AcDbXrecord
 10
0.0
 20
0.0
 30
0.0
  0
XRECORD
  5
316
102
{ACAD_REACTORS
330
2FA
102
}
330
2FA
100
AcDbXrecord
 10
0.0
 20
0.0
 30
0.0
  0
XRECORD
  5
317
102
{ACAD_REACTORS
330
2FA
102
}
330
2FA
100
AcDbXrecord
 10
0.0
 20
0.0
 30
0.0
  0
XRECORD
  5
314
102
{ACAD_REACTORS
330
2FA
102
}
330
2FA
100
AcDbXrecord
 10
0.0
 20
0.0
 30
0.0
  0
XRECORD
  5
311
102
{ACAD_REACTORS
330
2FA
102
}
330
2FA
100
AcDbXrecord
340
0
  0
XRECORD
  5
312
102
{ACAD_REACTORS
330
2FA
102
}
330
2FA
100
AcDbXrecord
 70
     0
  0
XRECORD
  5
306
102
{ACAD_REACTORS
330
2FA
102
}
330
2FA
100
AcDbXrecord
  1
{93799E83-9A8E-407D-ABB6-542C804EBEC1}
  0
DICTIONARYVAR
  5
211
102
{ACAD_REACTORS
330
210
102
}
330
210
100
DictionaryVariables
280
     0
  1
1
  0
ENDSEC
  0
EOF
