  0
SECTION
  2
HEADER
  9
$ACADVER
  1
AC1014
  9
$ACADMAINTVER
 70
     9
  9
$DWGCODEPAGE
  3
ANSI_1252
  9
$INSBASE
 10
-45.72057830173803
 20
-10.53224424896838
 30
0.0
  9
$EXTMIN
 10
-57.11937986828866
 20
-13.88753291813607
 30
0.0
  9
$EXTMAX
 10
-37.54219279461881
 20
-7.846574014006147
 30
0.0
  9
$LIMMIN
 10
0.0
 20
0.0
  9
$LIMMAX
 10
36.0
 20
36.0
  9
$ORTHOMODE
 70
     1
  9
$REGENMODE
 70
     1
  9
$FILLMODE
 70
     1
  9
$QTEXTMODE
 70
     0
  9
$MIRRTEXT
 70
     1
  9
$DRAGMODE
 70
     0
  9
$LTSCALE
 40
1.0
  9
$OSMODE
 70
    37
  9
$ATTMODE
 70
     1
  9
$TEXTSIZE
 40
0.2
  9
$TRACEWID
 40
0.05
  9
$TEXTSTYLE
  7
STANDARD
  9
$CLAYER
  8
0
  9
$CELTYPE
  6
BYLAYER
  9
$CECOLOR
 62
   256
  9
$CELTSCALE
 40
1.0
  9
$DELOBJ
 70
     1
  9
$DISPSILH
 70
     0
  9
$DIMSCALE
 40
1.0
  9
$DIMASZ
 40
0.125
  9
$DIMEXO
 40
0.0625
  9
$DIMDLI
 40
0.38
  9
$DIMRND
 40
0.0
  9
$DIMDLE
 40
0.0
  9
$DIMEXE
 40
0.18
  9
$DIMTP
 40
0.0
  9
$DIMTM
 40
0.0
  9
$DIMTXT
 40
0.125
  9
$DIMCEN
 40
0.1875
  9
$DIMTSZ
 40
0.125
  9
$DIMTOL
 70
     0
  9
$DIMLIM
 70
     0
  9
$DIMTIH
 70
     0
  9
$DIMTOH
 70
     0
  9
$DIMSE1
 70
     0
  9
$DIMSE2
 70
     0
  9
$DIMTAD
 70
     0
  9
$DIMZIN
 70
     3
  9
$DIMBLK
  1

  9
$DIMASO
 70
     1
  9
$DIMSHO
 70
     1
  9
$DIMPOST
  1

  9
$DIMAPOST
  1

  9
$DIMALT
 70
     0
  9
$DIMALTD
 70
     1
  9
$DIMALTF
 40
25.4
  9
$DIMLFAC
 40
1.0
  9
$DIMTOFL
 70
     0
  9
$DIMTVP
 40
0.0
  9
$DIMTIX
 70
     0
  9
$DIMSOXD
 70
     0
  9
$DIMSAH
 70
     0
  9
$DIMBLK1
  1

  9
$DIMBLK2
  1

  9
$DIMSTYLE
  2
STANDARD
  9
$DIMCLRD
 70
     0
  9
$DIMCLRE
 70
     0
  9
$DIMCLRT
 70
     0
  9
$DIMTFAC
 40
1.0
  9
$DIMGAP
 40
0.125
  9
$DIMJUST
 70
     0
  9
$DIMSD1
 70
     0
  9
$DIMSD2
 70
     0
  9
$DIMTOLJ
 70
     1
  9
$DIMTZIN
 70
     0
  9
$DIMALTZ
 70
     0
  9
$DIMALTTZ
 70
     0
  9
$DIMFIT
 70
     3
  9
$DIMUPT
 70
     0
  9
$DIMUNIT
 70
     2
  9
$DIMDEC
 70
     4
  9
$DIMTDEC
 70
     4
  9
$DIMALTU
 70
     2
  9
$DIMALTTD
 70
     2
  9
$DIMTXSTY
  7
STANDARD
  9
$DIMAUNIT
 70
     0
  9
$LUNITS
 70
     5
  9
$LUPREC
 70
     4
  9
$SKETCHINC
 40
0.1
  9
$FILLETRAD
 40
0.062
  9
$AUNITS
 70
     0
  9
$AUPREC
 70
     0
  9
$MENU
  1
acad
  9
$ELEVATION
 40
0.0
  9
$PELEVATION
 40
0.0
  9
$THICKNESS
 40
0.0
  9
$LIMCHECK
 70
     0
  9
$BLIPMODE
 70
     0
  9
$CHAMFERA
 40
0.0
  9
$CHAMFERB
 40
0.0
  9
$CHAMFERC
 40
0.0
  9
$CHAMFERD
 40
0.0
  9
$SKPOLY
 70
     0
  9
$TDCREATE
 40
2450387.523825034
  9
$TDUPDATE
 40
2452297.099790219
  9
$TDINDWG
 40
0.0266226273
  9
$TDUSRTIMER
 40
0.0266226273
  9
$USRTIMER
 70
     1
  9
$ANGBASE
 50
0.0
  9
$ANGDIR
 70
     0
  9
$PDMODE
 70
     0
  9
$PDSIZE
 40
0.0
  9
$PLINEWID
 40
0.0
  9
$COORDS
 70
     2
  9
$SPLFRAME
 70
     0
  9
$SPLINETYPE
 70
     6
  9
$SPLINESEGS
 70
     8
  9
$ATTDIA
 70
     0
  9
$ATTREQ
 70
     1
  9
$HANDLING
 70
 22529
  9
$HANDSEED
  5
462
  9
$SURFTAB1
 70
     6
  9
$SURFTAB2
 70
     6
  9
$SURFTYPE
 70
     6
  9
$SURFU
 70
     6
  9
$SURFV
 70
     6
  9
$UCSNAME
  2

  9
$UCSORG
 10
0.0
 20
0.0
 30
0.0
  9
$UCSXDIR
 10
1.0
 20
0.0
 30
0.0
  9
$UCSYDIR
 10
0.0
 20
1.0
 30
0.0
  9
$PUCSNAME
  2

  9
$PUCSORG
 10
0.0
 20
0.0
 30
0.0
  9
$PUCSXDIR
 10
1.0
 20
0.0
 30
0.0
  9
$PUCSYDIR
 10
0.0
 20
1.0
 30
0.0
  9
$USERI1
 70
     0
  9
$USERI2
 70
     0
  9
$USERI3
 70
     0
  9
$USERI4
 70
     0
  9
$USERI5
 70
     0
  9
$USERR1
 40
0.0
  9
$USERR2
 40
0.0
  9
$USERR3
 40
0.0
  9
$USERR4
 40
0.0
  9
$USERR5
 40
0.0
  9
$WORLDVIEW
 70
     1
  9
$SHADEDGE
 70
     3
  9
$SHADEDIF
 70
    70
  9
$TILEMODE
 70
     1
  9
$MAXACTVP
 70
    15
  9
$PINSBASE
 10
0.0
 20
0.0
 30
0.0
  9
$PLIMCHECK
 70
     0
  9
$PEXTMIN
 10
1.000000000000000E+20
 20
1.000000000000000E+20
 30
1.000000000000000E+20
  9
$PEXTMAX
 10
-1.000000000000000E+20
 20
-1.000000000000000E+20
 30
-1.000000000000000E+20
  9
$PLIMMIN
 10
0.0
 20
0.0
  9
$PLIMMAX
 10
12.0
 20
9.0
  9
$UNITMODE
 70
     0
  9
$VISRETAIN
 70
     0
  9
$PLINEGEN
 70
     0
  9
$PSLTSCALE
 70
     1
  9
$TREEDEPTH
 70
  3020
  9
$PICKSTYLE
 70
     1
  9
$CMLSTYLE
  2
STANDARD
  9
$CMLJUST
 70
     0
  9
$CMLSCALE
 40
1.0
  9
$PROXYGRAPHICS
 70
     1
  9
$MEASUREMENT
 70
     0
  0
ENDSEC
  0
SECTION
  2
CLASSES
  0
CLASS
  1
ACDBDICTIONARYWDFLT
  2
AcDbDictionaryWithDefault
  3
AutoCAD 2000
 90
        0
280
     0
281
     0
  0
CLASS
  1
ACDBPLACEHOLDER
  2
AcDbPlaceHolder
  3
AutoCAD 2000
 90
        0
280
     0
281
     0
  0
CLASS
  1
LAYOUT
  2
AcDbLayout
  3
AutoCAD 2000
 90
        0
280
     0
281
     0
  0
CLASS
  1
DICTIONARYVAR
  2
AcDbDictionaryVar
  3
AutoCAD 2000
 90
        0
280
     0
281
     0
  0
CLASS
  1
LONG_TRANSACTION
  2
AcDbLongTransaction
  3
AutoCAD 2000
 90
        0
280
     0
281
     0
  0
CLASS
  1
LWPOLYLINE
  2
AcDbPolyline
  3
AutoCAD 2000
 90
        0
280
     0
281
     1
  0
CLASS
  1
HATCH
  2
AcDbHatch
  3
AutoCAD 2000
 90
        0
280
     0
281
     1
  0
CLASS
  1
XRECORD
  2
AcDbXrecord
  3
AutoCAD 2000
 90
        0
280
     0
281
     0
  0
CLASS
  1
LONG_TRANSACTION
  2
AcDbLongTransaction
  3
AutoCAD 2000
 90
        0
280
     0
281
     0
  0
CLASS
  1
LWPOLYLINE
  2
AcDbPolyline
  3
AutoCAD 2000
 90
        0
280
     0
281
     1
  0
CLASS
  1
HATCH
  2
AcDbHatch
  3
AutoCAD 2000
 90
        0
280
     0
281
     1
  0
CLASS
  1
XRECORD
  2
AcDbXrecord
  3
AutoCAD 2000
 90
        0
280
     0
281
     0
  0
CLASS
  1
LONG_TRANSACTION
  2
AcDbLongTransaction
  3
AutoCAD 2000
 90
        0
280
     0
281
     0
  0
CLASS
  1
LWPOLYLINE
  2
AcDbPolyline
  3
AutoCAD 2000
 90
        0
280
     0
281
     1
  0
CLASS
  1
HATCH
  2
AcDbHatch
  3
AutoCAD 2000
 90
        0
280
     0
281
     1
  0
CLASS
  1
XRECORD
  2
AcDbXrecord
  3
AutoCAD 2000
 90
        0
280
     0
281
     0
  0
CLASS
  1
LONG_TRANSACTION
  2
AcDbLongTransaction
  3
AutoCAD 2000
 90
        0
280
     0
281
     0
  0
CLASS
  1
LWPOLYLINE
  2
AcDbPolyline
  3
AutoCAD 2000
 90
        0
280
     0
281
     1
  0
CLASS
  1
HATCH
  2
AcDbHatch
  3
AutoCAD 2000
 90
        0
280
     0
281
     1
  0
CLASS
  1
XRECORD
  2
AcDbXrecord
  3
AutoCAD 2000
 90
        0
280
     0
281
     0
  0
CLASS
  1
LONG_TRANSACTION
  2
AcDbLongTransaction
  3
AutoCAD 2000
 90
        0
280
     0
281
     0
  0
CLASS
  1
LWPOLYLINE
  2
AcDbPolyline
  3
AutoCAD 2000
 90
        0
280
     0
281
     1
  0
CLASS
  1
HATCH
  2
AcDbHatch
  3
AutoCAD 2000
 90
        0
280
     0
281
     1
  0
CLASS
  1
XRECORD
  2
AcDbXrecord
  3
AutoCAD 2000
 90
        0
280
     0
281
     0
  0
ENDSEC
  0
SECTION
  2
TABLES
  0
TABLE
  2
VPORT
  5
8
330
0
100
AcDbSymbolTable
 70
     2
  0
VPORT
  5
43F
330
8
100
AcDbSymbolTableRecord
100
AcDbViewportTableRecord
  2
*ACTIVE
 70
     0
 10
0.0
 20
0.0
 11
1.0
 21
1.0
 12
-47.31462030748667
 22
-10.86717026683324
 13
0.0
 23
0.0
 14
0.5740882589684922
 24
0.5740882589684922
 15
0.5
 25
0.5
 16
0.0
 26
0.0
 36
1.0
 17
0.0
 27
0.0
 37
0.0
 40
12.54795974680041
 41
1.570528967254408
 42
50.0
 43
0.0
 44
0.0
 50
0.0
 51
0.0
 71
     0
 72
   100
 73
     1
 74
     0
 75
     0
 76
     0
 77
     0
 78
     0
  0
ENDTAB
  0
TABLE
  2
LTYPE
  5
5
330
0
100
AcDbSymbolTable
 70
     2
  0
LTYPE
  5
12
330
5
100
AcDbSymbolTableRecord
100
AcDbLinetypeTableRecord
  2
BYBLOCK
 70
     0
  3

 72
    65
 73
     0
 40
0.0
  0
LTYPE
  5
13
330
5
100
AcDbSymbolTableRecord
100
AcDbLinetypeTableRecord
  2
BYLAYER
 70
     0
  3

 72
    65
 73
     0
 40
0.0
  0
LTYPE
  5
14
330
5
100
AcDbSymbolTableRecord
100
AcDbLinetypeTableRecord
  2
CONTINUOUS
 70
     0
  3
Solid line
 72
    65
 73
     0
 40
0.0
  0
LTYPE
  5
297
330
5
100
AcDbSymbolTableRecord
100
AcDbLinetypeTableRecord
  2
CENTER2
 70
     0
  3
___ _ ___ _ ___ _ ___ _ ___ _ ___ _ ___ _ ___ _
 72
    65
 73
     4
 40
1.125
 49
0.75
 74
     0
 49
-0.125
 74
     0
 49
0.125
 74
     0
 49
-0.125
 74
     0
  0
ENDTAB
  0
TABLE
  2
LAYER
  5
2
330
0
100
AcDbSymbolTable
 70
     5
  0
LAYER
  5
F
330
2
100
AcDbSymbolTableRecord
100
AcDbLayerTableRecord
  2
0
 70
     0
 62
     7
  6
CONTINUOUS
  0
LAYER
  5
298
330
2
100
AcDbSymbolTableRecord
100
AcDbLayerTableRecord
  2
ADP1DETAIL
 70
     0
 62
     7
  6
CONTINUOUS
  0
LAYER
  5
299
330
2
100
AcDbSymbolTableRecord
100
AcDbLayerTableRecord
  2
DEFPOINTS
 70
     0
 62
     7
  6
CONTINUOUS
  0
LAYER
  5
29D
330
2
100
AcDbSymbolTableRecord
100
AcDbLayerTableRecord
  2
ADP3DETAIL
 70
     0
 62
     1
  6
CONTINUOUS
  0
LAYER
  5
2A0
330
2
100
AcDbSymbolTableRecord
100
AcDbLayerTableRecord
  2
ADPDIM
 70
     0
 62
     3
  6
CONTINUOUS
  0
ENDTAB
  0
TABLE
  2
STYLE
  5
3
330
0
100
AcDbSymbolTable
 70
     2
  0
STYLE
  5
10
330
3
100
AcDbSymbolTableRecord
100
AcDbTextStyleTableRecord
  2
STANDARD
 70
     0
 40
0.0
 41
1.0
 50
0.0
 71
     0
 42
0.2
  3
txt
  4

  0
STYLE
  5
2FB
330
3
100
AcDbSymbolTableRecord
100
AcDbTextStyleTableRecord
  2
ARIAL_WIDE
 70
     0
 40
0.0
 41
1.25
 50
0.0
 71
     0
 42
0.2
  3
ARIAL.TTF
  4

1001
ACAD
1000
Arial
1071
       34
  0
ENDTAB
  0
TABLE
  2
VIEW
  5
6
330
0
100
AcDbSymbolTable
 70
     0
  0
ENDTAB
  0
TABLE
  2
UCS
  5
7
330
0
100
AcDbSymbolTable
 70
     0
  0
ENDTAB
  0
TABLE
  2
APPID
  5
9
330
0
100
AcDbSymbolTable
 70
     1
  0
APPID
  5
11
330
9
100
AcDbSymbolTableRecord
100
AcDbRegAppTableRecord
  2
ACAD
 70
     0
  0
ENDTAB
  0
TABLE
  2
DIMSTYLE
  5
A
330
0
100
AcDbSymbolTable
 70
     1
  0
DIMSTYLE
105
2EF
330
A
100
AcDbSymbolTableRecord
100
AcDbDimStyleTableRecord
  2
STANDARD
 70
     0
  3

  4

  5

  6

  7

 40
1.0
 41
0.18
 42
0.0625
 43
0.38
 44
0.18
 45
0.0
 46
0.0
 47
0.0
 48
0.0
140
0.18
141
0.09
142
0.0
143
25.4
144
1.0
145
0.0
146
1.0
147
0.09
 71
     0
 72
     0
 73
     1
 74
     1
 75
     0
 76
     0
 77
     0
 78
     0
170
     0
171
     2
172
     0
173
     0
174
     0
175
     0
176
     0
177
     0
178
     0
270
     2
271
     4
272
     4
273
     2
274
     2
340
10
275
     0
280
     0
281
     0
282
     0
283
     1
284
     0
285
     0
286
     0
287
     3
288
     0
  0
ENDTAB
  0
TABLE
  2
BLOCK_RECORD
  5
1
330
0
100
AcDbSymbolTable
 70
     5
  0
BLOCK_RECORD
  5
18
102
{ACAD_XDICTIONARY
360
350
102
}
330
1
100
AcDbSymbolTableRecord
100
AcDbBlockTableRecord
  2
*MODEL_SPACE
  0
BLOCK_RECORD
  5
15
102
{ACAD_XDICTIONARY
360
34E
102
}
330
1
100
AcDbSymbolTableRecord
100
AcDbBlockTableRecord
  2
*PAPER_SPACE
  0
BLOCK_RECORD
  5
24A
330
1
100
AcDbSymbolTableRecord
100
AcDbBlockTableRecord
  2
*D0
  0
BLOCK_RECORD
  5
291
330
1
100
AcDbSymbolTableRecord
100
AcDbBlockTableRecord
  2
*D1
  0
BLOCK_RECORD
  5
292
330
1
100
AcDbSymbolTableRecord
100
AcDbBlockTableRecord
  2
*D2
  0
BLOCK_RECORD
  5
293
330
1
100
AcDbSymbolTableRecord
100
AcDbBlockTableRecord
  2
*D3
  0
BLOCK_RECORD
  5
295
330
1
100
AcDbSymbolTableRecord
100
AcDbBlockTableRecord
  2
*D4
  0
ENDTAB
  0
ENDSEC
  0
SECTION
  2
BLOCKS
  0
BLOCK
  5
2A3
330
18
100
AcDbEntity
  8
0
100
AcDbBlockBegin
  2
*MODEL_SPACE
 70
     0
 10
0.0
 20
0.0
 30
0.0
  3
*MODEL_SPACE
  1

  0
ENDBLK
  5
2A4
330
18
100
AcDbEntity
  8
0
100
AcDbBlockEnd
  0
BLOCK
  5
2A1
330
15
100
AcDbEntity
 67
     1
  8
0
100
AcDbBlockBegin
  2
*PAPER_SPACE
 70
     0
 10
0.0
 20
0.0
 30
0.0
  3
*PAPER_SPACE
  1

  0
ENDBLK
  5
2A2
330
15
100
AcDbEntity
 67
     1
  8
0
100
AcDbBlockEnd
  0
BLOCK
  5
2A6
330
24A
100
AcDbEntity
  8
0
100
AcDbBlockBegin
  2
*D0
 70
     1
 10
0.0
 20
0.0
 30
0.0
  3
*D0
  1

  0
LINE
  5
2A7
330
24A
100
AcDbEntity
  8
0
  6
BYBLOCK
 62
     0
100
AcDbLine
 10
-41.19086925439021
 20
-8.747329769108704
 30
0.0
 11
-41.30836921109673
 21
-8.747430635197206
 31
0.0
  0
LINE
  5
2A8
330
24A
100
AcDbEntity
  8
0
  6
BYBLOCK
 62
     0
100
AcDbLine
 10
-41.06596286983985
 20
-8.638222504920856
 30
0.0
 11
-40.94846291313334
 21
-8.638121638832354
 31
0.0
  0
LINE
  5
2A9
330
24A
100
AcDbEntity
  8
0
  6
BYBLOCK
 62
     0
100
AcDbLine
 10
-41.12836927741867
 20
-8.747276116933971
 30
0.0
 11
-41.12815466871973
 21
-8.997276024820166
 31
0.0
  0
LINE
  5
2AA
330
24A
100
AcDbEntity
  8
0
  6
BYBLOCK
 62
     0
100
AcDbLine
 10
-41.12846284681141
 20
-8.638276157095591
 30
0.0
 11
-41.12867745551034
 21
-8.388276249209395
 31
0.0
  0
LINE
  5
2AB
330
24A
100
AcDbEntity
  8
0
  6
BYBLOCK
 62
     0
100
AcDbLine
 10
-41.25347653571123
 20
-8.622383467340341
 30
0.0
 11
-41.0032620191261
 21
-8.872168766527599
 31
0.0
  0
LINE
  5
2AC
330
24A
100
AcDbEntity
  8
0
  6
BYBLOCK
 62
     0
100
AcDbLine
 10
-41.25357010510398
 20
-8.513383507501963
 30
0.0
 11
-41.00335558851884
 21
-8.763168806689218
 31
0.0
  0
TEXT
  5
2AD
330
24A
100
AcDbEntity
  8
0
  6
BYBLOCK
 62
     0
100
AcDbText
 10
-41.19164241799627
 20
-7.846663434297372
 30
0.0
 40
0.125
  1
0.109
 50
270.0491846968248
 72
     1
 11
-41.12896360044227
 21
-8.054943038694467
 31
0.0
100
AcDbText
 73
     2
  0
POINT
  5
2AE
330
24A
100
AcDbEntity
  8
DEFPOINTS
  6
BYBLOCK
 62
     0
100
AcDbPoint
 10
-41.12836927741866
 20
-8.747276116933971
 30
0.0
  0
POINT
  5
2AF
330
24A
100
AcDbEntity
  8
DEFPOINTS
  6
BYBLOCK
 62
     0
100
AcDbPoint
 10
-41.12846284681141
 20
-8.638276157095591
 30
0.0
  0
POINT
  5
2B0
330
24A
100
AcDbEntity
  8
DEFPOINTS
  6
BYBLOCK
 62
     0
100
AcDbPoint
 10
-41.12846284681141
 20
-8.638276157095591
 30
0.0
  0
ENDBLK
  5
2B1
330
24A
100
AcDbEntity
  8
0
100
AcDbBlockEnd
  0
BLOCK
  5
2B2
330
291
100
AcDbEntity
  8
0
100
AcDbBlockBegin
  2
*D1
 70
     1
 10
0.0
 20
0.0
 30
0.0
  3
*D1
  1

  0
LINE
  5
2B3
330
291
100
AcDbEntity
  8
0
  6
BYBLOCK
 62
     0
100
AcDbLine
 10
-55.37473719748194
 20
-10.98382849574585
 30
0.0
 11
-56.15914207326946
 21
-9.568724640357416
 31
0.0
  0
LINE
  5
2B4
330
291
100
AcDbEntity
  8
0
  6
BYBLOCK
 62
     0
100
AcDbLine
 10
-52.75087807606376
 20
-9.529399635006843
 30
0.0
 11
-53.53528295185128
 21
-8.114295779618409
 31
0.0
  0
LINE
  5
2B5
330
291
100
AcDbEntity
  8
0
  6
BYBLOCK
 62
     0
100
AcDbLine
 10
-56.07187634162512
 20
-9.726156187642507
 30
0.0
 11
-54.90571673210593
 21
-9.079743360647393
 31
0.0
  0
LINE
  5
2B6
330
291
100
AcDbEntity
  8
0
  6
BYBLOCK
 62
     0
100
AcDbLine
 10
-53.44801722020694
 20
-8.2717273269035
 30
0.0
 11
-54.61417682972613
 21
-8.918140153898617
 31
0.0
  0
LINE
  5
2B7
330
291
100
AcDbEntity
  8
0
  6
BYBLOCK
 62
     0
100
AcDbLine
 10
-56.12060260248675
 20
-9.896084853565724
 30
0.0
 11
-56.02315008076349
 21
-9.556227521719291
 31
0.0
  0
LINE
  5
2B8
330
291
100
AcDbEntity
  8
0
  6
BYBLOCK
 62
     0
100
AcDbLine
 10
-53.49674348106857
 20
-8.441655992826717
 30
0.0
 11
-53.39929095934531
 21
-8.101798660980284
 31
0.0
  0
TEXT
  5
2B9
330
291
100
AcDbEntity
  8
0
  6
BYBLOCK
 62
     0
100
AcDbText
 10
-54.76608866744811
 20
-9.073805889812815
 30
0.0
 40
0.125
  1
3
 50
28.99999999999998
 72
     1
 11
-54.75994678091603
 21
-8.998941757273005
 31
0.0
100
AcDbText
 73
     2
  0
POINT
  5
2BA
330
291
100
AcDbEntity
  8
DEFPOINTS
  6
BYBLOCK
 62
     0
100
AcDbPoint
 10
-55.34443659621654
 20
-11.03849222744206
 30
0.0
  0
POINT
  5
2BB
330
291
100
AcDbEntity
  8
DEFPOINTS
  6
BYBLOCK
 62
     0
100
AcDbPoint
 10
-52.72057747479837
 20
-9.584063366703055
 30
0.0
  0
POINT
  5
2BC
330
291
100
AcDbEntity
  8
DEFPOINTS
  6
BYBLOCK
 62
     0
100
AcDbPoint
 10
-53.44801722020694
 20
-8.2717273269035
 30
0.0
  0
ENDBLK
  5
2BD
330
291
100
AcDbEntity
  8
0
100
AcDbBlockEnd
  0
BLOCK
  5
2BE
330
292
100
AcDbEntity
  8
0
100
AcDbBlockBegin
  2
*D2
 70
     1
 10
0.0
 20
0.0
 30
0.0
  3
*D2
  1

  0
LINE
  5
2BF
330
292
100
AcDbEntity
  8
0
  6
BYBLOCK
 62
     0
100
AcDbLine
 10
-45.72057830173803
 20
-8.569745034561062
 30
0.0
 11
-45.72057830173803
 21
-7.97575156833459
 31
0.0
  0
LINE
  5
2C0
330
292
100
AcDbEntity
  8
0
  6
BYBLOCK
 62
     0
100
AcDbLine
 10
-52.71991966339751
 20
-9.174693063800647
 30
0.0
 11
-52.71991966339751
 21
-7.97575156833459
 31
0.0
  0
LINE
  5
2C1
330
292
100
AcDbEntity
  8
0
  6
BYBLOCK
 62
     0
100
AcDbLine
 10
-45.72057830173803
 20
-8.15575156833459
 30
0.0
 11
-49.0535823159011
 21
-8.15575156833459
 31
0.0
  0
LINE
  5
2C2
330
292
100
AcDbEntity
  8
0
  6
BYBLOCK
 62
     0
100
AcDbLine
 10
-52.71991966339751
 20
-8.15575156833459
 30
0.0
 11
-49.38691564923443
 21
-8.15575156833459
 31
0.0
  0
LINE
  5
2C3
330
292
100
AcDbEntity
  8
0
  6
BYBLOCK
 62
     0
100
AcDbLine
 10
-45.84557830173802
 20
-8.28075156833459
 30
0.0
 11
-45.59557830173803
 21
-8.03075156833459
 31
0.0
  0
LINE
  5
2C4
330
292
100
AcDbEntity
  8
0
  6
BYBLOCK
 62
     0
100
AcDbLine
 10
-52.8449196633975
 20
-8.28075156833459
 30
0.0
 11
-52.59491966339751
 21
-8.03075156833459
 31
0.0
  0
TEXT
  5
2C5
330
292
100
AcDbEntity
  8
0
  6
BYBLOCK
 62
     0
100
AcDbText
 10
-49.26191564923443
 20
-8.21825156833459
 30
0.0
 40
0.125
  1
7
 72
     1
 11
-49.22024898256776
 21
-8.15575156833459
 31
0.0
100
AcDbText
 73
     2
  0
POINT
  5
2C6
330
292
100
AcDbEntity
  8
DEFPOINTS
  6
BYBLOCK
 62
     0
100
AcDbPoint
 10
-45.72057830173803
 20
-8.632245034561062
 30
0.0
  0
POINT
  5
2C7
330
292
100
AcDbEntity
  8
DEFPOINTS
  6
BYBLOCK
 62
     0
100
AcDbPoint
 10
-52.71991966339751
 20
-9.237193063800647
 30
0.0
  0
POINT
  5
2C8
330
292
100
AcDbEntity
  8
DEFPOINTS
  6
BYBLOCK
 62
     0
100
AcDbPoint
 10
-52.71991966339751
 20
-8.15575156833459
 30
0.0
  0
ENDBLK
  5
2C9
330
292
100
AcDbEntity
  8
0
100
AcDbBlockEnd
  0
BLOCK
  5
2CA
330
293
100
AcDbEntity
  8
0
100
AcDbBlockBegin
  2
*D3
 70
     1
 10
0.0
 20
0.0
 30
0.0
  3
*D3
  1

  0
LINE
  5
2CB
330
293
100
AcDbEntity
  8
0
  6
BYBLOCK
 62
     0
100
AcDbLine
 10
-52.45408008541986
 20
-9.627491750359402
 30
0.0
 11
-51.94407339115262
 21
-12.58570689572003
 31
0.0
  0
LINE
  5
2CC
330
293
100
AcDbEntity
  8
0
  6
BYBLOCK
 62
     0
100
AcDbLine
 10
-52.598499947068
 20
-9.52554615917697
 30
0.0
 11
-52.30966022377174
 21
-9.729437341541833
 31
0.0
  0
TEXT
  5
2CD
330
293
100
AcDbEntity
  8
0
  6
BYBLOCK
 62
     0
100
AcDbText
 10
-51.98442761912741
 20
-12.71950818975174
 30
0.0
 40
0.125
  1
R3
 50
279.781835234786
 72
     1
 11
-51.90513864322573
 21
-12.81154189414805
 31
0.0
100
AcDbText
 73
     2
  0
POINT
  5
2CE
330
293
100
AcDbEntity
  8
DEFPOINTS
  6
BYBLOCK
 62
     0
100
AcDbPoint
 10
-52.45408008541986
 20
-9.627491750359402
 30
0.0
  0
POINT
  5
2CF
330
293
100
AcDbEntity
  8
DEFPOINTS
  6
BYBLOCK
 62
     0
100
AcDbPoint
 10
-51.94438883983151
 20
-12.58387718432611
 30
0.0
  0
ENDBLK
  5
2D0
330
293
100
AcDbEntity
  8
0
100
AcDbBlockEnd
  0
BLOCK
  5
2D1
330
295
100
AcDbEntity
  8
0
100
AcDbBlockBegin
  2
*D4
 70
     1
 10
0.0
 20
0.0
 30
0.0
  3
*D4
  1

  0
LINE
  5
2D2
330
295
100
AcDbEntity
  8
0
  6
BYBLOCK
 62
     0
100
AcDbLine
 10
-45.65807830173802
 20
-8.632245034561062
 30
0.0
 11
-44.84361538084518
 21
-8.632245034561062
 31
0.0
  0
LINE
  5
2D3
330
295
100
AcDbEntity
  8
0
  6
BYBLOCK
 62
     0
100
AcDbLine
 10
-45.65807830173802
 20
-10.53224424896838
 30
0.0
 11
-44.84361538084518
 21
-10.53224424896838
 31
0.0
  0
LINE
  5
2D4
330
295
100
AcDbEntity
  8
0
  6
BYBLOCK
 62
     0
100
AcDbLine
 10
-45.02361538084517
 20
-8.632245034561062
 30
0.0
 11
-45.02361538084517
 21
-9.24891130843139
 31
0.0
  0
LINE
  5
2D5
330
295
100
AcDbEntity
  8
0
  6
BYBLOCK
 62
     0
100
AcDbLine
 10
-45.02361538084517
 20
-10.53224424896838
 30
0.0
 11
-45.02361538084517
 21
-9.915577975098058
 31
0.0
  0
LINE
  5
2D6
330
295
100
AcDbEntity
  8
0
  6
BYBLOCK
 62
     0
100
AcDbLine
 10
-44.89861538084517
 20
-8.757245034561062
 30
0.0
 11
-45.14861538084518
 21
-8.507245034561062
 31
0.0
  0
LINE
  5
2D7
330
295
100
AcDbEntity
  8
0
  6
BYBLOCK
 62
     0
100
AcDbLine
 10
-44.89861538084517
 20
-10.65724424896838
 30
0.0
 11
-45.14861538084518
 21
-10.40724424896838
 31
0.0
  0
TEXT
  5
2D8
330
295
100
AcDbEntity
  8
0
  6
BYBLOCK
 62
     0
100
AcDbText
 10
-44.96111538084518
 20
-9.790577975098058
 30
0.0
 40
0.125
  1
1.900
 50
90.0
 72
     1
 11
-45.02361538084517
 21
-9.582244641764724
 31
0.0
100
AcDbText
 73
     2
  0
POINT
  5
2D9
330
295
100
AcDbEntity
  8
DEFPOINTS
  6
BYBLOCK
 62
     0
100
AcDbPoint
 10
-45.72057830173803
 20
-8.632245034561062
 30
0.0
  0
POINT
  5
2DA
330
295
100
AcDbEntity
  8
DEFPOINTS
  6
BYBLOCK
 62
     0
100
AcDbPoint
 10
-45.72057830173803
 20
-10.53224424896838
 30
0.0
  0
POINT
  5
2DB
330
295
100
AcDbEntity
  8
DEFPOINTS
  6
BYBLOCK
 62
     0
100
AcDbPoint
 10
-45.02361538084517
 20
-10.53224424896838
 30
0.0
  0
ENDBLK
  5
2DC
330
295
100
AcDbEntity
  8
0
100
AcDbBlockEnd
  0
ENDSEC
  0
SECTION
  2
ENTITIES
  0
ARC
  5
2DD
330
18
100
AcDbEntity
  8
ADP1DETAIL
100
AcDbCircle
 10
-52.19066945004604
 20
-11.63420639128569
 30
0.0
 40
3.0
100
AcDbArc
 50
90.01736753930215
 51
118.9999999999999
  0
ARC
  5
2DE
330
18
100
AcDbEntity
  8
ADP3DETAIL
  6
CENTER2
100
AcDbCircle
 10
-51.94438883983151
 20
-12.58387718432612
 30
0.0
 40
3.0
100
AcDbArc
 50
90.01374976804639
 51
119.0
  0
LINE
  5
2DF
330
18
100
AcDbEntity
  8
ADP1DETAIL
100
AcDbLine
 10
-52.91351336702952
 20
-10.77719584259654
 30
0.0
 11
-54.88386745698253
 21
-11.86938094922449
 31
0.0
  0
DIMENSION
  5
2E0
330
18
100
AcDbEntity
  8
ADPDIM
100
AcDbDimension
  2
*D1
 10
-53.44801722020694
 20
-8.2717273269035
 30
0.0
 11
-54.75994678091603
 21
-8.998941757273005
 31
0.0
 70
     1
100
AcDbAlignedDimension
 13
-55.34443659621655
 23
-11.03849222744206
 33
0.0
 14
-52.72057747479837
 24
-9.584063366703054
 34
0.0
  0
LINE
  5
2E1
330
18
100
AcDbEntity
  8
ADP3DETAIL
  6
CENTER2
100
AcDbLine
 10
-55.72129696972082
 20
-11.24738934360935
 30
0.0
 11
-53.39881770057052
 21
-9.960018062907934
 31
0.0
  0
LINE
  5
2E2
330
18
100
AcDbEntity
  8
ADP1DETAIL
100
AcDbLine
 10
-54.88386745698253
 20
-11.86938094922449
 30
0.0
 11
-55.80500573545058
 21
-10.20760350565963
 31
0.0
  0
LINE
  5
2E3
330
18
100
AcDbEntity
  8
ADP1DETAIL
100
AcDbLine
 10
-55.80500573545058
 20
-10.20760350565963
 30
0.0
 11
-53.64509831078504
 21
-9.010347269867502
 31
0.0
  0
LINE
  5
2E4
330
18
100
AcDbEntity
  8
ADP1DETAIL
100
AcDbLine
 10
-51.91565823539182
 20
-10.52017013572433
 30
0.0
 11
-45.72057830173803
 21
-10.53224424896838
 31
0.0
  0
LINE
  5
2E5
330
18
100
AcDbEntity
  8
ADP1DETAIL
100
AcDbLine
 10
-52.19157881226348
 20
-8.634206529108967
 30
0.0
 11
-45.72057830173803
 21
-8.632245034561062
 31
0.0
  0
LINE
  5
2E6
330
18
100
AcDbEntity
  8
ADP3DETAIL
  6
CENTER2
100
AcDbLine
 10
-51.94510877599599
 20
-9.583877270710802
 30
0.0
 11
-45.55439495138189
 21
-9.584070781307291
 31
0.0
  0
DIMENSION
  5
2E7
330
18
100
AcDbEntity
  8
ADPDIM
100
AcDbDimension
  2
*D2
 10
-52.71991966339751
 20
-8.15575156833459
 30
0.0
 11
-49.22024898256776
 21
-8.15575156833459
 31
0.0
100
AcDbAlignedDimension
 13
-45.72057830173803
 23
-8.632245034561062
 33
0.0
 14
-52.71991966339751
 24
-9.237193063800647
 34
0.0
100
AcDbRotatedDimension
  0
DIMENSION
  5
2E8
330
18
100
AcDbEntity
  8
ADPDIM
100
AcDbDimension
  2
*D3
 10
-51.94438883983151
 20
-12.58387718432611
 30
0.0
 11
-51.90513864322573
 21
-12.81154189414805
 31
0.0
 70
     4
100
AcDbRadialDimension
 15
-52.45408008541986
 25
-9.627491750359402
 35
0.0
 40
-3.001856704514467
  0
ARC
  5
2E9
330
18
100
AcDbEntity
  8
ADP1DETAIL
100
AcDbCircle
 10
-51.91965364552452
 20
-12.57016624223231
 30
0.0
 40
2.049999999999999
100
AcDbArc
 50
89.88833156929045
 51
119.0
  0
LINE
  5
2EA
330
18
100
AcDbEntity
  8
ADP1DETAIL
100
AcDbLine
 10
-45.72057830173803
 20
-8.632245034561062
 30
0.0
 11
-45.71885051368362
 21
-10.53224424896838
 31
0.0
  0
DIMENSION
  5
2EB
330
18
100
AcDbEntity
  8
ADPDIM
100
AcDbDimension
  2
*D4
 10
-45.02361538084517
 20
-10.53224424896838
 30
0.0
 11
-45.02361538084517
 21
-9.582244641764724
 31
0.0
  1
1.900
100
AcDbAlignedDimension
 13
-45.72057830173803
 23
-8.632245034561062
 33
0.0
 14
-45.72057830173803
 24
-10.53224424896838
 34
0.0
 50
90.0
100
AcDbRotatedDimension
  0
DIMENSION
  5
2EC
330
18
100
AcDbEntity
  8
ADPDIM
100
AcDbDimension
  2
*D0
 10
-41.12846284681141
 20
-8.638276157095591
 30
0.0
 11
-41.12896360044227
 21
-8.054943038694467
 31
0.0
  1
0.109
100
AcDbAlignedDimension
 13
-41.12836927741866
 23
-8.747276116933969
 33
0.0
 14
-41.1284628468114
 24
-8.638276157095589
 34
0.0
 50
90.04918469682484
100
AcDbRotatedDimension
  0
CIRCLE
  5
2ED
330
18
100
AcDbEntity
  8
ADP1DETAIL
100
AcDbCircle
 10
-41.12765213089104
 20
-9.582687573851501
 30
0.0
 40
0.841
  0
CIRCLE
  5
2EE
330
18
100
AcDbEntity
  8
ADP1DETAIL
100
AcDbCircle
 10
-41.12765213089104
 20
-9.582687573851501
 30
0.0
 40
0.95
  0
TEXT
  5
2FC
330
18
100
AcDbEntity
  8
ADPDIM
100
AcDbText
 10
-57.11937986828866
 20
-13.83202473259719
 30
0.0
 40
0.1875
  1
J U L I U S  B L U M  &  C O . ,  I N C .      ( 8 0 0 )  5 2 6 - 6 2 9 3        W W W . J U L I U S B L U M . C O M        P A R T  N o .  7 2 0 9
 41
1.25
  7
ARIAL_WIDE
 72
     1
 11
-47.33078633145374
 21
-13.64452473259718
 31
0.0
100
AcDbText
 73
     3
  0
ENDSEC
  0
SECTION
  2
OBJECTS
  0
DICTIONARY
  5
C
330
0
100
AcDbDictionary
  3
ACAD_GROUP
350
D
  3
ACAD_LAYOUT
350
2F5
  3
ACAD_MLINESTYLE
350
E
  3
ACAD_PLOTSETTINGS
350
2F6
  3
ACAD_PLOTSTYLENAME
350
2F3
  3
ACDBHEADERROUNDTRIPXREC
350
440
  3
ACDBVARIABLEDICTIONARY
350
356
  0
DICTIONARY
  5
350
330
18
100
AcDbDictionary
280
     1
  3
ACAD_LAYOUTSELFREF
360
461
  0
DICTIONARY
  5
34E
330
15
100
AcDbDictionary
280
     1
  3
ACAD_LAYOUTSELFREF
360
460
  0
DICTIONARY
  5
D
102
{ACAD_REACTORS
330
C
102
}
330
C
100
AcDbDictionary
  0
DICTIONARY
  5
2F5
102
{ACAD_REACTORS
330
C
102
}
330
C
100
AcDbDictionary
  0
DICTIONARY
  5
E
102
{ACAD_REACTORS
330
C
102
}
330
C
100
AcDbDictionary
  3
STANDARD
350
1B
  0
DICTIONARY
  5
2F6
102
{ACAD_REACTORS
330
C
102
}
330
C
100
AcDbDictionary
  0
ACDBDICTIONARYWDFLT
  5
2F3
102
{ACAD_REACTORS
330
C
102
}
330
C
100
AcDbDictionary
281
     1
  3
Normal
350
2F4
100
AcDbDictionaryWithDefault
340
2F4
  0
DICTIONARY
  5
440
102
{ACAD_REACTORS
330
C
102
}
330
C
100
AcDbDictionary
  3
CEPSNTYPE
350
44A
  3
FINGERPRINTGUID
350
44B
  3
HYPERLINKBASE
350
443
  3
INSUNITS
350
449
  3
LAYOUTDICT
350
445
  3
LWETCUNION
350
448
  3
PLOTSETDICT
350
446
  3
PLOTSTYLNAMDICT
350
447
  3
PSVPSCALE
350
44D
  3
PUCSBASE
350
450
  3
PUCSORGBACK
350
456
  3
PUCSORGBOTTOM
350
452
  3
PUCSORGFRONT
350
455
  3
PUCSORGLEFT
350
453
  3
PUCSORGRIGHT
350
454
  3
PUCSORGTOP
350
451
  3
PUCSORTHOREF
350
44E
  3
PUCSORTHOVIEW
350
44F
  3
STYLESHEET
350
444
  3
TSTACKALIGN
350
441
  3
TSTACKSIZE
350
442
  3
UCSBASE
350
459
  3
UCSORGBACK
350
45F
  3
UCSORGBOTTOM
350
45B
  3
UCSORGFRONT
350
45E
  3
UCSORGLEFT
350
45C
  3
UCSORGRIGHT
350
45D
  3
UCSORGTOP
350
45A
  3
UCSORTHOREF
350
457
  3
UCSORTHOVIEW
350
458
  3
VERSIONGUID
350
44C
  0
DICTIONARY
  5
356
102
{ACAD_REACTORS
330
C
102
}
330
C
100
AcDbDictionary
  3
DIMASSOC
350
357
  0
XRECORD
  5
461
102
{ACAD_REACTORS
330
350
102
}
330
350
100
AcDbXrecord
340
18
  0
XRECORD
  5
460
102
{ACAD_REACTORS
330
34E
102
}
330
34E
100
AcDbXrecord
340
15
  0
MLINESTYLE
  5
1B
102
{ACAD_REACTORS
330
E
102
}
330
E
100
AcDbMlineStyle
  2
STANDARD
 70
     0
  3

 62
     0
 51
90.0
 52
90.0
 71
     2
 49
0.5
 62
   256
  6
BYLAYER
 49
-0.5
 62
   256
  6
BYLAYER
  0
ACDBPLACEHOLDER
  5
2F4
102
{ACAD_REACTORS
330
2F3
102
}
330
2F3
100
AcDbPlaceHolder
280
     0
  0
XRECORD
  5
44A
102
{ACAD_REACTORS
330
440
102
}
330
440
100
AcDbXrecord
 90
        0
  0
XRECORD
  5
44B
102
{ACAD_REACTORS
330
440
102
}
330
440
100
AcDbXrecord
  1
{9EA8ED66-F01A-49B7-9E68-8CAA8DC67F96}
  0
XRECORD
  5
443
102
{ACAD_REACTORS
330
440
102
}
330
440
100
AcDbXrecord
  1

  0
XRECORD
  5
449
102
{ACAD_REACTORS
330
440
102
}
330
440
100
AcDbXrecord
 90
        0
  0
XRECORD
  5
445
102
{ACAD_REACTORS
330
440
102
}
330
440
100
AcDbXrecord
340
2F5
  0
XRECORD
  5
448
102
{ACAD_REACTORS
330
440
102
}
330
440
100
AcDbXrecord
 90
    14877
  0
XRECORD
  5
446
102
{ACAD_REACTORS
330
440
102
}
330
440
100
AcDbXrecord
340
2F6
  0
XRECORD
  5
447
102
{ACAD_REACTORS
330
440
102
}
330
440
100
AcDbXrecord
340
2F3
  0
XRECORD
  5
44D
102
{ACAD_REACTORS
330
440
102
}
330
440
100
AcDbXrecord
 40
0.0
  0
XRECORD
  5
450
102
{ACAD_REACTORS
330
440
102
}
330
440
100
AcDbXrecord
340
0
  0
XRECORD
  5
456
102
{ACAD_REACTORS
330
440
102
}
330
440
100
AcDbXrecord
 10
0.0
 20
0.0
 30
0.0
  0
XRECORD
  5
452
102
{ACAD_REACTORS
330
440
102
}
330
440
100
AcDbXrecord
 10
0.0
 20
0.0
 30
0.0
  0
XRECORD
  5
455
102
{ACAD_REACTORS
330
440
102
}
330
440
100
AcDbXrecord
 10
0.0
 20
0.0
 30
0.0
  0
XRECORD
  5
453
102
{ACAD_REACTORS
330
440
102
}
330
440
100
AcDbXrecord
 10
0.0
 20
0.0
 30
0.0
  0
XRECORD
  5
454
102
{ACAD_REACTORS
330
440
102
}
330
440
100
AcDbXrecord
 10
0.0
 20
0.0
 30
0.0
  0
XRECORD
  5
451
102
{ACAD_REACTORS
330
440
102
}
330
440
100
AcDbXrecord
 10
0.0
 20
0.0
 30
0.0
  0
XRECORD
  5
44E
102
{ACAD_REACTORS
330
440
102
}
330
440
100
AcDbXrecord
340
0
  0
XRECORD
  5
44F
102
{ACAD_REACTORS
330
440
102
}
330
440
100
AcDbXrecord
 70
     0
  0
XRECORD
  5
444
102
{ACAD_REACTORS
330
440
102
}
330
440
100
AcDbXrecord
  1

  0
XRECORD
  5
441
102
{ACAD_REACTORS
330
440
102
}
330
440
100
AcDbXrecord
 90
        1
  0
XRECORD
  5
442
102
{ACAD_REACTORS
330
440
102
}
330
440
100
AcDbXrecord
 90
       70
  0
XRECORD
  5
459
102
{ACAD_REACTORS
330
440
102
}
330
440
100
AcDbXrecord
340
0
  0
XRECORD
  5
45F
102
{ACAD_REACTORS
330
440
102
}
330
440
100
AcDbXrecord
 10
0.0
 20
0.0
 30
0.0
  0
XRECORD
  5
45B
102
{ACAD_REACTORS
330
440
102
}
330
440
100
AcDbXrecord
 10
0.0
 20
0.0
 30
0.0
  0
XRECORD
  5
45E
102
{ACAD_REACTORS
330
440
102
}
330
440
100
AcDbXrecord
 10
0.0
 20
0.0
 30
0.0
  0
XRECORD
  5
45C
102
{ACAD_REACTORS
330
440
102
}
330
440
100
AcDbXrecord
 10
0.0
 20
0.0
 30
0.0
  0
XRECORD
  5
45D
102
{ACAD_REACTORS
330
440
102
}
330
440
100
AcDbXrecord
 10
0.0
 20
0.0
 30
0.0
  0
XRECORD
  5
45A
102
{ACAD_REACTORS
330
440
102
}
330
440
100
AcDbXrecord
 10
0.0
 20
0.0
 30
0.0
  0
XRECORD
  5
457
102
{ACAD_REACTORS
330
440
102
}
330
440
100
AcDbXrecord
340
0
  0
XRECORD
  5
458
102
{ACAD_REACTORS
330
440
102
}
330
440
100
AcDbXrecord
 70
     0
  0
XRECORD
  5
44C
102
{ACAD_REACTORS
330
440
102
}
330
440
100
AcDbXrecord
  1
{17A0948E-F154-4EFB-A7D3-75ED04CEEECC}
  0
DICTIONARYVAR
  5
357
102
{ACAD_REACTORS
330
356
102
}
330
356
100
DictionaryVariables
280
     0
  1
1
  0
ENDSEC
  0
EOF
