  0
SECTION
  2
HEADER
  9
$ACADVER
  1
AC1014
  9
$ACADMAINTVER
 70
     9
  9
$DWGCODEPAGE
  3
ANSI_1252
  9
$INSBASE
 10
-44.0890722896607
 20
33.10600005619765
 30
0.0
  9
$EXTMIN
 10
-55.9504277242402
 20
29.63343182634363
 30
0.0
  9
$EXTMAX
 10
-36.37324065057035
 20
35.79167029115989
 30
0.0
  9
$LIMMIN
 10
0.0
 20
0.0
  9
$LIMMAX
 10
36.0
 20
36.0
  9
$ORTHOMODE
 70
     1
  9
$REGENMODE
 70
     1
  9
$FILLMODE
 70
     1
  9
$QTEXTMODE
 70
     0
  9
$MIRRTEXT
 70
     1
  9
$DRAGMODE
 70
     0
  9
$LTSCALE
 40
1.0
  9
$OSMODE
 70
    37
  9
$ATTMODE
 70
     1
  9
$TEXTSIZE
 40
0.2
  9
$TRACEWID
 40
0.05
  9
$TEXTSTYLE
  7
STANDARD
  9
$CLAYER
  8
0
  9
$CELTYPE
  6
BYLAYER
  9
$CECOLOR
 62
   256
  9
$CELTSCALE
 40
1.0
  9
$DELOBJ
 70
     1
  9
$DISPSILH
 70
     0
  9
$DIMSCALE
 40
1.0
  9
$DIMASZ
 40
0.125
  9
$DIMEXO
 40
0.0625
  9
$DIMDLI
 40
0.38
  9
$DIMRND
 40
0.0
  9
$DIMDLE
 40
0.0
  9
$DIMEXE
 40
0.18
  9
$DIMTP
 40
0.0
  9
$DIMTM
 40
0.0
  9
$DIMTXT
 40
0.125
  9
$DIMCEN
 40
0.1875
  9
$DIMTSZ
 40
0.125
  9
$DIMTOL
 70
     0
  9
$DIMLIM
 70
     0
  9
$DIMTIH
 70
     0
  9
$DIMTOH
 70
     0
  9
$DIMSE1
 70
     0
  9
$DIMSE2
 70
     0
  9
$DIMTAD
 70
     0
  9
$DIMZIN
 70
     3
  9
$DIMBLK
  1

  9
$DIMASO
 70
     1
  9
$DIMSHO
 70
     1
  9
$DIMPOST
  1

  9
$DIMAPOST
  1

  9
$DIMALT
 70
     0
  9
$DIMALTD
 70
     1
  9
$DIMALTF
 40
25.4
  9
$DIMLFAC
 40
1.0
  9
$DIMTOFL
 70
     0
  9
$DIMTVP
 40
0.0
  9
$DIMTIX
 70
     0
  9
$DIMSOXD
 70
     0
  9
$DIMSAH
 70
     0
  9
$DIMBLK1
  1

  9
$DIMBLK2
  1

  9
$DIMSTYLE
  2
STANDARD
  9
$DIMCLRD
 70
     0
  9
$DIMCLRE
 70
     0
  9
$DIMCLRT
 70
     0
  9
$DIMTFAC
 40
1.0
  9
$DIMGAP
 40
0.125
  9
$DIMJUST
 70
     0
  9
$DIMSD1
 70
     0
  9
$DIMSD2
 70
     0
  9
$DIMTOLJ
 70
     1
  9
$DIMTZIN
 70
     0
  9
$DIMALTZ
 70
     0
  9
$DIMALTTZ
 70
     0
  9
$DIMFIT
 70
     3
  9
$DIMUPT
 70
     0
  9
$DIMUNIT
 70
     2
  9
$DIMDEC
 70
     4
  9
$DIMTDEC
 70
     4
  9
$DIMALTU
 70
     2
  9
$DIMALTTD
 70
     2
  9
$DIMTXSTY
  7
STANDARD
  9
$DIMAUNIT
 70
     0
  9
$LUNITS
 70
     5
  9
$LUPREC
 70
     4
  9
$SKETCHINC
 40
0.1
  9
$FILLETRAD
 40
0.062
  9
$AUNITS
 70
     0
  9
$AUPREC
 70
     0
  9
$MENU
  1
acad
  9
$ELEVATION
 40
0.0
  9
$PELEVATION
 40
0.0
  9
$THICKNESS
 40
0.0
  9
$LIMCHECK
 70
     0
  9
$BLIPMODE
 70
     0
  9
$CHAMFERA
 40
0.0
  9
$CHAMFERB
 40
0.0
  9
$CHAMFERC
 40
0.0
  9
$CHAMFERD
 40
0.0
  9
$SKPOLY
 70
     0
  9
$TDCREATE
 40
2450387.515652383
  9
$TDUPDATE
 40
2452297.099675555
  9
$TDINDWG
 40
0.0281925694
  9
$TDUSRTIMER
 40
0.0281925694
  9
$USRTIMER
 70
     1
  9
$ANGBASE
 50
0.0
  9
$ANGDIR
 70
     0
  9
$PDMODE
 70
     0
  9
$PDSIZE
 40
0.0
  9
$PLINEWID
 40
0.0
  9
$COORDS
 70
     2
  9
$SPLFRAME
 70
     0
  9
$SPLINETYPE
 70
     6
  9
$SPLINESEGS
 70
     8
  9
$ATTDIA
 70
     0
  9
$ATTREQ
 70
     1
  9
$HANDLING
 70
 22529
  9
$HANDSEED
  5
440
  9
$SURFTAB1
 70
     6
  9
$SURFTAB2
 70
     6
  9
$SURFTYPE
 70
     6
  9
$SURFU
 70
     6
  9
$SURFV
 70
     6
  9
$UCSNAME
  2

  9
$UCSORG
 10
0.0
 20
0.0
 30
0.0
  9
$UCSXDIR
 10
1.0
 20
0.0
 30
0.0
  9
$UCSYDIR
 10
0.0
 20
1.0
 30
0.0
  9
$PUCSNAME
  2

  9
$PUCSORG
 10
0.0
 20
0.0
 30
0.0
  9
$PUCSXDIR
 10
1.0
 20
0.0
 30
0.0
  9
$PUCSYDIR
 10
0.0
 20
1.0
 30
0.0
  9
$USERI1
 70
     0
  9
$USERI2
 70
     0
  9
$USERI3
 70
     0
  9
$USERI4
 70
     0
  9
$USERI5
 70
     0
  9
$USERR1
 40
0.0
  9
$USERR2
 40
0.0
  9
$USERR3
 40
0.0
  9
$USERR4
 40
0.0
  9
$USERR5
 40
0.0
  9
$WORLDVIEW
 70
     1
  9
$SHADEDGE
 70
     3
  9
$SHADEDIF
 70
    70
  9
$TILEMODE
 70
     1
  9
$MAXACTVP
 70
    15
  9
$PINSBASE
 10
0.0
 20
0.0
 30
0.0
  9
$PLIMCHECK
 70
     0
  9
$PEXTMIN
 10
1.000000000000000E+20
 20
1.000000000000000E+20
 30
1.000000000000000E+20
  9
$PEXTMAX
 10
-1.000000000000000E+20
 20
-1.000000000000000E+20
 30
-1.000000000000000E+20
  9
$PLIMMIN
 10
0.0
 20
0.0
  9
$PLIMMAX
 10
12.0
 20
9.0
  9
$UNITMODE
 70
     0
  9
$VISRETAIN
 70
     0
  9
$PLINEGEN
 70
     0
  9
$PSLTSCALE
 70
     1
  9
$TREEDEPTH
 70
  3020
  9
$PICKSTYLE
 70
     1
  9
$CMLSTYLE
  2
STANDARD
  9
$CMLJUST
 70
     0
  9
$CMLSCALE
 40
1.0
  9
$PROXYGRAPHICS
 70
     1
  9
$MEASUREMENT
 70
     0
  0
ENDSEC
  0
SECTION
  2
CLASSES
  0
CLASS
  1
ACDBDICTIONARYWDFLT
  2
AcDbDictionaryWithDefault
  3
AutoCAD 2000
 90
        0
280
     0
281
     0
  0
CLASS
  1
ACDBPLACEHOLDER
  2
AcDbPlaceHolder
  3
AutoCAD 2000
 90
        0
280
     0
281
     0
  0
CLASS
  1
LAYOUT
  2
AcDbLayout
  3
AutoCAD 2000
 90
        0
280
     0
281
     0
  0
CLASS
  1
DICTIONARYVAR
  2
AcDbDictionaryVar
  3
AutoCAD 2000
 90
        0
280
     0
281
     0
  0
CLASS
  1
LONG_TRANSACTION
  2
AcDbLongTransaction
  3
AutoCAD 2000
 90
        0
280
     0
281
     0
  0
CLASS
  1
LWPOLYLINE
  2
AcDbPolyline
  3
AutoCAD 2000
 90
        0
280
     0
281
     1
  0
CLASS
  1
HATCH
  2
AcDbHatch
  3
AutoCAD 2000
 90
        0
280
     0
281
     1
  0
CLASS
  1
XRECORD
  2
AcDbXrecord
  3
AutoCAD 2000
 90
        0
280
     0
281
     0
  0
CLASS
  1
LONG_TRANSACTION
  2
AcDbLongTransaction
  3
AutoCAD 2000
 90
        0
280
     0
281
     0
  0
CLASS
  1
LWPOLYLINE
  2
AcDbPolyline
  3
AutoCAD 2000
 90
        0
280
     0
281
     1
  0
CLASS
  1
HATCH
  2
AcDbHatch
  3
AutoCAD 2000
 90
        0
280
     0
281
     1
  0
CLASS
  1
XRECORD
  2
AcDbXrecord
  3
AutoCAD 2000
 90
        0
280
     0
281
     0
  0
CLASS
  1
LONG_TRANSACTION
  2
AcDbLongTransaction
  3
AutoCAD 2000
 90
        0
280
     0
281
     0
  0
CLASS
  1
LWPOLYLINE
  2
AcDbPolyline
  3
AutoCAD 2000
 90
        0
280
     0
281
     1
  0
CLASS
  1
HATCH
  2
AcDbHatch
  3
AutoCAD 2000
 90
        0
280
     0
281
     1
  0
CLASS
  1
XRECORD
  2
AcDbXrecord
  3
AutoCAD 2000
 90
        0
280
     0
281
     0
  0
CLASS
  1
LONG_TRANSACTION
  2
AcDbLongTransaction
  3
AutoCAD 2000
 90
        0
280
     0
281
     0
  0
CLASS
  1
LWPOLYLINE
  2
AcDbPolyline
  3
AutoCAD 2000
 90
        0
280
     0
281
     1
  0
CLASS
  1
HATCH
  2
AcDbHatch
  3
AutoCAD 2000
 90
        0
280
     0
281
     1
  0
CLASS
  1
XRECORD
  2
AcDbXrecord
  3
AutoCAD 2000
 90
        0
280
     0
281
     0
  0
CLASS
  1
LONG_TRANSACTION
  2
AcDbLongTransaction
  3
AutoCAD 2000
 90
        0
280
     0
281
     0
  0
CLASS
  1
LWPOLYLINE
  2
AcDbPolyline
  3
AutoCAD 2000
 90
        0
280
     0
281
     1
  0
CLASS
  1
HATCH
  2
AcDbHatch
  3
AutoCAD 2000
 90
        0
280
     0
281
     1
  0
CLASS
  1
XRECORD
  2
AcDbXrecord
  3
AutoCAD 2000
 90
        0
280
     0
281
     0
  0
ENDSEC
  0
SECTION
  2
TABLES
  0
TABLE
  2
VPORT
  5
8
330
0
100
AcDbSymbolTable
 70
     2
  0
VPORT
  5
41D
330
8
100
AcDbSymbolTableRecord
100
AcDbViewportTableRecord
  2
*ACTIVE
 70
     0
 10
0.0
 20
0.0
 11
1.0
 21
1.0
 12
-46.14593469014383
 22
32.71206675133676
 13
0.0
 23
0.0
 14
0.5740882589684922
 24
0.5740882589684922
 15
0.5
 25
0.5
 16
0.0
 26
0.0
 36
1.0
 17
0.0
 27
0.0
 37
0.0
 40
12.55177989558363
 41
1.570528967254408
 42
50.0
 43
0.0
 44
0.0
 50
0.0
 51
0.0
 71
     0
 72
   100
 73
     1
 74
     0
 75
     0
 76
     0
 77
     0
 78
     0
  0
ENDTAB
  0
TABLE
  2
LTYPE
  5
5
330
0
100
AcDbSymbolTable
 70
     2
  0
LTYPE
  5
12
330
5
100
AcDbSymbolTableRecord
100
AcDbLinetypeTableRecord
  2
BYBLOCK
 70
     0
  3

 72
    65
 73
     0
 40
0.0
  0
LTYPE
  5
13
330
5
100
AcDbSymbolTableRecord
100
AcDbLinetypeTableRecord
  2
BYLAYER
 70
     0
  3

 72
    65
 73
     0
 40
0.0
  0
LTYPE
  5
14
330
5
100
AcDbSymbolTableRecord
100
AcDbLinetypeTableRecord
  2
CONTINUOUS
 70
     0
  3
Solid line
 72
    65
 73
     0
 40
0.0
  0
LTYPE
  5
276
330
5
100
AcDbSymbolTableRecord
100
AcDbLinetypeTableRecord
  2
CENTER2
 70
     0
  3
___ _ ___ _ ___ _ ___ _ ___ _ ___ _ ___ _ ___ _
 72
    65
 73
     4
 40
1.125
 49
0.75
 74
     0
 49
-0.125
 74
     0
 49
0.125
 74
     0
 49
-0.125
 74
     0
  0
ENDTAB
  0
TABLE
  2
LAYER
  5
2
330
0
100
AcDbSymbolTable
 70
     5
  0
LAYER
  5
F
330
2
100
AcDbSymbolTableRecord
100
AcDbLayerTableRecord
  2
0
 70
     0
 62
     7
  6
CONTINUOUS
  0
LAYER
  5
277
330
2
100
AcDbSymbolTableRecord
100
AcDbLayerTableRecord
  2
ADP1DETAIL
 70
     0
 62
     7
  6
CONTINUOUS
  0
LAYER
  5
278
330
2
100
AcDbSymbolTableRecord
100
AcDbLayerTableRecord
  2
DEFPOINTS
 70
     0
 62
     7
  6
CONTINUOUS
  0
LAYER
  5
27C
330
2
100
AcDbSymbolTableRecord
100
AcDbLayerTableRecord
  2
ADP3DETAIL
 70
     0
 62
     1
  6
CONTINUOUS
  0
LAYER
  5
27F
330
2
100
AcDbSymbolTableRecord
100
AcDbLayerTableRecord
  2
ADPDIM
 70
     0
 62
     3
  6
CONTINUOUS
  0
ENDTAB
  0
TABLE
  2
STYLE
  5
3
330
0
100
AcDbSymbolTable
 70
     2
  0
STYLE
  5
10
330
3
100
AcDbSymbolTableRecord
100
AcDbTextStyleTableRecord
  2
STANDARD
 70
     0
 40
0.0
 41
1.0
 50
0.0
 71
     0
 42
0.2
  3
txt
  4

  0
STYLE
  5
2D9
330
3
100
AcDbSymbolTableRecord
100
AcDbTextStyleTableRecord
  2
ARIAL_WIDE
 70
     0
 40
0.0
 41
1.25
 50
0.0
 71
     0
 42
0.2
  3
ARIAL.TTF
  4

1001
ACAD
1000
Arial
1071
       34
  0
ENDTAB
  0
TABLE
  2
VIEW
  5
6
330
0
100
AcDbSymbolTable
 70
     0
  0
ENDTAB
  0
TABLE
  2
UCS
  5
7
330
0
100
AcDbSymbolTable
 70
     0
  0
ENDTAB
  0
TABLE
  2
APPID
  5
9
330
0
100
AcDbSymbolTable
 70
     1
  0
APPID
  5
11
330
9
100
AcDbSymbolTableRecord
100
AcDbRegAppTableRecord
  2
ACAD
 70
     0
  0
ENDTAB
  0
TABLE
  2
DIMSTYLE
  5
A
330
0
100
AcDbSymbolTable
 70
     1
  0
DIMSTYLE
105
2CD
330
A
100
AcDbSymbolTableRecord
100
AcDbDimStyleTableRecord
  2
STANDARD
 70
     0
  3

  4

  5

  6

  7

 40
1.0
 41
0.18
 42
0.0625
 43
0.38
 44
0.18
 45
0.0
 46
0.0
 47
0.0
 48
0.0
140
0.18
141
0.09
142
0.0
143
25.4
144
1.0
145
0.0
146
1.0
147
0.09
 71
     0
 72
     0
 73
     1
 74
     1
 75
     0
 76
     0
 77
     0
 78
     0
170
     0
171
     2
172
     0
173
     0
174
     0
175
     0
176
     0
177
     0
178
     0
270
     2
271
     4
272
     4
273
     2
274
     2
340
10
275
     0
280
     0
281
     0
282
     0
283
     1
284
     0
285
     0
286
     0
287
     3
288
     0
  0
ENDTAB
  0
TABLE
  2
BLOCK_RECORD
  5
1
330
0
100
AcDbSymbolTable
 70
     5
  0
BLOCK_RECORD
  5
18
102
{ACAD_XDICTIONARY
360
32E
102
}
330
1
100
AcDbSymbolTableRecord
100
AcDbBlockTableRecord
  2
*MODEL_SPACE
  0
BLOCK_RECORD
  5
15
102
{ACAD_XDICTIONARY
360
32C
102
}
330
1
100
AcDbSymbolTableRecord
100
AcDbBlockTableRecord
  2
*PAPER_SPACE
  0
BLOCK_RECORD
  5
263
330
1
100
AcDbSymbolTableRecord
100
AcDbBlockTableRecord
  2
*D0
  0
BLOCK_RECORD
  5
271
330
1
100
AcDbSymbolTableRecord
100
AcDbBlockTableRecord
  2
*D1
  0
BLOCK_RECORD
  5
272
330
1
100
AcDbSymbolTableRecord
100
AcDbBlockTableRecord
  2
*D2
  0
BLOCK_RECORD
  5
273
330
1
100
AcDbSymbolTableRecord
100
AcDbBlockTableRecord
  2
*D3
  0
BLOCK_RECORD
  5
274
330
1
100
AcDbSymbolTableRecord
100
AcDbBlockTableRecord
  2
*D4
  0
ENDTAB
  0
ENDSEC
  0
SECTION
  2
BLOCKS
  0
BLOCK
  5
282
330
18
100
AcDbEntity
  8
0
100
AcDbBlockBegin
  2
*MODEL_SPACE
 70
     0
 10
0.0
 20
0.0
 30
0.0
  3
*MODEL_SPACE
  1

  0
ENDBLK
  5
283
330
18
100
AcDbEntity
  8
0
100
AcDbBlockEnd
  0
BLOCK
  5
280
330
15
100
AcDbEntity
 67
     1
  8
0
100
AcDbBlockBegin
  2
*PAPER_SPACE
 70
     0
 10
0.0
 20
0.0
 30
0.0
  3
*PAPER_SPACE
  1

  0
ENDBLK
  5
281
330
15
100
AcDbEntity
 67
     1
  8
0
100
AcDbBlockEnd
  0
BLOCK
  5
285
330
263
100
AcDbEntity
  8
0
100
AcDbBlockBegin
  2
*D0
 70
     1
 10
0.0
 20
0.0
 30
0.0
  3
*D0
  1

  0
LINE
  5
286
330
263
100
AcDbEntity
  8
0
  6
BYBLOCK
 62
     0
100
AcDbLine
 10
-39.43609107642419
 20
34.89102184040681
 30
0.0
 11
-39.31859111971766
 21
34.89112270649531
 31
0.0
  0
LINE
  5
287
330
263
100
AcDbEntity
  8
0
  6
BYBLOCK
 62
     0
100
AcDbLine
 10
-39.43618464581692
 20
35.00002180024518
 30
0.0
 11
-39.31868468911039
 21
35.00012266633369
 31
0.0
  0
LINE
  5
288
330
263
100
AcDbEntity
  8
0
  6
BYBLOCK
 62
     0
100
AcDbLine
 10
-39.49859105339572
 20
34.89096818823208
 30
0.0
 11
-39.49837644469678
 21
34.64096828034588
 31
0.0
  0
LINE
  5
289
330
263
100
AcDbEntity
  8
0
  6
BYBLOCK
 62
     0
100
AcDbLine
 10
-39.49868462278846
 20
34.99996814807045
 30
0.0
 11
-39.4988992314874
 21
35.24996805595665
 31
0.0
  0
LINE
  5
28A
330
263
100
AcDbEntity
  8
0
  6
BYBLOCK
 62
     0
100
AcDbLine
 10
-39.62369831168829
 20
35.0158608378257
 30
0.0
 11
-39.37348379510315
 21
34.76607553863845
 31
0.0
  0
LINE
  5
28B
330
263
100
AcDbEntity
  8
0
  6
BYBLOCK
 62
     0
100
AcDbLine
 10
-39.62379188108102
 20
35.12486079766408
 30
0.0
 11
-39.37357736449589
 21
34.87507549847682
 31
0.0
  0
TEXT
  5
28C
330
263
100
AcDbEntity
  8
0
  6
BYBLOCK
 62
     0
100
AcDbText
 10
-39.56186419397332
 20
35.79158087086867
 30
0.0
 40
0.125
  1
0.109
 50
270.0491846968248
 72
     1
 11
-39.49918537641932
 21
35.58330126647158
 31
0.0
100
AcDbText
 73
     2
  0
POINT
  5
28D
330
263
100
AcDbEntity
  8
DEFPOINTS
  6
BYBLOCK
 62
     0
100
AcDbPoint
 10
-39.49859105339573
 20
34.89096818823208
 30
0.0
  0
POINT
  5
28E
330
263
100
AcDbEntity
  8
DEFPOINTS
  6
BYBLOCK
 62
     0
100
AcDbPoint
 10
-39.49868462278847
 20
34.99996814807045
 30
0.0
  0
POINT
  5
28F
330
263
100
AcDbEntity
  8
DEFPOINTS
  6
BYBLOCK
 62
     0
100
AcDbPoint
 10
-39.49868462278846
 20
34.99996814807045
 30
0.0
  0
ENDBLK
  5
290
330
263
100
AcDbEntity
  8
0
100
AcDbBlockEnd
  0
BLOCK
  5
291
330
271
100
AcDbEntity
  8
0
100
AcDbBlockBegin
  2
*D1
 70
     1
 10
0.0
 20
0.0
 30
0.0
  3
*D1
  1

  0
LINE
  5
292
330
271
100
AcDbEntity
  8
0
  6
BYBLOCK
 62
     0
100
AcDbLine
 10
-54.08781345964904
 20
33.90726189665072
 30
0.0
 11
-54.19326819412438
 21
35.42856090814062
 31
0.0
  0
LINE
  5
293
330
271
100
AcDbEntity
  8
0
  6
BYBLOCK
 62
     0
100
AcDbLine
 10
-51.09505771093591
 20
34.11471635527224
 30
0.0
 11
-51.20051244541124
 21
35.63601536676214
 31
0.0
  0
LINE
  5
294
330
271
100
AcDbEntity
  8
0
  6
BYBLOCK
 62
     0
100
AcDbLine
 10
-54.18082066681332
 20
35.24899181541071
 30
0.0
 11
-52.85071047091037
 21
35.3411935564705
 31
0.0
  0
LINE
  5
295
330
271
100
AcDbEntity
  8
0
  6
BYBLOCK
 62
     0
100
AcDbLine
 10
-51.18806491810018
 20
35.45644627403224
 30
0.0
 11
-52.51817511400314
 21
35.36424453297246
 31
0.0
  0
LINE
  5
296
330
271
100
AcDbEntity
  8
0
  6
BYBLOCK
 62
     0
100
AcDbLine
 10
-54.29687730946529
 20
35.11564694038227
 30
0.0
 11
-54.06476402416134
 21
35.38233669043917
 31
0.0
  0
LINE
  5
297
330
271
100
AcDbEntity
  8
0
  6
BYBLOCK
 62
     0
100
AcDbLine
 10
-51.30412156075216
 20
35.3231013990038
 30
0.0
 11
-51.07200827544821
 21
35.58979114906069
 31
0.0
  0
TEXT
  5
298
330
271
100
AcDbEntity
  8
0
  6
BYBLOCK
 62
     0
100
AcDbText
 10
-52.72168765397603
 20
35.28748729323863
 30
0.0
 40
0.125
  1
3
 50
3.965335751391116
 72
     1
 11
-52.68444279245675
 21
35.35271904472148
 31
0.0
100
AcDbText
 73
     2
  0
POINT
  5
299
330
271
100
AcDbEntity
  8
DEFPOINTS
  6
BYBLOCK
 62
     0
100
AcDbPoint
 10
-54.08349140155491
 20
33.84491151723062
 30
0.0
  0
POINT
  5
29A
330
271
100
AcDbEntity
  8
DEFPOINTS
  6
BYBLOCK
 62
     0
100
AcDbPoint
 10
-51.09073565284178
 20
34.05236597585214
 30
0.0
  0
POINT
  5
29B
330
271
100
AcDbEntity
  8
DEFPOINTS
  6
BYBLOCK
 62
     0
100
AcDbPoint
 10
-51.18806491810018
 20
35.45644627403224
 30
0.0
  0
ENDBLK
  5
29C
330
271
100
AcDbEntity
  8
0
100
AcDbBlockEnd
  0
BLOCK
  5
29D
330
272
100
AcDbEntity
  8
0
100
AcDbBlockBegin
  2
*D2
 70
     1
 10
0.0
 20
0.0
 30
0.0
  3
*D2
  1

  0
LINE
  5
29E
330
272
100
AcDbEntity
  8
0
  6
BYBLOCK
 62
     0
100
AcDbLine
 10
-44.09080007771509
 20
35.06849927060498
 30
0.0
 11
-44.09080007771509
 21
35.66249273683145
 31
0.0
  0
LINE
  5
29F
330
272
100
AcDbEntity
  8
0
  6
BYBLOCK
 62
     0
100
AcDbLine
 10
-51.09014143937458
 20
34.46355124136539
 30
0.0
 11
-51.09014143937458
 21
35.66249273683145
 31
0.0
  0
LINE
  5
2A0
330
272
100
AcDbEntity
  8
0
  6
BYBLOCK
 62
     0
100
AcDbLine
 10
-44.09080007771509
 20
35.48249273683145
 30
0.0
 11
-47.42380409187817
 21
35.48249273683145
 31
0.0
  0
LINE
  5
2A1
330
272
100
AcDbEntity
  8
0
  6
BYBLOCK
 62
     0
100
AcDbLine
 10
-51.09014143937458
 20
35.48249273683145
 30
0.0
 11
-47.7571374252115
 21
35.48249273683145
 31
0.0
  0
LINE
  5
2A2
330
272
100
AcDbEntity
  8
0
  6
BYBLOCK
 62
     0
100
AcDbLine
 10
-44.2158000777151
 20
35.35749273683145
 30
0.0
 11
-43.9658000777151
 21
35.60749273683145
 31
0.0
  0
LINE
  5
2A3
330
272
100
AcDbEntity
  8
0
  6
BYBLOCK
 62
     0
100
AcDbLine
 10
-51.21514143937458
 20
35.35749273683145
 30
0.0
 11
-50.96514143937458
 21
35.60749273683145
 31
0.0
  0
TEXT
  5
2A4
330
272
100
AcDbEntity
  8
0
  6
BYBLOCK
 62
     0
100
AcDbText
 10
-47.6321374252115
 20
35.41999273683145
 30
0.0
 40
0.125
  1
7
 72
     1
 11
-47.59047075854484
 21
35.48249273683145
 31
0.0
100
AcDbText
 73
     2
  0
POINT
  5
2A5
330
272
100
AcDbEntity
  8
DEFPOINTS
  6
BYBLOCK
 62
     0
100
AcDbPoint
 10
-44.09080007771509
 20
35.00599927060498
 30
0.0
  0
POINT
  5
2A6
330
272
100
AcDbEntity
  8
DEFPOINTS
  6
BYBLOCK
 62
     0
100
AcDbPoint
 10
-51.09014143937458
 20
34.40105124136539
 30
0.0
  0
POINT
  5
2A7
330
272
100
AcDbEntity
  8
DEFPOINTS
  6
BYBLOCK
 62
     0
100
AcDbPoint
 10
-51.09014143937458
 20
35.48249273683145
 30
0.0
  0
ENDBLK
  5
2A8
330
272
100
AcDbEntity
  8
0
100
AcDbBlockEnd
  0
BLOCK
  5
2A9
330
273
100
AcDbEntity
  8
0
100
AcDbBlockBegin
  2
*D3
 70
     1
 10
0.0
 20
0.0
 30
0.0
  3
*D3
  1

  0
LINE
  5
2AA
330
273
100
AcDbEntity
  8
0
  6
BYBLOCK
 62
     0
100
AcDbLine
 10
-51.15189690101881
 20
33.96645133368138
 30
0.0
 11
-50.90415297890782
 21
30.95371480842377
 31
0.0
  0
LINE
  5
2AB
330
273
100
AcDbEntity
  8
0
  6
BYBLOCK
 62
     0
100
AcDbLine
 10
-51.28672084406993
 20
34.08078638683721
 30
0.0
 11
-51.01707295796767
 21
33.85211628052555
 31
0.0
  0
TEXT
  5
2AC
330
273
100
AcDbEntity
  8
0
  6
BYBLOCK
 62
     0
100
AcDbText
 10
-50.9561982830119
 20
30.82401308784647
 30
0.0
 40
0.125
  1
R3
 50
274.7009802444078
 72
     1
 11
-50.88537149650378
 21
30.72531906190073
 31
0.0
100
AcDbText
 73
     2
  0
POINT
  5
2AD
330
273
100
AcDbEntity
  8
DEFPOINTS
  6
BYBLOCK
 62
     0
100
AcDbPoint
 10
-51.15189690101881
 20
33.96645133368138
 30
0.0
  0
POINT
  5
2AE
330
273
100
AcDbEntity
  8
DEFPOINTS
  6
BYBLOCK
 62
     0
100
AcDbPoint
 10
-50.90603022227521
 20
30.9765433791979
 30
0.0
  0
ENDBLK
  5
2AF
330
273
100
AcDbEntity
  8
0
100
AcDbBlockEnd
  0
BLOCK
  5
2B0
330
274
100
AcDbEntity
  8
0
100
AcDbBlockBegin
  2
*D4
 70
     1
 10
0.0
 20
0.0
 30
0.0
  3
*D4
  1

  0
LINE
  5
2B1
330
274
100
AcDbEntity
  8
0
  6
BYBLOCK
 62
     0
100
AcDbLine
 10
-44.0283000777151
 20
35.00599927060498
 30
0.0
 11
-43.21383715682225
 21
35.00599927060498
 31
0.0
  0
LINE
  5
2B2
330
274
100
AcDbEntity
  8
0
  6
BYBLOCK
 62
     0
100
AcDbLine
 10
-44.0283000777151
 20
33.10600005619765
 30
0.0
 11
-43.21383715682225
 21
33.10600005619765
 31
0.0
  0
LINE
  5
2B3
330
274
100
AcDbEntity
  8
0
  6
BYBLOCK
 62
     0
100
AcDbLine
 10
-43.39383715682225
 20
35.00599927060498
 30
0.0
 11
-43.39383715682225
 21
34.38933299673466
 31
0.0
  0
LINE
  5
2B4
330
274
100
AcDbEntity
  8
0
  6
BYBLOCK
 62
     0
100
AcDbLine
 10
-43.39383715682225
 20
33.10600005619765
 30
0.0
 11
-43.39383715682225
 21
33.72266633006798
 31
0.0
  0
LINE
  5
2B5
330
274
100
AcDbEntity
  8
0
  6
BYBLOCK
 62
     0
100
AcDbLine
 10
-43.26883715682225
 20
34.88099927060498
 30
0.0
 11
-43.51883715682225
 21
35.13099927060498
 31
0.0
  0
LINE
  5
2B6
330
274
100
AcDbEntity
  8
0
  6
BYBLOCK
 62
     0
100
AcDbLine
 10
-43.26883715682225
 20
32.98100005619765
 30
0.0
 11
-43.51883715682225
 21
33.23100005619766
 31
0.0
  0
TEXT
  5
2B7
330
274
100
AcDbEntity
  8
0
  6
BYBLOCK
 62
     0
100
AcDbText
 10
-43.33133715682225
 20
33.84766633006798
 30
0.0
 40
0.125
  1
1.900
 50
90.0
 72
     1
 11
-43.39383715682225
 21
34.05599966340132
 31
0.0
100
AcDbText
 73
     2
  0
POINT
  5
2B8
330
274
100
AcDbEntity
  8
DEFPOINTS
  6
BYBLOCK
 62
     0
100
AcDbPoint
 10
-44.09080007771509
 20
35.00599927060498
 30
0.0
  0
POINT
  5
2B9
330
274
100
AcDbEntity
  8
DEFPOINTS
  6
BYBLOCK
 62
     0
100
AcDbPoint
 10
-44.09080007771509
 20
33.10600005619765
 30
0.0
  0
POINT
  5
2BA
330
274
100
AcDbEntity
  8
DEFPOINTS
  6
BYBLOCK
 62
     0
100
AcDbPoint
 10
-43.39383715682225
 20
33.10600005619765
 30
0.0
  0
ENDBLK
  5
2BB
330
274
100
AcDbEntity
  8
0
100
AcDbBlockEnd
  0
ENDSEC
  0
SECTION
  2
ENTITIES
  0
LINE
  5
2BC
330
18
100
AcDbEntity
  8
ADP1DETAIL
100
AcDbLine
 10
-51.23253073651715
 20
34.99658991069017
 30
0.0
 11
-54.14976005161183
 21
34.79259736497744
 31
0.0
  0
LINE
  5
2BD
330
18
100
AcDbEntity
  8
ADP1DETAIL
100
AcDbLine
 10
-50.91681144093203
 20
33.11402754814526
 30
0.0
 11
-54.017222751498
 21
32.89722566948378
 31
0.0
  0
LINE
  5
2BE
330
18
100
AcDbEntity
  8
ADP3DETAIL
  6
CENTER2
100
AcDbLine
 10
-54.51332662880464
 20
33.81485451012802
 30
0.0
 11
-51.19494683591835
 21
34.04689822986233
 31
0.0
  0
DIMENSION
  5
2BF
330
18
100
AcDbEntity
  8
ADPDIM
100
AcDbDimension
  2
*D1
 10
-51.18806491810018
 20
35.45644627403224
 30
0.0
 11
-52.68444279245675
 21
35.35271904472148
 31
0.0
 70
     1
100
AcDbAlignedDimension
 13
-54.08349140155491
 23
33.84491151723061
 33
0.0
 14
-51.09073565284178
 24
34.05236597585214
 34
0.0
  0
LINE
  5
2C0
330
18
100
AcDbEntity
  8
ADP1DETAIL
100
AcDbLine
 10
-54.017222751498
 20
32.89722566948378
 30
0.0
 11
-54.14976005161183
 21
34.79259736497744
 31
0.0
  0
LINE
  5
2C1
330
18
100
AcDbEntity
  8
ADP1DETAIL
100
AcDbLine
 10
-51.02417067750223
 20
35.00389762208741
 30
0.0
 11
-44.09080007771509
 21
35.00599927060498
 31
0.0
  0
LINE
  5
2C2
330
18
100
AcDbEntity
  8
ADP1DETAIL
100
AcDbLine
 10
-50.91681144093203
 20
33.11402754814526
 30
0.0
 11
-44.0890722896607
 21
33.10600005619765
 31
0.0
  0
LINE
  5
2C3
330
18
100
AcDbEntity
  8
ADP3DETAIL
  6
CENTER2
100
AcDbLine
 10
-50.98639735085045
 20
34.05420599269817
 30
0.0
 11
-43.92461672735897
 21
34.05417352385875
 31
0.0
  0
DIMENSION
  5
2C4
330
18
100
AcDbEntity
  8
ADPDIM
100
AcDbDimension
  2
*D2
 10
-51.09014143937458
 20
35.48249273683145
 30
0.0
 11
-47.59047075854484
 21
35.48249273683145
 31
0.0
100
AcDbAlignedDimension
 13
-44.09080007771509
 23
35.00599927060498
 33
0.0
 14
-51.09014143937458
 24
34.40105124136539
 34
0.0
100
AcDbRotatedDimension
  0
DIMENSION
  5
2C5
330
18
100
AcDbEntity
  8
ADPDIM
100
AcDbDimension
  2
*D3
 10
-50.90603022227521
 20
30.9765433791979
 30
0.0
 11
-50.88537149650378
 21
30.72531906190073
 31
0.0
 70
     4
100
AcDbRadialDimension
 15
-51.15189690101881
 25
33.96645133368138
 35
0.0
 40
-3.022905625646328
  0
ARC
  5
2C6
330
18
100
AcDbEntity
  8
ADP3DETAIL
  6
CENTER2
100
AcDbCircle
 10
-50.98567741468598
 20
31.05420607908285
 30
0.0
 40
3.0
100
AcDbArc
 50
90.01374976804639
 51
93.99999999999995
  0
ARC
  5
2C7
330
18
100
AcDbEntity
  8
ADP1DETAIL
100
AcDbCircle
 10
-51.02326131528477
 20
32.00389775991069
 30
0.0
 40
3.0
100
AcDbArc
 50
90.01736753930215
 51
94.0
  0
LINE
  5
2C8
330
18
100
AcDbEntity
  8
ADP1DETAIL
100
AcDbLine
 10
-44.09080007771509
 20
35.00599927060498
 30
0.0
 11
-44.0890722896607
 21
33.10600005619765
 31
0.0
  0
DIMENSION
  5
2C9
330
18
100
AcDbEntity
  8
ADPDIM
100
AcDbDimension
  2
*D4
 10
-43.39383715682225
 20
33.10600005619765
 30
0.0
 11
-43.39383715682225
 21
34.05599966340132
 31
0.0
  1
1.900
100
AcDbAlignedDimension
 13
-44.09080007771509
 23
35.00599927060498
 33
0.0
 14
-44.09080007771509
 24
33.10600005619765
 34
0.0
 50
90.0
100
AcDbRotatedDimension
  0
CIRCLE
  5
2CA
330
18
100
AcDbEntity
  8
ADP1DETAIL
100
AcDbCircle
 10
-39.49787390686811
 20
34.05555673131454
 30
0.0
 40
0.841
  0
CIRCLE
  5
2CB
330
18
100
AcDbEntity
  8
ADP1DETAIL
100
AcDbCircle
 10
-39.49787390686811
 20
34.05555673131454
 30
0.0
 40
0.95
  0
DIMENSION
  5
2CC
330
18
100
AcDbEntity
  8
ADPDIM
100
AcDbDimension
  2
*D0
 10
-39.49868462278846
 20
34.99996814807045
 30
0.0
 11
-39.49918537641932
 21
35.58330126647158
 31
0.0
  1
0.109
100
AcDbAlignedDimension
 13
-39.49859105339573
 23
34.89096818823207
 33
0.0
 14
-39.49868462278847
 24
34.99996814807045
 34
0.0
 50
90.04918469682484
100
AcDbRotatedDimension
  0
TEXT
  5
2DA
330
18
100
AcDbEntity
  8
ADPDIM
100
AcDbText
 10
-55.9504277242402
 20
29.68894001188251
 30
0.0
 40
0.1875
  1
J U L I U S  B L U M  &  C O . ,  I N C .      ( 8 0 0 )  5 2 6 - 6 2 9 3        W W W . J U L I U S B L U M . C O M        P A R T  N o .  7 2 0 5
 41
1.25
  7
ARIAL_WIDE
 72
     1
 11
-46.16183418740527
 21
29.87644001188251
 31
0.0
100
AcDbText
 73
     3
  0
ENDSEC
  0
SECTION
  2
OBJECTS
  0
DICTIONARY
  5
C
330
0
100
AcDbDictionary
  3
ACAD_GROUP
350
D
  3
ACAD_LAYOUT
350
2D3
  3
ACAD_MLINESTYLE
350
E
  3
ACAD_PLOTSETTINGS
350
2D4
  3
ACAD_PLOTSTYLENAME
350
2D1
  3
ACDBHEADERROUNDTRIPXREC
350
41E
  3
ACDBVARIABLEDICTIONARY
350
334
  0
DICTIONARY
  5
32E
330
18
100
AcDbDictionary
280
     1
  3
ACAD_LAYOUTSELFREF
360
43F
  0
DICTIONARY
  5
32C
330
15
100
AcDbDictionary
280
     1
  3
ACAD_LAYOUTSELFREF
360
43E
  0
DICTIONARY
  5
D
102
{ACAD_REACTORS
330
C
102
}
330
C
100
AcDbDictionary
  0
DICTIONARY
  5
2D3
102
{ACAD_REACTORS
330
C
102
}
330
C
100
AcDbDictionary
  0
DICTIONARY
  5
E
102
{ACAD_REACTORS
330
C
102
}
330
C
100
AcDbDictionary
  3
STANDARD
350
1B
  0
DICTIONARY
  5
2D4
102
{ACAD_REACTORS
330
C
102
}
330
C
100
AcDbDictionary
  0
ACDBDICTIONARYWDFLT
  5
2D1
102
{ACAD_REACTORS
330
C
102
}
330
C
100
AcDbDictionary
281
     1
  3
Normal
350
2D2
100
AcDbDictionaryWithDefault
340
2D2
  0
DICTIONARY
  5
41E
102
{ACAD_REACTORS
330
C
102
}
330
C
100
AcDbDictionary
  3
CEPSNTYPE
350
428
  3
FINGERPRINTGUID
350
429
  3
HYPERLINKBASE
350
421
  3
INSUNITS
350
427
  3
LAYOUTDICT
350
423
  3
LWETCUNION
350
426
  3
PLOTSETDICT
350
424
  3
PLOTSTYLNAMDICT
350
425
  3
PSVPSCALE
350
42B
  3
PUCSBASE
350
42E
  3
PUCSORGBACK
350
434
  3
PUCSORGBOTTOM
350
430
  3
PUCSORGFRONT
350
433
  3
PUCSORGLEFT
350
431
  3
PUCSORGRIGHT
350
432
  3
PUCSORGTOP
350
42F
  3
PUCSORTHOREF
350
42C
  3
PUCSORTHOVIEW
350
42D
  3
STYLESHEET
350
422
  3
TSTACKALIGN
350
41F
  3
TSTACKSIZE
350
420
  3
UCSBASE
350
437
  3
UCSORGBACK
350
43D
  3
UCSORGBOTTOM
350
439
  3
UCSORGFRONT
350
43C
  3
UCSORGLEFT
350
43A
  3
UCSORGRIGHT
350
43B
  3
UCSORGTOP
350
438
  3
UCSORTHOREF
350
435
  3
UCSORTHOVIEW
350
436
  3
VERSIONGUID
350
42A
  0
DICTIONARY
  5
334
102
{ACAD_REACTORS
330
C
102
}
330
C
100
AcDbDictionary
  3
DIMASSOC
350
335
  0
XRECORD
  5
43F
102
{ACAD_REACTORS
330
32E
102
}
330
32E
100
AcDbXrecord
340
18
  0
XRECORD
  5
43E
102
{ACAD_REACTORS
330
32C
102
}
330
32C
100
AcDbXrecord
340
15
  0
MLINESTYLE
  5
1B
102
{ACAD_REACTORS
330
E
102
}
330
E
100
AcDbMlineStyle
  2
STANDARD
 70
     0
  3

 62
     0
 51
90.0
 52
90.0
 71
     2
 49
0.5
 62
   256
  6
BYLAYER
 49
-0.5
 62
   256
  6
BYLAYER
  0
ACDBPLACEHOLDER
  5
2D2
102
{ACAD_REACTORS
330
2D1
102
}
330
2D1
100
AcDbPlaceHolder
280
     0
  0
XRECORD
  5
428
102
{ACAD_REACTORS
330
41E
102
}
330
41E
100
AcDbXrecord
 90
        0
  0
XRECORD
  5
429
102
{ACAD_REACTORS
330
41E
102
}
330
41E
100
AcDbXrecord
  1
{B9503FFF-E8C6-414D-8504-579172E60939}
  0
XRECORD
  5
421
102
{ACAD_REACTORS
330
41E
102
}
330
41E
100
AcDbXrecord
  1

  0
XRECORD
  5
427
102
{ACAD_REACTORS
330
41E
102
}
330
41E
100
AcDbXrecord
 90
        0
  0
XRECORD
  5
423
102
{ACAD_REACTORS
330
41E
102
}
330
41E
100
AcDbXrecord
340
2D3
  0
XRECORD
  5
426
102
{ACAD_REACTORS
330
41E
102
}
330
41E
100
AcDbXrecord
 90
    14877
  0
XRECORD
  5
424
102
{ACAD_REACTORS
330
41E
102
}
330
41E
100
AcDbXrecord
340
2D4
  0
XRECORD
  5
425
102
{ACAD_REACTORS
330
41E
102
}
330
41E
100
AcDbXrecord
340
2D1
  0
XRECORD
  5
42B
102
{ACAD_REACTORS
330
41E
102
}
330
41E
100
AcDbXrecord
 40
0.0
  0
XRECORD
  5
42E
102
{ACAD_REACTORS
330
41E
102
}
330
41E
100
AcDbXrecord
340
0
  0
XRECORD
  5
434
102
{ACAD_REACTORS
330
41E
102
}
330
41E
100
AcDbXrecord
 10
0.0
 20
0.0
 30
0.0
  0
XRECORD
  5
430
102
{ACAD_REACTORS
330
41E
102
}
330
41E
100
AcDbXrecord
 10
0.0
 20
0.0
 30
0.0
  0
XRECORD
  5
433
102
{ACAD_REACTORS
330
41E
102
}
330
41E
100
AcDbXrecord
 10
0.0
 20
0.0
 30
0.0
  0
XRECORD
  5
431
102
{ACAD_REACTORS
330
41E
102
}
330
41E
100
AcDbXrecord
 10
0.0
 20
0.0
 30
0.0
  0
XRECORD
  5
432
102
{ACAD_REACTORS
330
41E
102
}
330
41E
100
AcDbXrecord
 10
0.0
 20
0.0
 30
0.0
  0
XRECORD
  5
42F
102
{ACAD_REACTORS
330
41E
102
}
330
41E
100
AcDbXrecord
 10
0.0
 20
0.0
 30
0.0
  0
XRECORD
  5
42C
102
{ACAD_REACTORS
330
41E
102
}
330
41E
100
AcDbXrecord
340
0
  0
XRECORD
  5
42D
102
{ACAD_REACTORS
330
41E
102
}
330
41E
100
AcDbXrecord
 70
     0
  0
XRECORD
  5
422
102
{ACAD_REACTORS
330
41E
102
}
330
41E
100
AcDbXrecord
  1

  0
XRECORD
  5
41F
102
{ACAD_REACTORS
330
41E
102
}
330
41E
100
AcDbXrecord
 90
        1
  0
XRECORD
  5
420
102
{ACAD_REACTORS
330
41E
102
}
330
41E
100
AcDbXrecord
 90
       70
  0
XRECORD
  5
437
102
{ACAD_REACTORS
330
41E
102
}
330
41E
100
AcDbXrecord
340
0
  0
XRECORD
  5
43D
102
{ACAD_REACTORS
330
41E
102
}
330
41E
100
AcDbXrecord
 10
0.0
 20
0.0
 30
0.0
  0
XRECORD
  5
439
102
{ACAD_REACTORS
330
41E
102
}
330
41E
100
AcDbXrecord
 10
0.0
 20
0.0
 30
0.0
  0
XRECORD
  5
43C
102
{ACAD_REACTORS
330
41E
102
}
330
41E
100
AcDbXrecord
 10
0.0
 20
0.0
 30
0.0
  0
XRECORD
  5
43A
102
{ACAD_REACTORS
330
41E
102
}
330
41E
100
AcDbXrecord
 10
0.0
 20
0.0
 30
0.0
  0
XRECORD
  5
43B
102
{ACAD_REACTORS
330
41E
102
}
330
41E
100
AcDbXrecord
 10
0.0
 20
0.0
 30
0.0
  0
XRECORD
  5
438
102
{ACAD_REACTORS
330
41E
102
}
330
41E
100
AcDbXrecord
 10
0.0
 20
0.0
 30
0.0
  0
XRECORD
  5
435
102
{ACAD_REACTORS
330
41E
102
}
330
41E
100
AcDbXrecord
340
0
  0
XRECORD
  5
436
102
{ACAD_REACTORS
330
41E
102
}
330
41E
100
AcDbXrecord
 70
     0
  0
XRECORD
  5
42A
102
{ACAD_REACTORS
330
41E
102
}
330
41E
100
AcDbXrecord
  1
{A9AA5A4F-EA43-4D69-855A-E3EDC97F7F3A}
  0
DICTIONARYVAR
  5
335
102
{ACAD_REACTORS
330
334
102
}
330
334
100
DictionaryVariables
280
     0
  1
1
  0
ENDSEC
  0
EOF
