  0
SECTION
  2
HEADER
  9
$ACADVER
  1
AC1014
  9
$ACADMAINTVER
 70
     9
  9
$DWGCODEPAGE
  3
ANSI_1252
  9
$INSBASE
 10
2.694863064791833
 20
-0.0167976904766678
 30
0.0
  9
$EXTMIN
 10
-6.198334151186077
 20
-2.504829572498318
 30
0.0
  9
$EXTMAX
 10
9.888434692606555
 20
3.667022653082974
 30
0.0
  9
$LIMMIN
 10
0.0
 20
0.0
  9
$LIMMAX
 10
36.0
 20
36.0
  9
$ORTHOMODE
 70
     1
  9
$REGENMODE
 70
     1
  9
$FILLMODE
 70
     1
  9
$QTEXTMODE
 70
     0
  9
$MIRRTEXT
 70
     1
  9
$DRAGMODE
 70
     0
  9
$LTSCALE
 40
1.0
  9
$OSMODE
 70
    37
  9
$ATTMODE
 70
     1
  9
$TEXTSIZE
 40
0.2
  9
$TRACEWID
 40
0.05
  9
$TEXTSTYLE
  7
STANDARD
  9
$CLAYER
  8
ADPDIM
  9
$CELTYPE
  6
BYLAYER
  9
$CECOLOR
 62
   256
  9
$CELTSCALE
 40
1.0
  9
$DELOBJ
 70
     1
  9
$DISPSILH
 70
     0
  9
$DIMSCALE
 40
1.0
  9
$DIMASZ
 40
0.125
  9
$DIMEXO
 40
0.0625
  9
$DIMDLI
 40
0.38
  9
$DIMRND
 40
0.0
  9
$DIMDLE
 40
0.0
  9
$DIMEXE
 40
0.18
  9
$DIMTP
 40
0.0
  9
$DIMTM
 40
0.0
  9
$DIMTXT
 40
0.125
  9
$DIMCEN
 40
0.1875
  9
$DIMTSZ
 40
0.125
  9
$DIMTOL
 70
     0
  9
$DIMLIM
 70
     0
  9
$DIMTIH
 70
     0
  9
$DIMTOH
 70
     0
  9
$DIMSE1
 70
     0
  9
$DIMSE2
 70
     0
  9
$DIMTAD
 70
     0
  9
$DIMZIN
 70
     3
  9
$DIMBLK
  1

  9
$DIMASO
 70
     1
  9
$DIMSHO
 70
     1
  9
$DIMPOST
  1

  9
$DIMAPOST
  1

  9
$DIMALT
 70
     0
  9
$DIMALTD
 70
     1
  9
$DIMALTF
 40
25.4
  9
$DIMLFAC
 40
1.0
  9
$DIMTOFL
 70
     0
  9
$DIMTVP
 40
0.0
  9
$DIMTIX
 70
     0
  9
$DIMSOXD
 70
     0
  9
$DIMSAH
 70
     0
  9
$DIMBLK1
  1

  9
$DIMBLK2
  1

  9
$DIMSTYLE
  2
STANDARD
  9
$DIMCLRD
 70
     0
  9
$DIMCLRE
 70
     0
  9
$DIMCLRT
 70
     0
  9
$DIMTFAC
 40
1.0
  9
$DIMGAP
 40
0.125
  9
$DIMJUST
 70
     0
  9
$DIMSD1
 70
     0
  9
$DIMSD2
 70
     0
  9
$DIMTOLJ
 70
     1
  9
$DIMTZIN
 70
     0
  9
$DIMALTZ
 70
     0
  9
$DIMALTTZ
 70
     0
  9
$DIMFIT
 70
     3
  9
$DIMUPT
 70
     0
  9
$DIMUNIT
 70
     2
  9
$DIMDEC
 70
     4
  9
$DIMTDEC
 70
     4
  9
$DIMALTU
 70
     2
  9
$DIMALTTD
 70
     2
  9
$DIMTXSTY
  7
STANDARD
  9
$DIMAUNIT
 70
     0
  9
$LUNITS
 70
     5
  9
$LUPREC
 70
     4
  9
$SKETCHINC
 40
0.1
  9
$FILLETRAD
 40
1.875
  9
$AUNITS
 70
     0
  9
$AUPREC
 70
     0
  9
$MENU
  1
acad
  9
$ELEVATION
 40
0.0
  9
$PELEVATION
 40
0.0
  9
$THICKNESS
 40
0.0
  9
$LIMCHECK
 70
     0
  9
$BLIPMODE
 70
     0
  9
$CHAMFERA
 40
0.0
  9
$CHAMFERB
 40
0.0
  9
$CHAMFERC
 40
0.0
  9
$CHAMFERD
 40
0.0
  9
$SKPOLY
 70
     0
  9
$TDCREATE
 40
2450233.626233599
  9
$TDUPDATE
 40
2452297.075270543
  9
$TDINDWG
 40
0.0125480787
  9
$TDUSRTIMER
 40
0.0125480787
  9
$USRTIMER
 70
     1
  9
$ANGBASE
 50
0.0
  9
$ANGDIR
 70
     0
  9
$PDMODE
 70
     0
  9
$PDSIZE
 40
0.0
  9
$PLINEWID
 40
0.0
  9
$COORDS
 70
     2
  9
$SPLFRAME
 70
     0
  9
$SPLINETYPE
 70
     6
  9
$SPLINESEGS
 70
     8
  9
$ATTDIA
 70
     0
  9
$ATTREQ
 70
     1
  9
$HANDLING
 70
 22529
  9
$HANDSEED
  5
212
  9
$SURFTAB1
 70
     6
  9
$SURFTAB2
 70
     6
  9
$SURFTYPE
 70
     6
  9
$SURFU
 70
     6
  9
$SURFV
 70
     6
  9
$UCSNAME
  2

  9
$UCSORG
 10
0.0
 20
0.0
 30
0.0
  9
$UCSXDIR
 10
1.0
 20
0.0
 30
0.0
  9
$UCSYDIR
 10
0.0
 20
1.0
 30
0.0
  9
$PUCSNAME
  2

  9
$PUCSORG
 10
0.0
 20
0.0
 30
0.0
  9
$PUCSXDIR
 10
1.0
 20
0.0
 30
0.0
  9
$PUCSYDIR
 10
0.0
 20
1.0
 30
0.0
  9
$USERI1
 70
     0
  9
$USERI2
 70
     0
  9
$USERI3
 70
     0
  9
$USERI4
 70
     0
  9
$USERI5
 70
     0
  9
$USERR1
 40
0.0
  9
$USERR2
 40
0.0
  9
$USERR3
 40
0.0
  9
$USERR4
 40
0.0
  9
$USERR5
 40
0.0
  9
$WORLDVIEW
 70
     1
  9
$SHADEDGE
 70
     3
  9
$SHADEDIF
 70
    70
  9
$TILEMODE
 70
     1
  9
$MAXACTVP
 70
    15
  9
$PINSBASE
 10
0.0
 20
-3.941062727799726E+99
 30
0.0
  9
$PLIMCHECK
 70
     0
  9
$PEXTMIN
 10
1.000000000000000E+20
 20
1.000000000000000E+20
 30
1.000000000000000E+20
  9
$PEXTMAX
 10
-1.000000000000000E+20
 20
-1.000000000000000E+20
 30
-1.000000000000000E+20
  9
$PLIMMIN
 10
0.0
 20
0.0
  9
$PLIMMAX
 10
12.0
 20
9.0
  9
$UNITMODE
 70
     0
  9
$VISRETAIN
 70
     0
  9
$PLINEGEN
 70
     0
  9
$PSLTSCALE
 70
     1
  9
$TREEDEPTH
 70
  3020
  9
$PICKSTYLE
 70
     1
  9
$CMLSTYLE
  2
STANDARD
  9
$CMLJUST
 70
     0
  9
$CMLSCALE
 40
1.0
  9
$PROXYGRAPHICS
 70
     1
  9
$MEASUREMENT
 70
     0
  0
ENDSEC
  0
SECTION
  2
CLASSES
  0
CLASS
  1
ACDBDICTIONARYWDFLT
  2
AcDbDictionaryWithDefault
  3
AutoCAD 2000
 90
        0
280
     0
281
     0
  0
CLASS
  1
ACDBPLACEHOLDER
  2
AcDbPlaceHolder
  3
AutoCAD 2000
 90
        0
280
     0
281
     0
  0
CLASS
  1
LAYOUT
  2
AcDbLayout
  3
AutoCAD 2000
 90
        0
280
     0
281
     0
  0
CLASS
  1
DICTIONARYVAR
  2
AcDbDictionaryVar
  3
AutoCAD 2000
 90
        0
280
     0
281
     0
  0
CLASS
  1
LONG_TRANSACTION
  2
AcDbLongTransaction
  3
AutoCAD 2000
 90
        0
280
     0
281
     0
  0
CLASS
  1
LWPOLYLINE
  2
AcDbPolyline
  3
AutoCAD 2000
 90
        0
280
     0
281
     1
  0
CLASS
  1
HATCH
  2
AcDbHatch
  3
AutoCAD 2000
 90
        0
280
     0
281
     1
  0
CLASS
  1
XRECORD
  2
AcDbXrecord
  3
AutoCAD 2000
 90
        0
280
     0
281
     0
  0
CLASS
  1
LONG_TRANSACTION
  2
AcDbLongTransaction
  3
AutoCAD 2000
 90
        0
280
     0
281
     0
  0
CLASS
  1
LWPOLYLINE
  2
AcDbPolyline
  3
AutoCAD 2000
 90
        0
280
     0
281
     1
  0
CLASS
  1
HATCH
  2
AcDbHatch
  3
AutoCAD 2000
 90
        0
280
     0
281
     1
  0
CLASS
  1
XRECORD
  2
AcDbXrecord
  3
AutoCAD 2000
 90
        0
280
     0
281
     0
  0
CLASS
  1
LONG_TRANSACTION
  2
AcDbLongTransaction
  3
AutoCAD 2000
 90
        0
280
     0
281
     0
  0
CLASS
  1
LWPOLYLINE
  2
AcDbPolyline
  3
AutoCAD 2000
 90
        0
280
     0
281
     1
  0
CLASS
  1
HATCH
  2
AcDbHatch
  3
AutoCAD 2000
 90
        0
280
     0
281
     1
  0
CLASS
  1
XRECORD
  2
AcDbXrecord
  3
AutoCAD 2000
 90
        0
280
     0
281
     0
  0
CLASS
  1
LONG_TRANSACTION
  2
AcDbLongTransaction
  3
AutoCAD 2000
 90
        0
280
     0
281
     0
  0
CLASS
  1
LWPOLYLINE
  2
AcDbPolyline
  3
AutoCAD 2000
 90
        0
280
     0
281
     1
  0
CLASS
  1
HATCH
  2
AcDbHatch
  3
AutoCAD 2000
 90
        0
280
     0
281
     1
  0
CLASS
  1
XRECORD
  2
AcDbXrecord
  3
AutoCAD 2000
 90
        0
280
     0
281
     0
  0
CLASS
  1
LONG_TRANSACTION
  2
AcDbLongTransaction
  3
AutoCAD 2000
 90
        0
280
     0
281
     0
  0
CLASS
  1
LWPOLYLINE
  2
AcDbPolyline
  3
AutoCAD 2000
 90
        0
280
     0
281
     1
  0
CLASS
  1
HATCH
  2
AcDbHatch
  3
AutoCAD 2000
 90
        0
280
     0
281
     1
  0
CLASS
  1
XRECORD
  2
AcDbXrecord
  3
AutoCAD 2000
 90
        0
280
     0
281
     0
  0
ENDSEC
  0
SECTION
  2
TABLES
  0
TABLE
  2
VPORT
  5
8
330
0
100
AcDbSymbolTable
 70
     2
  0
VPORT
  5
1EF
330
8
100
AcDbSymbolTableRecord
100
AcDbViewportTableRecord
  2
*ACTIVE
 70
     0
 10
0.0
 20
0.0
 11
1.0
 21
1.0
 12
1.858361510816877
 22
0.5805820922266554
 13
0.0
 23
0.0
 14
0.5740882589684922
 24
0.5740882589684922
 15
0.5
 25
0.5
 16
0.0
 26
0.0
 36
1.0
 17
0.0
 27
0.0
 37
0.0
 40
10.31180700118744
 41
1.570528967254407
 42
50.0
 43
0.0
 44
0.0
 50
0.0
 51
0.0
 71
     0
 72
   100
 73
     1
 74
     1
 75
     0
 76
     0
 77
     0
 78
     0
  0
ENDTAB
  0
TABLE
  2
LTYPE
  5
5
330
0
100
AcDbSymbolTable
 70
     2
  0
LTYPE
  5
12
330
5
100
AcDbSymbolTableRecord
100
AcDbLinetypeTableRecord
  2
BYBLOCK
 70
     0
  3

 72
    65
 73
     0
 40
0.0
  0
LTYPE
  5
13
330
5
100
AcDbSymbolTableRecord
100
AcDbLinetypeTableRecord
  2
BYLAYER
 70
     0
  3

 72
    65
 73
     0
 40
0.0
  0
LTYPE
  5
14
330
5
100
AcDbSymbolTableRecord
100
AcDbLinetypeTableRecord
  2
CONTINUOUS
 70
     0
  3
Solid line
 72
    65
 73
     0
 40
0.0
  0
LTYPE
  5
43
330
5
100
AcDbSymbolTableRecord
100
AcDbLinetypeTableRecord
  2
CENTER2
 70
     0
  3
___ _ ___ _ ___ _ ___ _ ___ _ ___ _ ___ _ ___ _
 72
    65
 73
     4
 40
1.125
 49
0.75
 74
     0
 49
-0.125
 74
     0
 49
0.125
 74
     0
 49
-0.125
 74
     0
  0
ENDTAB
  0
TABLE
  2
LAYER
  5
2
330
0
100
AcDbSymbolTable
 70
     5
  0
LAYER
  5
F
330
2
100
AcDbSymbolTableRecord
100
AcDbLayerTableRecord
  2
0
 70
     0
 62
     7
  6
CONTINUOUS
  0
LAYER
  5
45
330
2
100
AcDbSymbolTableRecord
100
AcDbLayerTableRecord
  2
ADPDIM
 70
     0
 62
     3
  6
CONTINUOUS
  0
LAYER
  5
47
330
2
100
AcDbSymbolTableRecord
100
AcDbLayerTableRecord
  2
ADP1DETAIL
 70
     0
 62
     7
  6
CONTINUOUS
  0
LAYER
  5
48
330
2
100
AcDbSymbolTableRecord
100
AcDbLayerTableRecord
  2
ADP3DETAIL
 70
     0
 62
     1
  6
CONTINUOUS
  0
LAYER
  5
49
330
2
100
AcDbSymbolTableRecord
100
AcDbLayerTableRecord
  2
DEFPOINTS
 70
     0
 62
     7
  6
CONTINUOUS
  0
ENDTAB
  0
TABLE
  2
STYLE
  5
3
330
0
100
AcDbSymbolTable
 70
     2
  0
STYLE
  5
10
330
3
100
AcDbSymbolTableRecord
100
AcDbTextStyleTableRecord
  2
STANDARD
 70
     0
 40
0.0
 41
1.0
 50
0.0
 71
     0
 42
0.2
  3
txt
  4

  0
STYLE
  5
AB
330
3
100
AcDbSymbolTableRecord
100
AcDbTextStyleTableRecord
  2
ARIAL_WIDE
 70
     0
 40
0.0
 41
1.25
 50
0.0
 71
     0
 42
0.2
  3
ARIAL.TTF
  4

1001
ACAD
1000
Arial
1071
       34
  0
ENDTAB
  0
TABLE
  2
VIEW
  5
6
330
0
100
AcDbSymbolTable
 70
     0
  0
ENDTAB
  0
TABLE
  2
UCS
  5
7
330
0
100
AcDbSymbolTable
 70
     0
  0
ENDTAB
  0
TABLE
  2
APPID
  5
9
330
0
100
AcDbSymbolTable
 70
     1
  0
APPID
  5
11
330
9
100
AcDbSymbolTableRecord
100
AcDbRegAppTableRecord
  2
ACAD
 70
     0
  0
ENDTAB
  0
TABLE
  2
DIMSTYLE
  5
A
330
0
100
AcDbSymbolTable
 70
     1
  0
DIMSTYLE
105
9F
330
A
100
AcDbSymbolTableRecord
100
AcDbDimStyleTableRecord
  2
STANDARD
 70
     0
  3

  4

  5

  6

  7

 40
1.0
 41
0.18
 42
0.0625
 43
0.38
 44
0.18
 45
0.0
 46
0.0
 47
0.0
 48
0.0
140
0.18
141
0.09
142
0.0
143
25.4
144
1.0
145
0.0
146
1.0
147
0.09
 71
     0
 72
     0
 73
     1
 74
     1
 75
     0
 76
     0
 77
     0
 78
     0
170
     0
171
     2
172
     0
173
     0
174
     0
175
     0
176
     0
177
     0
178
     0
270
     2
271
     4
272
     4
273
     2
274
     2
340
10
275
     0
280
     0
281
     0
282
     0
283
     1
284
     0
285
     0
286
     0
287
     3
288
     0
  0
ENDTAB
  0
TABLE
  2
BLOCK_RECORD
  5
1
330
0
100
AcDbSymbolTable
 70
     2
  0
BLOCK_RECORD
  5
18
102
{ACAD_XDICTIONARY
360
100
102
}
330
1
100
AcDbSymbolTableRecord
100
AcDbBlockTableRecord
  2
*MODEL_SPACE
  0
BLOCK_RECORD
  5
15
102
{ACAD_XDICTIONARY
360
FE
102
}
330
1
100
AcDbSymbolTableRecord
100
AcDbBlockTableRecord
  2
*PAPER_SPACE
  0
BLOCK_RECORD
  5
3D
330
1
100
AcDbSymbolTableRecord
100
AcDbBlockTableRecord
  2
*D0
  0
BLOCK_RECORD
  5
3E
330
1
100
AcDbSymbolTableRecord
100
AcDbBlockTableRecord
  2
*D1
  0
ENDTAB
  0
ENDSEC
  0
SECTION
  2
BLOCKS
  0
BLOCK
  5
4C
330
18
100
AcDbEntity
  8
0
100
AcDbBlockBegin
  2
*MODEL_SPACE
 70
     0
 10
0.0
 20
0.0
 30
0.0
  3
*MODEL_SPACE
  1

  0
ENDBLK
  5
4D
330
18
100
AcDbEntity
  8
0
100
AcDbBlockEnd
  0
BLOCK
  5
4A
330
15
100
AcDbEntity
 67
     1
  8
0
100
AcDbBlockBegin
  2
*PAPER_SPACE
 70
     0
 10
0.0
 20
0.0
 30
0.0
  3
*PAPER_SPACE
  1

  0
ENDBLK
  5
4B
330
15
100
AcDbEntity
 67
     1
  8
0
100
AcDbBlockEnd
  0
BLOCK
  5
4F
330
3D
100
AcDbEntity
  8
0
100
AcDbBlockBegin
  2
*D0
 70
     1
 10
0.0
 20
0.0
 30
0.0
  3
*D0
  1

  0
LINE
  5
50
330
3D
100
AcDbEntity
  8
0
  6
BYBLOCK
 62
     0
100
AcDbLine
 10
2.694863064791833
 20
-0.0792976904766678
 30
0.0
 11
2.694863064791833
 21
-1.631963317088098
 31
0.0
  0
LINE
  5
51
330
3D
100
AcDbEntity
  8
0
  6
BYBLOCK
 62
     0
100
AcDbLine
 10
5.069863064791833
 20
-0.0792976904766678
 30
0.0
 11
5.069863064791833
 21
-1.631963317088098
 31
0.0
  0
LINE
  5
52
330
3D
100
AcDbEntity
  8
0
  6
BYBLOCK
 62
     0
100
AcDbLine
 10
2.694863064791833
 20
-1.451963317088098
 30
0.0
 11
3.465696398125166
 21
-1.451963317088098
 31
0.0
  0
LINE
  5
53
330
3D
100
AcDbEntity
  8
0
  6
BYBLOCK
 62
     0
100
AcDbLine
 10
5.069863064791833
 20
-1.451963317088098
 30
0.0
 11
4.299029731458499
 21
-1.451963317088098
 31
0.0
  0
LINE
  5
54
330
3D
100
AcDbEntity
  8
0
  6
BYBLOCK
 62
     0
100
AcDbLine
 10
2.569863064791833
 20
-1.576963317088098
 30
0.0
 11
2.819863064791833
 21
-1.326963317088098
 31
0.0
  0
LINE
  5
55
330
3D
100
AcDbEntity
  8
0
  6
BYBLOCK
 62
     0
100
AcDbLine
 10
4.944863064791833
 20
-1.576963317088098
 30
0.0
 11
5.194863064791833
 21
-1.326963317088098
 31
0.0
  0
TEXT
  5
56
330
3D
100
AcDbEntity
  8
0
  6
BYBLOCK
 62
     0
100
AcDbText
 10
3.590696398125166
 20
-1.514463317088098
 30
0.0
 40
0.125
  1
2 3/8
 72
     1
 11
3.882363064791833
 21
-1.451963317088098
 31
0.0
100
AcDbText
 73
     2
  0
POINT
  5
57
330
3D
100
AcDbEntity
  8
DEFPOINTS
  6
BYBLOCK
 62
     0
100
AcDbPoint
 10
2.694863064791833
 20
-0.0167976904766678
 30
0.0
  0
POINT
  5
58
330
3D
100
AcDbEntity
  8
DEFPOINTS
  6
BYBLOCK
 62
     0
100
AcDbPoint
 10
5.069863064791833
 20
-0.0167976904766678
 30
0.0
  0
POINT
  5
59
330
3D
100
AcDbEntity
  8
DEFPOINTS
  6
BYBLOCK
 62
     0
100
AcDbPoint
 10
5.069863064791833
 20
-1.451963317088098
 30
0.0
  0
ENDBLK
  5
5A
330
3D
100
AcDbEntity
  8
0
100
AcDbBlockEnd
  0
BLOCK
  5
5B
330
3E
100
AcDbEntity
  8
0
100
AcDbBlockBegin
  2
*D1
 70
     1
 10
0.0
 20
0.0
 30
0.0
  3
*D1
  1

  0
LINE
  5
5C
330
3E
100
AcDbEntity
  8
0
  6
BYBLOCK
 62
     0
100
AcDbLine
 10
3.376436460231786
 20
1.264320195550422
 30
0.0
 11
2.379050623807504
 21
0.331010967156115
 31
0.0
  0
LINE
  5
5D
330
3E
100
AcDbEntity
  8
0
  6
BYBLOCK
 62
     0
100
AcDbLine
 10
3.370572759604261
 20
1.087640776785953
 30
0.0
 11
3.38230016085931
 21
1.440999614314892
 31
0.0
  0
TEXT
  5
5E
330
3E
100
AcDbEntity
  8
0
  6
BYBLOCK
 62
     0
100
AcDbText
 10
1.843701341933761
 20
-0.255541253458877
 30
0.0
 40
0.125
  1
R1 7/8
 50
43.09914459487864
 72
     1
 11
2.044388238255516
 21
0.0178488172383819
 31
0.0
100
AcDbText
 73
     2
  0
POINT
  5
5F
330
3E
100
AcDbEntity
  8
DEFPOINTS
  6
BYBLOCK
 62
     0
100
AcDbPoint
 10
3.376436460231786
 20
1.264320195550422
 30
0.0
  0
POINT
  5
60
330
3E
100
AcDbEntity
  8
DEFPOINTS
  6
BYBLOCK
 62
     0
100
AcDbPoint
 10
2.007363064791833
 20
-0.0167976904766676
 30
0.0
  0
ENDBLK
  5
61
330
3E
100
AcDbEntity
  8
0
100
AcDbBlockEnd
  0
ENDSEC
  0
SECTION
  2
ENTITIES
  0
LINE
  5
62
330
18
100
AcDbEntity
  8
0
100
AcDbLine
 10
2.007363064791833
 20
0.9867211611856813
 30
0.0
 11
1.007363064791833
 21
0.9867211611856813
 31
0.0
  0
LINE
  5
63
330
18
100
AcDbEntity
  8
0
100
AcDbLine
 10
1.101113064791833
 20
0.8251176867227933
 30
0.0
 11
1.913613064791833
 21
0.8251176867227933
 31
0.0
  0
LINE
  5
64
330
18
100
AcDbEntity
  8
0
100
AcDbLine
 10
1.007363064791833
 20
2.729633425765879
 30
0.0
 11
2.007363064791833
 21
2.729633425765879
 31
0.0
  0
LINE
  5
65
330
18
100
AcDbEntity
  8
0
100
AcDbLine
 10
1.101113064791833
 20
2.891236900228765
 30
0.0
 11
1.913613064791833
 21
2.891236900228765
 31
0.0
  0
LINE
  5
66
330
18
100
AcDbEntity
  8
0
100
AcDbLine
 10
1.007363064791833
 20
1.936173763253305
 30
0.0
 11
2.007363064791833
 21
1.936173763253305
 31
0.0
  0
LINE
  5
67
330
18
100
AcDbEntity
  8
0
100
AcDbLine
 10
1.007363064791833
 20
1.789473535496289
 30
0.0
 11
2.007363064791833
 21
1.789473535496289
 31
0.0
  0
LINE
  5
68
330
18
100
AcDbEntity
  8
0
100
AcDbLine
 10
1.007363064791833
 20
1.926809945213571
 30
0.0
 11
2.007363064791833
 21
1.926809945213571
 31
0.0
  0
LINE
  5
69
330
18
100
AcDbEntity
  8
0
100
AcDbLine
 10
1.007363064791833
 20
1.780109678850194
 30
0.0
 11
2.007363064791833
 21
1.780109678850194
 31
0.0
  0
LINE
  5
6A
330
18
100
AcDbEntity
  8
ADP3DETAIL
  6
CENTER2
100
AcDbLine
 10
0.7997677118848581
 20
1.858202309523332
 30
0.0
 11
2.007363064791833
 21
1.858202309523332
 31
0.0
  0
LINE
  5
6B
330
18
100
AcDbEntity
  8
ADP1DETAIL
100
AcDbLine
 10
1.007363064791833
 20
2.729633425765879
 30
0.0
 11
1.007363064791833
 21
0.9867211611856813
 31
0.0
  0
ARC
  5
6C
330
18
100
AcDbEntity
  8
0
100
AcDbCircle
 10
-0.4152003534156488
 20
1.858202309523332
 30
0.0
 40
0.8670256373185235
100
AcDbArc
 50
6.55886418118808
 51
83.48573745617622
  0
ARC
  5
6D
330
18
100
AcDbEntity
  8
0
100
AcDbCircle
 10
-0.4152003534156488
 20
1.858202309523332
 30
0.0
 40
0.8670256373185235
100
AcDbArc
 50
96.55886418118813
 51
173.4857374561762
  0
CIRCLE
  5
6E
330
18
100
AcDbEntity
  8
0
100
AcDbCircle
 10
-0.4152003534156488
 20
1.858202309523332
 30
0.0
 40
0.7052671228934261
  0
CIRCLE
  5
6F
330
18
100
AcDbEntity
  8
0
100
AcDbCircle
 10
-0.4152003534156488
 20
1.858202309523332
 30
0.0
 40
1.185274909932604
  0
ARC
  5
70
330
18
100
AcDbEntity
  8
0
100
AcDbCircle
 10
-0.4152003534156488
 20
1.858202309523332
 30
0.0
 40
0.8670256373185235
100
AcDbArc
 50
276.558864181188
 51
353.4857374561763
  0
ARC
  5
71
330
18
100
AcDbEntity
  8
0
100
AcDbCircle
 10
-0.4152003534156488
 20
1.858202309523332
 30
0.0
 40
0.8670256373185235
100
AcDbArc
 50
186.558864181188
 51
263.4857374561763
  0
LINE
  5
72
330
18
100
AcDbEntity
  8
0
100
AcDbLine
 10
-0.327704893821157
 20
0.8331455425932318
 30
0.0
 11
-0.3160980322000468
 21
0.9978053825809205
 31
0.0
  0
LINE
  5
73
330
18
100
AcDbEntity
  8
0
100
AcDbLine
 10
-0.5025758754036618
 20
0.8331353121830776
 30
0.0
 11
-0.5136439860473287
 21
0.997952496693396
 31
0.0
  0
ARC
  5
74
330
18
100
AcDbEntity
  8
0
100
AcDbCircle
 10
-0.4152003534156488
 20
1.858202309523332
 30
0.0
 40
1.028784151743621
100
AcDbArc
 50
265.1279509807597
 51
274.8787529253829
  0
ARC
  5
75
330
18
100
AcDbEntity
  8
0
100
AcDbCircle
 10
-0.4152003534156488
 20
1.858202309523332
 30
0.0
 40
1.028784151743621
100
AcDbArc
 50
175.1279509807597
 51
184.8787529253829
  0
LINE
  5
76
330
18
100
AcDbEntity
  8
0
100
AcDbLine
 10
-1.440257120345749
 20
1.770706849928841
 30
0.0
 11
-1.27559728035806
 21
1.75909998830773
 31
0.0
  0
LINE
  5
77
330
18
100
AcDbEntity
  8
0
100
AcDbLine
 10
-1.440267350755902
 20
1.945577831511345
 30
0.0
 11
-1.275450166245585
 21
1.956645942155013
 31
0.0
  0
LINE
  5
78
330
18
100
AcDbEntity
  8
0
100
AcDbLine
 10
1.101113064791833
 20
0.8251176867227933
 30
0.0
 11
1.007363064791833
 21
0.9867211611856806
 31
0.0
  0
LINE
  5
79
330
18
100
AcDbEntity
  8
0
100
AcDbLine
 10
0.6098666439246059
 20
1.770826787535319
 30
0.0
 11
0.4450494594142875
 21
1.759758676891653
 31
0.0
  0
LINE
  5
7A
330
18
100
AcDbEntity
  8
0
100
AcDbLine
 10
0.6098564135144516
 20
1.945697769117822
 30
0.0
 11
0.4451965735267631
 21
1.957304630738934
 31
0.0
  0
LINE
  5
7B
330
18
100
AcDbEntity
  8
0
100
AcDbLine
 10
1.101113064791833
 20
1.936173763253305
 30
0.0
 11
1.101113064791833
 21
1.780109678850194
 31
0.0
  0
ARC
  5
7C
330
18
100
AcDbEntity
  8
0
100
AcDbCircle
 10
-0.4152003534156488
 20
1.858202309523332
 30
0.0
 40
1.028784151743621
100
AcDbArc
 50
355.1279509807597
 51
4.878752925382947
  0
LINE
  5
7D
330
18
100
AcDbEntity
  8
0
100
AcDbLine
 10
-0.3278248314276357
 20
2.883269306863586
 30
0.0
 11
-0.3167567207839689
 21
2.718452122353268
 31
0.0
  0
LINE
  5
7E
330
18
100
AcDbEntity
  8
0
100
AcDbLine
 10
-0.5026958130101404
 20
2.883259076453432
 30
0.0
 11
-0.5143026746312507
 21
2.718599236465744
 31
0.0
  0
ARC
  5
7F
330
18
100
AcDbEntity
  8
0
100
AcDbCircle
 10
-0.4152003534156488
 20
1.858202309523332
 30
0.0
 40
1.028784151743621
100
AcDbArc
 50
85.12795098075974
 51
94.87875292538296
  0
LINE
  5
80
330
18
100
AcDbEntity
  8
0
100
AcDbLine
 10
1.101113064791833
 20
2.891236900228765
 30
0.0
 11
1.007363064791833
 21
2.729633425765879
 31
0.0
  0
ARC
  5
81
330
18
100
AcDbEntity
  8
ADP1DETAIL
100
AcDbCircle
 10
2.069863064791833
 20
0.0457023095233323
 30
0.0
 40
3.0
100
AcDbArc
 50
0.0
 51
90.0
  0
LINE
  5
82
330
18
100
AcDbEntity
  8
ADP1DETAIL
100
AcDbLine
 10
2.007363064791833
 20
0.6707023095233323
 30
0.0
 11
2.007363064791833
 21
3.045702309523332
 31
0.0
  0
LINE
  5
83
330
18
100
AcDbEntity
  8
0
100
AcDbLine
 10
4.753819197081933
 20
-0.0167976904766678
 30
0.0
 11
4.753819197081933
 21
-1.016797690476668
 31
0.0
  0
LINE
  5
84
330
18
100
AcDbEntity
  8
0
100
AcDbLine
 10
4.915422671544819
 20
-0.1105476904766678
 30
0.0
 11
4.915422671544819
 21
-0.9230476904766682
 31
0.0
  0
LINE
  5
85
330
18
100
AcDbEntity
  8
0
100
AcDbLine
 10
3.960359534569358
 20
-0.0167976904766678
 30
0.0
 11
3.960359534569358
 21
-1.016797690476668
 31
0.0
  0
LINE
  5
86
330
18
100
AcDbEntity
  8
0
100
AcDbLine
 10
3.950995716529624
 20
-0.0167976904766678
 30
0.0
 11
3.950995716529624
 21
-1.016797690476668
 31
0.0
  0
LINE
  5
87
330
18
100
AcDbEntity
  8
0
100
AcDbLine
 10
3.813659306812342
 20
-0.0167976904766678
 30
0.0
 11
3.813659306812342
 21
-1.016797690476668
 31
0.0
  0
LINE
  5
88
330
18
100
AcDbEntity
  8
0
100
AcDbLine
 10
3.804295450166247
 20
-0.0167976904766678
 30
0.0
 11
3.804295450166247
 21
-1.016797690476668
 31
0.0
  0
LINE
  5
89
330
18
100
AcDbEntity
  8
0
100
AcDbLine
 10
3.010906932501734
 20
-1.016797690476668
 30
0.0
 11
3.010906932501734
 21
-0.0167976904766678
 31
0.0
  0
LINE
  5
8A
330
18
100
AcDbEntity
  8
0
100
AcDbLine
 10
2.849303458038846
 20
-0.1105476904766678
 30
0.0
 11
2.849303458038846
 21
-0.9230476904766682
 31
0.0
  0
DIMENSION
  5
8B
330
18
100
AcDbEntity
  8
ADPDIM
100
AcDbDimension
  2
*D0
 10
5.069863064791833
 20
-1.451963317088098
 30
0.0
 11
3.882363064791833
 21
-1.451963317088098
 31
0.0
100
AcDbAlignedDimension
 13
2.694863064791833
 23
-0.0167976904766678
 33
0.0
 14
5.069863064791833
 24
-0.0167976904766678
 34
0.0
100
AcDbRotatedDimension
  0
LINE
  5
8C
330
18
100
AcDbEntity
  8
ADP3DETAIL
  6
CENTER2
100
AcDbLine
 10
3.882363064791833
 20
-0.0167976904766678
 30
0.0
 11
3.882363064791833
 21
-1.11050993485197
 31
0.0
  0
LINE
  5
8D
330
18
100
AcDbEntity
  8
ADP1DETAIL
100
AcDbLine
 10
4.753819197081933
 20
-1.016797690476668
 30
0.0
 11
3.010906932501734
 21
-1.016797690476668
 31
0.0
  0
LINE
  5
8E
330
18
100
AcDbEntity
  8
0
100
AcDbLine
 10
2.849303458038846
 20
-0.9230476904766682
 30
0.0
 11
3.010906932501733
 21
-1.016797690476668
 31
0.0
  0
LINE
  5
8F
330
18
100
AcDbEntity
  8
0
100
AcDbLine
 10
3.960359534569358
 20
-0.9230476904766682
 30
0.0
 11
3.804295450166247
 21
-0.9230476904766682
 31
0.0
  0
LINE
  5
90
330
18
100
AcDbEntity
  8
0
100
AcDbLine
 10
4.915422671544819
 20
-0.9230476904766682
 30
0.0
 11
4.753819197081933
 21
-1.016797690476668
 31
0.0
  0
ARC
  5
91
330
18
100
AcDbEntity
  8
ADP3DETAIL
  6
CENTER2
100
AcDbCircle
 10
2.007363064791833
 20
-0.0167976904766678
 30
0.0
 40
1.875
100
AcDbArc
 50
0.0
 51
90.0
  0
LINE
  5
92
330
18
100
AcDbEntity
  8
ADP1DETAIL
100
AcDbLine
 10
5.069863064791833
 20
-0.0167976904766678
 30
0.0
 11
2.694863064791833
 21
-0.0167976904766678
 31
0.0
  0
DIMENSION
  5
93
330
18
100
AcDbEntity
  8
ADPDIM
100
AcDbDimension
  2
*D1
 10
2.007363064791833
 20
-0.0167976904766676
 30
0.0
 11
2.044388238255516
 21
0.0178488172383819
 31
0.0
 70
     4
100
AcDbRadialDimension
 15
3.376436460231786
 25
1.264320195550422
 35
0.0
 40
-1.365959231641171
  0
ARC
  5
94
330
18
100
AcDbEntity
  8
ADP1DETAIL
100
AcDbCircle
 10
2.319863064791833
 20
0.2957023095233323
 30
0.0
 40
0.375
100
AcDbArc
 50
0.0
 51
90.0
  0
LINE
  5
95
330
18
100
AcDbEntity
  8
ADP1DETAIL
100
AcDbLine
 10
2.319863064791833
 20
0.6707023095233323
 30
0.0
 11
2.007363064791833
 21
0.6707023095233323
 31
0.0
  0
LINE
  5
96
330
18
100
AcDbEntity
  8
0
100
AcDbLine
 10
2.849303458038846
 20
-0.1105476904766678
 30
0.0
 11
3.010906932501733
 21
-0.0167976904766678
 31
0.0
  0
LINE
  5
97
330
18
100
AcDbEntity
  8
ADP1DETAIL
100
AcDbLine
 10
2.694863064791833
 20
-0.0167976904766678
 30
0.0
 11
2.694863064791833
 21
0.2957023095233323
 31
0.0
  0
LINE
  5
98
330
18
100
AcDbEntity
  8
0
100
AcDbLine
 10
1.913613064791833
 20
0.8251176867227933
 30
0.0
 11
2.007363064791833
 21
0.9867211611856806
 31
0.0
  0
LINE
  5
99
330
18
100
AcDbEntity
  8
0
100
AcDbLine
 10
1.913613064791833
 20
1.936173763253305
 30
0.0
 11
1.913613064791833
 21
1.780109678850194
 31
0.0
  0
LINE
  5
9A
330
18
100
AcDbEntity
  8
0
100
AcDbLine
 10
4.915422671544819
 20
-0.1105476904766678
 30
0.0
 11
4.753819197081933
 21
-0.0167976904766678
 31
0.0
  0
LINE
  5
9B
330
18
100
AcDbEntity
  8
0
100
AcDbLine
 10
3.960359534569358
 20
-0.1105476904766678
 30
0.0
 11
3.804295450166247
 21
-0.1105476904766678
 31
0.0
  0
LINE
  5
9C
330
18
100
AcDbEntity
  8
ADP1DETAIL
100
AcDbLine
 10
5.069863064791833
 20
0.0457023095233323
 30
0.0
 11
5.069863064791833
 21
-0.0167976904766678
 31
0.0
  0
LINE
  5
9D
330
18
100
AcDbEntity
  8
ADP1DETAIL
100
AcDbLine
 10
2.007363064791833
 20
3.045702309523332
 30
0.0
 11
2.069863064791833
 21
3.045702309523332
 31
0.0
  0
LINE
  5
9E
330
18
100
AcDbEntity
  8
0
100
AcDbLine
 10
1.913613064791833
 20
2.891236900228765
 30
0.0
 11
2.007363064791833
 21
2.729633425765879
 31
0.0
  0
TEXT
  5
AC
330
18
100
AcDbEntity
  8
ADPDIM
100
AcDbText
 10
-6.198334151186077
 20
-2.458572751215917
 30
0.0
 40
0.15625
  1
J U L I U S  B L U M  &  C O . ,  I N C .      ( 8 0 0 )  5 2 6 - 6 2 9 3        W W W . J U L I U S B L U M . C O M        P A R T  N o .  7 2 0
 41
1.25
  7
ARIAL_WIDE
 72
     1
 11
1.845050270710238
 21
-2.302322751215917
 31
0.0
100
AcDbText
 73
     3
  0
ENDSEC
  0
SECTION
  2
OBJECTS
  0
DICTIONARY
  5
C
330
0
100
AcDbDictionary
  3
ACAD_GROUP
350
D
  3
ACAD_LAYOUT
350
A5
  3
ACAD_MLINESTYLE
350
E
  3
ACAD_PLOTSETTINGS
350
A6
  3
ACAD_PLOTSTYLENAME
350
A3
  3
ACDBHEADERROUNDTRIPXREC
350
1F0
  3
ACDBVARIABLEDICTIONARY
350
106
  0
DICTIONARY
  5
100
330
18
100
AcDbDictionary
280
     1
  3
ACAD_LAYOUTSELFREF
360
211
  0
DICTIONARY
  5
FE
330
15
100
AcDbDictionary
280
     1
  3
ACAD_LAYOUTSELFREF
360
210
  0
DICTIONARY
  5
D
102
{ACAD_REACTORS
330
C
102
}
330
C
100
AcDbDictionary
  0
DICTIONARY
  5
A5
102
{ACAD_REACTORS
330
C
102
}
330
C
100
AcDbDictionary
  0
DICTIONARY
  5
E
102
{ACAD_REACTORS
330
C
102
}
330
C
100
AcDbDictionary
  3
STANDARD
350
1B
  0
DICTIONARY
  5
A6
102
{ACAD_REACTORS
330
C
102
}
330
C
100
AcDbDictionary
  0
ACDBDICTIONARYWDFLT
  5
A3
102
{ACAD_REACTORS
330
C
102
}
330
C
100
AcDbDictionary
281
     1
  3
Normal
350
A4
100
AcDbDictionaryWithDefault
340
A4
  0
DICTIONARY
  5
1F0
102
{ACAD_REACTORS
330
C
102
}
330
C
100
AcDbDictionary
  3
CEPSNTYPE
350
1FA
  3
FINGERPRINTGUID
350
1FB
  3
HYPERLINKBASE
350
1F3
  3
INSUNITS
350
1F9
  3
LAYOUTDICT
350
1F5
  3
LWETCUNION
350
1F8
  3
PLOTSETDICT
350
1F6
  3
PLOTSTYLNAMDICT
350
1F7
  3
PSVPSCALE
350
1FD
  3
PUCSBASE
350
200
  3
PUCSORGBACK
350
206
  3
PUCSORGBOTTOM
350
202
  3
PUCSORGFRONT
350
205
  3
PUCSORGLEFT
350
203
  3
PUCSORGRIGHT
350
204
  3
PUCSORGTOP
350
201
  3
PUCSORTHOREF
350
1FE
  3
PUCSORTHOVIEW
350
1FF
  3
STYLESHEET
350
1F4
  3
TSTACKALIGN
350
1F1
  3
TSTACKSIZE
350
1F2
  3
UCSBASE
350
209
  3
UCSORGBACK
350
20F
  3
UCSORGBOTTOM
350
20B
  3
UCSORGFRONT
350
20E
  3
UCSORGLEFT
350
20C
  3
UCSORGRIGHT
350
20D
  3
UCSORGTOP
350
20A
  3
UCSORTHOREF
350
207
  3
UCSORTHOVIEW
350
208
  3
VERSIONGUID
350
1FC
  0
DICTIONARY
  5
106
102
{ACAD_REACTORS
330
C
102
}
330
C
100
AcDbDictionary
  3
DIMASSOC
350
107
  0
XRECORD
  5
211
102
{ACAD_REACTORS
330
100
102
}
330
100
100
AcDbXrecord
340
18
  0
XRECORD
  5
210
102
{ACAD_REACTORS
330
FE
102
}
330
FE
100
AcDbXrecord
340
15
  0
MLINESTYLE
  5
1B
102
{ACAD_REACTORS
330
E
102
}
330
E
100
AcDbMlineStyle
  2
STANDARD
 70
     0
  3

 62
     0
 51
90.0
 52
90.0
 71
     2
 49
0.5
 62
   256
  6
BYLAYER
 49
-0.5
 62
   256
  6
BYLAYER
  0
ACDBPLACEHOLDER
  5
A4
102
{ACAD_REACTORS
330
A3
102
}
330
A3
100
AcDbPlaceHolder
280
     0
  0
XRECORD
  5
1FA
102
{ACAD_REACTORS
330
1F0
102
}
330
1F0
100
AcDbXrecord
 90
        0
  0
XRECORD
  5
1FB
102
{ACAD_REACTORS
330
1F0
102
}
330
1F0
100
AcDbXrecord
  1
{C7D0E9A9-4B6D-424F-A11F-9E8A6DD0E3D1}
  0
XRECORD
  5
1F3
102
{ACAD_REACTORS
330
1F0
102
}
330
1F0
100
AcDbXrecord
  1

  0
XRECORD
  5
1F9
102
{ACAD_REACTORS
330
1F0
102
}
330
1F0
100
AcDbXrecord
 90
        0
  0
XRECORD
  5
1F5
102
{ACAD_REACTORS
330
1F0
102
}
330
1F0
100
AcDbXrecord
340
A5
  0
XRECORD
  5
1F8
102
{ACAD_REACTORS
330
1F0
102
}
330
1F0
100
AcDbXrecord
 90
    14877
  0
XRECORD
  5
1F6
102
{ACAD_REACTORS
330
1F0
102
}
330
1F0
100
AcDbXrecord
340
A6
  0
XRECORD
  5
1F7
102
{ACAD_REACTORS
330
1F0
102
}
330
1F0
100
AcDbXrecord
340
A3
  0
XRECORD
  5
1FD
102
{ACAD_REACTORS
330
1F0
102
}
330
1F0
100
AcDbXrecord
 40
0.0
  0
XRECORD
  5
200
102
{ACAD_REACTORS
330
1F0
102
}
330
1F0
100
AcDbXrecord
340
0
  0
XRECORD
  5
206
102
{ACAD_REACTORS
330
1F0
102
}
330
1F0
100
AcDbXrecord
 10
0.0
 20
0.0
 30
0.0
  0
XRECORD
  5
202
102
{ACAD_REACTORS
330
1F0
102
}
330
1F0
100
AcDbXrecord
 10
0.0
 20
0.0
 30
0.0
  0
XRECORD
  5
205
102
{ACAD_REACTORS
330
1F0
102
}
330
1F0
100
AcDbXrecord
 10
0.0
 20
0.0
 30
0.0
  0
XRECORD
  5
203
102
{ACAD_REACTORS
330
1F0
102
}
330
1F0
100
AcDbXrecord
 10
0.0
 20
0.0
 30
0.0
  0
XRECORD
  5
204
102
{ACAD_REACTORS
330
1F0
102
}
330
1F0
100
AcDbXrecord
 10
0.0
 20
0.0
 30
0.0
  0
XRECORD
  5
201
102
{ACAD_REACTORS
330
1F0
102
}
330
1F0
100
AcDbXrecord
 10
0.0
 20
0.0
 30
0.0
  0
XRECORD
  5
1FE
102
{ACAD_REACTORS
330
1F0
102
}
330
1F0
100
AcDbXrecord
340
0
  0
XRECORD
  5
1FF
102
{ACAD_REACTORS
330
1F0
102
}
330
1F0
100
AcDbXrecord
 70
     0
  0
XRECORD
  5
1F4
102
{ACAD_REACTORS
330
1F0
102
}
330
1F0
100
AcDbXrecord
  1

  0
XRECORD
  5
1F1
102
{ACAD_REACTORS
330
1F0
102
}
330
1F0
100
AcDbXrecord
 90
        1
  0
XRECORD
  5
1F2
102
{ACAD_REACTORS
330
1F0
102
}
330
1F0
100
AcDbXrecord
 90
       70
  0
XRECORD
  5
209
102
{ACAD_REACTORS
330
1F0
102
}
330
1F0
100
AcDbXrecord
340
0
  0
XRECORD
  5
20F
102
{ACAD_REACTORS
330
1F0
102
}
330
1F0
100
AcDbXrecord
 10
0.0
 20
0.0
 30
0.0
  0
XRECORD
  5
20B
102
{ACAD_REACTORS
330
1F0
102
}
330
1F0
100
AcDbXrecord
 10
0.0
 20
0.0
 30
0.0
  0
XRECORD
  5
20E
102
{ACAD_REACTORS
330
1F0
102
}
330
1F0
100
AcDbXrecord
 10
0.0
 20
0.0
 30
0.0
  0
XRECORD
  5
20C
102
{ACAD_REACTORS
330
1F0
102
}
330
1F0
100
AcDbXrecord
 10
0.0
 20
0.0
 30
0.0
  0
XRECORD
  5
20D
102
{ACAD_REACTORS
330
1F0
102
}
330
1F0
100
AcDbXrecord
 10
0.0
 20
0.0
 30
0.0
  0
XRECORD
  5
20A
102
{ACAD_REACTORS
330
1F0
102
}
330
1F0
100
AcDbXrecord
 10
0.0
 20
0.0
 30
0.0
  0
XRECORD
  5
207
102
{ACAD_REACTORS
330
1F0
102
}
330
1F0
100
AcDbXrecord
340
0
  0
XRECORD
  5
208
102
{ACAD_REACTORS
330
1F0
102
}
330
1F0
100
AcDbXrecord
 70
     0
  0
XRECORD
  5
1FC
102
{ACAD_REACTORS
330
1F0
102
}
330
1F0
100
AcDbXrecord
  1
{70EC6B4D-EA54-4E3A-A746-EF255AAB6FD5}
  0
DICTIONARYVAR
  5
107
102
{ACAD_REACTORS
330
106
102
}
330
106
100
DictionaryVariables
280
     0
  1
1
  0
ENDSEC
  0
EOF
