  0
SECTION
  2
HEADER
  9
$ACADVER
  1
AC1014
  9
$ACADMAINTVER
 70
     9
  9
$DWGCODEPAGE
  3
ANSI_1252
  9
$INSBASE
 10
0.0022732885268396
 20
-0.0021173665511017
 30
0.0
  9
$EXTMIN
 10
-4.854532870647654
 20
-1.008188396655909
 30
0.0
  9
$EXTMAX
 10
8.196925178465578
 20
1.718655812295291
 30
0.0
  9
$LIMMIN
 10
0.0
 20
0.0
  9
$LIMMAX
 10
36.0
 20
36.0
  9
$ORTHOMODE
 70
     1
  9
$REGENMODE
 70
     1
  9
$FILLMODE
 70
     1
  9
$QTEXTMODE
 70
     0
  9
$MIRRTEXT
 70
     1
  9
$DRAGMODE
 70
     0
  9
$LTSCALE
 40
1.0
  9
$OSMODE
 70
    37
  9
$ATTMODE
 70
     1
  9
$TEXTSIZE
 40
0.125
  9
$TRACEWID
 40
0.05
  9
$TEXTSTYLE
  7
STANDARD
  9
$CLAYER
  8
ADPDIM
  9
$CELTYPE
  6
BYLAYER
  9
$CECOLOR
 62
   256
  9
$CELTSCALE
 40
1.0
  9
$DELOBJ
 70
     1
  9
$DISPSILH
 70
     0
  9
$DIMSCALE
 40
1.0
  9
$DIMASZ
 40
0.125
  9
$DIMEXO
 40
0.0625
  9
$DIMDLI
 40
0.38
  9
$DIMRND
 40
0.0
  9
$DIMDLE
 40
0.0
  9
$DIMEXE
 40
0.18
  9
$DIMTP
 40
0.0
  9
$DIMTM
 40
0.0
  9
$DIMTXT
 40
0.125
  9
$DIMCEN
 40
0.1875
  9
$DIMTSZ
 40
0.125
  9
$DIMTOL
 70
     0
  9
$DIMLIM
 70
     0
  9
$DIMTIH
 70
     0
  9
$DIMTOH
 70
     0
  9
$DIMSE1
 70
     0
  9
$DIMSE2
 70
     0
  9
$DIMTAD
 70
     0
  9
$DIMZIN
 70
     3
  9
$DIMBLK
  1

  9
$DIMASO
 70
     1
  9
$DIMSHO
 70
     1
  9
$DIMPOST
  1

  9
$DIMAPOST
  1

  9
$DIMALT
 70
     0
  9
$DIMALTD
 70
     1
  9
$DIMALTF
 40
25.4
  9
$DIMLFAC
 40
1.0
  9
$DIMTOFL
 70
     0
  9
$DIMTVP
 40
0.0
  9
$DIMTIX
 70
     0
  9
$DIMSOXD
 70
     0
  9
$DIMSAH
 70
     0
  9
$DIMBLK1
  1

  9
$DIMBLK2
  1

  9
$DIMSTYLE
  2
ADPDIM
  9
$DIMCLRD
 70
     0
  9
$DIMCLRE
 70
     0
  9
$DIMCLRT
 70
     0
  9
$DIMTFAC
 40
1.0
  9
$DIMGAP
 40
0.125
  9
$DIMJUST
 70
     0
  9
$DIMSD1
 70
     0
  9
$DIMSD2
 70
     0
  9
$DIMTOLJ
 70
     1
  9
$DIMTZIN
 70
     0
  9
$DIMALTZ
 70
     0
  9
$DIMALTTZ
 70
     0
  9
$DIMFIT
 70
     3
  9
$DIMUPT
 70
     0
  9
$DIMUNIT
 70
     2
  9
$DIMDEC
 70
     4
  9
$DIMTDEC
 70
     4
  9
$DIMALTU
 70
     2
  9
$DIMALTTD
 70
     2
  9
$DIMTXSTY
  7
STANDARD
  9
$DIMAUNIT
 70
     0
  9
$LUNITS
 70
     5
  9
$LUPREC
 70
     4
  9
$SKETCHINC
 40
0.1
  9
$FILLETRAD
 40
0.01
  9
$AUNITS
 70
     0
  9
$AUPREC
 70
     0
  9
$MENU
  1
acad
  9
$ELEVATION
 40
0.0
  9
$PELEVATION
 40
0.0
  9
$THICKNESS
 40
0.0
  9
$LIMCHECK
 70
     0
  9
$BLIPMODE
 70
     0
  9
$CHAMFERA
 40
0.0
  9
$CHAMFERB
 40
0.0
  9
$CHAMFERC
 40
0.0
  9
$CHAMFERD
 40
0.0
  9
$SKPOLY
 70
     0
  9
$TDCREATE
 40
2450213.480332754
  9
$TDUPDATE
 40
2452297.099231585
  9
$TDINDWG
 40
0.0333389583
  9
$TDUSRTIMER
 40
0.0333389583
  9
$USRTIMER
 70
     1
  9
$ANGBASE
 50
0.0
  9
$ANGDIR
 70
     0
  9
$PDMODE
 70
     0
  9
$PDSIZE
 40
0.0
  9
$PLINEWID
 40
0.0
  9
$COORDS
 70
     2
  9
$SPLFRAME
 70
     0
  9
$SPLINETYPE
 70
     6
  9
$SPLINESEGS
 70
     8
  9
$ATTDIA
 70
     0
  9
$ATTREQ
 70
     1
  9
$HANDLING
 70
 22529
  9
$HANDSEED
  5
204
  9
$SURFTAB1
 70
     6
  9
$SURFTAB2
 70
     6
  9
$SURFTYPE
 70
     6
  9
$SURFU
 70
     6
  9
$SURFV
 70
     6
  9
$UCSNAME
  2

  9
$UCSORG
 10
0.0
 20
0.0
 30
0.0
  9
$UCSXDIR
 10
1.0
 20
0.0
 30
0.0
  9
$UCSYDIR
 10
0.0
 20
1.0
 30
0.0
  9
$PUCSNAME
  2

  9
$PUCSORG
 10
0.0
 20
0.0
 30
0.0
  9
$PUCSXDIR
 10
1.0
 20
0.0
 30
0.0
  9
$PUCSYDIR
 10
0.0
 20
1.0
 30
0.0
  9
$USERI1
 70
     0
  9
$USERI2
 70
     0
  9
$USERI3
 70
     0
  9
$USERI4
 70
     0
  9
$USERI5
 70
     0
  9
$USERR1
 40
0.0
  9
$USERR2
 40
0.0
  9
$USERR3
 40
0.0
  9
$USERR4
 40
0.0
  9
$USERR5
 40
0.0
  9
$WORLDVIEW
 70
     1
  9
$SHADEDGE
 70
     3
  9
$SHADEDIF
 70
    70
  9
$TILEMODE
 70
     1
  9
$MAXACTVP
 70
    15
  9
$PINSBASE
 10
0.0004882947541773
 20
1.000276130627782
 30
0.0
  9
$PLIMCHECK
 70
     0
  9
$PEXTMIN
 10
1.000000000000000E+20
 20
1.000000000000000E+20
 30
1.000000000000000E+20
  9
$PEXTMAX
 10
-1.000000000000000E+20
 20
-1.000000000000000E+20
 30
-1.000000000000000E+20
  9
$PLIMMIN
 10
0.0
 20
0.0
  9
$PLIMMAX
 10
12.0
 20
9.0
  9
$UNITMODE
 70
     0
  9
$VISRETAIN
 70
     0
  9
$PLINEGEN
 70
     0
  9
$PSLTSCALE
 70
     1
  9
$TREEDEPTH
 70
  3020
  9
$PICKSTYLE
 70
     1
  9
$CMLSTYLE
  2
STANDARD
  9
$CMLJUST
 70
     0
  9
$CMLSCALE
 40
1.0
  9
$PROXYGRAPHICS
 70
     1
  9
$MEASUREMENT
 70
     0
  0
ENDSEC
  0
SECTION
  2
CLASSES
  0
CLASS
  1
ACDBDICTIONARYWDFLT
  2
AcDbDictionaryWithDefault
  3
AutoCAD 2000
 90
        0
280
     0
281
     0
  0
CLASS
  1
ACDBPLACEHOLDER
  2
AcDbPlaceHolder
  3
AutoCAD 2000
 90
        0
280
     0
281
     0
  0
CLASS
  1
LAYOUT
  2
AcDbLayout
  3
AutoCAD 2000
 90
        0
280
     0
281
     0
  0
CLASS
  1
DICTIONARYVAR
  2
AcDbDictionaryVar
  3
AutoCAD 2000
 90
        0
280
     0
281
     0
  0
CLASS
  1
LONG_TRANSACTION
  2
AcDbLongTransaction
  3
AutoCAD 2000
 90
        0
280
     0
281
     0
  0
CLASS
  1
LWPOLYLINE
  2
AcDbPolyline
  3
AutoCAD 2000
 90
        0
280
     0
281
     1
  0
CLASS
  1
HATCH
  2
AcDbHatch
  3
AutoCAD 2000
 90
        0
280
     0
281
     1
  0
CLASS
  1
XRECORD
  2
AcDbXrecord
  3
AutoCAD 2000
 90
        0
280
     0
281
     0
  0
CLASS
  1
LONG_TRANSACTION
  2
AcDbLongTransaction
  3
AutoCAD 2000
 90
        0
280
     0
281
     0
  0
CLASS
  1
LWPOLYLINE
  2
AcDbPolyline
  3
AutoCAD 2000
 90
        0
280
     0
281
     1
  0
CLASS
  1
HATCH
  2
AcDbHatch
  3
AutoCAD 2000
 90
        0
280
     0
281
     1
  0
CLASS
  1
XRECORD
  2
AcDbXrecord
  3
AutoCAD 2000
 90
        0
280
     0
281
     0
  0
CLASS
  1
LONG_TRANSACTION
  2
AcDbLongTransaction
  3
AutoCAD 2000
 90
        0
280
     0
281
     0
  0
CLASS
  1
LWPOLYLINE
  2
AcDbPolyline
  3
AutoCAD 2000
 90
        0
280
     0
281
     1
  0
CLASS
  1
HATCH
  2
AcDbHatch
  3
AutoCAD 2000
 90
        0
280
     0
281
     1
  0
CLASS
  1
XRECORD
  2
AcDbXrecord
  3
AutoCAD 2000
 90
        0
280
     0
281
     0
  0
CLASS
  1
LONG_TRANSACTION
  2
AcDbLongTransaction
  3
AutoCAD 2000
 90
        0
280
     0
281
     0
  0
CLASS
  1
LWPOLYLINE
  2
AcDbPolyline
  3
AutoCAD 2000
 90
        0
280
     0
281
     1
  0
CLASS
  1
HATCH
  2
AcDbHatch
  3
AutoCAD 2000
 90
        0
280
     0
281
     1
  0
CLASS
  1
XRECORD
  2
AcDbXrecord
  3
AutoCAD 2000
 90
        0
280
     0
281
     0
  0
CLASS
  1
LONG_TRANSACTION
  2
AcDbLongTransaction
  3
AutoCAD 2000
 90
        0
280
     0
281
     0
  0
CLASS
  1
LWPOLYLINE
  2
AcDbPolyline
  3
AutoCAD 2000
 90
        0
280
     0
281
     1
  0
CLASS
  1
HATCH
  2
AcDbHatch
  3
AutoCAD 2000
 90
        0
280
     0
281
     1
  0
CLASS
  1
XRECORD
  2
AcDbXrecord
  3
AutoCAD 2000
 90
        0
280
     0
281
     0
  0
ENDSEC
  0
SECTION
  2
TABLES
  0
TABLE
  2
VPORT
  5
8
330
0
100
AcDbSymbolTable
 70
     2
  0
VPORT
  5
1E1
330
8
100
AcDbSymbolTableRecord
100
AcDbViewportTableRecord
  2
*ACTIVE
 70
     0
 10
0.0
 20
0.0
 11
1.0
 21
1.0
 12
1.681446108613237
 22
0.35503109687565
 13
0.0
 23
0.0
 14
0.5740882589684922
 24
0.5740882589684922
 15
0.5
 25
0.5
 16
0.0
 26
0.0
 36
1.0
 17
0.0
 27
0.0
 37
0.0
 40
8.364893845621359
 41
1.570528967254408
 42
50.0
 43
0.0
 44
0.0
 50
0.0
 51
0.0
 71
     0
 72
   100
 73
     1
 74
     1
 75
     0
 76
     0
 77
     0
 78
     0
  0
ENDTAB
  0
TABLE
  2
LTYPE
  5
5
330
0
100
AcDbSymbolTable
 70
     2
  0
LTYPE
  5
12
330
5
100
AcDbSymbolTableRecord
100
AcDbLinetypeTableRecord
  2
BYBLOCK
 70
     0
  3

 72
    65
 73
     0
 40
0.0
  0
LTYPE
  5
13
330
5
100
AcDbSymbolTableRecord
100
AcDbLinetypeTableRecord
  2
BYLAYER
 70
     0
  3

 72
    65
 73
     0
 40
0.0
  0
LTYPE
  5
14
330
5
100
AcDbSymbolTableRecord
100
AcDbLinetypeTableRecord
  2
CONTINUOUS
 70
     0
  3
Solid line
 72
    65
 73
     0
 40
0.0
  0
LTYPE
  5
4D
330
5
100
AcDbSymbolTableRecord
100
AcDbLinetypeTableRecord
  2
HIDDEN2
 70
     0
  3
_ _ _ _ _ _ _ _ _ _ _ _ _ _ _ _ _ _ _ _ _ _ _ _
 72
    65
 73
     2
 40
0.1875
 49
0.125
 74
     0
 49
-0.0625
 74
     0
  0
ENDTAB
  0
TABLE
  2
LAYER
  5
2
330
0
100
AcDbSymbolTable
 70
     5
  0
LAYER
  5
F
330
2
100
AcDbSymbolTableRecord
100
AcDbLayerTableRecord
  2
0
 70
     0
 62
     7
  6
CONTINUOUS
  0
LAYER
  5
4F
330
2
100
AcDbSymbolTableRecord
100
AcDbLayerTableRecord
  2
ADP2DETAIL
 70
     0
 62
     5
  6
CONTINUOUS
  0
LAYER
  5
50
330
2
100
AcDbSymbolTableRecord
100
AcDbLayerTableRecord
  2
ADPDIM
 70
     0
 62
     3
  6
CONTINUOUS
  0
LAYER
  5
52
330
2
100
AcDbSymbolTableRecord
100
AcDbLayerTableRecord
  2
ADP1DETAIL
 70
     0
 62
     7
  6
CONTINUOUS
  0
LAYER
  5
54
330
2
100
AcDbSymbolTableRecord
100
AcDbLayerTableRecord
  2
DEFPOINTS
 70
     0
 62
     7
  6
CONTINUOUS
  0
ENDTAB
  0
TABLE
  2
STYLE
  5
3
330
0
100
AcDbSymbolTable
 70
     2
  0
STYLE
  5
10
330
3
100
AcDbSymbolTableRecord
100
AcDbTextStyleTableRecord
  2
STANDARD
 70
     0
 40
0.0
 41
1.0
 50
0.0
 71
     0
 42
0.125
  3
txt
  4

  0
STYLE
  5
8E
330
3
100
AcDbSymbolTableRecord
100
AcDbTextStyleTableRecord
  2
ARIAL_WIDE
 70
     0
 40
0.0
 41
1.25
 50
0.0
 71
     0
 42
0.2
  3
ARIAL.TTF
  4

1001
ACAD
1000
Arial
1071
       34
  0
ENDTAB
  0
TABLE
  2
VIEW
  5
6
330
0
100
AcDbSymbolTable
 70
     0
  0
ENDTAB
  0
TABLE
  2
UCS
  5
7
330
0
100
AcDbSymbolTable
 70
     0
  0
ENDTAB
  0
TABLE
  2
APPID
  5
9
330
0
100
AcDbSymbolTable
 70
     1
  0
APPID
  5
11
330
9
100
AcDbSymbolTableRecord
100
AcDbRegAppTableRecord
  2
ACAD
 70
     0
  0
ENDTAB
  0
TABLE
  2
DIMSTYLE
  5
A
330
0
100
AcDbSymbolTable
 70
     1
  0
DIMSTYLE
105
4E
102
{ACAD_REACTORS
330
73
330
7B
102
}
330
A
100
AcDbSymbolTableRecord
100
AcDbDimStyleTableRecord
  2
ADPDIM
 70
     0
  3

  4

  5

  6

  7

 40
1.0
 41
0.125
 42
0.0625
 43
0.38
 44
0.18
 45
0.0
 46
0.0
 47
0.0
 48
0.0
140
0.125
141
0.1875
142
0.125
143
25.4
144
1.0
145
0.0
146
1.0
147
0.125
 71
     0
 72
     0
 73
     0
 74
     0
 75
     0
 76
     0
 77
     0
 78
     3
170
     0
171
     1
172
     0
173
     0
174
     0
175
     0
176
     0
177
     0
178
     0
270
     5
271
     4
272
     4
273
     5
274
     1
340
10
275
     0
280
     0
281
     0
282
     0
283
     1
284
     3
285
     3
286
     3
287
     5
288
     0
  0
ENDTAB
  0
TABLE
  2
BLOCK_RECORD
  5
1
330
0
100
AcDbSymbolTable
 70
     2
  0
BLOCK_RECORD
  5
18
102
{ACAD_XDICTIONARY
360
E6
102
}
330
1
100
AcDbSymbolTableRecord
100
AcDbBlockTableRecord
  2
*MODEL_SPACE
  0
BLOCK_RECORD
  5
15
102
{ACAD_XDICTIONARY
360
E4
102
}
330
1
100
AcDbSymbolTableRecord
100
AcDbBlockTableRecord
  2
*PAPER_SPACE
  0
BLOCK_RECORD
  5
38
330
1
100
AcDbSymbolTableRecord
100
AcDbBlockTableRecord
  2
*D0
  0
BLOCK_RECORD
  5
39
330
1
100
AcDbSymbolTableRecord
100
AcDbBlockTableRecord
  2
*D1
  0
ENDTAB
  0
ENDSEC
  0
SECTION
  2
BLOCKS
  0
BLOCK
  5
57
330
18
100
AcDbEntity
  8
0
100
AcDbBlockBegin
  2
*MODEL_SPACE
 70
     0
 10
0.0
 20
0.0
 30
0.0
  3
*MODEL_SPACE
  1

  0
ENDBLK
  5
58
330
18
100
AcDbEntity
  8
0
100
AcDbBlockEnd
  0
BLOCK
  5
55
330
15
100
AcDbEntity
 67
     1
  8
0
100
AcDbBlockBegin
  2
*PAPER_SPACE
 70
     0
 10
0.0
 20
0.0
 30
0.0
  3
*PAPER_SPACE
  1

  0
ENDBLK
  5
56
330
15
100
AcDbEntity
 67
     1
  8
0
100
AcDbBlockEnd
  0
BLOCK
  5
5A
330
38
100
AcDbEntity
  8
0
100
AcDbBlockBegin
  2
*D0
 70
     1
 10
0.0
 20
0.0
 30
0.0
  3
*D0
  1

  0
LINE
  5
5B
330
38
100
AcDbEntity
  8
0
  6
BYBLOCK
 62
     0
100
AcDbLine
 10
-0.0625
 20
0.0
 30
0.0
 11
-0.4074263529425009
 21
0.0
 31
0.0
  0
LINE
  5
5C
330
38
100
AcDbEntity
  8
0
  6
BYBLOCK
 62
     0
100
AcDbLine
 10
-0.0625
 20
1.426999999999999
 30
0.0
 11
-0.4074263529425008
 21
1.426999999999999
 31
0.0
  0
LINE
  5
5D
330
38
100
AcDbEntity
  8
0
  6
BYBLOCK
 62
     0
100
AcDbLine
 10
-0.2274263529425009
 20
0.0
 30
0.0
 11
-0.2274263529425009
 21
0.3593333333333333
 31
0.0
  0
LINE
  5
5E
330
38
100
AcDbEntity
  8
0
  6
BYBLOCK
 62
     0
100
AcDbLine
 10
-0.2274263529425008
 20
1.426999999999999
 30
0.0
 11
-0.2274263529425008
 21
1.067666666666666
 31
0.0
  0
LINE
  5
5F
330
38
100
AcDbEntity
  8
0
  6
BYBLOCK
 62
     0
100
AcDbLine
 10
-0.1024263529425009
 20
-0.125
 30
0.0
 11
-0.3524263529425009
 21
0.125
 31
0.0
  0
LINE
  5
60
330
38
100
AcDbEntity
  8
0
  6
BYBLOCK
 62
     0
100
AcDbLine
 10
-0.1024263529425008
 20
1.301999999999999
 30
0.0
 11
-0.3524263529425008
 21
1.551999999999999
 31
0.0
  0
TEXT
  5
61
330
38
100
AcDbEntity
  8
0
  6
BYBLOCK
 62
     0
100
AcDbText
 10
-0.1649263529425009
 20
0.4843333333333333
 30
0.0
 40
0.125
  1
1.427
 50
90.0
 72
     1
 11
-0.2274263529425008
 21
0.7134999999999999
 31
0.0
100
AcDbText
 73
     2
  0
POINT
  5
62
330
38
100
AcDbEntity
  8
DEFPOINTS
  6
BYBLOCK
 62
     0
100
AcDbPoint
 10
0.0
 20
0.0
 30
0.0
  0
POINT
  5
63
330
38
100
AcDbEntity
  8
DEFPOINTS
  6
BYBLOCK
 62
     0
100
AcDbPoint
 10
0.0
 20
1.426999999999999
 30
0.0
  0
POINT
  5
64
330
38
100
AcDbEntity
  8
DEFPOINTS
  6
BYBLOCK
 62
     0
100
AcDbPoint
 10
-0.2274263529425008
 20
1.426999999999999
 30
0.0
  0
ENDBLK
  5
65
330
38
100
AcDbEntity
  8
0
100
AcDbBlockEnd
  0
BLOCK
  5
66
330
39
100
AcDbEntity
  8
0
100
AcDbBlockBegin
  2
*D1
 70
     1
 10
0.0
 20
0.0
 30
0.0
  3
*D1
  1

  0
LINE
  5
67
330
39
100
AcDbEntity
  8
0
  6
BYBLOCK
 62
     0
100
AcDbLine
 10
0.0
 20
-0.0625
 30
0.0
 11
0.0
 21
-0.4131220348492963
 31
0.0
  0
LINE
  5
68
330
39
100
AcDbEntity
  8
0
  6
BYBLOCK
 62
     0
100
AcDbLine
 10
2.0
 20
-0.0625
 30
0.0
 11
2.0
 21
-0.4131220348492963
 31
0.0
  0
LINE
  5
69
330
39
100
AcDbEntity
  8
0
  6
BYBLOCK
 62
     0
100
AcDbLine
 10
0.0
 20
-0.2331220348492963
 30
0.0
 11
0.8333333333333333
 21
-0.2331220348492963
 31
0.0
  0
LINE
  5
6A
330
39
100
AcDbEntity
  8
0
  6
BYBLOCK
 62
     0
100
AcDbLine
 10
2.0
 20
-0.2331220348492963
 30
0.0
 11
1.166666666666666
 21
-0.2331220348492963
 31
0.0
  0
LINE
  5
6B
330
39
100
AcDbEntity
  8
0
  6
BYBLOCK
 62
     0
100
AcDbLine
 10
-0.125
 20
-0.3581220348492963
 30
0.0
 11
0.125
 21
-0.1081220348492963
 31
0.0
  0
LINE
  5
6C
330
39
100
AcDbEntity
  8
0
  6
BYBLOCK
 62
     0
100
AcDbLine
 10
1.875
 20
-0.3581220348492963
 30
0.0
 11
2.125
 21
-0.1081220348492963
 31
0.0
  0
TEXT
  5
6D
330
39
100
AcDbEntity
  8
0
  6
BYBLOCK
 62
     0
100
AcDbText
 10
0.9583333333333333
 20
-0.2956220348492962
 30
0.0
 40
0.125
  1
2
 72
     1
 11
1.0
 21
-0.2331220348492963
 31
0.0
100
AcDbText
 73
     2
  0
POINT
  5
6E
330
39
100
AcDbEntity
  8
DEFPOINTS
  6
BYBLOCK
 62
     0
100
AcDbPoint
 10
0.0
 20
0.0
 30
0.0
  0
POINT
  5
6F
330
39
100
AcDbEntity
  8
DEFPOINTS
  6
BYBLOCK
 62
     0
100
AcDbPoint
 10
2.0
 20
0.0
 30
0.0
  0
POINT
  5
70
330
39
100
AcDbEntity
  8
DEFPOINTS
  6
BYBLOCK
 62
     0
100
AcDbPoint
 10
2.0
 20
-0.2331220348492963
 30
0.0
  0
ENDBLK
  5
71
330
39
100
AcDbEntity
  8
0
100
AcDbBlockEnd
  0
ENDSEC
  0
SECTION
  2
ENTITIES
  0
SOLID
  5
72
330
18
100
AcDbEntity
  8
ADPDIM
100
AcDbTrace
 10
1.20775767376272
 20
1.021994170954014
 30
0.0
 11
1.172816852174334
 21
1.04469329203479
 31
0.0
 12
1.122189899726199
 22
0.928521266729246
 32
0.0
 13
1.122189899726199
 23
0.928521266729246
 33
0.0
  0
DIMENSION
  5
73
330
18
100
AcDbEntity
  8
ADPDIM
100
AcDbDimension
  2
*D1
 10
2.0
 20
-0.2331220348492963
 30
0.0
 11
1.0
 21
-0.2331220348492963
 31
0.0
  3
ADPDIM
100
AcDbAlignedDimension
 13
0.0
 23
0.0
 33
0.0
 14
2.0
 24
0.0
 34
0.0
100
AcDbRotatedDimension
  0
CIRCLE
  5
74
330
18
100
AcDbEntity
  8
ADP1DETAIL
100
AcDbCircle
 10
1.0
 20
0.7134999999999999
 30
0.0
 40
0.25
  0
LWPOLYLINE
  5
75
330
18
100
AcDbEntity
  8
ADP1DETAIL
100
AcDbPolyline
 90
        4
 70
     1
 43
0.0
 10
0.0
 20
0.0
 10
0.0
 20
1.426999999999999
 10
2.0
 20
1.426999999999999
 10
2.0
 20
0.0
  0
DIMENSION
  5
7B
330
18
100
AcDbEntity
  8
ADPDIM
100
AcDbDimension
  2
*D0
 10
-0.2274263529425008
 20
1.426999999999999
 30
0.0
 11
-0.2274263529425008
 21
0.7134999999999999
 31
0.0
  1
1.427
  3
ADPDIM
100
AcDbAlignedDimension
 13
0.0
 23
0.0
 33
0.0
 14
0.0
 24
1.426999999999999
 34
0.0
 50
90.0
100
AcDbRotatedDimension
  0
LINE
  5
7C
330
18
100
AcDbEntity
  8
ADPDIM
100
AcDbLine
 10
1.190287262968527
 20
1.033343731494402
 30
0.0
 11
1.590806641443861
 21
1.649864349019528
 31
0.0
  0
CIRCLE
  5
7D
330
18
100
AcDbEntity
  8
ADP1DETAIL
100
AcDbCircle
 10
3.44652877690625
 20
0.7134999999999999
 30
0.0
 40
0.7134999999999999
  0
LINE
  5
7E
330
18
100
AcDbEntity
  8
ADP2DETAIL
  6
HIDDEN2
100
AcDbLine
 10
2.778260679508208
 20
0.9634999999999999
 30
0.0
 11
3.44652877690625
 21
0.9634999999999999
 31
0.0
  0
LINE
  5
7F
330
18
100
AcDbEntity
  8
ADP2DETAIL
  6
HIDDEN2
100
AcDbLine
 10
3.44652877690625
 20
0.4635
 30
0.0
 11
2.778260679508207
 21
0.4635
 31
0.0
  0
LINE
  5
80
330
18
100
AcDbEntity
  8
ADP2DETAIL
  6
HIDDEN2
100
AcDbLine
 10
3.44652877690625
 20
0.9634999999999999
 30
0.0
 11
3.44652877690625
 21
0.4635
 31
0.0
  0
TEXT
  5
81
330
18
100
AcDbEntity
  8
ADPDIM
100
AcDbText
 10
2.190636029103229
 20
1.593655812295291
 30
0.0
 40
0.125
  1
1/2 tapped hole
100
AcDbText
  0
LINE
  5
82
330
18
100
AcDbEntity
  8
ADPDIM
100
AcDbLine
 10
1.590806641443861
 20
1.649864349019528
 30
0.0
 11
2.106284939941679
 21
1.649864349019528
 31
0.0
  0
TEXT
  5
90
330
18
100
AcDbEntity
  8
ADPDIM
100
AcDbText
 10
-4.854532870647654
 20
-0.9711829396299886
 30
0.0
 40
0.125
  1
J U L I U S  B L U M  &  C O . ,  I N C .      ( 8 0 0 )  5 2 6 - 6 2 9 3        W W W . J U L I U S B L U M . C O M        P A R T  N o .  7 1 6 2
 41
1.25
  7
ARIAL_WIDE
 72
     1
 11
1.671196153908962
 21
-0.8461829396299886
 31
0.0
100
AcDbText
 73
     3
  0
ENDSEC
  0
SECTION
  2
OBJECTS
  0
DICTIONARY
  5
C
330
0
100
AcDbDictionary
  3
ACAD_GROUP
350
D
  3
ACAD_LAYOUT
350
88
  3
ACAD_MLINESTYLE
350
E
  3
ACAD_PLOTSETTINGS
350
89
  3
ACAD_PLOTSTYLENAME
350
86
  3
ACDBHEADERROUNDTRIPXREC
350
1E2
  3
ACDBVARIABLEDICTIONARY
350
EE
  0
DICTIONARY
  5
E6
330
18
100
AcDbDictionary
280
     1
  3
ACAD_LAYOUTSELFREF
360
203
  0
DICTIONARY
  5
E4
330
15
100
AcDbDictionary
280
     1
  3
ACAD_LAYOUTSELFREF
360
202
  0
DICTIONARY
  5
D
102
{ACAD_REACTORS
330
C
102
}
330
C
100
AcDbDictionary
  0
DICTIONARY
  5
88
102
{ACAD_REACTORS
330
C
102
}
330
C
100
AcDbDictionary
  0
DICTIONARY
  5
E
102
{ACAD_REACTORS
330
C
102
}
330
C
100
AcDbDictionary
  3
STANDARD
350
1B
  0
DICTIONARY
  5
89
102
{ACAD_REACTORS
330
C
102
}
330
C
100
AcDbDictionary
  0
ACDBDICTIONARYWDFLT
  5
86
102
{ACAD_REACTORS
330
C
102
}
330
C
100
AcDbDictionary
281
     1
  3
Normal
350
87
100
AcDbDictionaryWithDefault
340
87
  0
DICTIONARY
  5
1E2
102
{ACAD_REACTORS
330
C
102
}
330
C
100
AcDbDictionary
  3
CEPSNTYPE
350
1EC
  3
FINGERPRINTGUID
350
1ED
  3
HYPERLINKBASE
350
1E5
  3
INSUNITS
350
1EB
  3
LAYOUTDICT
350
1E7
  3
LWETCUNION
350
1EA
  3
PLOTSETDICT
350
1E8
  3
PLOTSTYLNAMDICT
350
1E9
  3
PSVPSCALE
350
1EF
  3
PUCSBASE
350
1F2
  3
PUCSORGBACK
350
1F8
  3
PUCSORGBOTTOM
350
1F4
  3
PUCSORGFRONT
350
1F7
  3
PUCSORGLEFT
350
1F5
  3
PUCSORGRIGHT
350
1F6
  3
PUCSORGTOP
350
1F3
  3
PUCSORTHOREF
350
1F0
  3
PUCSORTHOVIEW
350
1F1
  3
STYLESHEET
350
1E6
  3
TSTACKALIGN
350
1E3
  3
TSTACKSIZE
350
1E4
  3
UCSBASE
350
1FB
  3
UCSORGBACK
350
201
  3
UCSORGBOTTOM
350
1FD
  3
UCSORGFRONT
350
200
  3
UCSORGLEFT
350
1FE
  3
UCSORGRIGHT
350
1FF
  3
UCSORGTOP
350
1FC
  3
UCSORTHOREF
350
1F9
  3
UCSORTHOVIEW
350
1FA
  3
VERSIONGUID
350
1EE
  0
DICTIONARY
  5
EE
102
{ACAD_REACTORS
330
C
102
}
330
C
100
AcDbDictionary
  3
DIMASSOC
350
EF
  0
XRECORD
  5
203
102
{ACAD_REACTORS
330
E6
102
}
330
E6
100
AcDbXrecord
340
18
  0
XRECORD
  5
202
102
{ACAD_REACTORS
330
E4
102
}
330
E4
100
AcDbXrecord
340
15
  0
MLINESTYLE
  5
1B
102
{ACAD_REACTORS
330
E
102
}
330
E
100
AcDbMlineStyle
  2
STANDARD
 70
     0
  3

 62
     0
 51
90.0
 52
90.0
 71
     2
 49
0.5
 62
   256
  6
BYLAYER
 49
-0.5
 62
   256
  6
BYLAYER
  0
ACDBPLACEHOLDER
  5
87
102
{ACAD_REACTORS
330
86
102
}
330
86
100
AcDbPlaceHolder
280
     0
  0
XRECORD
  5
1EC
102
{ACAD_REACTORS
330
1E2
102
}
330
1E2
100
AcDbXrecord
 90
        0
  0
XRECORD
  5
1ED
102
{ACAD_REACTORS
330
1E2
102
}
330
1E2
100
AcDbXrecord
  1
{662B3F44-3243-422C-A5C3-B18A88E79CAD}
  0
XRECORD
  5
1E5
102
{ACAD_REACTORS
330
1E2
102
}
330
1E2
100
AcDbXrecord
  1

  0
XRECORD
  5
1EB
102
{ACAD_REACTORS
330
1E2
102
}
330
1E2
100
AcDbXrecord
 90
        0
  0
XRECORD
  5
1E7
102
{ACAD_REACTORS
330
1E2
102
}
330
1E2
100
AcDbXrecord
340
88
  0
XRECORD
  5
1EA
102
{ACAD_REACTORS
330
1E2
102
}
330
1E2
100
AcDbXrecord
 90
    14877
  0
XRECORD
  5
1E8
102
{ACAD_REACTORS
330
1E2
102
}
330
1E2
100
AcDbXrecord
340
89
  0
XRECORD
  5
1E9
102
{ACAD_REACTORS
330
1E2
102
}
330
1E2
100
AcDbXrecord
340
86
  0
XRECORD
  5
1EF
102
{ACAD_REACTORS
330
1E2
102
}
330
1E2
100
AcDbXrecord
 40
0.0
  0
XRECORD
  5
1F2
102
{ACAD_REACTORS
330
1E2
102
}
330
1E2
100
AcDbXrecord
340
0
  0
XRECORD
  5
1F8
102
{ACAD_REACTORS
330
1E2
102
}
330
1E2
100
AcDbXrecord
 10
0.0
 20
0.0
 30
0.0
  0
XRECORD
  5
1F4
102
{ACAD_REACTORS
330
1E2
102
}
330
1E2
100
AcDbXrecord
 10
0.0
 20
0.0
 30
0.0
  0
XRECORD
  5
1F7
102
{ACAD_REACTORS
330
1E2
102
}
330
1E2
100
AcDbXrecord
 10
0.0
 20
0.0
 30
0.0
  0
XRECORD
  5
1F5
102
{ACAD_REACTORS
330
1E2
102
}
330
1E2
100
AcDbXrecord
 10
0.0
 20
0.0
 30
0.0
  0
XRECORD
  5
1F6
102
{ACAD_REACTORS
330
1E2
102
}
330
1E2
100
AcDbXrecord
 10
0.0
 20
0.0
 30
0.0
  0
XRECORD
  5
1F3
102
{ACAD_REACTORS
330
1E2
102
}
330
1E2
100
AcDbXrecord
 10
0.0
 20
0.0
 30
0.0
  0
XRECORD
  5
1F0
102
{ACAD_REACTORS
330
1E2
102
}
330
1E2
100
AcDbXrecord
340
0
  0
XRECORD
  5
1F1
102
{ACAD_REACTORS
330
1E2
102
}
330
1E2
100
AcDbXrecord
 70
     0
  0
XRECORD
  5
1E6
102
{ACAD_REACTORS
330
1E2
102
}
330
1E2
100
AcDbXrecord
  1

  0
XRECORD
  5
1E3
102
{ACAD_REACTORS
330
1E2
102
}
330
1E2
100
AcDbXrecord
 90
        1
  0
XRECORD
  5
1E4
102
{ACAD_REACTORS
330
1E2
102
}
330
1E2
100
AcDbXrecord
 90
       70
  0
XRECORD
  5
1FB
102
{ACAD_REACTORS
330
1E2
102
}
330
1E2
100
AcDbXrecord
340
0
  0
XRECORD
  5
201
102
{ACAD_REACTORS
330
1E2
102
}
330
1E2
100
AcDbXrecord
 10
0.0
 20
0.0
 30
0.0
  0
XRECORD
  5
1FD
102
{ACAD_REACTORS
330
1E2
102
}
330
1E2
100
AcDbXrecord
 10
0.0
 20
0.0
 30
0.0
  0
XRECORD
  5
200
102
{ACAD_REACTORS
330
1E2
102
}
330
1E2
100
AcDbXrecord
 10
0.0
 20
0.0
 30
0.0
  0
XRECORD
  5
1FE
102
{ACAD_REACTORS
330
1E2
102
}
330
1E2
100
AcDbXrecord
 10
0.0
 20
0.0
 30
0.0
  0
XRECORD
  5
1FF
102
{ACAD_REACTORS
330
1E2
102
}
330
1E2
100
AcDbXrecord
 10
0.0
 20
0.0
 30
0.0
  0
XRECORD
  5
1FC
102
{ACAD_REACTORS
330
1E2
102
}
330
1E2
100
AcDbXrecord
 10
0.0
 20
0.0
 30
0.0
  0
XRECORD
  5
1F9
102
{ACAD_REACTORS
330
1E2
102
}
330
1E2
100
AcDbXrecord
340
0
  0
XRECORD
  5
1FA
102
{ACAD_REACTORS
330
1E2
102
}
330
1E2
100
AcDbXrecord
 70
     0
  0
XRECORD
  5
1EE
102
{ACAD_REACTORS
330
1E2
102
}
330
1E2
100
AcDbXrecord
  1
{F448E87F-C63D-4AB0-9CA0-F587D872C837}
  0
DICTIONARYVAR
  5
EF
102
{ACAD_REACTORS
330
EE
102
}
330
EE
100
DictionaryVariables
280
     0
  1
1
  0
ENDSEC
  0
EOF
