  0
SECTION
  2
HEADER
  9
$ACADVER
  1
AC1014
  9
$ACADMAINTVER
 70
     9
  9
$DWGCODEPAGE
  3
ANSI_1252
  9
$INSBASE
 10
9.591182724862777
 20
-18.00999682581281
 30
0.0
  9
$EXTMIN
 10
6.27395187447818
 20
-19.06021888377475
 30
0.0
  9
$EXTMAX
 10
15.92601318075376
 20
-15.71629262771797
 30
0.0
  9
$LIMMIN
 10
0.0
 20
0.0
  9
$LIMMAX
 10
36.0
 20
36.0
  9
$ORTHOMODE
 70
     1
  9
$REGENMODE
 70
     1
  9
$FILLMODE
 70
     1
  9
$QTEXTMODE
 70
     0
  9
$MIRRTEXT
 70
     1
  9
$DRAGMODE
 70
     0
  9
$LTSCALE
 40
1.0
  9
$OSMODE
 70
    37
  9
$ATTMODE
 70
     1
  9
$TEXTSIZE
 40
0.2
  9
$TRACEWID
 40
0.05
  9
$TEXTSTYLE
  7
STANDARD
  9
$CLAYER
  8
ADPDIM
  9
$CELTYPE
  6
BYLAYER
  9
$CECOLOR
 62
   256
  9
$CELTSCALE
 40
1.0
  9
$DELOBJ
 70
     1
  9
$DISPSILH
 70
     0
  9
$DIMSCALE
 40
1.0
  9
$DIMASZ
 40
0.125
  9
$DIMEXO
 40
0.0625
  9
$DIMDLI
 40
0.38
  9
$DIMRND
 40
0.0
  9
$DIMDLE
 40
0.0
  9
$DIMEXE
 40
0.18
  9
$DIMTP
 40
0.0
  9
$DIMTM
 40
0.0
  9
$DIMTXT
 40
0.125
  9
$DIMCEN
 40
0.1875
  9
$DIMTSZ
 40
0.125
  9
$DIMTOL
 70
     0
  9
$DIMLIM
 70
     0
  9
$DIMTIH
 70
     0
  9
$DIMTOH
 70
     0
  9
$DIMSE1
 70
     0
  9
$DIMSE2
 70
     0
  9
$DIMTAD
 70
     0
  9
$DIMZIN
 70
     3
  9
$DIMBLK
  1

  9
$DIMASO
 70
     1
  9
$DIMSHO
 70
     1
  9
$DIMPOST
  1

  9
$DIMAPOST
  1

  9
$DIMALT
 70
     0
  9
$DIMALTD
 70
     1
  9
$DIMALTF
 40
25.4
  9
$DIMLFAC
 40
1.0
  9
$DIMTOFL
 70
     0
  9
$DIMTVP
 40
0.0
  9
$DIMTIX
 70
     0
  9
$DIMSOXD
 70
     0
  9
$DIMSAH
 70
     0
  9
$DIMBLK1
  1

  9
$DIMBLK2
  1

  9
$DIMSTYLE
  2
STANDARD
  9
$DIMCLRD
 70
     0
  9
$DIMCLRE
 70
     0
  9
$DIMCLRT
 70
     0
  9
$DIMTFAC
 40
1.0
  9
$DIMGAP
 40
0.125
  9
$DIMJUST
 70
     0
  9
$DIMSD1
 70
     0
  9
$DIMSD2
 70
     0
  9
$DIMTOLJ
 70
     1
  9
$DIMTZIN
 70
     0
  9
$DIMALTZ
 70
     0
  9
$DIMALTTZ
 70
     0
  9
$DIMFIT
 70
     3
  9
$DIMUPT
 70
     0
  9
$DIMUNIT
 70
     2
  9
$DIMDEC
 70
     4
  9
$DIMTDEC
 70
     4
  9
$DIMALTU
 70
     2
  9
$DIMALTTD
 70
     2
  9
$DIMTXSTY
  7
STANDARD
  9
$DIMAUNIT
 70
     0
  9
$LUNITS
 70
     5
  9
$LUPREC
 70
     4
  9
$SKETCHINC
 40
0.1
  9
$FILLETRAD
 40
0.0
  9
$AUNITS
 70
     0
  9
$AUPREC
 70
     0
  9
$MENU
  1
acad
  9
$ELEVATION
 40
0.0
  9
$PELEVATION
 40
0.0
  9
$THICKNESS
 40
0.0
  9
$LIMCHECK
 70
     0
  9
$BLIPMODE
 70
     0
  9
$CHAMFERA
 40
0.0
  9
$CHAMFERB
 40
0.0
  9
$CHAMFERC
 40
0.0
  9
$CHAMFERD
 40
0.0
  9
$SKPOLY
 70
     0
  9
$TDCREATE
 40
2450234.555774305
  9
$TDUPDATE
 40
2452297.075153715
  9
$TDINDWG
 40
0.0142126968
  9
$TDUSRTIMER
 40
0.0142126968
  9
$USRTIMER
 70
     1
  9
$ANGBASE
 50
0.0
  9
$ANGDIR
 70
     0
  9
$PDMODE
 70
     0
  9
$PDSIZE
 40
0.0
  9
$PLINEWID
 40
0.0
  9
$COORDS
 70
     2
  9
$SPLFRAME
 70
     0
  9
$SPLINETYPE
 70
     6
  9
$SPLINESEGS
 70
     8
  9
$ATTDIA
 70
     0
  9
$ATTREQ
 70
     1
  9
$HANDLING
 70
 22529
  9
$HANDSEED
  5
214
  9
$SURFTAB1
 70
     6
  9
$SURFTAB2
 70
     6
  9
$SURFTYPE
 70
     6
  9
$SURFU
 70
     6
  9
$SURFV
 70
     6
  9
$UCSNAME
  2

  9
$UCSORG
 10
0.0
 20
0.0
 30
0.0
  9
$UCSXDIR
 10
1.0
 20
0.0
 30
0.0
  9
$UCSYDIR
 10
0.0
 20
1.0
 30
0.0
  9
$PUCSNAME
  2

  9
$PUCSORG
 10
0.0
 20
0.0
 30
0.0
  9
$PUCSXDIR
 10
1.0
 20
0.0
 30
0.0
  9
$PUCSYDIR
 10
0.0
 20
1.0
 30
0.0
  9
$USERI1
 70
     0
  9
$USERI2
 70
     0
  9
$USERI3
 70
     0
  9
$USERI4
 70
     0
  9
$USERI5
 70
     0
  9
$USERR1
 40
0.0
  9
$USERR2
 40
0.0
  9
$USERR3
 40
0.0
  9
$USERR4
 40
0.0
  9
$USERR5
 40
0.0
  9
$WORLDVIEW
 70
     1
  9
$SHADEDGE
 70
     3
  9
$SHADEDIF
 70
    70
  9
$TILEMODE
 70
     1
  9
$MAXACTVP
 70
    15
  9
$PINSBASE
 10
0.0
 20
-3.940976252993988E+99
 30
0.0
  9
$PLIMCHECK
 70
     0
  9
$PEXTMIN
 10
1.000000000000000E+20
 20
1.000000000000000E+20
 30
1.000000000000000E+20
  9
$PEXTMAX
 10
-1.000000000000000E+20
 20
-1.000000000000000E+20
 30
-1.000000000000000E+20
  9
$PLIMMIN
 10
0.0
 20
0.0
  9
$PLIMMAX
 10
12.0
 20
9.0
  9
$UNITMODE
 70
     0
  9
$VISRETAIN
 70
     0
  9
$PLINEGEN
 70
     0
  9
$PSLTSCALE
 70
     1
  9
$TREEDEPTH
 70
  3020
  9
$PICKSTYLE
 70
     1
  9
$CMLSTYLE
  2
STANDARD
  9
$CMLJUST
 70
     0
  9
$CMLSCALE
 40
1.0
  9
$PROXYGRAPHICS
 70
     1
  9
$MEASUREMENT
 70
     0
  0
ENDSEC
  0
SECTION
  2
CLASSES
  0
CLASS
  1
ACDBDICTIONARYWDFLT
  2
AcDbDictionaryWithDefault
  3
AutoCAD 2000
 90
        0
280
     0
281
     0
  0
CLASS
  1
ACDBPLACEHOLDER
  2
AcDbPlaceHolder
  3
AutoCAD 2000
 90
        0
280
     0
281
     0
  0
CLASS
  1
LAYOUT
  2
AcDbLayout
  3
AutoCAD 2000
 90
        0
280
     0
281
     0
  0
CLASS
  1
DICTIONARYVAR
  2
AcDbDictionaryVar
  3
AutoCAD 2000
 90
        0
280
     0
281
     0
  0
CLASS
  1
LONG_TRANSACTION
  2
AcDbLongTransaction
  3
AutoCAD 2000
 90
        0
280
     0
281
     0
  0
CLASS
  1
LWPOLYLINE
  2
AcDbPolyline
  3
AutoCAD 2000
 90
        0
280
     0
281
     1
  0
CLASS
  1
HATCH
  2
AcDbHatch
  3
AutoCAD 2000
 90
        0
280
     0
281
     1
  0
CLASS
  1
XRECORD
  2
AcDbXrecord
  3
AutoCAD 2000
 90
        0
280
     0
281
     0
  0
CLASS
  1
LONG_TRANSACTION
  2
AcDbLongTransaction
  3
AutoCAD 2000
 90
        0
280
     0
281
     0
  0
CLASS
  1
LWPOLYLINE
  2
AcDbPolyline
  3
AutoCAD 2000
 90
        0
280
     0
281
     1
  0
CLASS
  1
HATCH
  2
AcDbHatch
  3
AutoCAD 2000
 90
        0
280
     0
281
     1
  0
CLASS
  1
XRECORD
  2
AcDbXrecord
  3
AutoCAD 2000
 90
        0
280
     0
281
     0
  0
CLASS
  1
LONG_TRANSACTION
  2
AcDbLongTransaction
  3
AutoCAD 2000
 90
        0
280
     0
281
     0
  0
CLASS
  1
LWPOLYLINE
  2
AcDbPolyline
  3
AutoCAD 2000
 90
        0
280
     0
281
     1
  0
CLASS
  1
HATCH
  2
AcDbHatch
  3
AutoCAD 2000
 90
        0
280
     0
281
     1
  0
CLASS
  1
XRECORD
  2
AcDbXrecord
  3
AutoCAD 2000
 90
        0
280
     0
281
     0
  0
CLASS
  1
LONG_TRANSACTION
  2
AcDbLongTransaction
  3
AutoCAD 2000
 90
        0
280
     0
281
     0
  0
CLASS
  1
LWPOLYLINE
  2
AcDbPolyline
  3
AutoCAD 2000
 90
        0
280
     0
281
     1
  0
CLASS
  1
HATCH
  2
AcDbHatch
  3
AutoCAD 2000
 90
        0
280
     0
281
     1
  0
CLASS
  1
XRECORD
  2
AcDbXrecord
  3
AutoCAD 2000
 90
        0
280
     0
281
     0
  0
CLASS
  1
LONG_TRANSACTION
  2
AcDbLongTransaction
  3
AutoCAD 2000
 90
        0
280
     0
281
     0
  0
CLASS
  1
LWPOLYLINE
  2
AcDbPolyline
  3
AutoCAD 2000
 90
        0
280
     0
281
     1
  0
CLASS
  1
HATCH
  2
AcDbHatch
  3
AutoCAD 2000
 90
        0
280
     0
281
     1
  0
CLASS
  1
XRECORD
  2
AcDbXrecord
  3
AutoCAD 2000
 90
        0
280
     0
281
     0
  0
ENDSEC
  0
SECTION
  2
TABLES
  0
TABLE
  2
VPORT
  5
8
330
0
100
AcDbSymbolTable
 70
     2
  0
VPORT
  5
1F1
330
8
100
AcDbSymbolTableRecord
100
AcDbViewportTableRecord
  2
*ACTIVE
 70
     0
 10
0.0
 20
0.0
 11
1.0
 21
1.0
 12
11.10700445216782
 22
-17.38891523897921
 13
0.0
 23
0.0
 14
0.5740882589684922
 24
0.5740882589684922
 15
0.5
 25
0.5
 16
0.0
 26
0.0
 36
1.0
 17
0.0
 27
0.0
 37
0.0
 40
6.186633538997264
 41
1.570528967254408
 42
50.0
 43
0.0
 44
0.0
 50
0.0
 51
0.0
 71
     0
 72
   100
 73
     1
 74
     1
 75
     0
 76
     0
 77
     0
 78
     0
  0
ENDTAB
  0
TABLE
  2
LTYPE
  5
5
330
0
100
AcDbSymbolTable
 70
     1
  0
LTYPE
  5
12
330
5
100
AcDbSymbolTableRecord
100
AcDbLinetypeTableRecord
  2
BYBLOCK
 70
     0
  3

 72
    65
 73
     0
 40
0.0
  0
LTYPE
  5
13
330
5
100
AcDbSymbolTableRecord
100
AcDbLinetypeTableRecord
  2
BYLAYER
 70
     0
  3

 72
    65
 73
     0
 40
0.0
  0
LTYPE
  5
14
330
5
100
AcDbSymbolTableRecord
100
AcDbLinetypeTableRecord
  2
CONTINUOUS
 70
     0
  3
Solid line
 72
    65
 73
     0
 40
0.0
  0
ENDTAB
  0
TABLE
  2
LAYER
  5
2
330
0
100
AcDbSymbolTable
 70
     4
  0
LAYER
  5
F
330
2
100
AcDbSymbolTableRecord
100
AcDbLayerTableRecord
  2
0
 70
     0
 62
     7
  6
CONTINUOUS
  0
LAYER
  5
41
330
2
100
AcDbSymbolTableRecord
100
AcDbLayerTableRecord
  2
ADPDIM
 70
     0
 62
     3
  6
CONTINUOUS
  0
LAYER
  5
42
330
2
100
AcDbSymbolTableRecord
100
AcDbLayerTableRecord
  2
ADP1DETAIL
 70
     0
 62
     7
  6
CONTINUOUS
  0
LAYER
  5
44
330
2
100
AcDbSymbolTableRecord
100
AcDbLayerTableRecord
  2
DEFPOINTS
 70
     0
 62
     7
  6
CONTINUOUS
  0
ENDTAB
  0
TABLE
  2
STYLE
  5
3
330
0
100
AcDbSymbolTable
 70
     2
  0
STYLE
  5
10
330
3
100
AcDbSymbolTableRecord
100
AcDbTextStyleTableRecord
  2
STANDARD
 70
     0
 40
0.0
 41
1.0
 50
0.0
 71
     0
 42
0.2
  3
txt
  4

  0
STYLE
  5
AD
330
3
100
AcDbSymbolTableRecord
100
AcDbTextStyleTableRecord
  2
ARIAL_WIDE
 70
     0
 40
0.0
 41
1.25
 50
0.0
 71
     0
 42
0.2
  3
ARIAL.TTF
  4

1001
ACAD
1000
Arial
1071
       34
  0
ENDTAB
  0
TABLE
  2
VIEW
  5
6
330
0
100
AcDbSymbolTable
 70
     0
  0
ENDTAB
  0
TABLE
  2
UCS
  5
7
330
0
100
AcDbSymbolTable
 70
     0
  0
ENDTAB
  0
TABLE
  2
APPID
  5
9
330
0
100
AcDbSymbolTable
 70
     1
  0
APPID
  5
11
330
9
100
AcDbSymbolTableRecord
100
AcDbRegAppTableRecord
  2
ACAD
 70
     0
  0
ENDTAB
  0
TABLE
  2
DIMSTYLE
  5
A
330
0
100
AcDbSymbolTable
 70
     1
  0
DIMSTYLE
105
A1
330
A
100
AcDbSymbolTableRecord
100
AcDbDimStyleTableRecord
  2
STANDARD
 70
     0
  3

  4

  5

  6

  7

 40
1.0
 41
0.18
 42
0.0625
 43
0.38
 44
0.18
 45
0.0
 46
0.0
 47
0.0
 48
0.0
140
0.18
141
0.09
142
0.0
143
25.4
144
1.0
145
0.0
146
1.0
147
0.09
 71
     0
 72
     0
 73
     1
 74
     1
 75
     0
 76
     0
 77
     0
 78
     0
170
     0
171
     2
172
     0
173
     0
174
     0
175
     0
176
     0
177
     0
178
     0
270
     2
271
     4
272
     4
273
     2
274
     2
340
10
275
     0
280
     0
281
     0
282
     0
283
     1
284
     0
285
     0
286
     0
287
     3
288
     0
  0
ENDTAB
  0
TABLE
  2
BLOCK_RECORD
  5
1
330
0
100
AcDbSymbolTable
 70
     4
  0
BLOCK_RECORD
  5
18
102
{ACAD_XDICTIONARY
360
102
102
}
330
1
100
AcDbSymbolTableRecord
100
AcDbBlockTableRecord
  2
*MODEL_SPACE
  0
BLOCK_RECORD
  5
15
102
{ACAD_XDICTIONARY
360
100
102
}
330
1
100
AcDbSymbolTableRecord
100
AcDbBlockTableRecord
  2
*PAPER_SPACE
  0
BLOCK_RECORD
  5
3C
330
1
100
AcDbSymbolTableRecord
100
AcDbBlockTableRecord
  2
*D0
  0
BLOCK_RECORD
  5
3D
330
1
100
AcDbSymbolTableRecord
100
AcDbBlockTableRecord
  2
*D1
  0
BLOCK_RECORD
  5
3F
330
1
100
AcDbSymbolTableRecord
100
AcDbBlockTableRecord
  2
*D2
  0
BLOCK_RECORD
  5
40
330
1
100
AcDbSymbolTableRecord
100
AcDbBlockTableRecord
  2
*D3
  0
ENDTAB
  0
ENDSEC
  0
SECTION
  2
BLOCKS
  0
BLOCK
  5
47
330
18
100
AcDbEntity
  8
0
100
AcDbBlockBegin
  2
*MODEL_SPACE
 70
     0
 10
0.0
 20
0.0
 30
0.0
  3
*MODEL_SPACE
  1

  0
ENDBLK
  5
48
330
18
100
AcDbEntity
  8
0
100
AcDbBlockEnd
  0
BLOCK
  5
45
330
15
100
AcDbEntity
 67
     1
  8
0
100
AcDbBlockBegin
  2
*PAPER_SPACE
 70
     0
 10
0.0
 20
0.0
 30
0.0
  3
*PAPER_SPACE
  1

  0
ENDBLK
  5
46
330
15
100
AcDbEntity
 67
     1
  8
0
100
AcDbBlockEnd
  0
BLOCK
  5
4A
330
3C
100
AcDbEntity
  8
0
100
AcDbBlockBegin
  2
*D0
 70
     1
 10
0.0
 20
0.0
 30
0.0
  3
*D0
  1

  0
LINE
  5
4B
330
3C
100
AcDbEntity
  8
0
  6
BYBLOCK
 62
     0
100
AcDbLine
 10
8.644582731588785
 20
-16.72960061503536
 30
0.0
 11
8.644582731588785
 21
-15.71629262771797
 31
0.0
  0
LINE
  5
4C
330
3C
100
AcDbEntity
  8
0
  6
BYBLOCK
 62
     0
100
AcDbLine
 10
9.591182724862777
 20
-16.04749682581281
 30
0.0
 11
9.591182724862777
 21
-15.71629262771797
 31
0.0
  0
LINE
  5
4D
330
3C
100
AcDbEntity
  8
0
  6
BYBLOCK
 62
     0
100
AcDbLine
 10
8.644582731588785
 20
-15.89629262771797
 30
0.0
 11
8.394582731588785
 21
-15.89629262771797
 31
0.0
  0
LINE
  5
4E
330
3C
100
AcDbEntity
  8
0
  6
BYBLOCK
 62
     0
100
AcDbLine
 10
9.591182724862777
 20
-15.89629262771797
 30
0.0
 11
9.841182724862777
 21
-15.89629262771797
 31
0.0
  0
LINE
  5
4F
330
3C
100
AcDbEntity
  8
0
  6
BYBLOCK
 62
     0
100
AcDbLine
 10
8.519582731588785
 20
-16.02129262771797
 30
0.0
 11
8.769582731588785
 21
-15.77129262771797
 31
0.0
  0
LINE
  5
50
330
3C
100
AcDbEntity
  8
0
  6
BYBLOCK
 62
     0
100
AcDbLine
 10
9.466182724862777
 20
-16.02129262771797
 30
0.0
 11
9.716182724862777
 21
-15.77129262771797
 31
0.0
  0
TEXT
  5
51
330
3C
100
AcDbEntity
  8
0
  6
BYBLOCK
 62
     0
100
AcDbText
 10
9.966182724862777
 20
-15.95879262771797
 30
0.0
 40
0.125
  1
0.95
 72
     1
 11
10.14326605819611
 21
-15.89629262771797
 31
0.0
100
AcDbText
 73
     2
  0
POINT
  5
52
330
3C
100
AcDbEntity
  8
DEFPOINTS
  6
BYBLOCK
 62
     0
100
AcDbPoint
 10
8.644582731588785
 20
-16.79210061503536
 30
0.0
  0
POINT
  5
53
330
3C
100
AcDbEntity
  8
DEFPOINTS
  6
BYBLOCK
 62
     0
100
AcDbPoint
 10
9.591182724862777
 20
-16.10999682581281
 30
0.0
  0
POINT
  5
54
330
3C
100
AcDbEntity
  8
DEFPOINTS
  6
BYBLOCK
 62
     0
100
AcDbPoint
 10
9.591182724862777
 20
-15.89629262771797
 30
0.0
  0
ENDBLK
  5
55
330
3C
100
AcDbEntity
  8
0
100
AcDbBlockEnd
  0
BLOCK
  5
56
330
3D
100
AcDbEntity
  8
0
100
AcDbBlockBegin
  2
*D1
 70
     1
 10
0.0
 20
0.0
 30
0.0
  3
*D1
  1

  0
LINE
  5
57
330
3D
100
AcDbEntity
  8
0
  6
BYBLOCK
 62
     0
100
AcDbLine
 10
9.528682724862777
 20
-16.10999682581281
 30
0.0
 11
8.102055066403316
 21
-16.10999682581281
 31
0.0
  0
LINE
  5
58
330
3D
100
AcDbEntity
  8
0
  6
BYBLOCK
 62
     0
100
AcDbLine
 10
9.528682724862777
 20
-18.00999682581281
 30
0.0
 11
8.102055066403316
 21
-18.00999682581281
 31
0.0
  0
LINE
  5
59
330
3D
100
AcDbEntity
  8
0
  6
BYBLOCK
 62
     0
100
AcDbLine
 10
8.282055066403316
 20
-16.10999682581281
 30
0.0
 11
8.282055066403316
 21
-16.77874682581281
 31
0.0
  0
LINE
  5
5A
330
3D
100
AcDbEntity
  8
0
  6
BYBLOCK
 62
     0
100
AcDbLine
 10
8.282055066403316
 20
-18.00999682581281
 30
0.0
 11
8.282055066403316
 21
-17.34124682581281
 31
0.0
  0
LINE
  5
5B
330
3D
100
AcDbEntity
  8
0
  6
BYBLOCK
 62
     0
100
AcDbLine
 10
8.407055066403316
 20
-16.23499682581281
 30
0.0
 11
8.157055066403316
 21
-15.98499682581281
 31
0.0
  0
LINE
  5
5C
330
3D
100
AcDbEntity
  8
0
  6
BYBLOCK
 62
     0
100
AcDbLine
 10
8.407055066403316
 20
-18.13499682581281
 30
0.0
 11
8.157055066403316
 21
-17.88499682581281
 31
0.0
  0
TEXT
  5
5D
330
3D
100
AcDbEntity
  8
0
  6
BYBLOCK
 62
     0
100
AcDbText
 10
8.344555066403316
 20
-17.21624682581281
 30
0.0
 40
0.125
  1
1.90
 50
90.0
 72
     1
 11
8.282055066403316
 21
-17.05999682581281
 31
0.0
100
AcDbText
 73
     2
  0
POINT
  5
5E
330
3D
100
AcDbEntity
  8
DEFPOINTS
  6
BYBLOCK
 62
     0
100
AcDbPoint
 10
9.591182724862777
 20
-16.10999682581281
 30
0.0
  0
POINT
  5
5F
330
3D
100
AcDbEntity
  8
DEFPOINTS
  6
BYBLOCK
 62
     0
100
AcDbPoint
 10
9.591182724862777
 20
-18.00999682581281
 30
0.0
  0
POINT
  5
60
330
3D
100
AcDbEntity
  8
DEFPOINTS
  6
BYBLOCK
 62
     0
100
AcDbPoint
 10
8.282055066403316
 20
-18.00999682581281
 30
0.0
  0
ENDBLK
  5
61
330
3D
100
AcDbEntity
  8
0
100
AcDbBlockEnd
  0
BLOCK
  5
62
330
3F
100
AcDbEntity
  8
0
100
AcDbBlockBegin
  2
*D2
 70
     1
 10
0.0
 20
0.0
 30
0.0
  3
*D2
  1

  0
LINE
  5
63
330
3F
100
AcDbEntity
  8
0
  6
BYBLOCK
 62
     0
100
AcDbLine
 10
12.60795391324303
 20
-16.26786928233896
 30
0.0
 11
13.97046154532657
 21
-16.26786928233896
 31
0.0
  0
LINE
  5
64
330
3F
100
AcDbEntity
  8
0
  6
BYBLOCK
 62
     0
100
AcDbLine
 10
12.60804659584996
 20
-17.85211646366714
 30
0.0
 11
13.97046154532657
 21
-17.85211646366714
 31
0.0
  0
LINE
  5
65
330
3F
100
AcDbEntity
  8
0
  6
BYBLOCK
 62
     0
100
AcDbLine
 10
13.79046154532657
 20
-16.26786928233896
 30
0.0
 11
13.79046154532657
 21
-16.78915953966972
 31
0.0
  0
LINE
  5
66
330
3F
100
AcDbEntity
  8
0
  6
BYBLOCK
 62
     0
100
AcDbLine
 10
13.79046154532657
 20
-17.85211646366714
 30
0.0
 11
13.79046154532657
 21
-17.33082620633638
 31
0.0
  0
LINE
  5
67
330
3F
100
AcDbEntity
  8
0
  6
BYBLOCK
 62
     0
100
AcDbLine
 10
13.91546154532657
 20
-16.39286928233896
 30
0.0
 11
13.66546154532657
 21
-16.14286928233896
 31
0.0
  0
LINE
  5
68
330
3F
100
AcDbEntity
  8
0
  6
BYBLOCK
 62
     0
100
AcDbLine
 10
13.91546154532657
 20
-17.97711646366714
 30
0.0
 11
13.66546154532657
 21
-17.72711646366714
 31
0.0
  0
TEXT
  5
69
330
3F
100
AcDbEntity
  8
0
  6
BYBLOCK
 62
     0
100
AcDbText
 10
13.85296154532657
 20
-17.20582620633638
 30
0.0
 40
0.125
  1
1.61
 50
90.0
 72
     1
 11
13.79046154532657
 21
-17.05999287300305
 31
0.0
100
AcDbText
 73
     2
  0
POINT
  5
6A
330
3F
100
AcDbEntity
  8
DEFPOINTS
  6
BYBLOCK
 62
     0
100
AcDbPoint
 10
12.54545391324303
 20
-16.26786928233896
 30
0.0
  0
POINT
  5
6B
330
3F
100
AcDbEntity
  8
DEFPOINTS
  6
BYBLOCK
 62
     0
100
AcDbPoint
 10
12.54554659584996
 20
-17.85211646366714
 30
0.0
  0
POINT
  5
6C
330
3F
100
AcDbEntity
  8
DEFPOINTS
  6
BYBLOCK
 62
     0
100
AcDbPoint
 10
13.79046154532657
 20
-17.85211646366714
 30
0.0
  0
ENDBLK
  5
6D
330
3F
100
AcDbEntity
  8
0
100
AcDbBlockEnd
  0
BLOCK
  5
6E
330
40
100
AcDbEntity
  8
0
100
AcDbBlockBegin
  2
*D3
 70
     1
 10
0.0
 20
0.0
 30
0.0
  3
*D3
  1

  0
LINE
  5
6F
330
40
100
AcDbEntity
  8
0
  6
BYBLOCK
 62
     0
100
AcDbLine
 10
9.591182724862777
 20
-18.07249682581281
 30
0.0
 11
9.591182724862777
 21
-18.39130200408171
 31
0.0
  0
LINE
  5
70
330
40
100
AcDbEntity
  8
0
  6
BYBLOCK
 62
     0
100
AcDbLine
 10
10.59118272486277
 20
-17.74957850809146
 30
0.0
 11
10.59118272486277
 21
-18.39130200408171
 31
0.0
  0
LINE
  5
71
330
40
100
AcDbEntity
  8
0
  6
BYBLOCK
 62
     0
100
AcDbLine
 10
9.591182724862777
 20
-18.21130200408171
 30
0.0
 11
9.945349391529443
 21
-18.21130200408171
 31
0.0
  0
LINE
  5
72
330
40
100
AcDbEntity
  8
0
  6
BYBLOCK
 62
     0
100
AcDbLine
 10
10.59118272486277
 20
-18.21130200408171
 30
0.0
 11
10.23701605819611
 21
-18.21130200408171
 31
0.0
  0
LINE
  5
73
330
40
100
AcDbEntity
  8
0
  6
BYBLOCK
 62
     0
100
AcDbLine
 10
9.466182724862777
 20
-18.33630200408171
 30
0.0
 11
9.716182724862777
 21
-18.08630200408171
 31
0.0
  0
LINE
  5
74
330
40
100
AcDbEntity
  8
0
  6
BYBLOCK
 62
     0
100
AcDbLine
 10
10.46618272486277
 20
-18.33630200408171
 30
0.0
 11
10.71618272486277
 21
-18.08630200408171
 31
0.0
  0
TEXT
  5
75
330
40
100
AcDbEntity
  8
0
  6
BYBLOCK
 62
     0
100
AcDbText
 10
10.07034939152944
 20
-18.27380200408171
 30
0.0
 40
0.125
  1
1
 72
     1
 11
10.09118272486277
 21
-18.21130200408171
 31
0.0
100
AcDbText
 73
     2
  0
POINT
  5
76
330
40
100
AcDbEntity
  8
DEFPOINTS
  6
BYBLOCK
 62
     0
100
AcDbPoint
 10
9.591182724862777
 20
-18.00999682581281
 30
0.0
  0
POINT
  5
77
330
40
100
AcDbEntity
  8
DEFPOINTS
  6
BYBLOCK
 62
     0
100
AcDbPoint
 10
10.59118272486277
 20
-17.68707850809146
 30
0.0
  0
POINT
  5
78
330
40
100
AcDbEntity
  8
DEFPOINTS
  6
BYBLOCK
 62
     0
100
AcDbPoint
 10
10.59118272486277
 20
-18.21130200408171
 30
0.0
  0
ENDBLK
  5
79
330
40
100
AcDbEntity
  8
0
100
AcDbBlockEnd
  0
ENDSEC
  0
SECTION
  2
ENTITIES
  0
ARC
  5
7A
330
18
100
AcDbEntity
  8
ADP1DETAIL
100
AcDbCircle
 10
12.4779338801411
 20
-17.05999682581281
 30
0.0
 40
0.6700000000000004
100
AcDbArc
 50
186.558864181188
 51
263.4857374561763
  0
ARC
  5
7B
330
18
100
AcDbEntity
  8
ADP1DETAIL
100
AcDbCircle
 10
12.4779338801411
 20
-17.05999682581281
 30
0.0
 40
0.6700000000000004
100
AcDbArc
 50
96.55886418118813
 51
173.4857374561762
  0
CIRCLE
  5
7C
330
18
100
AcDbEntity
  8
ADP1DETAIL
100
AcDbCircle
 10
12.4779338801411
 20
-17.05999682581281
 30
0.0
 40
0.95
  0
CIRCLE
  5
7D
330
18
100
AcDbEntity
  8
ADP1DETAIL
100
AcDbCircle
 10
12.4779338801411
 20
-17.05999682581281
 30
0.0
 40
0.5450000000000004
  0
LINE
  5
7E
330
18
100
AcDbEntity
  8
ADP1DETAIL
100
AcDbLine
 10
10.59118272486277
 20
-16.4310983464367
 30
0.0
 11
10.59118272486277
 21
-17.68707850809146
 31
0.0
  0
DIMENSION
  5
7F
330
18
100
AcDbEntity
  8
ADPDIM
100
AcDbDimension
  2
*D1
 10
8.282055066403316
 20
-18.00999682581281
 30
0.0
 11
8.282055066403316
 21
-17.05999682581281
 31
0.0
  1
1.90
100
AcDbAlignedDimension
 13
9.591182724862777
 23
-16.10999682581281
 33
0.0
 14
9.591182724862777
 24
-18.00999682581281
 34
0.0
 50
90.0
100
AcDbRotatedDimension
  0
ARC
  5
80
330
18
100
AcDbEntity
  8
ADP1DETAIL
100
AcDbCircle
 10
9.591182724862777
 20
-17.05999682581281
 30
0.0
 40
0.95
100
AcDbArc
 50
90.0
 51
270.0
  0
LINE
  5
81
330
18
100
AcDbEntity
  8
ADP1DETAIL
100
AcDbLine
 10
9.591182724862777
 20
-18.00999682581281
 30
0.0
 11
9.591182724862777
 21
-16.10999682581281
 31
0.0
  0
LINE
  5
82
330
18
100
AcDbEntity
  8
ADP1DETAIL
100
AcDbLine
 10
9.684932724862777
 20
-16.98202537208284
 30
0.0
 11
9.684932724862777
 21
-17.13808945648595
 31
0.0
  0
LINE
  5
83
330
18
100
AcDbEntity
  8
ADP1DETAIL
100
AcDbLine
 10
10.49743272486277
 20
-16.98202537208284
 30
0.0
 11
10.49743272486277
 21
-17.13808945648595
 31
0.0
  0
ARC
  5
84
330
18
100
AcDbEntity
  8
ADP1DETAIL
100
AcDbCircle
 10
12.4779338801411
 20
-17.05999682581281
 30
0.0
 40
0.7950000000000004
100
AcDbArc
 50
175.1279509807597
 51
184.8787529253829
  0
DIMENSION
  5
85
330
18
100
AcDbEntity
  8
ADPDIM
100
AcDbDimension
  2
*D3
 10
10.59118272486277
 20
-18.21130200408171
 30
0.0
 11
10.09118272486277
 21
-18.21130200408171
 31
0.0
100
AcDbAlignedDimension
 13
9.591182724862777
 23
-18.00999682581281
 33
0.0
 14
10.59118272486277
 24
-17.68707850809146
 34
0.0
100
AcDbRotatedDimension
  0
LINE
  5
86
330
18
100
AcDbEntity
  8
ADP1DETAIL
100
AcDbLine
 10
10.59118272486277
 20
-17.68707850809146
 30
0.0
 11
9.591182724862777
 21
-17.68707850809146
 31
0.0
  0
LINE
  5
87
330
18
100
AcDbEntity
  8
ADP1DETAIL
100
AcDbLine
 10
9.684932724862777
 20
-17.84868198255434
 30
0.0
 11
10.49743272486277
 21
-17.84868198255434
 31
0.0
  0
LINE
  5
88
330
18
100
AcDbEntity
  8
ADP1DETAIL
100
AcDbLine
 10
9.591182724862777
 20
-17.12872559983985
 30
0.0
 11
10.59118272486277
 21
-17.12872559983985
 31
0.0
  0
LINE
  5
89
330
18
100
AcDbEntity
  8
ADP1DETAIL
100
AcDbLine
 10
9.591182724862777
 20
-17.13808945648595
 30
0.0
 11
10.59118272486277
 21
-17.13808945648595
 31
0.0
  0
LINE
  5
8A
330
18
100
AcDbEntity
  8
ADP1DETAIL
100
AcDbLine
 10
9.684932724862777
 20
-17.84868198255434
 30
0.0
 11
9.591182724862777
 21
-17.68707850809146
 31
0.0
  0
LINE
  5
8B
330
18
100
AcDbEntity
  8
ADP1DETAIL
100
AcDbLine
 10
10.49743272486277
 20
-17.84868198255434
 30
0.0
 11
10.59118272486277
 21
-17.68707850809146
 31
0.0
  0
LINE
  5
8C
330
18
100
AcDbEntity
  8
ADP1DETAIL
100
AcDbLine
 10
11.68581424228677
 20
-17.12760954152167
 30
0.0
 11
11.81305626148813
 21
-17.13657882334152
 31
0.0
  0
DIMENSION
  5
8D
330
18
100
AcDbEntity
  8
ADPDIM
100
AcDbDimension
  2
*D0
 10
9.591182724862777
 20
-15.89629262771797
 30
0.0
 11
10.14326605819611
 21
-15.89629262771797
 31
0.0
  1
0.95
100
AcDbAlignedDimension
 13
8.644582731588785
 23
-16.79210061503536
 33
0.0
 14
9.591182724862777
 24
-16.10999682581281
 34
0.0
100
AcDbRotatedDimension
  0
LINE
  5
8E
330
18
100
AcDbEntity
  8
ADP1DETAIL
100
AcDbLine
 10
9.591182724862777
 20
-16.4310983464367
 30
0.0
 11
10.59118272486277
 21
-16.4310983464367
 31
0.0
  0
LINE
  5
8F
330
18
100
AcDbEntity
  8
ADP1DETAIL
100
AcDbLine
 10
9.684932724862777
 20
-16.26949487197382
 30
0.0
 11
10.49743272486277
 21
-16.26949487197382
 31
0.0
  0
LINE
  5
90
330
18
100
AcDbEntity
  8
ADP1DETAIL
100
AcDbLine
 10
9.591182724862777
 20
-16.98202537208284
 30
0.0
 11
10.59118272486277
 21
-16.98202537208284
 31
0.0
  0
LINE
  5
91
330
18
100
AcDbEntity
  8
ADP1DETAIL
100
AcDbLine
 10
9.591182724862777
 20
-16.99138919012257
 30
0.0
 11
10.59118272486277
 21
-16.99138919012257
 31
0.0
  0
LINE
  5
92
330
18
100
AcDbEntity
  8
ADP1DETAIL
100
AcDbLine
 10
9.684932724862777
 20
-16.26949487197382
 30
0.0
 11
9.591182724862777
 21
-16.4310983464367
 31
0.0
  0
LINE
  5
93
330
18
100
AcDbEntity
  8
ADP1DETAIL
100
AcDbLine
 10
10.49743272486277
 20
-16.26949487197382
 30
0.0
 11
10.59118272486277
 21
-16.4310983464367
 31
0.0
  0
LINE
  5
94
330
18
100
AcDbEntity
  8
ADP1DETAIL
100
AcDbLine
 10
11.68580633666725
 20
-16.99247679271088
 30
0.0
 11
11.81316994492621
 21
-16.98392383439907
 31
0.0
  0
DIMENSION
  5
95
330
18
100
AcDbEntity
  8
ADPDIM
100
AcDbDimension
  2
*D2
 10
13.79046154532657
 20
-17.85211646366714
 30
0.0
 11
13.79046154532657
 21
-17.05999287300305
 31
0.0
  1
1.61
100
AcDbAlignedDimension
 13
12.54545391324303
 23
-16.26786928233896
 33
0.0
 14
12.54554659584996
 24
-17.85211646366714
 34
0.0
 50
90.0
100
AcDbRotatedDimension
  0
ARC
  5
96
330
18
100
AcDbEntity
  8
ADP1DETAIL
100
AcDbCircle
 10
12.4779338801411
 20
-17.05999682581281
 30
0.0
 40
0.7950000000000004
100
AcDbArc
 50
355.1279509807597
 51
4.878752925382947
  0
ARC
  5
97
330
18
100
AcDbEntity
  8
ADP1DETAIL
100
AcDbCircle
 10
12.4779338801411
 20
-17.05999682581281
 30
0.0
 40
0.6700000000000004
100
AcDbArc
 50
276.558864181188
 51
353.4857374561763
  0
ARC
  5
98
330
18
100
AcDbEntity
  8
ADP1DETAIL
100
AcDbCircle
 10
12.4779338801411
 20
-17.05999682581281
 30
0.0
 40
0.7950000000000004
100
AcDbArc
 50
265.1279509807597
 51
274.8787529253829
  0
LINE
  5
99
330
18
100
AcDbEntity
  8
ADP1DETAIL
100
AcDbLine
 10
12.41041384703917
 20
-17.85212436928666
 30
0.0
 11
12.40186088872736
 21
-17.7247607610277
 31
0.0
  0
LINE
  5
9A
330
18
100
AcDbEntity
  8
ADP1DETAIL
100
AcDbLine
 10
12.54554659584996
 20
-17.85211646366714
 30
0.0
 11
12.55451587766981
 21
-17.72487444446579
 31
0.0
  0
LINE
  5
9B
330
18
100
AcDbEntity
  8
ADP1DETAIL
100
AcDbLine
 10
13.27006142361495
 20
-17.12751685891474
 30
0.0
 11
13.14269781535599
 21
-17.13606981722655
 31
0.0
  0
ARC
  5
9C
330
18
100
AcDbEntity
  8
ADP1DETAIL
100
AcDbCircle
 10
12.4779338801411
 20
-17.05999682581281
 30
0.0
 40
0.6700000000000004
100
AcDbArc
 50
6.55886418118808
 51
83.48573745617622
  0
ARC
  5
9D
330
18
100
AcDbEntity
  8
ADP1DETAIL
100
AcDbCircle
 10
12.4779338801411
 20
-17.05999682581281
 30
0.0
 40
0.7950000000000004
100
AcDbArc
 50
85.12795098075974
 51
94.87875292538296
  0
LINE
  5
9E
330
18
100
AcDbEntity
  8
ADP1DETAIL
100
AcDbLine
 10
12.41032116443224
 20
-16.26787718795848
 30
0.0
 11
12.40135188261239
 21
-16.39511920715984
 31
0.0
  0
LINE
  5
9F
330
18
100
AcDbEntity
  8
ADP1DETAIL
100
AcDbLine
 10
12.54545391324303
 20
-16.26786928233896
 30
0.0
 11
12.55400687155484
 21
-16.39523289059792
 31
0.0
  0
LINE
  5
A0
330
18
100
AcDbEntity
  8
ADP1DETAIL
100
AcDbLine
 10
13.27005351799543
 20
-16.99238411010395
 30
0.0
 11
13.14281149879407
 21
-16.9834148282841
 31
0.0
  0
TEXT
  5
AE
330
18
100
AcDbEntity
  8
ADPDIM
100
AcDbText
 10
6.27395187447818
 20
-19.03246479100531
 30
0.0
 40
0.09375
  1
J U L I U S  B L U M  &  C O . ,  I N C .      ( 8 0 0 )  5 2 6 - 6 2 9 3        W W W . J U L I U S B L U M . C O M        P A R T  N o .  7 1 6
 41
1.25
  7
ARIAL_WIDE
 72
     1
 11
11.09998252761597
 21
-18.93871479100531
 31
0.0
100
AcDbText
 73
     3
  0
ENDSEC
  0
SECTION
  2
OBJECTS
  0
DICTIONARY
  5
C
330
0
100
AcDbDictionary
  3
ACAD_GROUP
350
D
  3
ACAD_LAYOUT
350
A7
  3
ACAD_MLINESTYLE
350
E
  3
ACAD_PLOTSETTINGS
350
A8
  3
ACAD_PLOTSTYLENAME
350
A5
  3
ACDBHEADERROUNDTRIPXREC
350
1F2
  3
ACDBVARIABLEDICTIONARY
350
108
  0
DICTIONARY
  5
102
330
18
100
AcDbDictionary
280
     1
  3
ACAD_LAYOUTSELFREF
360
213
  0
DICTIONARY
  5
100
330
15
100
AcDbDictionary
280
     1
  3
ACAD_LAYOUTSELFREF
360
212
  0
DICTIONARY
  5
D
102
{ACAD_REACTORS
330
C
102
}
330
C
100
AcDbDictionary
  0
DICTIONARY
  5
A7
102
{ACAD_REACTORS
330
C
102
}
330
C
100
AcDbDictionary
  0
DICTIONARY
  5
E
102
{ACAD_REACTORS
330
C
102
}
330
C
100
AcDbDictionary
  3
STANDARD
350
1B
  0
DICTIONARY
  5
A8
102
{ACAD_REACTORS
330
C
102
}
330
C
100
AcDbDictionary
  0
ACDBDICTIONARYWDFLT
  5
A5
102
{ACAD_REACTORS
330
C
102
}
330
C
100
AcDbDictionary
281
     1
  3
Normal
350
A6
100
AcDbDictionaryWithDefault
340
A6
  0
DICTIONARY
  5
1F2
102
{ACAD_REACTORS
330
C
102
}
330
C
100
AcDbDictionary
  3
CEPSNTYPE
350
1FC
  3
FINGERPRINTGUID
350
1FD
  3
HYPERLINKBASE
350
1F5
  3
INSUNITS
350
1FB
  3
LAYOUTDICT
350
1F7
  3
LWETCUNION
350
1FA
  3
PLOTSETDICT
350
1F8
  3
PLOTSTYLNAMDICT
350
1F9
  3
PSVPSCALE
350
1FF
  3
PUCSBASE
350
202
  3
PUCSORGBACK
350
208
  3
PUCSORGBOTTOM
350
204
  3
PUCSORGFRONT
350
207
  3
PUCSORGLEFT
350
205
  3
PUCSORGRIGHT
350
206
  3
PUCSORGTOP
350
203
  3
PUCSORTHOREF
350
200
  3
PUCSORTHOVIEW
350
201
  3
STYLESHEET
350
1F6
  3
TSTACKALIGN
350
1F3
  3
TSTACKSIZE
350
1F4
  3
UCSBASE
350
20B
  3
UCSORGBACK
350
211
  3
UCSORGBOTTOM
350
20D
  3
UCSORGFRONT
350
210
  3
UCSORGLEFT
350
20E
  3
UCSORGRIGHT
350
20F
  3
UCSORGTOP
350
20C
  3
UCSORTHOREF
350
209
  3
UCSORTHOVIEW
350
20A
  3
VERSIONGUID
350
1FE
  0
DICTIONARY
  5
108
102
{ACAD_REACTORS
330
C
102
}
330
C
100
AcDbDictionary
  3
DIMASSOC
350
109
  0
XRECORD
  5
213
102
{ACAD_REACTORS
330
102
102
}
330
102
100
AcDbXrecord
340
18
  0
XRECORD
  5
212
102
{ACAD_REACTORS
330
100
102
}
330
100
100
AcDbXrecord
340
15
  0
MLINESTYLE
  5
1B
102
{ACAD_REACTORS
330
E
102
}
330
E
100
AcDbMlineStyle
  2
STANDARD
 70
     0
  3

 62
     0
 51
90.0
 52
90.0
 71
     2
 49
0.5
 62
   256
  6
BYLAYER
 49
-0.5
 62
   256
  6
BYLAYER
  0
ACDBPLACEHOLDER
  5
A6
102
{ACAD_REACTORS
330
A5
102
}
330
A5
100
AcDbPlaceHolder
280
     0
  0
XRECORD
  5
1FC
102
{ACAD_REACTORS
330
1F2
102
}
330
1F2
100
AcDbXrecord
 90
        0
  0
XRECORD
  5
1FD
102
{ACAD_REACTORS
330
1F2
102
}
330
1F2
100
AcDbXrecord
  1
{2B5A7EEC-4DE5-4CED-BC9E-21A158703E78}
  0
XRECORD
  5
1F5
102
{ACAD_REACTORS
330
1F2
102
}
330
1F2
100
AcDbXrecord
  1

  0
XRECORD
  5
1FB
102
{ACAD_REACTORS
330
1F2
102
}
330
1F2
100
AcDbXrecord
 90
        0
  0
XRECORD
  5
1F7
102
{ACAD_REACTORS
330
1F2
102
}
330
1F2
100
AcDbXrecord
340
A7
  0
XRECORD
  5
1FA
102
{ACAD_REACTORS
330
1F2
102
}
330
1F2
100
AcDbXrecord
 90
    14877
  0
XRECORD
  5
1F8
102
{ACAD_REACTORS
330
1F2
102
}
330
1F2
100
AcDbXrecord
340
A8
  0
XRECORD
  5
1F9
102
{ACAD_REACTORS
330
1F2
102
}
330
1F2
100
AcDbXrecord
340
A5
  0
XRECORD
  5
1FF
102
{ACAD_REACTORS
330
1F2
102
}
330
1F2
100
AcDbXrecord
 40
0.0
  0
XRECORD
  5
202
102
{ACAD_REACTORS
330
1F2
102
}
330
1F2
100
AcDbXrecord
340
0
  0
XRECORD
  5
208
102
{ACAD_REACTORS
330
1F2
102
}
330
1F2
100
AcDbXrecord
 10
0.0
 20
0.0
 30
0.0
  0
XRECORD
  5
204
102
{ACAD_REACTORS
330
1F2
102
}
330
1F2
100
AcDbXrecord
 10
0.0
 20
0.0
 30
0.0
  0
XRECORD
  5
207
102
{ACAD_REACTORS
330
1F2
102
}
330
1F2
100
AcDbXrecord
 10
0.0
 20
0.0
 30
0.0
  0
XRECORD
  5
205
102
{ACAD_REACTORS
330
1F2
102
}
330
1F2
100
AcDbXrecord
 10
0.0
 20
0.0
 30
0.0
  0
XRECORD
  5
206
102
{ACAD_REACTORS
330
1F2
102
}
330
1F2
100
AcDbXrecord
 10
0.0
 20
0.0
 30
0.0
  0
XRECORD
  5
203
102
{ACAD_REACTORS
330
1F2
102
}
330
1F2
100
AcDbXrecord
 10
0.0
 20
0.0
 30
0.0
  0
XRECORD
  5
200
102
{ACAD_REACTORS
330
1F2
102
}
330
1F2
100
AcDbXrecord
340
0
  0
XRECORD
  5
201
102
{ACAD_REACTORS
330
1F2
102
}
330
1F2
100
AcDbXrecord
 70
     0
  0
XRECORD
  5
1F6
102
{ACAD_REACTORS
330
1F2
102
}
330
1F2
100
AcDbXrecord
  1

  0
XRECORD
  5
1F3
102
{ACAD_REACTORS
330
1F2
102
}
330
1F2
100
AcDbXrecord
 90
        1
  0
XRECORD
  5
1F4
102
{ACAD_REACTORS
330
1F2
102
}
330
1F2
100
AcDbXrecord
 90
       70
  0
XRECORD
  5
20B
102
{ACAD_REACTORS
330
1F2
102
}
330
1F2
100
AcDbXrecord
340
0
  0
XRECORD
  5
211
102
{ACAD_REACTORS
330
1F2
102
}
330
1F2
100
AcDbXrecord
 10
0.0
 20
0.0
 30
0.0
  0
XRECORD
  5
20D
102
{ACAD_REACTORS
330
1F2
102
}
330
1F2
100
AcDbXrecord
 10
0.0
 20
0.0
 30
0.0
  0
XRECORD
  5
210
102
{ACAD_REACTORS
330
1F2
102
}
330
1F2
100
AcDbXrecord
 10
0.0
 20
0.0
 30
0.0
  0
XRECORD
  5
20E
102
{ACAD_REACTORS
330
1F2
102
}
330
1F2
100
AcDbXrecord
 10
0.0
 20
0.0
 30
0.0
  0
XRECORD
  5
20F
102
{ACAD_REACTORS
330
1F2
102
}
330
1F2
100
AcDbXrecord
 10
0.0
 20
0.0
 30
0.0
  0
XRECORD
  5
20C
102
{ACAD_REACTORS
330
1F2
102
}
330
1F2
100
AcDbXrecord
 10
0.0
 20
0.0
 30
0.0
  0
XRECORD
  5
209
102
{ACAD_REACTORS
330
1F2
102
}
330
1F2
100
AcDbXrecord
340
0
  0
XRECORD
  5
20A
102
{ACAD_REACTORS
330
1F2
102
}
330
1F2
100
AcDbXrecord
 70
     0
  0
XRECORD
  5
1FE
102
{ACAD_REACTORS
330
1F2
102
}
330
1F2
100
AcDbXrecord
  1
{74A7C69D-2031-4D53-9032-271B5772189E}
  0
DICTIONARYVAR
  5
109
102
{ACAD_REACTORS
330
108
102
}
330
108
100
DictionaryVariables
280
     0
  1
1
  0
ENDSEC
  0
EOF
