  0
SECTION
  2
HEADER
  9
$ACADVER
  1
AC1014
  9
$ACADMAINTVER
 70
     9
  9
$DWGCODEPAGE
  3
ANSI_1252
  9
$INSBASE
 10
7.851237301609545
 20
1.3403123814929
 30
0.0
  9
$EXTMIN
 10
6.952864035521516
 20
-0.6589251308984228
 30
0.0
  9
$EXTMAX
 10
20.00432208463475
 20
4.658639799670573
 30
0.0
  9
$LIMMIN
 10
0.0
 20
0.0
  9
$LIMMAX
 10
36.0
 20
36.0
  9
$ORTHOMODE
 70
     1
  9
$REGENMODE
 70
     1
  9
$FILLMODE
 70
     1
  9
$QTEXTMODE
 70
     0
  9
$MIRRTEXT
 70
     1
  9
$DRAGMODE
 70
     0
  9
$LTSCALE
 40
1.0
  9
$OSMODE
 70
    37
  9
$ATTMODE
 70
     1
  9
$TEXTSIZE
 40
0.2
  9
$TRACEWID
 40
0.05
  9
$TEXTSTYLE
  7
STANDARD
  9
$CLAYER
  8
ADPDIM
  9
$CELTYPE
  6
BYLAYER
  9
$CECOLOR
 62
   256
  9
$CELTSCALE
 40
1.0
  9
$DELOBJ
 70
     1
  9
$DISPSILH
 70
     0
  9
$DIMSCALE
 40
1.0
  9
$DIMASZ
 40
0.125
  9
$DIMEXO
 40
0.0625
  9
$DIMDLI
 40
0.38
  9
$DIMRND
 40
0.0
  9
$DIMDLE
 40
0.0
  9
$DIMEXE
 40
0.18
  9
$DIMTP
 40
0.0
  9
$DIMTM
 40
0.0
  9
$DIMTXT
 40
0.125
  9
$DIMCEN
 40
0.1875
  9
$DIMTSZ
 40
0.125
  9
$DIMTOL
 70
     0
  9
$DIMLIM
 70
     0
  9
$DIMTIH
 70
     0
  9
$DIMTOH
 70
     0
  9
$DIMSE1
 70
     0
  9
$DIMSE2
 70
     0
  9
$DIMTAD
 70
     0
  9
$DIMZIN
 70
     3
  9
$DIMBLK
  1

  9
$DIMASO
 70
     1
  9
$DIMSHO
 70
     1
  9
$DIMPOST
  1

  9
$DIMAPOST
  1

  9
$DIMALT
 70
     0
  9
$DIMALTD
 70
     1
  9
$DIMALTF
 40
25.4
  9
$DIMLFAC
 40
1.0
  9
$DIMTOFL
 70
     0
  9
$DIMTVP
 40
0.0
  9
$DIMTIX
 70
     0
  9
$DIMSOXD
 70
     0
  9
$DIMSAH
 70
     0
  9
$DIMBLK1
  1

  9
$DIMBLK2
  1

  9
$DIMSTYLE
  2
STANDARD
  9
$DIMCLRD
 70
     0
  9
$DIMCLRE
 70
     0
  9
$DIMCLRT
 70
     0
  9
$DIMTFAC
 40
1.0
  9
$DIMGAP
 40
0.125
  9
$DIMJUST
 70
     0
  9
$DIMSD1
 70
     0
  9
$DIMSD2
 70
     0
  9
$DIMTOLJ
 70
     1
  9
$DIMTZIN
 70
     0
  9
$DIMALTZ
 70
     0
  9
$DIMALTTZ
 70
     0
  9
$DIMFIT
 70
     3
  9
$DIMUPT
 70
     0
  9
$DIMUNIT
 70
     2
  9
$DIMDEC
 70
     4
  9
$DIMTDEC
 70
     4
  9
$DIMALTU
 70
     2
  9
$DIMALTTD
 70
     2
  9
$DIMTXSTY
  7
STANDARD
  9
$DIMAUNIT
 70
     0
  9
$LUNITS
 70
     5
  9
$LUPREC
 70
     4
  9
$SKETCHINC
 40
0.1
  9
$FILLETRAD
 40
0.0
  9
$AUNITS
 70
     0
  9
$AUPREC
 70
     0
  9
$MENU
  1
acad
  9
$ELEVATION
 40
0.0
  9
$PELEVATION
 40
0.0
  9
$THICKNESS
 40
0.0
  9
$LIMCHECK
 70
     0
  9
$BLIPMODE
 70
     0
  9
$CHAMFERA
 40
0.0
  9
$CHAMFERB
 40
0.0
  9
$CHAMFERC
 40
0.0
  9
$CHAMFERD
 40
0.0
  9
$SKPOLY
 70
     0
  9
$TDCREATE
 40
2450226.651965463
  9
$TDUPDATE
 40
2452297.098962847
  9
$TDINDWG
 40
0.0360512269
  9
$TDUSRTIMER
 40
0.0360512269
  9
$USRTIMER
 70
     1
  9
$ANGBASE
 50
0.0
  9
$ANGDIR
 70
     0
  9
$PDMODE
 70
     0
  9
$PDSIZE
 40
0.0
  9
$PLINEWID
 40
0.0
  9
$COORDS
 70
     2
  9
$SPLFRAME
 70
     0
  9
$SPLINETYPE
 70
     6
  9
$SPLINESEGS
 70
     8
  9
$ATTDIA
 70
     0
  9
$ATTREQ
 70
     1
  9
$HANDLING
 70
 22529
  9
$HANDSEED
  5
4A9
  9
$SURFTAB1
 70
     6
  9
$SURFTAB2
 70
     6
  9
$SURFTYPE
 70
     6
  9
$SURFU
 70
     6
  9
$SURFV
 70
     6
  9
$UCSNAME
  2

  9
$UCSORG
 10
0.0
 20
0.0
 30
0.0
  9
$UCSXDIR
 10
1.0
 20
0.0
 30
0.0
  9
$UCSYDIR
 10
0.0
 20
1.0
 30
0.0
  9
$PUCSNAME
  2

  9
$PUCSORG
 10
0.0
 20
0.0
 30
0.0
  9
$PUCSXDIR
 10
1.0
 20
0.0
 30
0.0
  9
$PUCSYDIR
 10
0.0
 20
1.0
 30
0.0
  9
$USERI1
 70
     0
  9
$USERI2
 70
     0
  9
$USERI3
 70
     0
  9
$USERI4
 70
     0
  9
$USERI5
 70
     0
  9
$USERR1
 40
0.0
  9
$USERR2
 40
0.0
  9
$USERR3
 40
0.0
  9
$USERR4
 40
0.0
  9
$USERR5
 40
0.0
  9
$WORLDVIEW
 70
     1
  9
$SHADEDGE
 70
     3
  9
$SHADEDIF
 70
    70
  9
$TILEMODE
 70
     1
  9
$MAXACTVP
 70
    15
  9
$PINSBASE
 10
0.0008545056916773
 20
1.250276130627782
 30
0.0
  9
$PLIMCHECK
 70
     0
  9
$PEXTMIN
 10
1.000000000000000E+20
 20
1.000000000000000E+20
 30
1.000000000000000E+20
  9
$PEXTMAX
 10
-1.000000000000000E+20
 20
-1.000000000000000E+20
 30
-1.000000000000000E+20
  9
$PLIMMIN
 10
0.0
 20
0.0
  9
$PLIMMAX
 10
12.0
 20
9.0
  9
$UNITMODE
 70
     0
  9
$VISRETAIN
 70
     0
  9
$PLINEGEN
 70
     0
  9
$PSLTSCALE
 70
     1
  9
$TREEDEPTH
 70
  3020
  9
$PICKSTYLE
 70
     1
  9
$CMLSTYLE
  2
STANDARD
  9
$CMLJUST
 70
     0
  9
$CMLSCALE
 40
1.0
  9
$PROXYGRAPHICS
 70
     1
  9
$MEASUREMENT
 70
     0
  0
ENDSEC
  0
SECTION
  2
CLASSES
  0
CLASS
  1
ACDBDICTIONARYWDFLT
  2
AcDbDictionaryWithDefault
  3
AutoCAD 2000
 90
        0
280
     0
281
     0
  0
CLASS
  1
ACDBPLACEHOLDER
  2
AcDbPlaceHolder
  3
AutoCAD 2000
 90
        0
280
     0
281
     0
  0
CLASS
  1
LAYOUT
  2
AcDbLayout
  3
AutoCAD 2000
 90
        0
280
     0
281
     0
  0
CLASS
  1
DICTIONARYVAR
  2
AcDbDictionaryVar
  3
AutoCAD 2000
 90
        0
280
     0
281
     0
  0
CLASS
  1
LONG_TRANSACTION
  2
AcDbLongTransaction
  3
AutoCAD 2000
 90
        0
280
     0
281
     0
  0
CLASS
  1
LWPOLYLINE
  2
AcDbPolyline
  3
AutoCAD 2000
 90
        0
280
     0
281
     1
  0
CLASS
  1
HATCH
  2
AcDbHatch
  3
AutoCAD 2000
 90
        0
280
     0
281
     1
  0
CLASS
  1
XRECORD
  2
AcDbXrecord
  3
AutoCAD 2000
 90
        0
280
     0
281
     0
  0
CLASS
  1
LONG_TRANSACTION
  2
AcDbLongTransaction
  3
AutoCAD 2000
 90
        0
280
     0
281
     0
  0
CLASS
  1
LWPOLYLINE
  2
AcDbPolyline
  3
AutoCAD 2000
 90
        0
280
     0
281
     1
  0
CLASS
  1
HATCH
  2
AcDbHatch
  3
AutoCAD 2000
 90
        0
280
     0
281
     1
  0
CLASS
  1
XRECORD
  2
AcDbXrecord
  3
AutoCAD 2000
 90
        0
280
     0
281
     0
  0
CLASS
  1
LONG_TRANSACTION
  2
AcDbLongTransaction
  3
AutoCAD 2000
 90
        0
280
     0
281
     0
  0
CLASS
  1
LWPOLYLINE
  2
AcDbPolyline
  3
AutoCAD 2000
 90
        0
280
     0
281
     1
  0
CLASS
  1
HATCH
  2
AcDbHatch
  3
AutoCAD 2000
 90
        0
280
     0
281
     1
  0
CLASS
  1
XRECORD
  2
AcDbXrecord
  3
AutoCAD 2000
 90
        0
280
     0
281
     0
  0
CLASS
  1
LONG_TRANSACTION
  2
AcDbLongTransaction
  3
AutoCAD 2000
 90
        0
280
     0
281
     0
  0
CLASS
  1
LWPOLYLINE
  2
AcDbPolyline
  3
AutoCAD 2000
 90
        0
280
     0
281
     1
  0
CLASS
  1
HATCH
  2
AcDbHatch
  3
AutoCAD 2000
 90
        0
280
     0
281
     1
  0
CLASS
  1
XRECORD
  2
AcDbXrecord
  3
AutoCAD 2000
 90
        0
280
     0
281
     0
  0
CLASS
  1
LONG_TRANSACTION
  2
AcDbLongTransaction
  3
AutoCAD 2000
 90
        0
280
     0
281
     0
  0
CLASS
  1
LWPOLYLINE
  2
AcDbPolyline
  3
AutoCAD 2000
 90
        0
280
     0
281
     1
  0
CLASS
  1
HATCH
  2
AcDbHatch
  3
AutoCAD 2000
 90
        0
280
     0
281
     1
  0
CLASS
  1
XRECORD
  2
AcDbXrecord
  3
AutoCAD 2000
 90
        0
280
     0
281
     0
  0
ENDSEC
  0
SECTION
  2
TABLES
  0
TABLE
  2
VPORT
  5
8
330
0
100
AcDbSymbolTable
 70
     2
  0
VPORT
  5
486
330
8
100
AcDbSymbolTableRecord
100
AcDbViewportTableRecord
  2
*ACTIVE
 70
     0
 10
0.0
 20
0.0
 11
1.0
 21
1.0
 12
13.48828877896532
 22
1.99986321867153
 13
0.0
 23
0.0
 14
0.5740882589684922
 24
0.5740882589684922
 15
0.5
 25
0.5
 16
0.0
 26
0.0
 36
1.0
 17
0.0
 27
0.0
 37
0.0
 40
8.365595802020571
 41
1.570528967254408
 42
50.0
 43
0.0
 44
0.0
 50
0.0
 51
0.0
 71
     0
 72
   100
 73
     1
 74
     0
 75
     0
 76
     0
 77
     0
 78
     0
  0
ENDTAB
  0
TABLE
  2
LTYPE
  5
5
330
0
100
AcDbSymbolTable
 70
     3
  0
LTYPE
  5
12
330
5
100
AcDbSymbolTableRecord
100
AcDbLinetypeTableRecord
  2
BYBLOCK
 70
     0
  3

 72
    65
 73
     0
 40
0.0
  0
LTYPE
  5
13
330
5
100
AcDbSymbolTableRecord
100
AcDbLinetypeTableRecord
  2
BYLAYER
 70
     0
  3

 72
    65
 73
     0
 40
0.0
  0
LTYPE
  5
14
330
5
100
AcDbSymbolTableRecord
100
AcDbLinetypeTableRecord
  2
CONTINUOUS
 70
     0
  3
Solid line
 72
    65
 73
     0
 40
0.0
  0
LTYPE
  5
1F
330
5
100
AcDbSymbolTableRecord
100
AcDbLinetypeTableRecord
  2
CENTER2
 70
     0
  3
___ _ ___ _ ___ _ ___ _ ___ _ ___ _ ___ _ ___ _
 72
    65
 73
     4
 40
1.125
 49
0.75
 74
     0
 49
-0.125
 74
     0
 49
0.125
 74
     0
 49
-0.125
 74
     0
  0
LTYPE
  5
20
330
5
100
AcDbSymbolTableRecord
100
AcDbLinetypeTableRecord
  2
HIDDEN2
 70
     0
  3
_ _ _ _ _ _ _ _ _ _ _ _ _ _ _ _ _ _ _ _ _ _ _ _
 72
    65
 73
     2
 40
0.1875
 49
0.125
 74
     0
 49
-0.0625
 74
     0
  0
ENDTAB
  0
TABLE
  2
LAYER
  5
2
330
0
100
AcDbSymbolTable
 70
     6
  0
LAYER
  5
F
330
2
100
AcDbSymbolTableRecord
100
AcDbLayerTableRecord
  2
0
 70
     0
 62
     7
  6
CONTINUOUS
  0
LAYER
  5
22
330
2
100
AcDbSymbolTableRecord
100
AcDbLayerTableRecord
  2
ADP2DETAIL
 70
     0
 62
     5
  6
CONTINUOUS
  0
LAYER
  5
23
330
2
100
AcDbSymbolTableRecord
100
AcDbLayerTableRecord
  2
ADPDIM
 70
     0
 62
     3
  6
CONTINUOUS
  0
LAYER
  5
24
330
2
100
AcDbSymbolTableRecord
100
AcDbLayerTableRecord
  2
ADP1DETAIL
 70
     0
 62
     7
  6
CONTINUOUS
  0
LAYER
  5
25
330
2
100
AcDbSymbolTableRecord
100
AcDbLayerTableRecord
  2
ADP3DETAIL
 70
     0
 62
     1
  6
CONTINUOUS
  0
LAYER
  5
26
330
2
100
AcDbSymbolTableRecord
100
AcDbLayerTableRecord
  2
DEFPOINTS
 70
     0
 62
     7
  6
CONTINUOUS
  0
ENDTAB
  0
TABLE
  2
STYLE
  5
3
330
0
100
AcDbSymbolTable
 70
     2
  0
STYLE
  5
10
330
3
100
AcDbSymbolTableRecord
100
AcDbTextStyleTableRecord
  2
STANDARD
 70
     0
 40
0.0
 41
1.0
 50
0.0
 71
     0
 42
0.2
  3
txt
  4

  0
STYLE
  5
342
330
3
100
AcDbSymbolTableRecord
100
AcDbTextStyleTableRecord
  2
ARIAL_WIDE
 70
     0
 40
0.0
 41
1.25
 50
0.0
 71
     0
 42
0.2
  3
ARIAL.TTF
  4

1001
ACAD
1000
Arial
1071
       34
  0
ENDTAB
  0
TABLE
  2
VIEW
  5
6
330
0
100
AcDbSymbolTable
 70
     0
  0
ENDTAB
  0
TABLE
  2
UCS
  5
7
330
0
100
AcDbSymbolTable
 70
     0
  0
ENDTAB
  0
TABLE
  2
APPID
  5
9
330
0
100
AcDbSymbolTable
 70
     1
  0
APPID
  5
11
330
9
100
AcDbSymbolTableRecord
100
AcDbRegAppTableRecord
  2
ACAD
 70
     0
  0
ENDTAB
  0
TABLE
  2
DIMSTYLE
  5
A
330
0
100
AcDbSymbolTable
 70
     1
  0
DIMSTYLE
105
336
330
A
100
AcDbSymbolTableRecord
100
AcDbDimStyleTableRecord
  2
STANDARD
 70
     0
  3

  4

  5

  6

  7

 40
1.0
 41
0.18
 42
0.0625
 43
0.38
 44
0.18
 45
0.0
 46
0.0
 47
0.0
 48
0.0
140
0.18
141
0.09
142
0.0
143
25.4
144
1.0
145
0.0
146
1.0
147
0.09
 71
     0
 72
     0
 73
     1
 74
     1
 75
     0
 76
     0
 77
     0
 78
     0
170
     0
171
     2
172
     0
173
     0
174
     0
175
     0
176
     0
177
     0
178
     0
270
     2
271
     4
272
     4
273
     2
274
     2
340
10
275
     0
280
     0
281
     0
282
     0
283
     1
284
     0
285
     0
286
     0
287
     3
288
     0
  0
ENDTAB
  0
TABLE
  2
BLOCK_RECORD
  5
1
330
0
100
AcDbSymbolTable
 70
     3
  0
BLOCK_RECORD
  5
18
102
{ACAD_XDICTIONARY
360
397
102
}
330
1
100
AcDbSymbolTableRecord
100
AcDbBlockTableRecord
  2
*MODEL_SPACE
  0
BLOCK_RECORD
  5
15
102
{ACAD_XDICTIONARY
360
395
102
}
330
1
100
AcDbSymbolTableRecord
100
AcDbBlockTableRecord
  2
*PAPER_SPACE
  0
BLOCK_RECORD
  5
1C
330
1
100
AcDbSymbolTableRecord
100
AcDbBlockTableRecord
  2
7163X
  0
BLOCK_RECORD
  5
1D
330
1
100
AcDbSymbolTableRecord
100
AcDbBlockTableRecord
  2
*D1
  0
BLOCK_RECORD
  5
1E
330
1
100
AcDbSymbolTableRecord
100
AcDbBlockTableRecord
  2
*D2
  0
ENDTAB
  0
ENDSEC
  0
SECTION
  2
BLOCKS
  0
BLOCK
  5
29
330
18
100
AcDbEntity
  8
0
100
AcDbBlockBegin
  2
*MODEL_SPACE
 70
     0
 10
0.0
 20
0.0
 30
0.0
  3
*MODEL_SPACE
  1

  0
ENDBLK
  5
2A
330
18
100
AcDbEntity
  8
0
100
AcDbBlockEnd
  0
BLOCK
  5
27
330
15
100
AcDbEntity
 67
     1
  8
0
100
AcDbBlockBegin
  2
*PAPER_SPACE
 70
     0
 10
0.0
 20
0.0
 30
0.0
  3
*PAPER_SPACE
  1

  0
ENDBLK
  5
28
330
15
100
AcDbEntity
 67
     1
  8
0
100
AcDbBlockEnd
  0
BLOCK
  5
2B
330
1C
100
AcDbEntity
  8
0
100
AcDbBlockBegin
  2
7163X
 70
     0
 10
0.0
 20
0.0
 30
0.0
  3
7163X
  1

  0
LWPOLYLINE
  5
2C
330
1C
100
AcDbEntity
  8
ADP1DETAIL
100
AcDbPolyline
 90
        2
 70
     0
 43
0.0
 10
0.7523537991039822
 20
1.208111959788922
 10
0.7204898497326944
 20
1.19957404028722
  0
ARC
  5
30
330
1C
100
AcDbEntity
  8
ADP1DETAIL
100
AcDbCircle
 10
0.7565547918006342
 20
0.0606491626974153
 30
0.0
 40
0.062
100
AcDbArc
 50
210.3186020049415
 51
305.7170843253678
  0
ARC
  5
31
330
1C
100
AcDbEntity
  8
ADP1DETAIL
100
AcDbCircle
 10
0.3718415769139234
 20
0.5856975177939741
 30
0.0
 40
0.581
100
AcDbArc
 50
306.3039330046803
 51
233.6960669953195
  0
LWPOLYLINE
  5
32
330
1C
100
AcDbEntity
  8
ADP1DETAIL
100
AcDbPolyline
 90
        2
 70
     0
 43
0.0
 10
-0.2143749487093802
 20
1.015448854999875
 10
-0.2079393115472272
 20
0.9830947221375868
  0
ARC
  5
36
330
1C
100
AcDbEntity
  8
ADP1DETAIL
100
AcDbCircle
 10
-0.0088584682321939
 20
0.0675117638159772
 30
0.0
 40
0.062
100
AcDbArc
 50
329.681397995058
 51
53.6960669953194
  0
ARC
  5
37
330
1C
100
AcDbEntity
  8
ADP1DETAIL
100
AcDbCircle
 10
-0.0128716379727867
 20
0.0606491626974148
 30
0.0
 40
0.062
100
AcDbArc
 50
234.2829156746323
 51
329.681397995058
  0
LWPOLYLINE
  5
38
330
1C
100
AcDbEntity
  8
ADP1DETAIL
100
AcDbPolyline
 90
        2
 70
     0
 43
0.0
 10
-0.2535446876332918
 20
0.2872911419297117
 10
-0.2641483287924715
 20
0.2560538223724769
  0
LWPOLYLINE
  5
3C
330
1C
100
AcDbEntity
  8
ADP1DETAIL
100
AcDbPolyline
 90
        2
 70
     0
 43
0.0
 10
-0.2320349455793225
 20
0.2470492449752037
 10
-0.2405728650810253
 20
0.2151852956039169
  0
LWPOLYLINE
  5
40
330
1C
100
AcDbEntity
  8
ADP1DETAIL
100
AcDbPolyline
 90
        2
 70
     0
 43
0.0
 10
-0.2402934444095162
 20
0.2147359506125155
 10
-0.2079393115472272
 20
0.2083003134503616
  0
LWPOLYLINE
  5
44
330
1C
100
AcDbEntity
  8
ADP1DETAIL
100
AcDbPolyline
 90
        2
 70
     0
 43
0.0
 10
-0.2638988949506094
 20
0.2555871644769065
 10
-0.2320349455793225
 20
0.2470492449752037
  0
LWPOLYLINE
  5
48
330
1C
100
AcDbEntity
  8
ADP1DETAIL
100
AcDbPolyline
 90
        2
 70
     0
 43
0.0
 10
-0.2140667377304362
 20
0.1755160726650797
 10
-0.1813609667411593
 20
0.1712102762288192
  0
LWPOLYLINE
  5
4C
330
1C
100
AcDbEntity
  8
ADP1DETAIL
100
AcDbPolyline
 90
        2
 70
     0
 43
0.0
 10
-0.1813609667411593
 20
0.1712102762288192
 10
-0.1856667631774189
 20
0.1385045052395442
  0
LWPOLYLINE
  5
50
330
1C
100
AcDbEntity
  8
ADP1DETAIL
100
AcDbPolyline
 90
        2
 70
     0
 43
0.0
 10
-0.1853310816977678
 20
0.1380954761731146
 10
-0.1524137237139604
 20
0.1359379585441265
  0
LWPOLYLINE
  5
54
330
1C
100
AcDbEntity
  8
ADP1DETAIL
100
AcDbPolyline
 90
        2
 70
     0
 43
0.0
 10
-0.1524137237139604
 20
0.1359379585441265
 10
-0.1545712413429485
 20
0.10302060056032
  0
LWPOLYLINE
  5
58
330
1C
100
AcDbEntity
  8
ADP1DETAIL
100
AcDbPolyline
 90
        2
 70
     0
 43
0.0
 10
-0.1542095268022234
 20
0.1026344018757146
 10
-0.121221539004337
 20
0.1026344018757137
  0
LWPOLYLINE
  5
5C
330
1C
100
AcDbEntity
  8
ADP1DETAIL
100
AcDbPolyline
 90
        2
 70
     0
 43
0.0
 10
-0.121221539004337
 20
0.1026344018757137
 10
-0.121221539004337
 20
0.0696464140778281
  0
LWPOLYLINE
  5
60
330
1C
100
AcDbEntity
  8
ADP1DETAIL
100
AcDbPolyline
 90
        2
 70
     0
 43
0.0
 10
-0.1208353403197306
 20
0.0692846995371022
 10
-0.0879179823359242
 20
0.0714422171660885
  0
LWPOLYLINE
  5
64
330
1C
100
AcDbEntity
  8
ADP1DETAIL
100
AcDbPolyline
 90
        2
 70
     0
 43
0.0
 10
-0.0879179823359242
 20
0.0714422171660885
 10
-0.0857604647069352
 20
0.038524859182282
  0
LWPOLYLINE
  5
68
330
1C
100
AcDbEntity
  8
ADP1DETAIL
100
AcDbPolyline
 90
        2
 70
     0
 43
0.0
 10
-0.0853514356405074
 20
0.0381891777026318
 10
-0.0526456646512306
 20
0.0424949741388905
  0
LWPOLYLINE
  5
6C
330
1C
100
AcDbEntity
  8
ADP1DETAIL
100
AcDbPolyline
 90
        2
 70
     0
 43
0.0
 10
-0.0526456646512306
 20
0.0424949741388905
 10
-0.048339868214971
 20
0.0097892031496145
  0
LWPOLYLINE
  5
70
330
1C
100
AcDbEntity
  8
ADP1DETAIL
100
AcDbPolyline
 90
        2
 70
     0
 43
0.0
 10
-0.2079393115472272
 20
0.2083003134503616
 10
-0.214374948709382
 20
0.1759461805880735
  0
LWPOLYLINE
  5
74
330
1C
100
AcDbEntity
  8
ADP1DETAIL
100
AcDbPolyline
 90
        2
 70
     0
 43
0.0
 10
-0.3456606304210648
 20
0.5247638694356743
 10
-0.3194895001121254
 20
0.5046820548437095
  0
LWPOLYLINE
  5
78
330
1C
100
AcDbEntity
  8
ADP1DETAIL
100
AcDbPolyline
 90
        2
 70
     0
 43
0.0
 10
-0.3194895001121254
 20
0.5046820548437095
 10
-0.3395713147040893
 20
0.478510924534771
  0
LWPOLYLINE
  5
7C
330
1C
100
AcDbEntity
  8
ADP1DETAIL
100
AcDbPolyline
 90
        2
 70
     0
 43
0.0
 10
-0.3194895001121254
 20
0.6867129807442374
 10
-0.3456606304210648
 20
0.6666311661522744
  0
LWPOLYLINE
  5
80
330
1C
100
AcDbEntity
  8
ADP1DETAIL
100
AcDbPolyline
 90
        2
 70
     0
 43
0.0
 10
-0.3395713147040884
 20
0.7128841110531777
 10
-0.3194895001121254
 20
0.6867129807442374
  0
LWPOLYLINE
  5
84
330
1C
100
AcDbEntity
  8
ADP1DETAIL
100
AcDbPolyline
 90
        2
 70
     0
 43
0.0
 10
-0.3394851205483467
 20
0.4779888542325322
 10
-0.3120566111233969
 20
0.4596617101648124
  0
LWPOLYLINE
  5
88
330
1C
100
AcDbEntity
  8
ADP1DETAIL
100
AcDbPolyline
 90
        2
 70
     0
 43
0.0
 10
-0.3120566111233969
 20
0.4596617101648124
 10
-0.3303837551911157
 20
0.4322332007398635
  0
LWPOLYLINE
  5
8C
330
1C
100
AcDbEntity
  8
ADP1DETAIL
100
AcDbPolyline
 90
        2
 70
     0
 43
0.0
 10
-0.3302636005522319
 20
0.4317178855977227
 10
-0.3016951650995314
 20
0.4152238916987794
  0
LWPOLYLINE
  5
90
330
1C
100
AcDbEntity
  8
ADP1DETAIL
100
AcDbPolyline
 90
        2
 70
     0
 43
0.0
 10
-0.312056611123396
 20
0.7317333254231358
 10
-0.3394851205483458
 20
0.7134061813554168
  0
LWPOLYLINE
  5
94
330
1C
100
AcDbEntity
  8
ADP1DETAIL
100
AcDbPolyline
 90
        2
 70
     0
 43
0.0
 10
-0.3303837551911157
 20
0.759161834848086
 10
-0.312056611123396
 20
0.7317333254231358
  0
LWPOLYLINE
  5
98
330
1C
100
AcDbEntity
  8
ADP1DETAIL
100
AcDbPolyline
 90
        2
 70
     0
 43
0.0
 10
-0.3016951650995314
 20
0.7761711438891695
 10
-0.3302636005522319
 20
0.7596771499902266
  0
LWPOLYLINE
  5
9C
330
1C
100
AcDbEntity
  8
ADP1DETAIL
100
AcDbPolyline
 90
        2
 70
     0
 43
0.0
 10
-0.3254549687236179
 20
0.5956975177939739
 10
-0.348780998593202
 20
0.5723714879243898
  0
LWPOLYLINE
  5
A0
330
1C
100
AcDbEntity
  8
ADP1DETAIL
100
AcDbPolyline
 90
        2
 70
     0
 43
0.0
 10
-0.348763685689033
 20
0.5718426334110185
 10
-0.3239620032939512
 20
0.5500921417079101
  0
LWPOLYLINE
  5
A4
330
1C
100
AcDbEntity
  8
ADP1DETAIL
100
AcDbPolyline
 90
        2
 70
     0
 43
0.0
 10
-0.3239620032939512
 20
0.5500921417079101
 10
-0.3457124949970596
 20
0.5252904593128283
  0
LWPOLYLINE
  5
A8
330
1C
100
AcDbEntity
  8
ADP1DETAIL
100
AcDbPolyline
 90
        2
 70
     0
 43
0.0
 10
-0.348780998593202
 20
0.6190235476635589
 10
-0.3254549687236179
 20
0.5956975177939739
  0
LWPOLYLINE
  5
AC
330
1C
100
AcDbEntity
  8
ADP1DETAIL
100
AcDbPolyline
 90
        2
 70
     0
 43
0.0
 10
-0.3254549687236179
 20
0.5956975177939748
 10
-0.348780998593202
 20
0.5723714879243907
  0
LWPOLYLINE
  5
B0
330
1C
100
AcDbEntity
  8
ADP1DETAIL
100
AcDbPolyline
 90
        2
 70
     0
 43
0.0
 10
-0.348780998593202
 20
0.6190235476635598
 10
-0.3254549687236179
 20
0.5956975177939748
  0
LWPOLYLINE
  5
B4
330
1C
100
AcDbEntity
  8
ADP1DETAIL
100
AcDbPolyline
 90
        2
 70
     0
 43
0.0
 10
-0.3239620032939512
 20
0.6413028938800385
 10
-0.3487636856890321
 20
0.6195524021769306
  0
LWPOLYLINE
  5
B8
330
1C
100
AcDbEntity
  8
ADP1DETAIL
100
AcDbPolyline
 90
        2
 70
     0
 43
0.0
 10
-0.3457124949970587
 20
0.6661045762751208
 10
-0.3239620032939512
 20
0.6413028938800385
  0
LWPOLYLINE
  5
BC
330
1C
100
AcDbEntity
  8
ADP1DETAIL
100
AcDbPolyline
 90
        2
 70
     0
 43
0.0
 10
-0.2320349455793234
 20
0.9443457906127449
 10
-0.2638988949506094
 20
0.9358078711110424
  0
LWPOLYLINE
  5
C0
330
1C
100
AcDbEntity
  8
ADP1DETAIL
100
AcDbPolyline
 90
        2
 70
     0
 43
0.0
 10
-0.2405728650810253
 20
0.9762097399840321
 10
-0.2320349455793234
 20
0.9443457906127449
  0
LWPOLYLINE
  5
C4
330
1C
100
AcDbEntity
  8
ADP1DETAIL
100
AcDbPolyline
 90
        2
 70
     0
 43
0.0
 10
-0.2079393115472272
 20
0.9830947221375868
 10
-0.2402934444095153
 20
0.9766590849754333
  0
LWPOLYLINE
  5
C8
330
1C
100
AcDbEntity
  8
ADP1DETAIL
100
AcDbPolyline
 90
        2
 70
     0
 43
0.0
 10
-0.3180355583970615
 20
0.3861491029225888
 10
-0.2884495313431237
 20
0.3715588890065011
  0
LWPOLYLINE
  5
CC
330
1C
100
AcDbEntity
  8
ADP1DETAIL
100
AcDbPolyline
 90
        2
 70
     0
 43
0.0
 10
-0.2884495313431237
 20
0.3715588890065011
 10
-0.3030397452592113
 20
0.3419728619525641
  0
LWPOLYLINE
  5
D0
330
1C
100
AcDbEntity
  8
ADP1DETAIL
100
AcDbPolyline
 90
        2
 70
     0
 43
0.0
 10
-0.3028533564366227
 20
0.3414776387303919
 10
-0.2723764296914237
 20
0.328853682333079
  0
LWPOLYLINE
  5
D4
330
1C
100
AcDbEntity
  8
ADP1DETAIL
100
AcDbPolyline
 90
        2
 70
     0
 43
0.0
 10
-0.2723764296914237
 20
0.328853682333079
 10
-0.2850003860887367
 20
0.29837675558788
  0
LWPOLYLINE
  5
D8
330
1C
100
AcDbEntity
  8
ADP1DETAIL
100
AcDbPolyline
 90
        2
 70
     0
 43
0.0
 10
-0.2847820071905267
 20
0.2978947830888923
 10
-0.2535446876332918
 20
0.2872911419297117
  0
LWPOLYLINE
  5
DC
330
1C
100
AcDbEntity
  8
ADP1DETAIL
100
AcDbPolyline
 90
        2
 70
     0
 43
0.0
 10
-0.2884495313431237
 20
0.8198361465814478
 10
-0.3180355583970607
 20
0.8052459326653607
  0
LWPOLYLINE
  5
E0
330
1C
100
AcDbEntity
  8
ADP1DETAIL
100
AcDbPolyline
 90
        2
 70
     0
 43
0.0
 10
-0.3030397452592104
 20
0.8494221736353855
 10
-0.2884495313431237
 20
0.8198361465814478
  0
LWPOLYLINE
  5
E4
330
1C
100
AcDbEntity
  8
ADP1DETAIL
100
AcDbPolyline
 90
        2
 70
     0
 43
0.0
 10
-0.2723764296914237
 20
0.8625413532548682
 10
-0.3028533564366227
 20
0.8499173968575558
  0
LWPOLYLINE
  5
E8
330
1C
100
AcDbEntity
  8
ADP1DETAIL
100
AcDbPolyline
 90
        2
 70
     0
 43
0.0
 10
-0.2850003860887358
 20
0.8930182800000679
 10
-0.2723764296914237
 20
0.8625413532548682
  0
LWPOLYLINE
  5
EC
330
1C
100
AcDbEntity
  8
ADP1DETAIL
100
AcDbPolyline
 90
        2
 70
     0
 43
0.0
 10
-0.2535446876332918
 20
0.9041038936582355
 10
-0.2847820071905267
 20
0.8935002524990558
  0
LWPOLYLINE
  5
F0
330
1C
100
AcDbEntity
  8
ADP1DETAIL
100
AcDbPolyline
 90
        2
 70
     0
 43
0.0
 10
-0.3016951650995314
 20
0.4152238916987794
 10
-0.3181891589984747
 20
0.3866554562460789
  0
LWPOLYLINE
  5
F4
330
1C
100
AcDbEntity
  8
ADP1DETAIL
100
AcDbPolyline
 90
        2
 70
     0
 43
0.0
 10
-0.3181891589984747
 20
0.8047395793418704
 10
-0.3016951650995314
 20
0.7761711438891695
  0
LWPOLYLINE
  5
F8
330
1C
100
AcDbEntity
  8
ADP1DETAIL
100
AcDbPolyline
 90
        2
 70
     0
 43
0.0
 10
-0.2641483287924706
 20
0.9353412132154712
 10
-0.2535446876332918
 20
0.9041038936582355
  0
LINE
  5
FC
330
1C
100
AcDbEntity
  8
ADP1DETAIL
100
AcDbLine
 10
0.0406487275525609
 20
0.0293510721161505
 30
0.0
 11
0.0446618972931545
 21
0.0362136732347125
 31
0.0
  0
ARC
  5
FD
330
1C
100
AcDbEntity
  8
ADP1DETAIL
100
AcDbCircle
 10
0.7525416220600397
 20
0.0675117638159764
 30
0.0
 40
0.062
100
AcDbArc
 50
126.3039330046807
 51
210.3186020049416
  0
LINE
  5
FE
330
1C
100
AcDbEntity
  8
ADP1DETAIL
100
AcDbLine
 10
0.6990212565346912
 20
0.0362136732347125
 30
0.0
 11
0.7030344262752849
 21
0.0293510721161505
 31
0.0
  0
LWPOLYLINE
  5
FF
330
1C
100
AcDbEntity
  8
ADP1DETAIL
100
AcDbPolyline
 90
        2
 70
     0
 43
0.0
 10
0.0317312235968559
 20
1.231437989658507
 10
0.0231933040951531
 20
1.199574040287219
  0
LWPOLYLINE
  5
103
330
1C
100
AcDbEntity
  8
ADP1DETAIL
100
AcDbPolyline
 90
        2
 70
     0
 43
0.0
 10
-0.1813609667411602
 20
1.020184759359128
 10
-0.2140667377304362
 20
1.015878962922868
  0
LWPOLYLINE
  5
107
330
1C
100
AcDbEntity
  8
ADP1DETAIL
100
AcDbPolyline
 90
        2
 70
     0
 43
0.0
 10
-0.1856667631774189
 20
1.052890530348404
 10
-0.1813609667411602
 20
1.020184759359128
  0
LWPOLYLINE
  5
10B
330
1C
100
AcDbEntity
  8
ADP1DETAIL
100
AcDbPolyline
 90
        2
 70
     0
 43
0.0
 10
-0.1524137237139622
 20
1.055457077043821
 10
-0.1853310816977687
 20
1.053299559414833
  0
LWPOLYLINE
  5
10F
330
1C
100
AcDbEntity
  8
ADP1DETAIL
100
AcDbPolyline
 90
        2
 70
     0
 43
0.0
 10
-0.1545712413429485
 20
1.088374435027628
 10
-0.1524137237139622
 20
1.055457077043821
  0
LWPOLYLINE
  5
113
330
1C
100
AcDbEntity
  8
ADP1DETAIL
100
AcDbPolyline
 90
        2
 70
     0
 43
0.0
 10
-0.121221539004337
 20
1.088760633712234
 10
-0.1542095268022225
 20
1.088760633712234
  0
LWPOLYLINE
  5
117
330
1C
100
AcDbEntity
  8
ADP1DETAIL
100
AcDbPolyline
 90
        2
 70
     0
 43
0.0
 10
-0.1212215390043361
 20
1.12174862151012
 10
-0.121221539004337
 20
1.088760633712234
  0
LWPOLYLINE
  5
11B
330
1C
100
AcDbEntity
  8
ADP1DETAIL
100
AcDbPolyline
 90
        2
 70
     0
 43
0.0
 10
-0.0879179823359242
 20
1.119952818421858
 10
-0.1208353403197306
 20
1.122110336050845
  0
LWPOLYLINE
  5
11F
330
1C
100
AcDbEntity
  8
ADP1DETAIL
100
AcDbPolyline
 90
        2
 70
     0
 43
0.0
 10
-0.0857604647069361
 20
1.152870176405665
 10
-0.0879179823359242
 20
1.119952818421858
  0
LWPOLYLINE
  5
123
330
1C
100
AcDbEntity
  8
ADP1DETAIL
100
AcDbPolyline
 90
        2
 70
     0
 43
0.0
 10
-0.0526456646512315
 20
1.148900061449056
 10
-0.0853514356405065
 20
1.153205857885316
  0
LWPOLYLINE
  5
127
330
1C
100
AcDbEntity
  8
ADP1DETAIL
100
AcDbPolyline
 90
        2
 70
     0
 43
0.0
 10
-0.048339868214971
 20
1.181605832438333
 10
-0.0526456646512315
 20
1.148900061449056
  0
LWPOLYLINE
  5
12B
330
1C
100
AcDbEntity
  8
ADP1DETAIL
100
AcDbPolyline
 90
        2
 70
     0
 43
0.0
 10
-0.0155556274296891
 20
1.175478406255125
 10
-0.0479097602919771
 20
1.181914043417279
  0
LWPOLYLINE
  5
12F
330
1C
100
AcDbEntity
  8
ADP1DETAIL
100
AcDbPolyline
 90
        2
 70
     0
 43
0.0
 10
-0.0091199902675352
 20
1.207832539117413
 10
-0.0155556274296891
 20
1.175478406255125
  0
LWPOLYLINE
  5
133
330
1C
100
AcDbEntity
  8
ADP1DETAIL
100
AcDbPolyline
 90
        2
 70
     0
 43
0.0
 10
0.0231933040951531
 20
1.199574040287219
 10
-0.0086706452761338
 20
1.208111959788922
  0
LWPOLYLINE
  5
137
330
1C
100
AcDbEntity
  8
ADP1DETAIL
100
AcDbPolyline
 90
        2
 70
     0
 43
0.0
 10
0.3951676067835093
 20
1.316320093301099
 10
0.3718415769139243
 20
1.292994063431514
  0
LWPOLYLINE
  5
13B
330
1C
100
AcDbEntity
  8
ADP1DETAIL
100
AcDbPolyline
 90
        2
 70
     0
 43
0.0
 10
0.3951676067835084
 20
1.316320093301099
 10
0.3718415769139234
 20
1.292994063431515
  0
LWPOLYLINE
  5
13F
330
1C
100
AcDbEntity
  8
ADP1DETAIL
100
AcDbPolyline
 90
        2
 70
     0
 43
0.0
 10
0.3718415769139243
 20
1.292994063431514
 10
0.3485155470443402
 20
1.316320093301099
  0
LWPOLYLINE
  5
143
330
1C
100
AcDbEntity
  8
ADP1DETAIL
100
AcDbPolyline
 90
        2
 70
     0
 43
0.0
 10
0.0740388422088416
 20
1.252321101898424
 10
0.0634352010496611
 20
1.221083782341188
  0
LWPOLYLINE
  5
147
330
1C
100
AcDbEntity
  8
ADP1DETAIL
100
AcDbPolyline
 90
        2
 70
     0
 43
0.0
 10
0.1049977414530283
 20
1.23991552439932
 10
0.0745208147078294
 20
1.252539480796633
  0
LWPOLYLINE
  5
14B
330
1C
100
AcDbEntity
  8
ADP1DETAIL
100
AcDbPolyline
 90
        2
 70
     0
 43
0.0
 10
0.1176216978503413
 20
1.27039245114452
 10
0.1049977414530283
 20
1.23991552439932
  0
LWPOLYLINE
  5
14F
330
1C
100
AcDbEntity
  8
ADP1DETAIL
100
AcDbPolyline
 90
        2
 70
     0
 43
0.0
 10
0.1477029481264505
 20
1.255988626051021
 10
0.1181169210725135
 20
1.270578839967108
  0
LWPOLYLINE
  5
153
330
1C
100
AcDbEntity
  8
ADP1DETAIL
100
AcDbPolyline
 90
        2
 70
     0
 43
0.0
 10
0.1622931620425381
 20
1.285574653104958
 10
0.1477029481264505
 20
1.255988626051021
  0
LWPOLYLINE
  5
157
330
1C
100
AcDbEntity
  8
ADP1DETAIL
100
AcDbPolyline
 90
        2
 70
     0
 43
0.0
 10
0.1913679508187287
 20
1.269234259807428
 10
0.1627995153660282
 20
1.285728253706372
  0
LWPOLYLINE
  5
15B
330
1C
100
AcDbEntity
  8
ADP1DETAIL
100
AcDbPolyline
 90
        2
 70
     0
 43
0.0
 10
0.2078619447176722
 20
1.297802695260129
 10
0.1913679508187287
 20
1.269234259807428
  0
LWPOLYLINE
  5
15F
330
1C
100
AcDbEntity
  8
ADP1DETAIL
100
AcDbPolyline
 90
        2
 70
     0
 43
0.0
 10
0.2358057692847619
 20
1.279595705831293
 10
0.208377259859813
 20
1.297922849899013
  0
LWPOLYLINE
  5
163
330
1C
100
AcDbEntity
  8
ADP1DETAIL
100
AcDbPolyline
 90
        2
 70
     0
 43
0.0
 10
0.2541329133524817
 20
1.307024215256243
 10
0.2358057692847619
 20
1.279595705831293
  0
LWPOLYLINE
  5
167
330
1C
100
AcDbEntity
  8
ADP1DETAIL
100
AcDbPolyline
 90
        2
 70
     0
 43
0.0
 10
0.280826113963659
 20
1.287028594820022
 10
0.2546549836547205
 20
1.307110409411986
  0
LWPOLYLINE
  5
16B
330
1C
100
AcDbEntity
  8
ADP1DETAIL
100
AcDbPolyline
 90
        2
 70
     0
 43
0.0
 10
0.3009079285556238
 20
1.313199725128962
 10
0.280826113963659
 20
1.287028594820022
  0
LWPOLYLINE
  5
16F
330
1C
100
AcDbEntity
  8
ADP1DETAIL
100
AcDbPolyline
 90
        2
 70
     0
 43
0.0
 10
0.3262362008278596
 20
1.291501098001848
 10
0.3014345184327778
 20
1.313251589704957
  0
LWPOLYLINE
  5
173
330
1C
100
AcDbEntity
  8
ADP1DETAIL
100
AcDbPolyline
 90
        2
 70
     0
 43
0.0
 10
0.347986692530968
 20
1.31630278039693
 10
0.3262362008278596
 20
1.291501098001848
  0
LWPOLYLINE
  5
177
330
1C
100
AcDbEntity
  8
ADP1DETAIL
100
AcDbPolyline
 90
        2
 70
     0
 43
0.0
 10
0.3718415769139234
 20
1.292994063431515
 10
0.3485155470443393
 20
1.316320093301099
  0
LWPOLYLINE
  5
17B
330
1C
100
AcDbEntity
  8
ADP1DETAIL
100
AcDbPolyline
 90
        2
 70
     0
 43
0.0
 10
0.0634352010496611
 20
1.221083782341188
 10
0.0321978814924262
 20
1.231687423500368
  0
LWPOLYLINE
  5
17F
330
1C
100
AcDbEntity
  8
ADP1DETAIL
100
AcDbPolyline
 90
        2
 70
     0
 43
0.0
 10
0.7204898497326944
 20
1.19957404028722
 10
0.7119519302309925
 20
1.231437989658506
  0
LWPOLYLINE
  5
183
330
1C
100
AcDbEntity
  8
ADP1DETAIL
100
AcDbPolyline
 90
        2
 70
     0
 43
0.0
 10
0.6802479527781856
 20
1.221083782341188
 10
0.6696443116190059
 20
1.252321101898423
  0
LWPOLYLINE
  5
187
330
1C
100
AcDbEntity
  8
ADP1DETAIL
100
AcDbPolyline
 90
        2
 70
     0
 43
0.0
 10
0.6691623391200182
 20
1.252539480796632
 10
0.6386854123748183
 20
1.23991552439932
  0
LWPOLYLINE
  5
18B
330
1C
100
AcDbEntity
  8
ADP1DETAIL
100
AcDbPolyline
 90
        2
 70
     0
 43
0.0
 10
0.6386854123748183
 20
1.23991552439932
 10
0.6260614559775054
 20
1.270392451144519
  0
LWPOLYLINE
  5
18F
330
1C
100
AcDbEntity
  8
ADP1DETAIL
100
AcDbPolyline
 90
        2
 70
     0
 43
0.0
 10
0.6255662327553358
 20
1.270578839967107
 10
0.595980205701398
 20
1.25598862605102
  0
LWPOLYLINE
  5
193
330
1C
100
AcDbEntity
  8
ADP1DETAIL
100
AcDbPolyline
 90
        2
 70
     0
 43
0.0
 10
0.595980205701398
 20
1.25598862605102
 10
0.5813899917853103
 20
1.285574653104957
  0
LWPOLYLINE
  5
197
330
1C
100
AcDbEntity
  8
ADP1DETAIL
100
AcDbPolyline
 90
        2
 70
     0
 43
0.0
 10
0.5808836384618202
 20
1.285728253706371
 10
0.5523152030091197
 20
1.269234259807428
  0
LWPOLYLINE
  5
19B
330
1C
100
AcDbEntity
  8
ADP1DETAIL
100
AcDbPolyline
 90
        2
 70
     0
 43
0.0
 10
0.5523152030091197
 20
1.269234259807428
 10
0.5358212091101765
 20
1.297802695260128
  0
LWPOLYLINE
  5
19F
330
1C
100
AcDbEntity
  8
ADP1DETAIL
100
AcDbPolyline
 90
        2
 70
     0
 43
0.0
 10
0.5353058939680356
 20
1.297922849899012
 10
0.5078773845430858
 20
1.279595705831293
  0
LWPOLYLINE
  5
1A3
330
1C
100
AcDbEntity
  8
ADP1DETAIL
100
AcDbPolyline
 90
        2
 70
     0
 43
0.0
 10
0.5078773845430858
 20
1.279595705831293
 10
0.489550240475367
 20
1.307024215256242
  0
LWPOLYLINE
  5
1A7
330
1C
100
AcDbEntity
  8
ADP1DETAIL
100
AcDbPolyline
 90
        2
 70
     0
 43
0.0
 10
0.4890281701731272
 20
1.307110409411985
 10
0.4628570398641879
 20
1.287028594820022
  0
LWPOLYLINE
  5
1AB
330
1C
100
AcDbEntity
  8
ADP1DETAIL
100
AcDbPolyline
 90
        2
 70
     0
 43
0.0
 10
0.4628570398641879
 20
1.287028594820022
 10
0.442775225272224
 20
1.313199725128961
  0
LWPOLYLINE
  5
1AF
330
1C
100
AcDbEntity
  8
ADP1DETAIL
100
AcDbPolyline
 90
        2
 70
     0
 43
0.0
 10
0.4422486353950708
 20
1.313251589704955
 10
0.417446952999989
 20
1.291501098001848
  0
LWPOLYLINE
  5
1B3
330
1C
100
AcDbEntity
  8
ADP1DETAIL
100
AcDbPolyline
 90
        2
 70
     0
 43
0.0
 10
0.417446952999989
 20
1.291501098001848
 10
0.3956964612968805
 20
1.316302780396929
  0
LWPOLYLINE
  5
1B7
330
1C
100
AcDbEntity
  8
ADP1DETAIL
100
AcDbPolyline
 90
        2
 70
     0
 43
0.0
 10
0.7114852723354213
 20
1.231687423500367
 10
0.6802479527781856
 20
1.221083782341188
  0
LWPOLYLINE
  5
1BB
330
1C
100
AcDbEntity
  8
ADP1DETAIL
100
AcDbPolyline
 90
        2
 70
     0
 43
0.0
 10
0.9516224653750747
 20
0.9830947221375861
 10
0.9580581025372286
 20
1.015448854999874
  0
LWPOLYLINE
  5
1BF
330
1C
100
AcDbEntity
  8
ADP1DETAIL
100
AcDbPolyline
 90
        2
 70
     0
 43
0.0
 10
1.007831482620317
 20
0.2560538223724764
 10
0.9972278414611384
 20
0.2872911419297122
  0
LWPOLYLINE
  5
1C3
330
1C
100
AcDbEntity
  8
ADP1DETAIL
100
AcDbPolyline
 90
        2
 70
     0
 43
0.0
 10
0.9516224653750738
 20
0.2083003134503611
 10
0.9839765982373618
 20
0.2147359506125146
  0
LWPOLYLINE
  5
1C7
330
1C
100
AcDbEntity
  8
ADP1DETAIL
100
AcDbPolyline
 90
        2
 70
     0
 43
0.0
 10
0.9842560189088718
 20
0.215185295603916
 10
0.9757180994071699
 20
0.2470492449752033
  0
LWPOLYLINE
  5
1CB
330
1C
100
AcDbEntity
  8
ADP1DETAIL
100
AcDbPolyline
 90
        2
 70
     0
 43
0.0
 10
0.9757180994071699
 20
0.2470492449752033
 10
1.007582048778455
 20
0.2555871644769057
  0
LWPOLYLINE
  5
1CF
330
1C
100
AcDbEntity
  8
ADP1DETAIL
100
AcDbPolyline
 90
        2
 70
     0
 43
0.0
 10
0.7920230220428176
 20
0.0097892031496145
 10
0.7963288184790781
 20
0.0424949741388909
  0
LWPOLYLINE
  5
1D3
330
1C
100
AcDbEntity
  8
ADP1DETAIL
100
AcDbPolyline
 90
        2
 70
     0
 43
0.0
 10
0.7963288184790781
 20
0.0424949741388909
 10
0.8290345894683531
 20
0.0381891777026313
  0
LWPOLYLINE
  5
1D7
330
1C
100
AcDbEntity
  8
ADP1DETAIL
100
AcDbPolyline
 90
        2
 70
     0
 43
0.0
 10
0.8294436185347827
 20
0.0385248591822824
 10
0.8316011361637707
 20
0.0714422171660898
  0
LWPOLYLINE
  5
1DB
330
1C
100
AcDbEntity
  8
ADP1DETAIL
100
AcDbPolyline
 90
        2
 70
     0
 43
0.0
 10
0.8316011361637707
 20
0.0714422171660898
 10
0.8645184941475772
 20
0.0692846995371022
  0
LWPOLYLINE
  5
1DF
330
1C
100
AcDbEntity
  8
ADP1DETAIL
100
AcDbPolyline
 90
        2
 70
     0
 43
0.0
 10
0.8649046928321826
 20
0.0696464140778272
 10
0.8649046928321835
 20
0.1026344018757137
  0
LWPOLYLINE
  5
1E3
330
1C
100
AcDbEntity
  8
ADP1DETAIL
100
AcDbPolyline
 90
        2
 70
     0
 43
0.0
 10
0.8649046928321835
 20
0.1026344018757137
 10
0.8978926806300691
 20
0.1026344018757137
  0
LWPOLYLINE
  5
1E7
330
1C
100
AcDbEntity
  8
ADP1DETAIL
100
AcDbPolyline
 90
        2
 70
     0
 43
0.0
 10
0.8982543951707951
 20
0.1030206005603196
 10
0.8960968775418088
 20
0.1359379585441269
  0
LWPOLYLINE
  5
1EB
330
1C
100
AcDbEntity
  8
ADP1DETAIL
100
AcDbPolyline
 90
        2
 70
     0
 43
0.0
 10
0.8960968775418088
 20
0.1359379585441269
 10
0.9290142355256152
 20
0.138095476173115
  0
LWPOLYLINE
  5
1EF
330
1C
100
AcDbEntity
  8
ADP1DETAIL
100
AcDbPolyline
 90
        2
 70
     0
 43
0.0
 10
0.9293499170052655
 20
0.1385045052395433
 10
0.9250441205690068
 20
0.1712102762288197
  0
LWPOLYLINE
  5
1F3
330
1C
100
AcDbEntity
  8
ADP1DETAIL
100
AcDbPolyline
 90
        2
 70
     0
 43
0.0
 10
0.9250441205690068
 20
0.1712102762288197
 10
0.9577498915582827
 20
0.1755160726650793
  0
LWPOLYLINE
  5
1F7
330
1C
100
AcDbEntity
  8
ADP1DETAIL
100
AcDbPolyline
 90
        2
 70
     0
 43
0.0
 10
0.9580581025372268
 20
0.1759461805880726
 10
0.9516224653750738
 20
0.2083003134503611
  0
LWPOLYLINE
  5
1FB
330
1C
100
AcDbEntity
  8
ADP1DETAIL
100
AcDbPolyline
 90
        2
 70
     0
 43
0.0
 10
1.063172653939972
 20
0.6867129807442383
 10
1.083254468531936
 20
0.7128841110531768
  0
LWPOLYLINE
  5
1FF
330
1C
100
AcDbEntity
  8
ADP1DETAIL
100
AcDbPolyline
 90
        2
 70
     0
 43
0.0
 10
1.083168274376194
 20
0.7134061813554156
 10
1.055739764951244
 20
0.7317333254231353
  0
LWPOLYLINE
  5
203
330
1C
100
AcDbEntity
  8
ADP1DETAIL
100
AcDbPolyline
 90
        2
 70
     0
 43
0.0
 10
1.055739764951242
 20
0.459661710164812
 10
1.083168274376192
 20
0.4779888542325313
  0
LWPOLYLINE
  5
207
330
1C
100
AcDbEntity
  8
ADP1DETAIL
100
AcDbPolyline
 90
        2
 70
     0
 43
0.0
 10
1.083254468531934
 20
0.4785109245347704
 10
1.063172653939971
 20
0.5046820548437104
  0
LWPOLYLINE
  5
20B
330
1C
100
AcDbEntity
  8
ADP1DETAIL
100
AcDbPolyline
 90
        2
 70
     0
 43
0.0
 10
1.069138122551465
 20
0.5956975177939739
 10
1.092464152421049
 20
0.619023547663558
  0
LWPOLYLINE
  5
20F
330
1C
100
AcDbEntity
  8
ADP1DETAIL
100
AcDbPolyline
 90
        2
 70
     0
 43
0.0
 10
1.09244683951688
 20
0.6195524021769292
 10
1.067645157121798
 20
0.6413028938800376
  0
LWPOLYLINE
  5
213
330
1C
100
AcDbEntity
  8
ADP1DETAIL
100
AcDbPolyline
 90
        2
 70
     0
 43
0.0
 10
1.067645157121798
 20
0.6413028938800376
 10
1.089395648824907
 20
0.6661045762751195
  0
LWPOLYLINE
  5
217
330
1C
100
AcDbEntity
  8
ADP1DETAIL
100
AcDbPolyline
 90
        2
 70
     0
 43
0.0
 10
1.089343784248913
 20
0.6666311661522735
 10
1.063172653939972
 20
0.6867129807442383
  0
LWPOLYLINE
  5
21B
330
1C
100
AcDbEntity
  8
ADP1DETAIL
100
AcDbPolyline
 90
        2
 70
     0
 43
0.0
 10
1.092464152421049
 20
0.5723714879243889
 10
1.069138122551465
 20
0.5956975177939739
  0
LWPOLYLINE
  5
21F
330
1C
100
AcDbEntity
  8
ADP1DETAIL
100
AcDbPolyline
 90
        2
 70
     0
 43
0.0
 10
1.063172653939971
 20
0.5046820548437104
 10
1.089343784248911
 20
0.5247638694356734
  0
LWPOLYLINE
  5
223
330
1C
100
AcDbEntity
  8
ADP1DETAIL
100
AcDbPolyline
 90
        2
 70
     0
 43
0.0
 10
1.089395648824905
 20
0.5252904593128271
 10
1.067645157121797
 20
0.5500921417079092
  0
LWPOLYLINE
  5
227
330
1C
100
AcDbEntity
  8
ADP1DETAIL
100
AcDbPolyline
 90
        2
 70
     0
 43
0.0
 10
1.067645157121797
 20
0.5500921417079092
 10
1.092446839516878
 20
0.5718426334110174
  0
LWPOLYLINE
  5
22B
330
1C
100
AcDbEntity
  8
ADP1DETAIL
100
AcDbPolyline
 90
        2
 70
     0
 43
0.0
 10
1.092464152421048
 20
0.5723714879243883
 10
1.069138122551464
 20
0.5956975177939733
  0
LWPOLYLINE
  5
22F
330
1C
100
AcDbEntity
  8
ADP1DETAIL
100
AcDbPolyline
 90
        2
 70
     0
 43
0.0
 10
1.069138122551464
 20
0.5956975177939733
 10
1.092464152421048
 20
0.6190235476635574
  0
LWPOLYLINE
  5
233
330
1C
100
AcDbEntity
  8
ADP1DETAIL
100
AcDbPolyline
 90
        2
 70
     0
 43
0.0
 10
0.9757180994071699
 20
0.9443457906127438
 10
0.9842560189088727
 20
0.9762097399840307
  0
LWPOLYLINE
  5
237
330
1C
100
AcDbEntity
  8
ADP1DETAIL
100
AcDbPolyline
 90
        2
 70
     0
 43
0.0
 10
0.9839765982373636
 20
0.9766590849754322
 10
0.9516224653750747
 20
0.9830947221375861
  0
LWPOLYLINE
  5
23B
330
1C
100
AcDbEntity
  8
ADP1DETAIL
100
AcDbPolyline
 90
        2
 70
     0
 43
0.0
 10
1.007582048778456
 20
0.9358078711110412
 10
0.9757180994071699
 20
0.9443457906127438
  0
LWPOLYLINE
  5
23F
330
1C
100
AcDbEntity
  8
ADP1DETAIL
100
AcDbPolyline
 90
        2
 70
     0
 43
0.0
 10
1.055739764951244
 20
0.7317333254231353
 10
1.074066909018964
 20
0.7591618348480842
  0
LWPOLYLINE
  5
243
330
1C
100
AcDbEntity
  8
ADP1DETAIL
100
AcDbPolyline
 90
        2
 70
     0
 43
0.0
 10
1.073946754380079
 20
0.7596771499902251
 10
1.045378318927378
 20
0.7761711438891683
  0
LWPOLYLINE
  5
247
330
1C
100
AcDbEntity
  8
ADP1DETAIL
100
AcDbPolyline
 90
        2
 70
     0
 43
0.0
 10
1.045378318927378
 20
0.7761711438891683
 10
1.061872312826322
 20
0.8047395793418687
  0
LWPOLYLINE
  5
24B
330
1C
100
AcDbEntity
  8
ADP1DETAIL
100
AcDbPolyline
 90
        2
 70
     0
 43
0.0
 10
1.061718712224908
 20
0.805245932665359
 10
1.032132685170971
 20
0.8198361465814464
  0
LWPOLYLINE
  5
24F
330
1C
100
AcDbEntity
  8
ADP1DETAIL
100
AcDbPolyline
 90
        2
 70
     0
 43
0.0
 10
1.032132685170971
 20
0.8198361465814464
 10
1.046722899087058
 20
0.8494221736353836
  0
LWPOLYLINE
  5
253
330
1C
100
AcDbEntity
  8
ADP1DETAIL
100
AcDbPolyline
 90
        2
 70
     0
 43
0.0
 10
1.04653651026447
 20
0.8499173968575558
 10
1.016059583519271
 20
0.8625413532548687
  0
LWPOLYLINE
  5
257
330
1C
100
AcDbEntity
  8
ADP1DETAIL
100
AcDbPolyline
 90
        2
 70
     0
 43
0.0
 10
1.016059583519271
 20
0.8625413532548687
 10
1.028683539916584
 20
0.8930182800000675
  0
LWPOLYLINE
  5
25B
330
1C
100
AcDbEntity
  8
ADP1DETAIL
100
AcDbPolyline
 90
        2
 70
     0
 43
0.0
 10
1.028465161018375
 20
0.8935002524990554
 10
0.9972278414611393
 20
0.904103893658236
  0
LWPOLYLINE
  5
25F
330
1C
100
AcDbEntity
  8
ADP1DETAIL
100
AcDbPolyline
 90
        2
 70
     0
 43
0.0
 10
0.9972278414611384
 20
0.2872911419297122
 10
1.028465161018373
 20
0.2978947830888918
  0
LWPOLYLINE
  5
263
330
1C
100
AcDbEntity
  8
ADP1DETAIL
100
AcDbPolyline
 90
        2
 70
     0
 43
0.0
 10
1.028683539916582
 20
0.29837675558788
 10
1.01605958351927
 20
0.3288536823330794
  0
LWPOLYLINE
  5
267
330
1C
100
AcDbEntity
  8
ADP1DETAIL
100
AcDbPolyline
 90
        2
 70
     0
 43
0.0
 10
1.01605958351927
 20
0.3288536823330794
 10
1.046536510264469
 20
0.3414776387303919
  0
LWPOLYLINE
  5
26B
330
1C
100
AcDbEntity
  8
ADP1DETAIL
100
AcDbPolyline
 90
        2
 70
     0
 43
0.0
 10
1.046722899087056
 20
0.3419728619525624
 10
1.03213268517097
 20
0.3715588890064998
  0
LWPOLYLINE
  5
26F
330
1C
100
AcDbEntity
  8
ADP1DETAIL
100
AcDbPolyline
 90
        2
 70
     0
 43
0.0
 10
1.03213268517097
 20
0.3715588890064998
 10
1.061718712224907
 20
0.386149102922587
  0
LWPOLYLINE
  5
273
330
1C
100
AcDbEntity
  8
ADP1DETAIL
100
AcDbPolyline
 90
        2
 70
     0
 43
0.0
 10
1.061872312826321
 20
0.3866554562460775
 10
1.045378318927377
 20
0.4152238916987785
  0
LWPOLYLINE
  5
277
330
1C
100
AcDbEntity
  8
ADP1DETAIL
100
AcDbPolyline
 90
        2
 70
     0
 43
0.0
 10
1.045378318927377
 20
0.4152238916987785
 10
1.073946754380078
 20
0.4317178855977213
  0
LWPOLYLINE
  5
27B
330
1C
100
AcDbEntity
  8
ADP1DETAIL
100
AcDbPolyline
 90
        2
 70
     0
 43
0.0
 10
1.074066909018962
 20
0.432233200739862
 10
1.055739764951242
 20
0.459661710164812
  0
LWPOLYLINE
  5
27F
330
1C
100
AcDbEntity
  8
ADP1DETAIL
100
AcDbPolyline
 90
        2
 70
     0
 43
0.0
 10
0.9972278414611393
 20
0.904103893658236
 10
1.007831482620318
 20
0.9353412132154709
  0
LWPOLYLINE
  5
283
330
1C
100
AcDbEntity
  8
ADP1DETAIL
100
AcDbPolyline
 90
        2
 70
     0
 43
0.0
 10
0.9577498915582836
 20
1.015878962922867
 10
0.9250441205690068
 20
1.020184759359128
  0
LWPOLYLINE
  5
287
330
1C
100
AcDbEntity
  8
ADP1DETAIL
100
AcDbPolyline
 90
        2
 70
     0
 43
0.0
 10
0.9250441205690068
 20
1.020184759359128
 10
0.9293499170052664
 20
1.052890530348403
  0
LWPOLYLINE
  5
28B
330
1C
100
AcDbEntity
  8
ADP1DETAIL
100
AcDbPolyline
 90
        2
 70
     0
 43
0.0
 10
0.9290142355256152
 20
1.053299559414833
 10
0.8960968775418088
 20
1.055457077043821
  0
LWPOLYLINE
  5
28F
330
1C
100
AcDbEntity
  8
ADP1DETAIL
100
AcDbPolyline
 90
        2
 70
     0
 43
0.0
 10
0.8960968775418088
 20
1.055457077043821
 10
0.898254395170796
 20
1.088374435027627
  0
LWPOLYLINE
  5
293
330
1C
100
AcDbEntity
  8
ADP1DETAIL
100
AcDbPolyline
 90
        2
 70
     0
 43
0.0
 10
0.8978926806300709
 20
1.088760633712233
 10
0.8649046928321844
 20
1.088760633712233
  0
LWPOLYLINE
  5
297
330
1C
100
AcDbEntity
  8
ADP1DETAIL
100
AcDbPolyline
 90
        2
 70
     0
 43
0.0
 10
0.8649046928321844
 20
1.088760633712233
 10
0.8649046928321844
 20
1.121748621510119
  0
LWPOLYLINE
  5
29B
330
1C
100
AcDbEntity
  8
ADP1DETAIL
100
AcDbPolyline
 90
        2
 70
     0
 43
0.0
 10
0.8645184941475781
 20
1.122110336050845
 10
0.8316011361637716
 20
1.119952818421859
  0
LWPOLYLINE
  5
29F
330
1C
100
AcDbEntity
  8
ADP1DETAIL
100
AcDbPolyline
 90
        2
 70
     0
 43
0.0
 10
0.8316011361637716
 20
1.119952818421859
 10
0.8294436185347827
 20
1.152870176405665
  0
LWPOLYLINE
  5
2A3
330
1C
100
AcDbEntity
  8
ADP1DETAIL
100
AcDbPolyline
 90
        2
 70
     0
 43
0.0
 10
0.8290345894683548
 20
1.153205857885315
 10
0.7963288184790781
 20
1.148900061449057
  0
LWPOLYLINE
  5
2A7
330
1C
100
AcDbEntity
  8
ADP1DETAIL
100
AcDbPolyline
 90
        2
 70
     0
 43
0.0
 10
0.7963288184790781
 20
1.148900061449057
 10
0.7920230220428185
 20
1.181605832438333
  0
LWPOLYLINE
  5
2AB
330
1C
100
AcDbEntity
  8
ADP1DETAIL
100
AcDbPolyline
 90
        2
 70
     0
 43
0.0
 10
0.7915929141198255
 20
1.181914043417277
 10
0.7592387812575366
 20
1.175478406255124
  0
LWPOLYLINE
  5
2AF
330
1C
100
AcDbEntity
  8
ADP1DETAIL
100
AcDbPolyline
 90
        2
 70
     0
 43
0.0
 10
0.7592387812575366
 20
1.175478406255124
 10
0.7528031440953836
 20
1.207832539117412
  0
ENDBLK
  5
2B3
330
1C
100
AcDbEntity
  8
0
100
AcDbBlockEnd
  0
BLOCK
  5
2B4
330
1D
100
AcDbEntity
  8
0
100
AcDbBlockBegin
  2
*D1
 70
     1
 10
0.0
 20
0.0
 30
0.0
  3
*D1
  1

  0
LINE
  5
2B5
330
1D
100
AcDbEntity
  8
0
  6
BYBLOCK
 62
     0
100
AcDbLine
 10
10.74373730160954
 20
2.5103123814929
 30
0.0
 11
12.85004921792952
 21
2.5103123814929
 31
0.0
  0
LINE
  5
2B6
330
1D
100
AcDbEntity
  8
0
  6
BYBLOCK
 62
     0
100
AcDbLine
 10
10.74373730160954
 20
4.1703123814929
 30
0.0
 11
12.85004921792952
 21
4.1703123814929
 31
0.0
  0
LINE
  5
2B7
330
1D
100
AcDbEntity
  8
0
  6
BYBLOCK
 62
     0
100
AcDbLine
 10
12.67004921792951
 20
2.5103123814929
 30
0.0
 11
12.67004921792951
 21
2.9965623814929
 31
0.0
  0
LINE
  5
2B8
330
1D
100
AcDbEntity
  8
0
  6
BYBLOCK
 62
     0
100
AcDbLine
 10
12.67004921792951
 20
4.1703123814929
 30
0.0
 11
12.67004921792951
 21
3.6840623814929
 31
0.0
  0
LINE
  5
2B9
330
1D
100
AcDbEntity
  8
0
  6
BYBLOCK
 62
     0
100
AcDbLine
 10
12.79504921792951
 20
2.3853123814929
 30
0.0
 11
12.54504921792952
 21
2.6353123814929
 31
0.0
  0
LINE
  5
2BA
330
1D
100
AcDbEntity
  8
0
  6
BYBLOCK
 62
     0
100
AcDbLine
 10
12.79504921792951
 20
4.0453123814929
 30
0.0
 11
12.54504921792952
 21
4.2953123814929
 31
0.0
  0
TEXT
  5
2BB
330
1D
100
AcDbEntity
  8
0
  6
BYBLOCK
 62
     0
100
AcDbText
 10
12.73254921792951
 20
3.1215623814929
 30
0.0
 40
0.125
  1
1.660
 50
90.0
 72
     1
 11
12.67004921792951
 21
3.3403123814929
 31
0.0
100
AcDbText
 73
     2
  0
POINT
  5
2BC
330
1D
100
AcDbEntity
  8
DEFPOINTS
  6
BYBLOCK
 62
     0
100
AcDbPoint
 10
10.68123730160954
 20
2.5103123814929
 30
0.0
  0
POINT
  5
2BD
330
1D
100
AcDbEntity
  8
DEFPOINTS
  6
BYBLOCK
 62
     0
100
AcDbPoint
 10
10.68123730160954
 20
4.1703123814929
 30
0.0
  0
POINT
  5
2BE
330
1D
100
AcDbEntity
  8
DEFPOINTS
  6
BYBLOCK
 62
     0
100
AcDbPoint
 10
12.67004921792951
 20
4.1703123814929
 30
0.0
  0
ENDBLK
  5
2BF
330
1D
100
AcDbEntity
  8
0
100
AcDbBlockEnd
  0
BLOCK
  5
2C0
330
1E
100
AcDbEntity
  8
0
100
AcDbBlockBegin
  2
*D2
 70
     1
 10
0.0
 20
0.0
 30
0.0
  3
*D2
  1

  0
LINE
  5
2C1
330
1E
100
AcDbEntity
  8
0
  6
BYBLOCK
 62
     0
100
AcDbLine
 10
8.681237301609545
 20
3.4028123814929
 30
0.0
 11
8.681237301609545
 21
4.658639799670573
 31
0.0
  0
LINE
  5
2C2
330
1E
100
AcDbEntity
  8
0
  6
BYBLOCK
 62
     0
100
AcDbLine
 10
10.68123730160954
 20
4.2328123814929
 30
0.0
 11
10.68123730160954
 21
4.658639799670573
 31
0.0
  0
LINE
  5
2C3
330
1E
100
AcDbEntity
  8
0
  6
BYBLOCK
 62
     0
100
AcDbLine
 10
8.681237301609545
 20
4.478639799670573
 30
0.0
 11
9.514570634942879
 21
4.478639799670573
 31
0.0
  0
LINE
  5
2C4
330
1E
100
AcDbEntity
  8
0
  6
BYBLOCK
 62
     0
100
AcDbLine
 10
10.68123730160954
 20
4.478639799670573
 30
0.0
 11
9.847903968276211
 21
4.478639799670573
 31
0.0
  0
LINE
  5
2C5
330
1E
100
AcDbEntity
  8
0
  6
BYBLOCK
 62
     0
100
AcDbLine
 10
8.556237301609545
 20
4.353639799670573
 30
0.0
 11
8.806237301609545
 21
4.603639799670573
 31
0.0
  0
LINE
  5
2C6
330
1E
100
AcDbEntity
  8
0
  6
BYBLOCK
 62
     0
100
AcDbLine
 10
10.55623730160954
 20
4.353639799670573
 30
0.0
 11
10.80623730160954
 21
4.603639799670573
 31
0.0
  0
TEXT
  5
2C7
330
1E
100
AcDbEntity
  8
0
  6
BYBLOCK
 62
     0
100
AcDbText
 10
9.639570634942879
 20
4.416139799670573
 30
0.0
 40
0.125
  1
2
 72
     1
 11
9.681237301609545
 21
4.478639799670573
 31
0.0
100
AcDbText
 73
     2
  0
POINT
  5
2C8
330
1E
100
AcDbEntity
  8
DEFPOINTS
  6
BYBLOCK
 62
     0
100
AcDbPoint
 10
8.681237301609545
 20
3.3403123814929
 30
0.0
  0
POINT
  5
2C9
330
1E
100
AcDbEntity
  8
DEFPOINTS
  6
BYBLOCK
 62
     0
100
AcDbPoint
 10
10.68123730160954
 20
4.1703123814929
 30
0.0
  0
POINT
  5
2CA
330
1E
100
AcDbEntity
  8
DEFPOINTS
  6
BYBLOCK
 62
     0
100
AcDbPoint
 10
10.68123730160954
 20
4.478639799670573
 30
0.0
  0
ENDBLK
  5
2CB
330
1E
100
AcDbEntity
  8
0
100
AcDbBlockEnd
  0
ENDSEC
  0
SECTION
  2
ENTITIES
  0
LINE
  5
2CC
330
18
100
AcDbEntity
  8
ADP1DETAIL
100
AcDbLine
 10
17.20782943735614
 20
2.501612154485947
 30
0.0
 11
16.04758590521175
 21
2.501612154485947
 31
0.0
  0
LINE
  5
2CD
330
18
100
AcDbEntity
  8
ADP1DETAIL
100
AcDbLine
 10
16.04758590521175
 20
4.161612154485947
 30
0.0
 11
18.03782943735615
 21
4.161612154485947
 31
0.0
  0
LINE
  5
2CE
330
18
100
AcDbEntity
  8
ADP2DETAIL
  6
HIDDEN2
100
AcDbLine
 10
18.69632943735614
 20
2.499902459198459
 30
0.0
 11
17.37932943735614
 21
2.499902459198459
 31
0.0
  0
LINE
  5
2CF
330
18
100
AcDbEntity
  8
ADP2DETAIL
  6
HIDDEN2
100
AcDbLine
 10
18.75882943735614
 20
2.437402459198459
 30
0.0
 11
17.31682943735614
 21
2.437402459198459
 31
0.0
  0
LINE
  5
2D0
330
18
100
AcDbEntity
  8
ADP1DETAIL
100
AcDbLine
 10
18.86782943735615
 20
1.341368622341544
 30
0.0
 11
17.20782943735614
 21
1.341368622341544
 31
0.0
  0
LINE
  5
2D1
330
18
100
AcDbEntity
  8
ADP1DETAIL
100
AcDbLine
 10
18.75882943735614
 20
0.0945044522429153
 30
0.0
 11
17.31682943735614
 21
0.0945044522429153
 31
0.0
  0
LINE
  5
2D2
330
18
100
AcDbEntity
  8
ADP1DETAIL
100
AcDbLine
 10
18.69632943735614
 20
0.0320044522429153
 30
0.0
 11
17.37932943735614
 21
0.0320044522429153
 31
0.0
  0
LINE
  5
2D3
330
18
100
AcDbEntity
  8
ADP1DETAIL
100
AcDbLine
 10
18.69632943735614
 20
0.0320044522429153
 30
0.0
 11
17.37932943735614
 21
0.0320044522429153
 31
0.0
  0
LINE
  5
2D4
330
18
100
AcDbEntity
  8
ADP1DETAIL
100
AcDbLine
 10
18.75882943735614
 20
0.0945044522429153
 30
0.0
 11
17.31682943735614
 21
0.0945044522429153
 31
0.0
  0
CIRCLE
  5
2D5
330
18
100
AcDbEntity
  8
ADP1DETAIL
100
AcDbCircle
 10
18.03782943735615
 20
3.331612154485943
 30
0.0
 40
0.8299999999999998
  0
CIRCLE
  5
2D6
330
18
100
AcDbEntity
  8
ADP1DETAIL
100
AcDbCircle
 10
18.03782943735615
 20
3.331612154485943
 30
0.0
 40
0.7290000000000005
  0
INSERT
  5
2D7
330
18
100
AcDbEntity
  8
ADP1DETAIL
100
AcDbBlockReference
  2
7163X
 10
17.66527424726798
 20
2.74344225826366
 30
0.0
  0
LINE
  5
2D8
330
18
100
AcDbEntity
  8
ADP2DETAIL
  6
HIDDEN2
100
AcDbLine
 10
18.75882943735614
 20
2.437402459198459
 30
0.0
 11
17.31682943735614
 21
2.437402459198459
 31
0.0
  0
LINE
  5
2D9
330
18
100
AcDbEntity
  8
ADP2DETAIL
  6
HIDDEN2
100
AcDbLine
 10
18.69632943735614
 20
2.499902459198459
 30
0.0
 11
17.37932943735614
 21
2.499902459198459
 31
0.0
  0
LINE
  5
2DA
330
18
100
AcDbEntity
  8
ADP1DETAIL
100
AcDbLine
 10
18.86782943735615
 20
1.341368622341544
 30
0.0
 11
17.20782943735614
 21
1.341368622341544
 31
0.0
  0
DIMENSION
  5
2DB
330
18
100
AcDbEntity
  8
ADPDIM
100
AcDbDimension
  2
*D1
 10
12.67004921792951
 20
4.1703123814929
 30
0.0
 11
12.67004921792951
 21
3.3403123814929
 31
0.0
  1
1.660
100
AcDbAlignedDimension
 13
10.68123730160954
 23
2.5103123814929
 33
0.0
 14
10.68123730160954
 24
4.1703123814929
 34
0.0
 50
90.0
100
AcDbRotatedDimension
  0
LINE
  5
2DC
330
18
100
AcDbEntity
  8
ADP3DETAIL
  6
CENTER2
100
AcDbLine
 10
12.46885101339191
 20
3.3403123814929
 30
0.0
 11
8.681237301609545
 21
3.3403123814929
 31
0.0
  0
LINE
  5
2DD
330
18
100
AcDbEntity
  8
ADP1DETAIL
100
AcDbLine
 10
9.405237301609544
 20
1.3403123814929
 30
0.0
 11
9.405237301609545
 21
0.1570044522429154
 31
0.0
  0
LINE
  5
2DE
330
18
100
AcDbEntity
  8
ADP2DETAIL
  6
HIDDEN2
100
AcDbLine
 10
8.205973811711347
 20
0.0958010030739388
 30
0.0
 11
8.205973811711347
 21
2.507789978243005
 31
0.0
  0
LINE
  5
2DF
330
18
100
AcDbEntity
  8
ADP2DETAIL
  6
HIDDEN2
100
AcDbLine
 10
9.203821821124218
 20
0.0958010030739388
 30
0.0
 11
9.203821821124218
 21
2.507789978243005
 31
0.0
  0
LINE
  5
2E0
330
18
100
AcDbEntity
  8
ADP1DETAIL
100
AcDbLine
 10
8.093834259548943
 20
0.1570044522429154
 30
0.0
 11
8.093834259548945
 21
1.3403123814929
 31
0.0
  0
LINE
  5
2E1
330
18
100
AcDbEntity
  8
ADP3DETAIL
  6
CENTER2
100
AcDbLine
 10
8.681237301609545
 20
-0.1568794472784232
 30
0.0
 11
8.681237301609545
 21
3.3403123814929
 31
0.0
  0
LINE
  5
2E2
330
18
100
AcDbEntity
  8
ADP1DETAIL
100
AcDbLine
 10
8.156334259548943
 20
0.0945044522429154
 30
0.0
 11
8.093834259548943
 21
0.1570044522429154
 31
0.0
  0
LINE
  5
2E3
330
18
100
AcDbEntity
  8
ADP1DETAIL
100
AcDbLine
 10
9.405237301609545
 20
0.1570044522429154
 30
0.0
 11
8.093834259548943
 21
0.1570044522429154
 31
0.0
  0
LINE
  5
2E4
330
18
100
AcDbEntity
  8
ADP1DETAIL
100
AcDbLine
 10
9.342737301609545
 20
0.0945044522429154
 30
0.0
 11
8.156334259548943
 21
0.0945044522429154
 31
0.0
  0
LINE
  5
2E5
330
18
100
AcDbEntity
  8
ADP1DETAIL
100
AcDbLine
 10
9.405237301609545
 20
0.1570044522429154
 30
0.0
 11
9.342737301609545
 21
0.0945044522429154
 31
0.0
  0
LINE
  5
2E6
330
18
100
AcDbEntity
  8
ADP2DETAIL
  6
HIDDEN2
100
AcDbLine
 10
10.68123730160954
 20
4.0643123814929
 30
0.0
 11
8.596002332260106
 21
4.0643123814929
 31
0.0
  0
LINE
  5
2E7
330
18
100
AcDbEntity
  8
ADP1DETAIL
100
AcDbLine
 10
10.68123730160954
 20
4.1703123814929
 30
0.0
 11
8.681237301609545
 21
4.1703123814929
 31
0.0
  0
DIMENSION
  5
2E8
330
18
100
AcDbEntity
  8
ADPDIM
100
AcDbDimension
  2
*D2
 10
10.68123730160954
 20
4.478639799670573
 30
0.0
 11
9.681237301609545
 21
4.478639799670573
 31
0.0
100
AcDbAlignedDimension
 13
8.681237301609545
 23
3.3403123814929
 33
0.0
 14
10.68123730160954
 24
4.1703123814929
 34
0.0
100
AcDbRotatedDimension
  0
LINE
  5
2E9
330
18
100
AcDbEntity
  8
ADP2DETAIL
  6
HIDDEN2
100
AcDbLine
 10
11.93651974270609
 20
3.862896901007574
 30
0.0
 11
9.511237307875928
 21
3.862896901007574
 31
0.0
  0
LINE
  5
2EA
330
18
100
AcDbEntity
  8
ADP2DETAIL
  6
HIDDEN2
100
AcDbLine
 10
11.93651974270609
 20
2.865048891594701
 30
0.0
 11
9.511237307875928
 21
2.865048891594701
 31
0.0
  0
LINE
  5
2EB
330
18
100
AcDbEntity
  8
ADP2DETAIL
  6
HIDDEN2
100
AcDbLine
 10
9.573737307875928
 20
4.0643123814929
 30
0.0
 11
9.511237307875928
 21
4.0018123814929
 31
0.0
  0
LINE
  5
2EC
330
18
100
AcDbEntity
  8
ADP2DETAIL
  6
HIDDEN2
100
AcDbLine
 10
9.51123730787593
 20
2.815409339432298
 30
0.0
 11
9.57373730787593
 21
2.752909339432298
 31
0.0
  0
LINE
  5
2ED
330
18
100
AcDbEntity
  8
ADP2DETAIL
  6
HIDDEN2
100
AcDbLine
 10
9.405237301609545
 20
2.6163123814929
 30
0.0
 11
10.68123730160954
 21
2.6163123814929
 31
0.0
  0
LINE
  5
2EE
330
18
100
AcDbEntity
  8
ADP1DETAIL
100
AcDbLine
 10
9.511237301609545
 20
2.5103123814929
 30
0.0
 11
10.68123730160954
 21
2.5103123814929
 31
0.0
  0
CIRCLE
  5
2EF
330
18
100
AcDbEntity
  8
ADP1DETAIL
100
AcDbCircle
 10
8.681237301609545
 20
3.3403123814929
 30
0.0
 40
0.8299999999999998
  0
CIRCLE
  5
2F0
330
18
100
AcDbEntity
  8
ADP1DETAIL
100
AcDbCircle
 10
8.681237301609545
 20
3.3403123814929
 30
0.0
 40
0.7290000000000005
  0
INSERT
  5
2F1
330
18
100
AcDbEntity
  8
ADP1DETAIL
100
AcDbBlockReference
  2
7163X
 10
8.308682111521374
 20
2.752142485270616
 30
0.0
  0
LINE
  5
2F2
330
18
100
AcDbEntity
  8
ADP2DETAIL
  6
HIDDEN2
100
AcDbLine
 10
9.511237307875928
 20
2.827402254606052
 30
0.0
 11
9.511237307875926
 21
3.9568448684251
 31
0.0
  0
LINE
  5
2F3
330
18
100
AcDbEntity
  8
ADP1DETAIL
100
AcDbLine
 10
7.851237301609545
 20
1.3403123814929
 30
0.0
 11
9.511237301609545
 21
1.3403123814929
 31
0.0
  0
LINE
  5
2F4
330
18
100
AcDbEntity
  8
ADP2DETAIL
  6
HIDDEN2
100
AcDbLine
 10
8.093834259548945
 20
2.445289978243004
 30
0.0
 11
9.405237301609545
 21
2.445289978243005
 31
0.0
  0
LINE
  5
2F5
330
18
100
AcDbEntity
  8
ADP2DETAIL
  6
HIDDEN2
100
AcDbLine
 10
8.156334259548945
 20
2.507789978243004
 30
0.0
 11
8.093834259548945
 21
2.445289978243004
 31
0.0
  0
LINE
  5
2F6
330
18
100
AcDbEntity
  8
ADP2DETAIL
  6
HIDDEN2
100
AcDbLine
 10
8.093834259548945
 20
1.3403123814929
 30
0.0
 11
8.093834259548945
 21
2.445289978243004
 31
0.0
  0
LINE
  5
2F7
330
18
100
AcDbEntity
  8
ADP2DETAIL
  6
HIDDEN2
100
AcDbLine
 10
7.957237301609544
 20
3.425547350842337
 30
0.0
 11
7.957237301609545
 21
1.3403123814929
 31
0.0
  0
LINE
  5
2F8
330
18
100
AcDbEntity
  8
ADP1DETAIL
100
AcDbLine
 10
7.851237301609545
 20
3.3403123814929
 30
0.0
 11
7.851237301609545
 21
1.3403123814929
 31
0.0
  0
LINE
  5
2F9
330
18
100
AcDbEntity
  8
ADP1DETAIL
100
AcDbLine
 10
9.511237301609545
 20
1.3403123814929
 30
0.0
 11
9.511237301609545
 21
2.5103123814929
 31
0.0
  0
LINE
  5
2FA
330
18
100
AcDbEntity
  8
ADP2DETAIL
  6
HIDDEN2
100
AcDbLine
 10
9.405237301609545
 20
1.3403123814929
 30
0.0
 11
9.405237301609545
 21
2.6163123814929
 31
0.0
  0
LINE
  5
2FB
330
18
100
AcDbEntity
  8
ADP2DETAIL
  6
HIDDEN2
100
AcDbLine
 10
8.168327174722698
 20
2.507789978243005
 30
0.0
 11
9.297769788541746
 21
2.507789978243007
 31
0.0
  0
LINE
  5
2FC
330
18
100
AcDbEntity
  8
ADP1DETAIL
100
AcDbLine
 10
9.511237301609545
 20
2.5103123814929
 30
0.0
 11
9.268135929994381
 21
2.753413753108066
 31
0.0
  0
LINE
  5
2FD
330
18
100
AcDbEntity
  8
ADP2DETAIL
  6
HIDDEN2
100
AcDbLine
 10
9.405237301609545
 20
2.445289978243005
 30
0.0
 11
9.342737301609545
 21
2.507789978243005
 31
0.0
  0
LINE
  5
2FE
330
18
100
AcDbEntity
  8
ADP1DETAIL
100
AcDbLine
 10
11.93781629353711
 20
4.0018123814929
 30
0.0
 11
11.93781629353711
 21
2.815409339432298
 31
0.0
  0
LINE
  5
2FF
330
18
100
AcDbEntity
  8
ADP1DETAIL
100
AcDbLine
 10
11.87531629353711
 20
4.0643123814929
 30
0.0
 11
11.87531629353711
 21
2.752909339432298
 31
0.0
  0
LINE
  5
300
330
18
100
AcDbEntity
  8
ADP2DETAIL
  6
HIDDEN2
100
AcDbLine
 10
9.57373730787593
 20
2.752909339432298
 30
0.0
 11
9.573737307875928
 21
4.0643123814929
 31
0.0
  0
LINE
  5
301
330
18
100
AcDbEntity
  8
ADP1DETAIL
100
AcDbLine
 10
10.68123730160954
 20
2.5103123814929
 30
0.0
 11
10.68123730160954
 21
4.1703123814929
 31
0.0
  0
LINE
  5
302
330
18
100
AcDbEntity
  8
ADP1DETAIL
100
AcDbLine
 10
11.87531629353711
 20
2.752909339432298
 30
0.0
 11
10.68123730160954
 21
2.752909339432298
 31
0.0
  0
LINE
  5
303
330
18
100
AcDbEntity
  8
ADP2DETAIL
  6
HIDDEN2
100
AcDbLine
 10
10.68123730160954
 20
2.752909339432298
 30
0.0
 11
9.57373730787593
 21
2.752909339432298
 31
0.0
  0
LINE
  5
304
330
18
100
AcDbEntity
  8
ADP1DETAIL
100
AcDbLine
 10
11.93781629353711
 20
2.815409339432298
 30
0.0
 11
11.87531629353711
 21
2.752909339432298
 31
0.0
  0
LINE
  5
305
330
18
100
AcDbEntity
  8
ADP1DETAIL
100
AcDbLine
 10
10.68123730160954
 20
4.0643123814929
 30
0.0
 11
11.87531629353711
 21
4.0643123814929
 31
0.0
  0
LINE
  5
306
330
18
100
AcDbEntity
  8
ADP1DETAIL
100
AcDbLine
 10
11.87531629353711
 20
4.0643123814929
 30
0.0
 11
11.93781629353711
 21
4.0018123814929
 31
0.0
  0
LINE
  5
307
330
18
100
AcDbEntity
  8
ADP1DETAIL
100
AcDbLine
 10
17.31682943735614
 20
0.0945044522429153
 30
0.0
 11
17.31682943735614
 21
1.341368622341544
 31
0.0
  0
LINE
  5
308
330
18
100
AcDbEntity
  8
ADP2DETAIL
  6
HIDDEN2
100
AcDbLine
 10
17.45854278277682
 20
0.0945044522429153
 30
0.0
 11
17.45854278277682
 21
1.341368622341544
 31
0.0
  0
LINE
  5
309
330
18
100
AcDbEntity
  8
ADP2DETAIL
  6
HIDDEN2
100
AcDbLine
 10
17.45854278277682
 20
0.0945044522429153
 30
0.0
 11
17.45854278277682
 21
1.341368622341544
 31
0.0
  0
LINE
  5
30A
330
18
100
AcDbEntity
  8
ADP1DETAIL
100
AcDbLine
 10
17.31682943735614
 20
0.0945044522429153
 30
0.0
 11
17.31682943735614
 21
1.341368622341544
 31
0.0
  0
LINE
  5
30B
330
18
100
AcDbEntity
  8
ADP1DETAIL
100
AcDbLine
 10
17.37932943735614
 20
0.0320044522429153
 30
0.0
 11
17.31682943735614
 21
0.0945044522429153
 31
0.0
  0
LINE
  5
30C
330
18
100
AcDbEntity
  8
ADP1DETAIL
100
AcDbLine
 10
17.37932943735614
 20
0.0320044522429153
 30
0.0
 11
17.31682943735614
 21
0.0945044522429153
 31
0.0
  0
LINE
  5
30D
330
18
100
AcDbEntity
  8
ADP1DETAIL
100
AcDbLine
 10
16.04758590521175
 20
2.610612154485949
 30
0.0
 11
14.80072173511312
 21
2.610612154485949
 31
0.0
  0
LINE
  5
30E
330
18
100
AcDbEntity
  8
ADP2DETAIL
  6
HIDDEN2
100
AcDbLine
 10
14.80072173511312
 20
2.754009097683621
 30
0.0
 11
16.04758590521175
 21
2.754009097683621
 31
0.0
  0
LINE
  5
30F
330
18
100
AcDbEntity
  8
ADP1DETAIL
100
AcDbLine
 10
14.80072173511312
 20
4.052612154485949
 30
0.0
 11
16.04758590521175
 21
4.052612154485949
 31
0.0
  0
LINE
  5
310
330
18
100
AcDbEntity
  8
ADP2DETAIL
  6
HIDDEN2
100
AcDbLine
 10
14.80072173511312
 20
3.910898809065272
 30
0.0
 11
16.04758590521175
 21
3.910898809065272
 31
0.0
  0
LINE
  5
311
330
18
100
AcDbEntity
  8
ADP1DETAIL
100
AcDbLine
 10
14.80072173511312
 20
2.610612154485949
 30
0.0
 11
14.80072173511312
 21
4.052612154485949
 31
0.0
  0
LINE
  5
312
330
18
100
AcDbEntity
  8
ADP1DETAIL
100
AcDbLine
 10
14.73822173511312
 20
2.673112154485949
 30
0.0
 11
14.73822173511312
 21
3.990112154485949
 31
0.0
  0
LINE
  5
313
330
18
100
AcDbEntity
  8
ADP1DETAIL
100
AcDbLine
 10
14.80072173511312
 20
2.610612154485949
 30
0.0
 11
14.73822173511312
 21
2.673112154485949
 31
0.0
  0
LINE
  5
314
330
18
100
AcDbEntity
  8
ADP1DETAIL
100
AcDbLine
 10
14.73822173511312
 20
3.990112154485949
 30
0.0
 11
14.80072173511312
 21
4.052612154485949
 31
0.0
  0
LINE
  5
315
330
18
100
AcDbEntity
  8
ADP2DETAIL
  6
HIDDEN2
100
AcDbLine
 10
17.20611974206866
 20
2.673112154485949
 30
0.0
 11
17.20611974206867
 21
3.990112154485949
 31
0.0
  0
LINE
  5
316
330
18
100
AcDbEntity
  8
ADP2DETAIL
  6
HIDDEN2
100
AcDbLine
 10
17.14361974206866
 20
2.610612154485949
 30
0.0
 11
17.14361974206866
 21
4.052612154485949
 31
0.0
  0
LINE
  5
317
330
18
100
AcDbEntity
  8
ADP1DETAIL
100
AcDbLine
 10
16.04758590521175
 20
2.501612154485947
 30
0.0
 11
16.04758590521175
 21
4.161612154485947
 31
0.0
  0
LINE
  5
318
330
18
100
AcDbEntity
  8
ADP2DETAIL
  6
HIDDEN2
100
AcDbLine
 10
16.04758590521175
 20
2.754009097683621
 30
0.0
 11
17.20611974206866
 21
2.754009097683621
 31
0.0
  0
LINE
  5
319
330
18
100
AcDbEntity
  8
ADP2DETAIL
  6
HIDDEN2
100
AcDbLine
 10
16.04758590521175
 20
2.610612154485949
 30
0.0
 11
17.31682943735615
 21
2.610612154485946
 31
0.0
  0
LINE
  5
31A
330
18
100
AcDbEntity
  8
ADP2DETAIL
  6
HIDDEN2
100
AcDbLine
 10
17.45854278277682
 20
1.341368622341544
 30
0.0
 11
17.45854278277682
 21
2.499902459198459
 31
0.0
  0
LINE
  5
31B
330
18
100
AcDbEntity
  8
ADP2DETAIL
  6
HIDDEN2
100
AcDbLine
 10
17.45854278277682
 20
1.341368622341544
 30
0.0
 11
17.45854278277682
 21
2.499902459198459
 31
0.0
  0
LINE
  5
31C
330
18
100
AcDbEntity
  8
ADP1DETAIL
100
AcDbLine
 10
17.20782943735614
 20
1.341368622341544
 30
0.0
 11
17.20782943735614
 21
3.331612154485943
 31
0.0
  0
LINE
  5
31D
330
18
100
AcDbEntity
  8
ADP2DETAIL
  6
HIDDEN2
100
AcDbLine
 10
17.31682943735614
 20
1.341368622341544
 30
0.0
 11
17.31682943735614
 21
2.920444305548313
 31
0.0
  0
LINE
  5
31E
330
18
100
AcDbEntity
  8
ADP2DETAIL
  6
HIDDEN2
100
AcDbLine
 10
17.31682943735614
 20
1.341368622341544
 30
0.0
 11
17.31682943735615
 21
2.610612154485946
 31
0.0
  0
LINE
  5
31F
330
18
100
AcDbEntity
  8
ADP1DETAIL
100
AcDbLine
 10
17.20782943735614
 20
1.341368622341544
 30
0.0
 11
17.20782943735614
 21
2.501612154485947
 31
0.0
  0
LINE
  5
320
330
18
100
AcDbEntity
  8
ADP2DETAIL
  6
HIDDEN2
100
AcDbLine
 10
17.14361974206866
 20
2.610612154485949
 30
0.0
 11
17.20611974206866
 21
2.673112154485949
 31
0.0
  0
LINE
  5
321
330
18
100
AcDbEntity
  8
ADP2DETAIL
  6
HIDDEN2
100
AcDbLine
 10
17.37932943735614
 20
2.499902459198459
 30
0.0
 11
17.31682943735614
 21
2.437402459198459
 31
0.0
  0
LINE
  5
322
330
18
100
AcDbEntity
  8
ADP2DETAIL
  6
HIDDEN2
100
AcDbLine
 10
17.37932943735614
 20
2.499902459198459
 30
0.0
 11
17.31682943735614
 21
2.437402459198459
 31
0.0
  0
LINE
  5
323
330
18
100
AcDbEntity
  8
ADP2DETAIL
  6
HIDDEN2
100
AcDbLine
 10
16.04758590521175
 20
3.910898809065272
 30
0.0
 11
17.20611974206867
 21
3.910898809065272
 31
0.0
  0
LINE
  5
324
330
18
100
AcDbEntity
  8
ADP2DETAIL
  6
HIDDEN2
100
AcDbLine
 10
16.04758590521175
 20
4.052612154485949
 30
0.0
 11
17.62666158841852
 21
4.052612154485949
 31
0.0
  0
LINE
  5
325
330
18
100
AcDbEntity
  8
ADP2DETAIL
  6
HIDDEN2
100
AcDbLine
 10
17.20611974206867
 20
3.990112154485949
 30
0.0
 11
17.14361974206866
 21
4.052612154485949
 31
0.0
  0
LINE
  5
326
330
18
100
AcDbEntity
  8
ADP1DETAIL
100
AcDbLine
 10
18.75882943735614
 20
1.341368622341544
 30
0.0
 11
18.75882943735614
 21
0.0945044522429153
 31
0.0
  0
LINE
  5
327
330
18
100
AcDbEntity
  8
ADP1DETAIL
100
AcDbLine
 10
18.75882943735614
 20
1.341368622341544
 30
0.0
 11
18.75882943735614
 21
0.0945044522429153
 31
0.0
  0
LINE
  5
328
330
18
100
AcDbEntity
  8
ADP2DETAIL
  6
HIDDEN2
100
AcDbLine
 10
18.61543249415847
 20
0.0945044522429153
 30
0.0
 11
18.61543249415847
 21
1.341368622341544
 31
0.0
  0
LINE
  5
329
330
18
100
AcDbEntity
  8
ADP2DETAIL
  6
HIDDEN2
100
AcDbLine
 10
18.61543249415847
 20
0.0945044522429153
 30
0.0
 11
18.61543249415847
 21
1.341368622341544
 31
0.0
  0
LINE
  5
32A
330
18
100
AcDbEntity
  8
ADP1DETAIL
100
AcDbLine
 10
18.75882943735614
 20
0.0945044522429153
 30
0.0
 11
18.69632943735614
 21
0.0320044522429153
 31
0.0
  0
LINE
  5
32B
330
18
100
AcDbEntity
  8
ADP1DETAIL
100
AcDbLine
 10
18.75882943735614
 20
0.0945044522429153
 30
0.0
 11
18.69632943735614
 21
0.0320044522429153
 31
0.0
  0
LINE
  5
32C
330
18
100
AcDbEntity
  8
ADP2DETAIL
  6
HIDDEN2
100
AcDbLine
 10
18.61543249415847
 20
1.341368622341544
 30
0.0
 11
18.61543249415847
 21
2.499902459198459
 31
0.0
  0
LINE
  5
32D
330
18
100
AcDbEntity
  8
ADP2DETAIL
  6
HIDDEN2
100
AcDbLine
 10
18.61543249415847
 20
1.341368622341544
 30
0.0
 11
18.61543249415847
 21
2.499902459198459
 31
0.0
  0
LINE
  5
32E
330
18
100
AcDbEntity
  8
ADP1DETAIL
100
AcDbLine
 10
18.86782943735615
 20
3.331612154485943
 30
0.0
 11
18.86782943735615
 21
1.341368622341544
 31
0.0
  0
LINE
  5
32F
330
18
100
AcDbEntity
  8
ADP2DETAIL
  6
HIDDEN2
100
AcDbLine
 10
18.75882943735614
 20
1.341368622341544
 30
0.0
 11
18.75882943735615
 21
2.920444305548313
 31
0.0
  0
LINE
  5
330
330
18
100
AcDbEntity
  8
ADP2DETAIL
  6
HIDDEN2
100
AcDbLine
 10
18.75882943735614
 20
1.341368622341544
 30
0.0
 11
18.75882943735615
 21
2.920444305548313
 31
0.0
  0
LINE
  5
331
330
18
100
AcDbEntity
  8
ADP1DETAIL
100
AcDbLine
 10
18.86782943735615
 20
3.331612154485943
 30
0.0
 11
18.86782943735615
 21
1.341368622341544
 31
0.0
  0
LINE
  5
332
330
18
100
AcDbEntity
  8
ADP2DETAIL
  6
HIDDEN2
100
AcDbLine
 10
18.75882943735614
 20
2.437402459198459
 30
0.0
 11
18.69632943735614
 21
2.499902459198459
 31
0.0
  0
LINE
  5
333
330
18
100
AcDbEntity
  8
ADP2DETAIL
  6
HIDDEN2
100
AcDbLine
 10
18.75882943735614
 20
2.437402459198459
 30
0.0
 11
18.69632943735614
 21
2.499902459198459
 31
0.0
  0
LINE
  5
334
330
18
100
AcDbEntity
  8
ADP1DETAIL
100
AcDbLine
 10
17.20782943735614
 20
2.501612154485947
 30
0.0
 11
16.96472806574098
 21
2.744713526101112
 31
0.0
  0
LINE
  5
335
330
18
100
AcDbEntity
  8
ADP1DETAIL
100
AcDbLine
 10
17.20782943735614
 20
2.501612154485947
 30
0.0
 11
17.45093080897131
 21
2.744713526101111
 31
0.0
  0
TEXT
  5
343
330
18
100
AcDbEntity
  8
ADPDIM
100
AcDbText
 10
6.952864035521516
 20
-0.6219196738725019
 30
0.0
 40
0.125
  1
J U L I U S  B L U M  &  C O . ,  I N C .      ( 8 0 0 )  5 2 6 - 6 2 9 3        W W W . J U L I U S B L U M . C O M        P A R T  N o .  7 1 3 0
 41
1.25
  7
ARIAL_WIDE
 72
     1
 11
13.47859306007813
 21
-0.4969196738725019
 31
0.0
100
AcDbText
 73
     3
  0
ENDSEC
  0
SECTION
  2
OBJECTS
  0
DICTIONARY
  5
C
330
0
100
AcDbDictionary
  3
ACAD_GROUP
350
D
  3
ACAD_LAYOUT
350
33C
  3
ACAD_MLINESTYLE
350
E
  3
ACAD_PLOTSETTINGS
350
33D
  3
ACAD_PLOTSTYLENAME
350
33A
  3
ACDBHEADERROUNDTRIPXREC
350
487
  3
ACDBVARIABLEDICTIONARY
350
39D
  0
DICTIONARY
  5
397
330
18
100
AcDbDictionary
280
     1
  3
ACAD_LAYOUTSELFREF
360
4A8
  0
DICTIONARY
  5
395
330
15
100
AcDbDictionary
280
     1
  3
ACAD_LAYOUTSELFREF
360
4A7
  0
DICTIONARY
  5
D
102
{ACAD_REACTORS
330
C
102
}
330
C
100
AcDbDictionary
  0
DICTIONARY
  5
33C
102
{ACAD_REACTORS
330
C
102
}
330
C
100
AcDbDictionary
  0
DICTIONARY
  5
E
102
{ACAD_REACTORS
330
C
102
}
330
C
100
AcDbDictionary
  3
STANDARD
350
1B
  0
DICTIONARY
  5
33D
102
{ACAD_REACTORS
330
C
102
}
330
C
100
AcDbDictionary
  0
ACDBDICTIONARYWDFLT
  5
33A
102
{ACAD_REACTORS
330
C
102
}
330
C
100
AcDbDictionary
281
     1
  3
Normal
350
33B
100
AcDbDictionaryWithDefault
340
33B
  0
DICTIONARY
  5
487
102
{ACAD_REACTORS
330
C
102
}
330
C
100
AcDbDictionary
  3
CEPSNTYPE
350
491
  3
FINGERPRINTGUID
350
492
  3
HYPERLINKBASE
350
48A
  3
INSUNITS
350
490
  3
LAYOUTDICT
350
48C
  3
LWETCUNION
350
48F
  3
PLOTSETDICT
350
48D
  3
PLOTSTYLNAMDICT
350
48E
  3
PSVPSCALE
350
494
  3
PUCSBASE
350
497
  3
PUCSORGBACK
350
49D
  3
PUCSORGBOTTOM
350
499
  3
PUCSORGFRONT
350
49C
  3
PUCSORGLEFT
350
49A
  3
PUCSORGRIGHT
350
49B
  3
PUCSORGTOP
350
498
  3
PUCSORTHOREF
350
495
  3
PUCSORTHOVIEW
350
496
  3
STYLESHEET
350
48B
  3
TSTACKALIGN
350
488
  3
TSTACKSIZE
350
489
  3
UCSBASE
350
4A0
  3
UCSORGBACK
350
4A6
  3
UCSORGBOTTOM
350
4A2
  3
UCSORGFRONT
350
4A5
  3
UCSORGLEFT
350
4A3
  3
UCSORGRIGHT
350
4A4
  3
UCSORGTOP
350
4A1
  3
UCSORTHOREF
350
49E
  3
UCSORTHOVIEW
350
49F
  3
VERSIONGUID
350
493
  0
DICTIONARY
  5
39D
102
{ACAD_REACTORS
330
C
102
}
330
C
100
AcDbDictionary
  3
DIMASSOC
350
39E
  0
XRECORD
  5
4A8
102
{ACAD_REACTORS
330
397
102
}
330
397
100
AcDbXrecord
340
18
  0
XRECORD
  5
4A7
102
{ACAD_REACTORS
330
395
102
}
330
395
100
AcDbXrecord
340
15
  0
MLINESTYLE
  5
1B
102
{ACAD_REACTORS
330
E
102
}
330
E
100
AcDbMlineStyle
  2
STANDARD
 70
     0
  3

 62
     0
 51
90.0
 52
90.0
 71
     2
 49
0.5
 62
   256
  6
BYLAYER
 49
-0.5
 62
   256
  6
BYLAYER
  0
ACDBPLACEHOLDER
  5
33B
102
{ACAD_REACTORS
330
33A
102
}
330
33A
100
AcDbPlaceHolder
280
     0
  0
XRECORD
  5
491
102
{ACAD_REACTORS
330
487
102
}
330
487
100
AcDbXrecord
 90
        0
  0
XRECORD
  5
492
102
{ACAD_REACTORS
330
487
102
}
330
487
100
AcDbXrecord
  1
{A404196E-BAFA-4778-AED8-04421C2058C9}
  0
XRECORD
  5
48A
102
{ACAD_REACTORS
330
487
102
}
330
487
100
AcDbXrecord
  1

  0
XRECORD
  5
490
102
{ACAD_REACTORS
330
487
102
}
330
487
100
AcDbXrecord
 90
        0
  0
XRECORD
  5
48C
102
{ACAD_REACTORS
330
487
102
}
330
487
100
AcDbXrecord
340
33C
  0
XRECORD
  5
48F
102
{ACAD_REACTORS
330
487
102
}
330
487
100
AcDbXrecord
 90
    14877
  0
XRECORD
  5
48D
102
{ACAD_REACTORS
330
487
102
}
330
487
100
AcDbXrecord
340
33D
  0
XRECORD
  5
48E
102
{ACAD_REACTORS
330
487
102
}
330
487
100
AcDbXrecord
340
33A
  0
XRECORD
  5
494
102
{ACAD_REACTORS
330
487
102
}
330
487
100
AcDbXrecord
 40
0.0
  0
XRECORD
  5
497
102
{ACAD_REACTORS
330
487
102
}
330
487
100
AcDbXrecord
340
0
  0
XRECORD
  5
49D
102
{ACAD_REACTORS
330
487
102
}
330
487
100
AcDbXrecord
 10
0.0
 20
0.0
 30
0.0
  0
XRECORD
  5
499
102
{ACAD_REACTORS
330
487
102
}
330
487
100
AcDbXrecord
 10
0.0
 20
0.0
 30
0.0
  0
XRECORD
  5
49C
102
{ACAD_REACTORS
330
487
102
}
330
487
100
AcDbXrecord
 10
0.0
 20
0.0
 30
0.0
  0
XRECORD
  5
49A
102
{ACAD_REACTORS
330
487
102
}
330
487
100
AcDbXrecord
 10
0.0
 20
0.0
 30
0.0
  0
XRECORD
  5
49B
102
{ACAD_REACTORS
330
487
102
}
330
487
100
AcDbXrecord
 10
0.0
 20
0.0
 30
0.0
  0
XRECORD
  5
498
102
{ACAD_REACTORS
330
487
102
}
330
487
100
AcDbXrecord
 10
0.0
 20
0.0
 30
0.0
  0
XRECORD
  5
495
102
{ACAD_REACTORS
330
487
102
}
330
487
100
AcDbXrecord
340
0
  0
XRECORD
  5
496
102
{ACAD_REACTORS
330
487
102
}
330
487
100
AcDbXrecord
 70
     0
  0
XRECORD
  5
48B
102
{ACAD_REACTORS
330
487
102
}
330
487
100
AcDbXrecord
  1

  0
XRECORD
  5
488
102
{ACAD_REACTORS
330
487
102
}
330
487
100
AcDbXrecord
 90
        1
  0
XRECORD
  5
489
102
{ACAD_REACTORS
330
487
102
}
330
487
100
AcDbXrecord
 90
       70
  0
XRECORD
  5
4A0
102
{ACAD_REACTORS
330
487
102
}
330
487
100
AcDbXrecord
340
0
  0
XRECORD
  5
4A6
102
{ACAD_REACTORS
330
487
102
}
330
487
100
AcDbXrecord
 10
0.0
 20
0.0
 30
0.0
  0
XRECORD
  5
4A2
102
{ACAD_REACTORS
330
487
102
}
330
487
100
AcDbXrecord
 10
0.0
 20
0.0
 30
0.0
  0
XRECORD
  5
4A5
102
{ACAD_REACTORS
330
487
102
}
330
487
100
AcDbXrecord
 10
0.0
 20
0.0
 30
0.0
  0
XRECORD
  5
4A3
102
{ACAD_REACTORS
330
487
102
}
330
487
100
AcDbXrecord
 10
0.0
 20
0.0
 30
0.0
  0
XRECORD
  5
4A4
102
{ACAD_REACTORS
330
487
102
}
330
487
100
AcDbXrecord
 10
0.0
 20
0.0
 30
0.0
  0
XRECORD
  5
4A1
102
{ACAD_REACTORS
330
487
102
}
330
487
100
AcDbXrecord
 10
0.0
 20
0.0
 30
0.0
  0
XRECORD
  5
49E
102
{ACAD_REACTORS
330
487
102
}
330
487
100
AcDbXrecord
340
0
  0
XRECORD
  5
49F
102
{ACAD_REACTORS
330
487
102
}
330
487
100
AcDbXrecord
 70
     0
  0
XRECORD
  5
493
102
{ACAD_REACTORS
330
487
102
}
330
487
100
AcDbXrecord
  1
{B876C7EA-1636-44E8-9DD9-601B2D832244}
  0
DICTIONARYVAR
  5
39E
102
{ACAD_REACTORS
330
39D
102
}
330
39D
100
DictionaryVariables
280
     0
  1
1
  0
ENDSEC
  0
EOF
