  0
SECTION
  2
HEADER
  9
$ACADVER
  1
AC1015
  9
$ACADMAINTVER
 70
    20
  9
$DWGCODEPAGE
  3
ANSI_936
  9
$INSBASE
 10
-0.7342613747288061
 20
1.350385388003015
 30
0.0
  9
$EXTMIN
 10
-4.235044479909618
 20
0.5619507680669785
 30
-0.0000000000000058
  9
$EXTMAX
 10
5.420310079772107
 20
3.37719731146609
 30
0.0000000000000104
  9
$LIMMIN
 10
0.0
 20
0.0
  9
$LIMMAX
 10
36.0
 20
36.0
  9
$ORTHOMODE
 70
     1
  9
$REGENMODE
 70
     1
  9
$FILLMODE
 70
     1
  9
$QTEXTMODE
 70
     0
  9
$MIRRTEXT
 70
     1
  9
$LTSCALE
 40
1.0
  9
$ATTMODE
 70
     1
  9
$TEXTSIZE
 40
0.2
  9
$TRACEWID
 40
0.05
  9
$TEXTSTYLE
  7
STANDARD
  9
$CLAYER
  8
ADPDIM
  9
$CELTYPE
  6
BYLAYER
  9
$CECOLOR
 62
   256
  9
$CELTSCALE
 40
1.0
  9
$DISPSILH
 70
     0
  9
$DIMSCALE
 40
1.0
  9
$DIMASZ
 40
0.125
  9
$DIMEXO
 40
0.0625
  9
$DIMDLI
 40
0.38
  9
$DIMRND
 40
0.0
  9
$DIMDLE
 40
0.0
  9
$DIMEXE
 40
0.18
  9
$DIMTP
 40
0.0
  9
$DIMTM
 40
0.0
  9
$DIMTXT
 40
0.125
  9
$DIMCEN
 40
0.1875
  9
$DIMTSZ
 40
0.125
  9
$DIMTOL
 70
     0
  9
$DIMLIM
 70
     0
  9
$DIMTIH
 70
     0
  9
$DIMTOH
 70
     0
  9
$DIMSE1
 70
     0
  9
$DIMSE2
 70
     0
  9
$DIMTAD
 70
     0
  9
$DIMZIN
 70
     3
  9
$DIMBLK
  1

  9
$DIMASO
 70
     1
  9
$DIMSHO
 70
     1
  9
$DIMPOST
  1

  9
$DIMAPOST
  1

  9
$DIMALT
 70
     0
  9
$DIMALTD
 70
     1
  9
$DIMALTF
 40
25.4
  9
$DIMLFAC
 40
1.0
  9
$DIMTOFL
 70
     0
  9
$DIMTVP
 40
0.0
  9
$DIMTIX
 70
     0
  9
$DIMSOXD
 70
     0
  9
$DIMSAH
 70
     0
  9
$DIMBLK1
  1

  9
$DIMBLK2
  1

  9
$DIMSTYLE
  2
STANDARD
  9
$DIMCLRD
 70
     0
  9
$DIMCLRE
 70
     0
  9
$DIMCLRT
 70
     0
  9
$DIMTFAC
 40
1.0
  9
$DIMGAP
 40
0.125
  9
$DIMJUST
 70
     0
  9
$DIMSD1
 70
     0
  9
$DIMSD2
 70
     0
  9
$DIMTOLJ
 70
     1
  9
$DIMTZIN
 70
     0
  9
$DIMALTZ
 70
     0
  9
$DIMALTTZ
 70
     0
  9
$DIMUPT
 70
     0
  9
$DIMDEC
 70
     4
  9
$DIMTDEC
 70
     4
  9
$DIMALTU
 70
     2
  9
$DIMALTTD
 70
     2
  9
$DIMTXSTY
  7
STANDARD
  9
$DIMAUNIT
 70
     0
  9
$DIMADEC
 70
     0
  9
$DIMALTRND
 40
0.0
  9
$DIMAZIN
 70
     0
  9
$DIMDSEP
 70
    46
  9
$DIMATFIT
 70
     3
  9
$DIMFRAC
 70
     0
  9
$DIMLDRBLK
  1

  9
$DIMLUNIT
 70
     2
  9
$DIMLWD
 70
    -2
  9
$DIMLWE
 70
    -2
  9
$DIMTMOVE
 70
     0
  9
$LUNITS
 70
     5
  9
$LUPREC
 70
     4
  9
$SKETCHINC
 40
0.1
  9
$FILLETRAD
 40
0.0
  9
$AUNITS
 70
     0
  9
$AUPREC
 70
     0
  9
$MENU
  1
acad
  9
$ELEVATION
 40
0.0
  9
$PELEVATION
 40
0.0
  9
$THICKNESS
 40
0.0
  9
$LIMCHECK
 70
     0
  9
$CHAMFERA
 40
0.0
  9
$CHAMFERB
 40
0.0
  9
$CHAMFERC
 40
0.0
  9
$CHAMFERD
 40
0.0
  9
$SKPOLY
 70
     0
  9
$TDCREATE
 40
2450233.613384444
  9
$TDUCREATE
 40
2450233.821717778
  9
$TDUPDATE
 40
2455238.873891620
  9
$TDUUPDATE
 40
2455239.082224954
  9
$TDINDWG
 40
0.0263264005
  9
$TDUSRTIMER
 40
0.0263264005
  9
$USRTIMER
 70
     1
  9
$ANGBASE
 50
0.0
  9
$ANGDIR
 70
     0
  9
$PDMODE
 70
     0
  9
$PDSIZE
 40
0.0
  9
$PLINEWID
 40
0.0
  9
$SPLFRAME
 70
     0
  9
$SPLINETYPE
 70
     6
  9
$SPLINESEGS
 70
     8
  9
$HANDSEED
  5
1010
  9
$SURFTAB1
 70
     6
  9
$SURFTAB2
 70
     6
  9
$SURFTYPE
 70
     6
  9
$SURFU
 70
     6
  9
$SURFV
 70
     6
  9
$UCSBASE
  2

  9
$UCSNAME
  2

  9
$UCSORG
 10
0.0
 20
0.0
 30
0.0
  9
$UCSXDIR
 10
1.0
 20
0.0
 30
0.0
  9
$UCSYDIR
 10
0.0
 20
1.0
 30
0.0
  9
$UCSORTHOREF
  2

  9
$UCSORTHOVIEW
 70
     0
  9
$UCSORGTOP
 10
0.0
 20
0.0
 30
0.0
  9
$UCSORGBOTTOM
 10
0.0
 20
0.0
 30
0.0
  9
$UCSORGLEFT
 10
0.0
 20
0.0
 30
0.0
  9
$UCSORGRIGHT
 10
0.0
 20
0.0
 30
0.0
  9
$UCSORGFRONT
 10
0.0
 20
0.0
 30
0.0
  9
$UCSORGBACK
 10
0.0
 20
0.0
 30
0.0
  9
$PUCSBASE
  2

  9
$PUCSNAME
  2

  9
$PUCSORG
 10
0.0
 20
0.0
 30
0.0
  9
$PUCSXDIR
 10
1.0
 20
0.0
 30
0.0
  9
$PUCSYDIR
 10
0.0
 20
1.0
 30
0.0
  9
$PUCSORTHOREF
  2

  9
$PUCSORTHOVIEW
 70
     0
  9
$PUCSORGTOP
 10
0.0
 20
0.0
 30
0.0
  9
$PUCSORGBOTTOM
 10
0.0
 20
0.0
 30
0.0
  9
$PUCSORGLEFT
 10
0.0
 20
0.0
 30
0.0
  9
$PUCSORGRIGHT
 10
0.0
 20
0.0
 30
0.0
  9
$PUCSORGFRONT
 10
0.0
 20
0.0
 30
0.0
  9
$PUCSORGBACK
 10
0.0
 20
0.0
 30
0.0
  9
$USERI1
 70
     0
  9
$USERI2
 70
     0
  9
$USERI3
 70
     0
  9
$USERI4
 70
     0
  9
$USERI5
 70
     0
  9
$USERR1
 40
0.0
  9
$USERR2
 40
0.0
  9
$USERR3
 40
0.0
  9
$USERR4
 40
0.0
  9
$USERR5
 40
0.0
  9
$WORLDVIEW
 70
     1
  9
$SHADEDGE
 70
     3
  9
$SHADEDIF
 70
    70
  9
$TILEMODE
 70
     1
  9
$MAXACTVP
 70
    15
  9
$PINSBASE
 10
0.0
 20
-3.941062727799726E+99
 30
0.0
  9
$PLIMCHECK
 70
     0
  9
$PEXTMIN
 10
1.000000000000000E+20
 20
1.000000000000000E+20
 30
1.000000000000000E+20
  9
$PEXTMAX
 10
-1.000000000000000E+20
 20
-1.000000000000000E+20
 30
-1.000000000000000E+20
  9
$PLIMMIN
 10
0.0
 20
0.0
  9
$PLIMMAX
 10
12.0
 20
9.0
  9
$UNITMODE
 70
     0
  9
$VISRETAIN
 70
     0
  9
$PLINEGEN
 70
     0
  9
$PSLTSCALE
 70
     1
  9
$TREEDEPTH
 70
  3020
  9
$CMLSTYLE
  2
STANDARD
  9
$CMLJUST
 70
     0
  9
$CMLSCALE
 40
1.0
  9
$PROXYGRAPHICS
 70
     1
  9
$MEASUREMENT
 70
     0
  9
$CELWEIGHT
370
    -1
  9
$ENDCAPS
280
     0
  9
$JOINSTYLE
280
     0
  9
$LWDISPLAY
290
     0
  9
$INSUNITS
 70
     0
  9
$HYPERLINKBASE
  1

  9
$STYLESHEET
  1

  9
$XEDIT
290
     1
  9
$CEPSNTYPE
380
     0
  9
$PSTYLEMODE
290
     1
  9
$FINGERPRINTGUID
  2
{B2E7B952-35C3-485C-9BF8-A3734EEC567E}
  9
$VERSIONGUID
  2
{8E848623-72BB-40CE-A8A9-EAD5588143D5}
  9
$EXTNAMES
290
     1
  9
$PSVPSCALE
 40
0.0
  9
$OLESTARTUP
290
     0
  0
ENDSEC
  0
SECTION
  2
CLASSES
  0
CLASS
  1
ACDBDICTIONARYWDFLT
  2
AcDbDictionaryWithDefault
  3
ObjectDBX Classes
 90
        0
280
     0
281
     0
  0
CLASS
  1
ACDBPLACEHOLDER
  2
AcDbPlaceHolder
  3
ObjectDBX Classes
 90
        0
280
     0
281
     0
  0
CLASS
  1
LAYOUT
  2
AcDbLayout
  3
ObjectDBX Classes
 90
        0
280
     0
281
     0
  0
CLASS
  1
DICTIONARYVAR
  2
AcDbDictionaryVar
  3
ObjectDBX Classes
 90
        0
280
     0
281
     0
  0
CLASS
  1
MATERIAL
  2
AcDbMaterial
  3
ObjectDBX Classes
 90
     1024
280
     0
281
     0
  0
CLASS
  1
VISUALSTYLE
  2
AcDbVisualStyle
  3
ObjectDBX Classes
 90
     4095
280
     0
281
     0
  0
CLASS
  1
TABLESTYLE
  2
AcDbTableStyle
  3
ObjectDBX Classes
 90
     4095
280
     0
281
     0
  0
CLASS
  1
SORTENTSTABLE
  2
AcDbSortentsTable
  3
ObjectDBX Classes
 90
        0
280
     0
281
     0
  0
CLASS
  1
ACAD_EVALUATION_GRAPH
  2
AcDbEvalGraph
  3
ObjectDBX Classes
 90
    33921
280
     0
281
     0
  0
CLASS
  1
ACAECUSTOBJ
  2
AcAeEditorObj
  3
AcAeEditorObj
 90
    33792
280
     0
281
     0
  0
CLASS
  1
ACDB_DYNAMICBLOCKPURGEPREVENTER_VERSION
  2
AcDbDynamicBlockPurgePreventer
  3
ObjectDBX Classes
 90
    33921
280
     0
281
     0
  0
ENDSEC
  0
SECTION
  2
TABLES
  0
TABLE
  2
VPORT
  5
8
102
{ACAD_XDICTIONARY
360
3B3
102
}
330
0
100
AcDbSymbolTable
 70
     1
  0
VPORT
  5
1B7
330
8
100
AcDbSymbolTableRecord
100
AcDbViewportTableRecord
  2
*Active
 70
     0
 10
0.0
 20
0.0
 11
1.0
 21
1.0
 12
0.5926327999312449
 22
1.969574039766534
 13
0.0
 23
0.0
 14
0.5740882589684922
 24
0.5740882589684922
 15
0.5
 25
0.5
 16
0.0
 26
0.0
 36
1.0
 17
0.0
 27
0.0
 37
0.0
 40
4.260274080645627
 41
2.277467411545623
 42
50.0
 43
0.0
 44
0.0
 50
0.0
 51
0.0
 71
     0
 72
   100
 73
     1
 74
     1
 75
     0
 76
     0
 77
     0
 78
     0
281
     0
 65
     1
110
0.0
120
0.0
130
0.0
111
1.0
121
0.0
131
0.0
112
0.0
122
1.0
132
0.0
 79
     0
146
0.0
  0
ENDTAB
  0
TABLE
  2
LTYPE
  5
5
330
0
100
AcDbSymbolTable
 70
    22
  0
LTYPE
  5
12
330
5
100
AcDbSymbolTableRecord
100
AcDbLinetypeTableRecord
  2
BYBLOCK
 70
     0
  3

 72
    65
 73
     0
 40
0.0
  0
LTYPE
  5
13
330
5
100
AcDbSymbolTableRecord
100
AcDbLinetypeTableRecord
  2
BYLAYER
 70
     0
  3

 72
    65
 73
     0
 40
0.0
  0
LTYPE
  5
14
330
5
100
AcDbSymbolTableRecord
100
AcDbLinetypeTableRecord
  2
CONTINUOUS
 70
     0
  3
Solid line
 72
    65
 73
     0
 40
0.0
  0
LTYPE
  5
35E
330
5
100
AcDbSymbolTableRecord
100
AcDbLinetypeTableRecord
  2
AI-Linetype-2
 70
     0
  3
Adobe Illustrator Linetype No. 2
 72
    65
 73
     2
 40
0.0555555921913822
 49
0.0277777960956911
 74
     0
 49
-0.0277777960956911
 74
     0
  0
LTYPE
  5
35F
330
5
100
AcDbSymbolTableRecord
100
AcDbLinetypeTableRecord
  2
AI-Linetype-3
 70
     0
  3
Adobe Illustrator Linetype No. 3
 72
    65
 73
     2
 40
0.0555555921913822
 49
0.0277777960956911
 74
     0
 49
-0.0277777960956911
 74
     0
  0
LTYPE
  5
360
330
5
100
AcDbSymbolTableRecord
100
AcDbLinetypeTableRecord
  2
AI-Linetype-4
 70
     0
  3
Adobe Illustrator Linetype No. 4
 72
    65
 73
     2
 40
0.0555555921913822
 49
0.0277777960956911
 74
     0
 49
-0.0277777960956911
 74
     0
  0
LTYPE
  5
807
330
5
100
AcDbSymbolTableRecord
100
AcDbLinetypeTableRecord
  2
AI-Linetype-1
 70
     0
  3
Adobe Illustrator Linetype No. 1
 72
    65
 73
     2
 40
3.959999918937683
 49
2.375999927520751
 74
     0
 49
-1.583999991416931
 74
     0
  0
LTYPE
  5
808
330
5
100
AcDbSymbolTableRecord
100
AcDbLinetypeTableRecord
  2
AI-Linetype-5
 70
     0
  3
Adobe Illustrator Linetype No. 5
 72
    65
 73
     2
 40
3.959999918937683
 49
2.375999927520751
 74
     0
 49
-1.583999991416931
 74
     0
  0
LTYPE
  5
809
330
5
100
AcDbSymbolTableRecord
100
AcDbLinetypeTableRecord
  2
AI-Linetype-6
 70
     0
  3
Adobe Illustrator Linetype No. 6
 72
    65
 73
     2
 40
3.959999918937683
 49
2.375999927520751
 74
     0
 49
-1.583999991416931
 74
     0
  0
LTYPE
  5
80A
330
5
100
AcDbSymbolTableRecord
100
AcDbLinetypeTableRecord
  2
AI-Linetype-7
 70
     0
  3
Adobe Illustrator Linetype No. 7
 72
    65
 73
     2
 40
3.959999918937683
 49
2.375999927520751
 74
     0
 49
-1.583999991416931
 74
     0
  0
LTYPE
  5
80B
330
5
100
AcDbSymbolTableRecord
100
AcDbLinetypeTableRecord
  2
AI-Linetype-8
 70
     0
  3
Adobe Illustrator Linetype No. 8
 72
    65
 73
     2
 40
3.959999918937683
 49
2.375999927520751
 74
     0
 49
-1.583999991416931
 74
     0
  0
LTYPE
  5
80C
330
5
100
AcDbSymbolTableRecord
100
AcDbLinetypeTableRecord
  2
AI-Linetype-9
 70
     0
  3
Adobe Illustrator Linetype No. 9
 72
    65
 73
     2
 40
3.959999918937683
 49
2.375999927520751
 74
     0
 49
-1.583999991416931
 74
     0
  0
LTYPE
  5
80D
330
5
100
AcDbSymbolTableRecord
100
AcDbLinetypeTableRecord
  2
AI-Linetype-10
 70
     0
  3
Adobe Illustrator Linetype No. 10
 72
    65
 73
     2
 40
3.959999918937683
 49
2.375999927520751
 74
     0
 49
-1.583999991416931
 74
     0
  0
LTYPE
  5
80E
330
5
100
AcDbSymbolTableRecord
100
AcDbLinetypeTableRecord
  2
AI-Linetype-11
 70
     0
  3
Adobe Illustrator Linetype No. 11
 72
    65
 73
     2
 40
3.959999918937683
 49
2.375999927520751
 74
     0
 49
-1.583999991416931
 74
     0
  0
LTYPE
  5
80F
330
5
100
AcDbSymbolTableRecord
100
AcDbLinetypeTableRecord
  2
AI-Linetype-12
 70
     0
  3
Adobe Illustrator Linetype No. 12
 72
    65
 73
     2
 40
3.959999918937683
 49
2.375999927520751
 74
     0
 49
-1.583999991416931
 74
     0
  0
LTYPE
  5
810
330
5
100
AcDbSymbolTableRecord
100
AcDbLinetypeTableRecord
  2
AI-Linetype-13
 70
     0
  3
Adobe Illustrator Linetype No. 13
 72
    65
 73
     2
 40
3.959999918937683
 49
2.375999927520751
 74
     0
 49
-1.583999991416931
 74
     0
  0
LTYPE
  5
811
330
5
100
AcDbSymbolTableRecord
100
AcDbLinetypeTableRecord
  2
AI-Linetype-14
 70
     0
  3
Adobe Illustrator Linetype No. 14
 72
    65
 73
     2
 40
3.959999918937683
 49
2.375999927520751
 74
     0
 49
-1.583999991416931
 74
     0
  0
LTYPE
  5
812
330
5
100
AcDbSymbolTableRecord
100
AcDbLinetypeTableRecord
  2
AI-Linetype-15
 70
     0
  3
Adobe Illustrator Linetype No. 15
 72
    65
 73
     2
 40
3.959999918937683
 49
2.375999927520751
 74
     0
 49
-1.583999991416931
 74
     0
  0
LTYPE
  5
813
330
5
100
AcDbSymbolTableRecord
100
AcDbLinetypeTableRecord
  2
AI-Linetype-16
 70
     0
  3
Adobe Illustrator Linetype No. 16
 72
    65
 73
     2
 40
3.959999918937683
 49
2.375999927520751
 74
     0
 49
-1.583999991416931
 74
     0
  0
LTYPE
  5
814
330
5
100
AcDbSymbolTableRecord
100
AcDbLinetypeTableRecord
  2
AI-Linetype-17
 70
     0
  3
Adobe Illustrator Linetype No. 17
 72
    65
 73
     2
 40
3.959999918937683
 49
2.375999927520751
 74
     0
 49
-1.583999991416931
 74
     0
  0
LTYPE
  5
815
330
5
100
AcDbSymbolTableRecord
100
AcDbLinetypeTableRecord
  2
AI-Linetype-18
 70
     0
  3
Adobe Illustrator Linetype No. 18
 72
    65
 73
     2
 40
3.959999918937683
 49
2.375999927520751
 74
     0
 49
-1.583999991416931
 74
     0
  0
LTYPE
  5
816
330
5
100
AcDbSymbolTableRecord
100
AcDbLinetypeTableRecord
  2
AI-Linetype-19
 70
     0
  3
Adobe Illustrator Linetype No. 19
 72
    65
 73
     2
 40
3.959999918937683
 49
2.375999927520751
 74
     0
 49
-1.583999991416931
 74
     0
  0
LTYPE
  5
817
330
5
100
AcDbSymbolTableRecord
100
AcDbLinetypeTableRecord
  2
AI-Linetype-20
 70
     0
  3
Adobe Illustrator Linetype No. 20
 72
    65
 73
     2
 40
3.959999918937683
 49
2.375999927520751
 74
     0
 49
-1.583999991416931
 74
     0
  0
LTYPE
  5
818
330
5
100
AcDbSymbolTableRecord
100
AcDbLinetypeTableRecord
  2
AI-Linetype-21
 70
     0
  3
Adobe Illustrator Linetype No. 21
 72
    65
 73
     2
 40
3.959999918937683
 49
2.375999927520751
 74
     0
 49
-1.583999991416931
 74
     0
  0
ENDTAB
  0
TABLE
  2
LAYER
  5
2
330
0
100
AcDbSymbolTable
 70
     5
  0
LAYER
  5
F
330
2
100
AcDbSymbolTableRecord
100
AcDbLayerTableRecord
  2
0
 70
     0
 62
     7
  6
CONTINUOUS
370
    -3
390
9B
  0
LAYER
  5
3A
330
2
100
AcDbSymbolTableRecord
100
AcDbLayerTableRecord
  2
ADPDIM
 70
     0
 62
     3
  6
CONTINUOUS
370
    -3
390
9B
  0
LAYER
  5
3C
330
2
100
AcDbSymbolTableRecord
100
AcDbLayerTableRecord
  2
ADP1DETAIL
 70
     0
 62
     7
  6
CONTINUOUS
370
    -3
390
9B
  0
LAYER
  5
3E
330
2
100
AcDbSymbolTableRecord
100
AcDbLayerTableRecord
  2
DEFPOINTS
 70
     0
 62
     7
  6
CONTINUOUS
290
     0
370
    -3
390
9B
  0
LAYER
  5
361
330
2
100
AcDbSymbolTableRecord
100
AcDbLayerTableRecord
  2
Layer 1
 70
     0
 62
     7
  6
CONTINUOUS
370
    -3
390
9B
  0
ENDTAB
  0
TABLE
  2
STYLE
  5
3
330
0
100
AcDbSymbolTable
 70
     2
  0
STYLE
  5
10
330
3
100
AcDbSymbolTableRecord
100
AcDbTextStyleTableRecord
  2
STANDARD
 70
     0
 40
0.0
 41
1.0
 50
0.0
 71
     0
 42
0.2
  3
txt
  4

  0
STYLE
  5
A2
330
3
100
AcDbSymbolTableRecord
100
AcDbTextStyleTableRecord
  2
ARIAL_WIDE
 70
     0
 40
0.0
 41
1.25
 50
0.0
 71
     0
 42
0.2
  3
arial.ttf
  4

1001
ACAD
1000
Arial
1071
       34
  0
ENDTAB
  0
TABLE
  2
VIEW
  5
6
330
0
100
AcDbSymbolTable
 70
     0
  0
ENDTAB
  0
TABLE
  2
UCS
  5
7
330
0
100
AcDbSymbolTable
 70
     0
  0
ENDTAB
  0
TABLE
  2
APPID
  5
9
330
0
100
AcDbSymbolTable
 70
     5
  0
APPID
  5
11
330
9
100
AcDbSymbolTableRecord
100
AcDbRegAppTableRecord
  2
ACAD
 70
     0
  0
APPID
  5
3AB
330
9
100
AcDbSymbolTableRecord
100
AcDbRegAppTableRecord
  2
ACAUTHENVIRON
 70
     0
  0
APPID
  5
3AE
330
9
100
AcDbSymbolTableRecord
100
AcDbRegAppTableRecord
  2
AcDbDynamicBlockTrueName
 70
     0
  0
APPID
  5
3AF
330
9
100
AcDbSymbolTableRecord
100
AcDbRegAppTableRecord
  2
AcDbDynamicBlockGUID
 70
     0
  0
APPID
  5
3B1
330
9
100
AcDbSymbolTableRecord
100
AcDbRegAppTableRecord
  2
AcDbBlockRepETag
 70
     0
  0
ENDTAB
  0
TABLE
  2
DIMSTYLE
  5
A
330
0
100
AcDbSymbolTable
 70
     1
100
AcDbDimStyleTable
 71
     1
340
96
  0
DIMSTYLE
105
96
102
{ACAD_REACTORS
330
8B
102
}
330
A
100
AcDbSymbolTableRecord
100
AcDbDimStyleTableRecord
  2
STANDARD
 70
     0
340
10
  0
ENDTAB
  0
TABLE
  2
BLOCK_RECORD
  5
1
330
0
100
AcDbSymbolTable
 70
     7
  0
BLOCK_RECORD
  5
18
102
{ACAD_XDICTIONARY
360
F7
102
}
330
1
100
AcDbSymbolTableRecord
100
AcDbBlockTableRecord
  2
*MODEL_SPACE
340
9E
  0
BLOCK_RECORD
  5
15
102
{ACAD_XDICTIONARY
360
F5
102
}
330
1
100
AcDbSymbolTableRecord
100
AcDbBlockTableRecord
  2
*PAPER_SPACE
340
9F
  0
BLOCK_RECORD
  5
37
330
1
100
AcDbSymbolTableRecord
100
AcDbBlockTableRecord
  2
*D0
340
0
  0
BLOCK_RECORD
  5
1FE
102
{ACAD_XDICTIONARY
360
3A9
102
}
330
1
100
AcDbSymbolTableRecord
100
AcDbBlockTableRecord
  2
block 4
340
0
1001
AcDbDynamicBlockGUID
1000
{278EFE54-07FF-4AB5-B38A-7B3DFA76C3C7}
1001
AcDbBlockRepETag
1070
     1
1071
        7
  0
BLOCK_RECORD
  5
223
330
1
100
AcDbSymbolTableRecord
100
AcDbBlockTableRecord
  2
block 5
340
0
102
{BLKREFS
331
3A3
102
}
  0
BLOCK_RECORD
  5
36F
330
1
100
AcDbSymbolTableRecord
100
AcDbBlockTableRecord
  2
*D3
340
0
  0
ENDTAB
  0
ENDSEC
  0
SECTION
  2
BLOCKS
  0
BLOCK
  5
41
330
18
100
AcDbEntity
  8
0
100
AcDbBlockBegin
  2
*MODEL_SPACE
 70
     0
 10
0.0
 20
0.0
 30
0.0
  3
*MODEL_SPACE
  1

  0
ENDBLK
  5
42
330
18
100
AcDbEntity
  8
0
100
AcDbBlockEnd
  0
BLOCK
  5
3F
330
15
100
AcDbEntity
 67
     1
  8
0
100
AcDbBlockBegin
  2
*PAPER_SPACE
 70
     0
 10
0.0
 20
0.0
 30
0.0
  3
*PAPER_SPACE
  1

  0
ENDBLK
  5
40
330
15
100
AcDbEntity
 67
     1
  8
0
100
AcDbBlockEnd
  0
BLOCK
  5
50
330
37
100
AcDbEntity
  8
0
100
AcDbBlockBegin
  2
*D0
 70
     1
 10
0.0
 20
0.0
 30
0.0
  3
*D0
  1

  0
LINE
  5
51
330
37
100
AcDbEntity
  8
0
  6
ByBlock
 62
     0
100
AcDbLine
 10
-1.171761374728806
 20
3.250385388003016
 30
0.0
 11
-2.089162361623463
 21
3.250385388003016
 31
0.0
  0
LINE
  5
52
330
37
100
AcDbEntity
  8
0
  6
ByBlock
 62
     0
100
AcDbLine
 10
-0.984261374728806
 20
1.350385388003015
 30
0.0
 11
-2.089162361623464
 21
1.350385388003016
 31
0.0
  0
LINE
  5
53
330
37
100
AcDbEntity
  8
0
  6
ByBlock
 62
     0
100
AcDbLine
 10
-1.909162361623463
 20
3.250385388003016
 30
0.0
 11
-1.909162361623463
 21
2.633718721336348
 31
0.0
  0
LINE
  5
54
330
37
100
AcDbEntity
  8
0
  6
ByBlock
 62
     0
100
AcDbLine
 10
-1.909162361623463
 20
1.350385388003016
 30
0.0
 11
-1.909162361623463
 21
1.967052054669682
 31
0.0
  0
LINE
  5
55
330
37
100
AcDbEntity
  8
0
  6
ByBlock
 62
     0
100
AcDbLine
 10
-1.784162361623463
 20
3.125385388003016
 30
0.0
 11
-2.034162361623463
 21
3.375385388003016
 31
0.0
  0
LINE
  5
56
330
37
100
AcDbEntity
  8
0
  6
ByBlock
 62
     0
100
AcDbLine
 10
-1.784162361623463
 20
1.225385388003015
 30
0.0
 11
-2.034162361623463
 21
1.475385388003016
 31
0.0
  0
TEXT
  5
57
330
37
100
AcDbEntity
  8
0
  6
ByBlock
 62
     0
100
AcDbText
 10
-1.846662361623463
 20
2.092052054669682
 30
0.0
 40
0.125
  1
1.900
 50
90.0
 72
     1
 11
-1.909162361623463
 21
2.300385388003015
 31
0.0
100
AcDbText
 73
     2
  0
POINT
  5
58
330
37
100
AcDbEntity
  8
DEFPOINTS
  6
ByBlock
 62
     0
100
AcDbPoint
 10
-1.109261374728806
 20
3.250385388003016
 30
0.0
  0
POINT
  5
59
330
37
100
AcDbEntity
  8
DEFPOINTS
  6
ByBlock
 62
     0
100
AcDbPoint
 10
-0.921761374728806
 20
1.350385388003015
 30
0.0
  0
POINT
  5
5A
330
37
100
AcDbEntity
  8
DEFPOINTS
  6
ByBlock
 62
     0
100
AcDbPoint
 10
-1.909162361623463
 20
1.350385388003016
 30
0.0
  0
ENDBLK
  5
5B
330
37
100
AcDbEntity
  8
0
100
AcDbBlockEnd
  0
BLOCK
  5
201
330
1FE
100
AcDbEntity
  8
0
100
AcDbBlockBegin
  2
block 4
 70
     0
 10
0.0
 20
0.0
 30
0.0
  3
block 4
  1

  0
SPLINE
  5
389
330
1FE
100
AcDbEntity
  8
Layer 1
 62
     7
370
    18
100
AcDbSpline
210
0.0
220
0.0
230
1.0
 70
     8
 71
     3
 72
    20
 73
    16
 74
     0
 42
0.0000000001
 43
0.0000000001
 40
0.0
 40
0.0
 40
0.0
 40
0.0
 40
1.0
 40
1.0
 40
1.0
 40
2.0
 40
2.0
 40
2.0
 40
3.0
 40
3.0
 40
3.0
 40
4.0
 40
4.0
 40
4.0
 40
5.0
 40
5.0
 40
5.0
 40
5.0
 10
2.486112750564352
 20
6.857982495548735
 30
0.0
 10
2.486112750564352
 20
6.288096865834572
 30
0.0
 10
2.649253049118538
 20
5.974348829074061
 30
0.0
 10
2.661276982828904
 20
5.974348829074061
 30
0.0
 10
2.761842641594286
 20
5.974348829074061
 30
0.0
 10
2.767485006426223
 20
5.907406781891306
 30
0.0
 10
2.767485006426223
 20
5.907406781891306
 30
0.0
 10
2.767485006426223
 20
5.907406781891306
 30
0.0
 10
2.767485006426223
 20
7.807412103849676
 30
0.0
 10
2.767485006426223
 20
7.807412103849676
 30
0.0
 10
2.767485006426223
 20
7.807412103849676
 30
0.0
 10
2.74617694115946
 20
7.743060661673892
 30
0.0
 10
2.661276982828904
 20
7.743060661673892
 30
0.0
 10
2.649042816775041
 20
7.722010300570127
 30
0.0
 10
2.486112750564352
 20
7.426755928348909
 30
0.0
 10
2.486112750564352
 20
6.856836390192247
 30
0.0
1001
AcDbBlockRepETag
1070
     1
1071
        0
1005
389
  0
POLYLINE
  5
38A
330
1FE
100
AcDbEntity
  8
Layer 1
 62
     7
370
    18
100
AcDb2dPolyline
 66
     1
 10
0.0
 20
0.0
 30
0.0
1001
AcDbBlockRepETag
1070
     1
1071
        1
1005
38A
  0
VERTEX
  5
38B
330
38A
100
AcDbEntity
  8
Layer 1
 62
     7
370
    18
100
AcDbVertex
100
AcDb2dVertex
 10
4.203412602646255
 20
7.662399258655789
 30
0.0
  0
VERTEX
  5
38C
330
38A
100
AcDbEntity
  8
Layer 1
 62
     7
370
    18
100
AcDbVertex
100
AcDb2dVertex
 10
3.236113245148012
 20
7.662399258655789
 30
0.0
  0
VERTEX
  5
38D
330
38A
100
AcDbEntity
  8
Layer 1
 62
     7
370
    18
100
AcDbVertex
100
AcDb2dVertex
 10
3.236113245148012
 20
6.052406063708193
 30
0.0
  0
VERTEX
  5
38E
330
38A
100
AcDbEntity
  8
Layer 1
 62
     7
370
    18
100
AcDbVertex
100
AcDb2dVertex
 10
4.203412602646255
 20
6.052406063708193
 30
0.0
  0
VERTEX
  5
38F
330
38A
100
AcDbEntity
  8
Layer 1
 62
     7
370
    18
100
AcDbVertex
100
AcDb2dVertex
 10
4.233821693879917
 20
6.068627862600012
 30
0.0
  0
VERTEX
  5
390
330
38A
100
AcDbEntity
  8
Layer 1
 62
     7
370
    18
100
AcDbVertex
100
AcDb2dVertex
 10
4.233821693879917
 20
6.789826526124493
 30
0.0
  0
VERTEX
  5
391
330
38A
100
AcDbEntity
  8
Layer 1
 62
     7
370
    18
100
AcDbVertex
100
AcDb2dVertex
 10
4.233821693879917
 20
6.92493810610849
 30
0.0
  0
VERTEX
  5
392
330
38A
100
AcDbEntity
  8
Layer 1
 62
     7
370
    18
100
AcDbVertex
100
AcDb2dVertex
 10
4.233821693879917
 20
7.646184241452469
 30
0.0
  0
VERTEX
  5
393
330
38A
100
AcDbEntity
  8
Layer 1
 62
     7
370
    18
100
AcDbVertex
100
AcDb2dVertex
 10
4.203412602646255
 20
7.662399258655789
 30
0.0
  0
SEQEND
  5
394
330
38A
100
AcDbEntity
  8
Layer 1
370
    18
  0
POLYLINE
  5
395
330
1FE
100
AcDbEntity
  8
Layer 1
 62
     7
370
    18
100
AcDb2dPolyline
 66
     1
 10
0.0
 20
0.0
 30
0.0
1001
AcDbBlockRepETag
1070
     1
1071
        2
1005
395
  0
VERTEX
  5
396
330
395
100
AcDbEntity
  8
Layer 1
 62
     7
370
    18
100
AcDbVertex
100
AcDb2dVertex
 10
2.767485006426223
 20
5.907406781891306
 30
0.0
  0
VERTEX
  5
397
330
395
100
AcDbEntity
  8
Layer 1
 62
     7
370
    18
100
AcDbVertex
100
AcDb2dVertex
 10
3.236113245148012
 20
5.907406781891306
 30
0.0
  0
VERTEX
  5
398
330
395
100
AcDbEntity
  8
Layer 1
 62
     7
370
    18
100
AcDbVertex
100
AcDb2dVertex
 10
3.236113245148012
 20
7.807412103849676
 30
0.0
  0
VERTEX
  5
399
330
395
100
AcDbEntity
  8
Layer 1
 62
     7
370
    18
100
AcDbVertex
100
AcDb2dVertex
 10
2.767485006426223
 20
7.807412103849676
 30
0.0
  0
VERTEX
  5
39A
330
395
100
AcDbEntity
  8
Layer 1
 62
     7
370
    18
100
AcDbVertex
100
AcDb2dVertex
 10
2.767485006426223
 20
5.907406781891306
 30
0.0
  0
SEQEND
  5
39B
330
395
100
AcDbEntity
  8
Layer 1
370
    18
  0
POLYLINE
  5
39C
330
1FE
100
AcDbEntity
  8
Layer 1
 62
     7
370
    18
100
AcDb2dPolyline
 66
     1
 10
0.0
 20
0.0
 30
0.0
1001
AcDbBlockRepETag
1070
     1
1071
        3
1005
39C
  0
VERTEX
  5
39D
330
39C
100
AcDbEntity
  8
Layer 1
 62
     7
370
    18
100
AcDbVertex
100
AcDb2dVertex
 10
2.767485006426223
 20
5.907406781891306
 30
0.0
  0
VERTEX
  5
39E
330
39C
100
AcDbEntity
  8
Layer 1
 62
     7
370
    18
100
AcDbVertex
100
AcDb2dVertex
 10
2.903322227079713
 20
5.907406781891306
 30
0.0
  0
VERTEX
  5
39F
330
39C
100
AcDbEntity
  8
Layer 1
 62
     7
370
    18
100
AcDbVertex
100
AcDb2dVertex
 10
2.903322227079713
 20
7.807412103849676
 30
0.0
  0
VERTEX
  5
3A0
330
39C
100
AcDbEntity
  8
Layer 1
 62
     7
370
    18
100
AcDbVertex
100
AcDb2dVertex
 10
2.767485006426223
 20
7.807412103849676
 30
0.0
  0
VERTEX
  5
3A1
330
39C
100
AcDbEntity
  8
Layer 1
 62
     7
370
    18
100
AcDbVertex
100
AcDb2dVertex
 10
2.767485006426223
 20
5.907406781891306
 30
0.0
  0
SEQEND
  5
3A2
330
39C
100
AcDbEntity
  8
Layer 1
370
    18
  0
INSERT
  5
3A3
330
1FE
100
AcDbEntity
  8
Layer 1
100
AcDbBlockReference
  2
block 5
 10
0.0
 20
0.0
 30
0.0
1001
AcDbBlockRepETag
1070
     1
1071
        4
1005
3A3
  0
POLYLINE
  5
3A4
330
1FE
100
AcDbEntity
  8
Layer 1
 62
     7
370
    18
100
AcDb2dPolyline
 66
     1
 10
0.0
 20
0.0
 30
0.0
1001
AcDbBlockRepETag
1070
     1
1071
        5
1005
3A4
  0
VERTEX
  5
3A5
330
3A4
100
AcDbEntity
  8
Layer 1
 62
     7
370
    18
100
AcDbVertex
100
AcDb2dVertex
 10
4.203412602646255
 20
7.662412822032789
 30
0.0
  0
VERTEX
  5
3A6
330
3A4
100
AcDbEntity
  8
Layer 1
 62
     7
370
    18
100
AcDbVertex
100
AcDb2dVertex
 10
4.203412602646255
 20
6.052412845396693
 30
0.0
  0
SEQEND
  5
3A7
330
3A4
100
AcDbEntity
  8
Layer 1
370
    18
  0
SPLINE
  5
3A8
330
1FE
100
AcDbEntity
  8
ADP1DETAIL
  6
AI-Linetype-2
 62
     5
370
    18
100
AcDbSpline
210
0.0
220
0.0
230
1.0
 70
     8
 71
     3
 72
    29
 73
    25
 74
     0
 42
0.0000000001
 43
0.0000000001
 40
0.0
 40
0.0
 40
0.0
 40
0.0
 40
1.0
 40
1.0
 40
1.0
 40
2.0
 40
2.0
 40
2.0
 40
3.0
 40
3.0
 40
3.0
 40
4.0
 40
4.0
 40
4.0
 40
5.0
 40
5.0
 40
5.0
 40
6.0
 40
6.0
 40
6.0
 40
7.0
 40
7.0
 40
7.0
 40
8.0
 40
8.0
 40
8.0
 40
8.0
 10
4.233821693879917
 20
6.182031257695752
 30
0.0
 10
4.233821693879917
 20
6.182031257695752
 30
0.0
 10
4.203412602646255
 20
6.198246274899071
 30
0.0
 10
4.203412602646255
 20
6.198246274899071
 30
0.0
 10
4.203412602646255
 20
6.198246274899071
 30
0.0
 10
3.236113245148012
 20
6.198246274899071
 30
0.0
 10
3.236113245148012
 20
6.198246274899071
 30
0.0
 10
3.236113245148012
 20
6.198239493210571
 30
0.0
 10
3.236113245148012
 20
6.346378696802924
 30
0.0
 10
3.236113245148012
 20
6.346378696802924
 30
0.0
 10
3.236113245148012
 20
6.346378696802924
 30
0.0
 10
3.159724305884862
 20
6.523631689125453
 30
0.0
 10
3.159724305884862
 20
6.857412833714741
 30
0.0
 10
3.159724305884862
 20
7.191207541681029
 30
0.0
 10
3.236113245148012
 20
7.368433407249558
 30
0.0
 10
3.236113245148012
 20
7.368433407249558
 30
0.0
 10
3.236113245148012
 20
7.368433407249558
 30
0.0
 10
3.236113245148012
 20
7.516565829153411
 30
0.0
 10
3.236113245148012
 20
7.51657939253041
 30
0.0
 10
3.236113245148012
 20
7.516565829153411
 30
0.0
 10
4.203412602646255
 20
7.516565829153411
 30
0.0
 10
4.203412602646255
 20
7.516565829153411
 30
0.0
 10
4.203412602646255
 20
7.516565829153411
 30
0.0
 10
4.233821693879917
 20
7.53279440973373
 30
0.0
 10
4.233821693879917
 20
7.532801191422231
 30
0.0
1001
AcDbBlockRepETag
1070
     1
1071
        6
1005
3A8
  0
ENDBLK
  5
222
330
1FE
100
AcDbEntity
  8
0
100
AcDbBlockEnd
  0
BLOCK
  5
224
330
223
100
AcDbEntity
  8
0
100
AcDbBlockBegin
  2
block 5
 70
     0
 10
0.0
 20
0.0
 30
0.0
  3
block 5
  1

  0
POLYLINE
  5
225
330
223
100
AcDbEntity
  8
Layer 1
 62
     7
370
    18
100
AcDb2dPolyline
 66
     1
 10
0.0
 20
0.0
 30
0.0
  0
VERTEX
  5
226
330
225
100
AcDbEntity
  8
Layer 1
 62
     7
370
    18
100
AcDbVertex
100
AcDb2dVertex
 10
3.893035065070207
 20
7.662412822032789
 30
0.0
  0
VERTEX
  5
227
330
225
100
AcDbEntity
  8
Layer 1
 62
     7
370
    18
100
AcDbVertex
100
AcDb2dVertex
 10
3.51771607841888
 20
7.662412822032789
 30
0.0
  0
SEQEND
  5
228
330
225
100
AcDbEntity
  8
Layer 1
370
    18
  0
POLYLINE
  5
229
330
223
100
AcDbEntity
  8
Layer 1
 62
     7
370
    18
100
AcDb2dPolyline
 66
     1
 10
0.0
 20
0.0
 30
0.0
  0
VERTEX
  5
22A
330
229
100
AcDbEntity
  8
Layer 1
 62
     7
370
    18
100
AcDbVertex
100
AcDb2dVertex
 10
3.893035065070207
 20
7.641504876387521
 30
0.0
  0
VERTEX
  5
22B
330
229
100
AcDbEntity
  8
Layer 1
 62
     7
370
    18
100
AcDbVertex
100
AcDb2dVertex
 10
3.51771607841888
 20
7.641504876387521
 30
0.0
  0
SEQEND
  5
22C
330
229
100
AcDbEntity
  8
Layer 1
370
    18
  0
POLYLINE
  5
22D
330
223
100
AcDbEntity
  8
Layer 1
 62
     7
370
    18
100
AcDb2dPolyline
 66
     1
 10
0.0
 20
0.0
 30
0.0
  0
VERTEX
  5
22E
330
22D
100
AcDbEntity
  8
Layer 1
 62
     7
370
    18
100
AcDbVertex
100
AcDb2dVertex
 10
3.893035065070207
 20
7.620596930742254
 30
0.0
  0
VERTEX
  5
22F
330
22D
100
AcDbEntity
  8
Layer 1
 62
     7
370
    18
100
AcDbVertex
100
AcDb2dVertex
 10
3.51771607841888
 20
7.620596930742254
 30
0.0
  0
SEQEND
  5
230
330
22D
100
AcDbEntity
  8
Layer 1
370
    18
  0
POLYLINE
  5
231
330
223
100
AcDbEntity
  8
Layer 1
 62
     7
370
    18
100
AcDb2dPolyline
 66
     1
 10
0.0
 20
0.0
 30
0.0
  0
VERTEX
  5
232
330
231
100
AcDbEntity
  8
Layer 1
 62
     7
370
    18
100
AcDbVertex
100
AcDb2dVertex
 10
3.893035065070207
 20
7.599688985096986
 30
0.0
  0
VERTEX
  5
233
330
231
100
AcDbEntity
  8
Layer 1
 62
     7
370
    18
100
AcDbVertex
100
AcDb2dVertex
 10
3.51771607841888
 20
7.599688985096986
 30
0.0
  0
SEQEND
  5
234
330
231
100
AcDbEntity
  8
Layer 1
370
    18
  0
POLYLINE
  5
235
330
223
100
AcDbEntity
  8
Layer 1
 62
     7
370
    18
100
AcDb2dPolyline
 66
     1
 10
0.0
 20
0.0
 30
0.0
  0
VERTEX
  5
236
330
235
100
AcDbEntity
  8
Layer 1
 62
     7
370
    18
100
AcDbVertex
100
AcDb2dVertex
 10
3.893035065070207
 20
7.578781039451719
 30
0.0
  0
VERTEX
  5
237
330
235
100
AcDbEntity
  8
Layer 1
 62
     7
370
    18
100
AcDbVertex
100
AcDb2dVertex
 10
3.51771607841888
 20
7.578781039451719
 30
0.0
  0
SEQEND
  5
238
330
235
100
AcDbEntity
  8
Layer 1
370
    18
  0
POLYLINE
  5
239
330
223
100
AcDbEntity
  8
Layer 1
 62
     7
370
    18
100
AcDb2dPolyline
 66
     1
 10
0.0
 20
0.0
 30
0.0
  0
VERTEX
  5
23A
330
239
100
AcDbEntity
  8
Layer 1
 62
     7
370
    18
100
AcDbVertex
100
AcDb2dVertex
 10
3.893028283381707
 20
7.557866312117951
 30
0.0
  0
VERTEX
  5
23B
330
239
100
AcDbEntity
  8
Layer 1
 62
     7
370
    18
100
AcDbVertex
100
AcDb2dVertex
 10
3.51771607841888
 20
7.557866312117951
 30
0.0
  0
SEQEND
  5
23C
330
239
100
AcDbEntity
  8
Layer 1
370
    18
  0
POLYLINE
  5
23D
330
223
100
AcDbEntity
  8
Layer 1
 62
     7
370
    18
100
AcDb2dPolyline
 66
     1
 10
0.0
 20
0.0
 30
0.0
  0
VERTEX
  5
23E
330
23D
100
AcDbEntity
  8
Layer 1
 62
     7
370
    18
100
AcDbVertex
100
AcDb2dVertex
 10
3.893035065070207
 20
7.536951584784184
 30
0.0
  0
VERTEX
  5
23F
330
23D
100
AcDbEntity
  8
Layer 1
 62
     7
370
    18
100
AcDbVertex
100
AcDb2dVertex
 10
3.51772286010738
 20
7.536951584784184
 30
0.0
  0
SEQEND
  5
240
330
23D
100
AcDbEntity
  8
Layer 1
370
    18
  0
POLYLINE
  5
241
330
223
100
AcDbEntity
  8
Layer 1
 62
     7
370
    18
100
AcDb2dPolyline
 66
     1
 10
0.0
 20
0.0
 30
0.0
  0
VERTEX
  5
242
330
241
100
AcDbEntity
  8
Layer 1
 62
     7
370
    18
100
AcDbVertex
100
AcDb2dVertex
 10
3.893035065070207
 20
7.516050420827417
 30
0.0
  0
VERTEX
  5
243
330
241
100
AcDbEntity
  8
Layer 1
 62
     7
370
    18
100
AcDbVertex
100
AcDb2dVertex
 10
3.51771607841888
 20
7.516050420827417
 30
0.0
  0
SEQEND
  5
244
330
241
100
AcDbEntity
  8
Layer 1
370
    18
  0
POLYLINE
  5
245
330
223
100
AcDbEntity
  8
Layer 1
 62
     7
370
    18
100
AcDb2dPolyline
 66
     1
 10
0.0
 20
0.0
 30
0.0
  0
VERTEX
  5
246
330
245
100
AcDbEntity
  8
Layer 1
 62
     7
370
    18
100
AcDbVertex
100
AcDb2dVertex
 10
3.893035065070207
 20
7.495135693493649
 30
0.0
  0
VERTEX
  5
247
330
245
100
AcDbEntity
  8
Layer 1
 62
     7
370
    18
100
AcDbVertex
100
AcDb2dVertex
 10
3.51771607841888
 20
7.495135693493649
 30
0.0
  0
SEQEND
  5
248
330
245
100
AcDbEntity
  8
Layer 1
370
    18
  0
POLYLINE
  5
249
330
223
100
AcDbEntity
  8
Layer 1
 62
     7
370
    18
100
AcDb2dPolyline
 66
     1
 10
0.0
 20
0.0
 30
0.0
  0
VERTEX
  5
24A
330
249
100
AcDbEntity
  8
Layer 1
 62
     7
370
    18
100
AcDbVertex
100
AcDb2dVertex
 10
3.893035065070207
 20
7.474227747848382
 30
0.0
  0
VERTEX
  5
24B
330
249
100
AcDbEntity
  8
Layer 1
 62
     7
370
    18
100
AcDbVertex
100
AcDb2dVertex
 10
3.51771607841888
 20
7.474227747848382
 30
0.0
  0
SEQEND
  5
24C
330
249
100
AcDbEntity
  8
Layer 1
370
    18
  0
POLYLINE
  5
24D
330
223
100
AcDbEntity
  8
Layer 1
 62
     7
370
    18
100
AcDb2dPolyline
 66
     1
 10
0.0
 20
0.0
 30
0.0
  0
VERTEX
  5
24E
330
24D
100
AcDbEntity
  8
Layer 1
 62
     7
370
    18
100
AcDbVertex
100
AcDb2dVertex
 10
3.893035065070207
 20
7.453326583891614
 30
0.0
  0
VERTEX
  5
24F
330
24D
100
AcDbEntity
  8
Layer 1
 62
     7
370
    18
100
AcDbVertex
100
AcDb2dVertex
 10
3.51771607841888
 20
7.453326583891614
 30
0.0
  0
SEQEND
  5
250
330
24D
100
AcDbEntity
  8
Layer 1
370
    18
  0
POLYLINE
  5
251
330
223
100
AcDbEntity
  8
Layer 1
 62
     7
370
    18
100
AcDb2dPolyline
 66
     1
 10
0.0
 20
0.0
 30
0.0
  0
VERTEX
  5
252
330
251
100
AcDbEntity
  8
Layer 1
 62
     7
370
    18
100
AcDbVertex
100
AcDb2dVertex
 10
3.893035065070207
 20
7.432411856557846
 30
0.0
  0
VERTEX
  5
253
330
251
100
AcDbEntity
  8
Layer 1
 62
     7
370
    18
100
AcDbVertex
100
AcDb2dVertex
 10
3.51771607841888
 20
7.432411856557846
 30
0.0
  0
SEQEND
  5
254
330
251
100
AcDbEntity
  8
Layer 1
370
    18
  0
POLYLINE
  5
255
330
223
100
AcDbEntity
  8
Layer 1
 62
     7
370
    18
100
AcDb2dPolyline
 66
     1
 10
0.0
 20
0.0
 30
0.0
  0
VERTEX
  5
256
330
255
100
AcDbEntity
  8
Layer 1
 62
     7
370
    18
100
AcDbVertex
100
AcDb2dVertex
 10
3.893035065070207
 20
7.411503910912579
 30
0.0
  0
VERTEX
  5
257
330
255
100
AcDbEntity
  8
Layer 1
 62
     7
370
    18
100
AcDbVertex
100
AcDb2dVertex
 10
3.51771607841888
 20
7.411503910912579
 30
0.0
  0
SEQEND
  5
258
330
255
100
AcDbEntity
  8
Layer 1
370
    18
  0
POLYLINE
  5
259
330
223
100
AcDbEntity
  8
Layer 1
 62
     7
370
    18
100
AcDb2dPolyline
 66
     1
 10
0.0
 20
0.0
 30
0.0
  0
VERTEX
  5
25A
330
259
100
AcDbEntity
  8
Layer 1
 62
     7
370
    18
100
AcDbVertex
100
AcDb2dVertex
 10
3.893035065070207
 20
7.390595965267312
 30
0.0
  0
VERTEX
  5
25B
330
259
100
AcDbEntity
  8
Layer 1
 62
     7
370
    18
100
AcDbVertex
100
AcDb2dVertex
 10
3.51771607841888
 20
7.390595965267312
 30
0.0
  0
SEQEND
  5
25C
330
259
100
AcDbEntity
  8
Layer 1
370
    18
  0
POLYLINE
  5
25D
330
223
100
AcDbEntity
  8
Layer 1
 62
     7
370
    18
100
AcDb2dPolyline
 66
     1
 10
0.0
 20
0.0
 30
0.0
  0
VERTEX
  5
25E
330
25D
100
AcDbEntity
  8
Layer 1
 62
     7
370
    18
100
AcDbVertex
100
AcDb2dVertex
 10
3.893041846758706
 20
7.369681237933544
 30
0.0
  0
VERTEX
  5
25F
330
25D
100
AcDbEntity
  8
Layer 1
 62
     7
370
    18
100
AcDbVertex
100
AcDb2dVertex
 10
3.51771607841888
 20
7.369681237933544
 30
0.0
  0
SEQEND
  5
260
330
25D
100
AcDbEntity
  8
Layer 1
370
    18
  0
POLYLINE
  5
261
330
223
100
AcDbEntity
  8
Layer 1
 62
     7
370
    18
100
AcDb2dPolyline
 66
     1
 10
0.0
 20
0.0
 30
0.0
  0
VERTEX
  5
262
330
261
100
AcDbEntity
  8
Layer 1
 62
     7
370
    18
100
AcDbVertex
100
AcDb2dVertex
 10
3.893028283381707
 20
7.348773292288277
 30
0.0
  0
VERTEX
  5
263
330
261
100
AcDbEntity
  8
Layer 1
 62
     7
370
    18
100
AcDbVertex
100
AcDb2dVertex
 10
3.51771607841888
 20
7.348773292288277
 30
0.0
  0
SEQEND
  5
264
330
261
100
AcDbEntity
  8
Layer 1
370
    18
  0
POLYLINE
  5
265
330
223
100
AcDbEntity
  8
Layer 1
 62
     7
370
    18
100
AcDb2dPolyline
 66
     1
 10
0.0
 20
0.0
 30
0.0
  0
VERTEX
  5
266
330
265
100
AcDbEntity
  8
Layer 1
 62
     7
370
    18
100
AcDbVertex
100
AcDb2dVertex
 10
3.893035065070207
 20
7.32787212833151
 30
0.0
  0
VERTEX
  5
267
330
265
100
AcDbEntity
  8
Layer 1
 62
     7
370
    18
100
AcDbVertex
100
AcDb2dVertex
 10
3.51771607841888
 20
7.32787212833151
 30
0.0
  0
SEQEND
  5
268
330
265
100
AcDbEntity
  8
Layer 1
370
    18
  0
POLYLINE
  5
269
330
223
100
AcDbEntity
  8
Layer 1
 62
     7
370
    18
100
AcDb2dPolyline
 66
     1
 10
0.0
 20
0.0
 30
0.0
  0
VERTEX
  5
26A
330
269
100
AcDbEntity
  8
Layer 1
 62
     7
370
    18
100
AcDbVertex
100
AcDb2dVertex
 10
3.893035065070207
 20
7.306957400997742
 30
0.0
  0
VERTEX
  5
26B
330
269
100
AcDbEntity
  8
Layer 1
 62
     7
370
    18
100
AcDbVertex
100
AcDb2dVertex
 10
3.51771607841888
 20
7.306957400997742
 30
0.0
  0
SEQEND
  5
26C
330
269
100
AcDbEntity
  8
Layer 1
370
    18
  0
POLYLINE
  5
26D
330
223
100
AcDbEntity
  8
Layer 1
 62
     7
370
    18
100
AcDb2dPolyline
 66
     1
 10
0.0
 20
0.0
 30
0.0
  0
VERTEX
  5
26E
330
26D
100
AcDbEntity
  8
Layer 1
 62
     7
370
    18
100
AcDbVertex
100
AcDb2dVertex
 10
3.893035065070207
 20
7.286049455352475
 30
0.0
  0
VERTEX
  5
26F
330
26D
100
AcDbEntity
  8
Layer 1
 62
     7
370
    18
100
AcDbVertex
100
AcDb2dVertex
 10
3.51771607841888
 20
7.286049455352475
 30
0.0
  0
SEQEND
  5
270
330
26D
100
AcDbEntity
  8
Layer 1
370
    18
  0
POLYLINE
  5
271
330
223
100
AcDbEntity
  8
Layer 1
 62
     7
370
    18
100
AcDb2dPolyline
 66
     1
 10
0.0
 20
0.0
 30
0.0
  0
VERTEX
  5
272
330
271
100
AcDbEntity
  8
Layer 1
 62
     7
370
    18
100
AcDbVertex
100
AcDb2dVertex
 10
3.893035065070207
 20
7.265141509707206
 30
0.0
  0
VERTEX
  5
273
330
271
100
AcDbEntity
  8
Layer 1
 62
     7
370
    18
100
AcDbVertex
100
AcDb2dVertex
 10
3.51771607841888
 20
7.265141509707206
 30
0.0
  0
SEQEND
  5
274
330
271
100
AcDbEntity
  8
Layer 1
370
    18
  0
POLYLINE
  5
275
330
223
100
AcDbEntity
  8
Layer 1
 62
     7
370
    18
100
AcDb2dPolyline
 66
     1
 10
0.0
 20
0.0
 30
0.0
  0
VERTEX
  5
276
330
275
100
AcDbEntity
  8
Layer 1
 62
     7
370
    18
100
AcDbVertex
100
AcDb2dVertex
 10
3.893035065070207
 20
7.24422678237344
 30
0.0
  0
VERTEX
  5
277
330
275
100
AcDbEntity
  8
Layer 1
 62
     7
370
    18
100
AcDbVertex
100
AcDb2dVertex
 10
3.51771607841888
 20
7.24422678237344
 30
0.0
  0
SEQEND
  5
278
330
275
100
AcDbEntity
  8
Layer 1
370
    18
  0
POLYLINE
  5
279
330
223
100
AcDbEntity
  8
Layer 1
 62
     7
370
    18
100
AcDb2dPolyline
 66
     1
 10
0.0
 20
0.0
 30
0.0
  0
VERTEX
  5
27A
330
279
100
AcDbEntity
  8
Layer 1
 62
     7
370
    18
100
AcDbVertex
100
AcDb2dVertex
 10
3.893035065070207
 20
7.223325618416672
 30
0.0
  0
VERTEX
  5
27B
330
279
100
AcDbEntity
  8
Layer 1
 62
     7
370
    18
100
AcDbVertex
100
AcDb2dVertex
 10
3.51771607841888
 20
7.223325618416672
 30
0.0
  0
SEQEND
  5
27C
330
279
100
AcDbEntity
  8
Layer 1
370
    18
  0
POLYLINE
  5
27D
330
223
100
AcDbEntity
  8
Layer 1
 62
     7
370
    18
100
AcDb2dPolyline
 66
     1
 10
0.0
 20
0.0
 30
0.0
  0
VERTEX
  5
27E
330
27D
100
AcDbEntity
  8
Layer 1
 62
     7
370
    18
100
AcDbVertex
100
AcDb2dVertex
 10
3.893041846758706
 20
7.202410891082904
 30
0.0
  0
VERTEX
  5
27F
330
27D
100
AcDbEntity
  8
Layer 1
 62
     7
370
    18
100
AcDbVertex
100
AcDb2dVertex
 10
3.51771607841888
 20
7.202410891082904
 30
0.0
  0
SEQEND
  5
280
330
27D
100
AcDbEntity
  8
Layer 1
370
    18
  0
POLYLINE
  5
281
330
223
100
AcDbEntity
  8
Layer 1
 62
     7
370
    18
100
AcDb2dPolyline
 66
     1
 10
0.0
 20
0.0
 30
0.0
  0
VERTEX
  5
282
330
281
100
AcDbEntity
  8
Layer 1
 62
     7
370
    18
100
AcDbVertex
100
AcDb2dVertex
 10
3.893041846758706
 20
7.181502945437637
 30
0.0
  0
VERTEX
  5
283
330
281
100
AcDbEntity
  8
Layer 1
 62
     7
370
    18
100
AcDbVertex
100
AcDb2dVertex
 10
3.51771607841888
 20
7.181502945437637
 30
0.0
  0
SEQEND
  5
284
330
281
100
AcDbEntity
  8
Layer 1
370
    18
  0
POLYLINE
  5
285
330
223
100
AcDbEntity
  8
Layer 1
 62
     7
370
    18
100
AcDb2dPolyline
 66
     1
 10
0.0
 20
0.0
 30
0.0
  0
VERTEX
  5
286
330
285
100
AcDbEntity
  8
Layer 1
 62
     7
370
    18
100
AcDbVertex
100
AcDb2dVertex
 10
3.893028283381707
 20
7.16059499979237
 30
0.0
  0
VERTEX
  5
287
330
285
100
AcDbEntity
  8
Layer 1
 62
     7
370
    18
100
AcDbVertex
100
AcDb2dVertex
 10
3.51771607841888
 20
7.16059499979237
 30
0.0
  0
SEQEND
  5
288
330
285
100
AcDbEntity
  8
Layer 1
370
    18
  0
POLYLINE
  5
289
330
223
100
AcDbEntity
  8
Layer 1
 62
     7
370
    18
100
AcDb2dPolyline
 66
     1
 10
0.0
 20
0.0
 30
0.0
  0
VERTEX
  5
28A
330
289
100
AcDbEntity
  8
Layer 1
 62
     7
370
    18
100
AcDbVertex
100
AcDb2dVertex
 10
3.893028283381707
 20
7.139687054147102
 30
0.0
  0
VERTEX
  5
28B
330
289
100
AcDbEntity
  8
Layer 1
 62
     7
370
    18
100
AcDbVertex
100
AcDb2dVertex
 10
3.51771607841888
 20
7.139687054147102
 30
0.0
  0
SEQEND
  5
28C
330
289
100
AcDbEntity
  8
Layer 1
370
    18
  0
POLYLINE
  5
28D
330
223
100
AcDbEntity
  8
Layer 1
 62
     7
370
    18
100
AcDb2dPolyline
 66
     1
 10
0.0
 20
0.0
 30
0.0
  0
VERTEX
  5
28E
330
28D
100
AcDbEntity
  8
Layer 1
 62
     7
370
    18
100
AcDbVertex
100
AcDb2dVertex
 10
3.893028283381707
 20
7.118779108501835
 30
0.0
  0
VERTEX
  5
28F
330
28D
100
AcDbEntity
  8
Layer 1
 62
     7
370
    18
100
AcDbVertex
100
AcDb2dVertex
 10
3.51771607841888
 20
7.118779108501835
 30
0.0
  0
SEQEND
  5
290
330
28D
100
AcDbEntity
  8
Layer 1
370
    18
  0
POLYLINE
  5
291
330
223
100
AcDbEntity
  8
Layer 1
 62
     7
370
    18
100
AcDb2dPolyline
 66
     1
 10
0.0
 20
0.0
 30
0.0
  0
VERTEX
  5
292
330
291
100
AcDbEntity
  8
Layer 1
 62
     7
370
    18
100
AcDbVertex
100
AcDb2dVertex
 10
3.893035065070207
 20
7.097864381168067
 30
0.0
  0
VERTEX
  5
293
330
291
100
AcDbEntity
  8
Layer 1
 62
     7
370
    18
100
AcDbVertex
100
AcDb2dVertex
 10
3.51771607841888
 20
7.097864381168067
 30
0.0
  0
SEQEND
  5
294
330
291
100
AcDbEntity
  8
Layer 1
370
    18
  0
POLYLINE
  5
295
330
223
100
AcDbEntity
  8
Layer 1
 62
     7
370
    18
100
AcDb2dPolyline
 66
     1
 10
0.0
 20
0.0
 30
0.0
  0
VERTEX
  5
296
330
295
100
AcDbEntity
  8
Layer 1
 62
     7
370
    18
100
AcDbVertex
100
AcDb2dVertex
 10
3.893035065070207
 20
7.076963217211299
 30
0.0
  0
VERTEX
  5
297
330
295
100
AcDbEntity
  8
Layer 1
 62
     7
370
    18
100
AcDbVertex
100
AcDb2dVertex
 10
3.51771607841888
 20
7.076963217211299
 30
0.0
  0
SEQEND
  5
298
330
295
100
AcDbEntity
  8
Layer 1
370
    18
  0
POLYLINE
  5
299
330
223
100
AcDbEntity
  8
Layer 1
 62
     7
370
    18
100
AcDb2dPolyline
 66
     1
 10
0.0
 20
0.0
 30
0.0
  0
VERTEX
  5
29A
330
299
100
AcDbEntity
  8
Layer 1
 62
     7
370
    18
100
AcDbVertex
100
AcDb2dVertex
 10
3.893035065070207
 20
7.056048489877532
 30
0.0
  0
VERTEX
  5
29B
330
299
100
AcDbEntity
  8
Layer 1
 62
     7
370
    18
100
AcDbVertex
100
AcDb2dVertex
 10
3.51771607841888
 20
7.056048489877532
 30
0.0
  0
SEQEND
  5
29C
330
299
100
AcDbEntity
  8
Layer 1
370
    18
  0
POLYLINE
  5
29D
330
223
100
AcDbEntity
  8
Layer 1
 62
     7
370
    18
100
AcDb2dPolyline
 66
     1
 10
0.0
 20
0.0
 30
0.0
  0
VERTEX
  5
29E
330
29D
100
AcDbEntity
  8
Layer 1
 62
     7
370
    18
100
AcDbVertex
100
AcDb2dVertex
 10
3.893035065070207
 20
7.035140544232264
 30
0.0
  0
VERTEX
  5
29F
330
29D
100
AcDbEntity
  8
Layer 1
 62
     7
370
    18
100
AcDbVertex
100
AcDb2dVertex
 10
3.51771607841888
 20
7.035140544232264
 30
0.0
  0
SEQEND
  5
2A0
330
29D
100
AcDbEntity
  8
Layer 1
370
    18
  0
POLYLINE
  5
2A1
330
223
100
AcDbEntity
  8
Layer 1
 62
     7
370
    18
100
AcDb2dPolyline
 66
     1
 10
0.0
 20
0.0
 30
0.0
  0
VERTEX
  5
2A2
330
2A1
100
AcDbEntity
  8
Layer 1
 62
     7
370
    18
100
AcDbVertex
100
AcDb2dVertex
 10
3.893035065070207
 20
7.014232598586997
 30
0.0
  0
VERTEX
  5
2A3
330
2A1
100
AcDbEntity
  8
Layer 1
 62
     7
370
    18
100
AcDbVertex
100
AcDb2dVertex
 10
3.51771607841888
 20
7.014232598586997
 30
0.0
  0
SEQEND
  5
2A4
330
2A1
100
AcDbEntity
  8
Layer 1
370
    18
  0
POLYLINE
  5
2A5
330
223
100
AcDbEntity
  8
Layer 1
 62
     7
370
    18
100
AcDb2dPolyline
 66
     1
 10
0.0
 20
0.0
 30
0.0
  0
VERTEX
  5
2A6
330
2A5
100
AcDbEntity
  8
Layer 1
 62
     7
370
    18
100
AcDbVertex
100
AcDb2dVertex
 10
3.893041846758706
 20
6.993317871253229
 30
0.0
  0
VERTEX
  5
2A7
330
2A5
100
AcDbEntity
  8
Layer 1
 62
     7
370
    18
100
AcDbVertex
100
AcDb2dVertex
 10
3.51771607841888
 20
6.993317871253229
 30
0.0
  0
SEQEND
  5
2A8
330
2A5
100
AcDbEntity
  8
Layer 1
370
    18
  0
POLYLINE
  5
2A9
330
223
100
AcDbEntity
  8
Layer 1
 62
     7
370
    18
100
AcDb2dPolyline
 66
     1
 10
0.0
 20
0.0
 30
0.0
  0
VERTEX
  5
2AA
330
2A9
100
AcDbEntity
  8
Layer 1
 62
     7
370
    18
100
AcDbVertex
100
AcDb2dVertex
 10
3.893041846758706
 20
6.972416707296462
 30
0.0
  0
VERTEX
  5
2AB
330
2A9
100
AcDbEntity
  8
Layer 1
 62
     7
370
    18
100
AcDbVertex
100
AcDb2dVertex
 10
3.51771607841888
 20
6.972416707296462
 30
0.0
  0
SEQEND
  5
2AC
330
2A9
100
AcDbEntity
  8
Layer 1
370
    18
  0
POLYLINE
  5
2AD
330
223
100
AcDbEntity
  8
Layer 1
 62
     7
370
    18
100
AcDb2dPolyline
 66
     1
 10
0.0
 20
0.0
 30
0.0
  0
VERTEX
  5
2AE
330
2AD
100
AcDbEntity
  8
Layer 1
 62
     7
370
    18
100
AcDbVertex
100
AcDb2dVertex
 10
3.893028283381707
 20
6.951501979962695
 30
0.0
  0
VERTEX
  5
2AF
330
2AD
100
AcDbEntity
  8
Layer 1
 62
     7
370
    18
100
AcDbVertex
100
AcDb2dVertex
 10
3.51771607841888
 20
6.951501979962695
 30
0.0
  0
SEQEND
  5
2B0
330
2AD
100
AcDbEntity
  8
Layer 1
370
    18
  0
POLYLINE
  5
2B1
330
223
100
AcDbEntity
  8
Layer 1
 62
     7
370
    18
100
AcDb2dPolyline
 66
     1
 10
0.0
 20
0.0
 30
0.0
  0
VERTEX
  5
2B2
330
2B1
100
AcDbEntity
  8
Layer 1
 62
     7
370
    18
100
AcDbVertex
100
AcDb2dVertex
 10
3.893028283381707
 20
6.930594034317427
 30
0.0
  0
VERTEX
  5
2B3
330
2B1
100
AcDbEntity
  8
Layer 1
 62
     7
370
    18
100
AcDbVertex
100
AcDb2dVertex
 10
3.51771607841888
 20
6.930594034317427
 30
0.0
  0
SEQEND
  5
2B4
330
2B1
100
AcDbEntity
  8
Layer 1
370
    18
  0
POLYLINE
  5
2B5
330
223
100
AcDbEntity
  8
Layer 1
 62
     7
370
    18
100
AcDb2dPolyline
 66
     1
 10
0.0
 20
0.0
 30
0.0
  0
VERTEX
  5
2B6
330
2B5
100
AcDbEntity
  8
Layer 1
 62
     7
370
    18
100
AcDbVertex
100
AcDb2dVertex
 10
3.893035065070207
 20
6.90968608867216
 30
0.0
  0
VERTEX
  5
2B7
330
2B5
100
AcDbEntity
  8
Layer 1
 62
     7
370
    18
100
AcDbVertex
100
AcDb2dVertex
 10
3.51771607841888
 20
6.90968608867216
 30
0.0
  0
SEQEND
  5
2B8
330
2B5
100
AcDbEntity
  8
Layer 1
370
    18
  0
POLYLINE
  5
2B9
330
223
100
AcDbEntity
  8
Layer 1
 62
     7
370
    18
100
AcDb2dPolyline
 66
     1
 10
0.0
 20
0.0
 30
0.0
  0
VERTEX
  5
2BA
330
2B9
100
AcDbEntity
  8
Layer 1
 62
     7
370
    18
100
AcDbVertex
100
AcDb2dVertex
 10
3.893035065070207
 20
6.888778143026892
 30
0.0
  0
VERTEX
  5
2BB
330
2B9
100
AcDbEntity
  8
Layer 1
 62
     7
370
    18
100
AcDbVertex
100
AcDb2dVertex
 10
3.51771607841888
 20
6.888778143026892
 30
0.0
  0
SEQEND
  5
2BC
330
2B9
100
AcDbEntity
  8
Layer 1
370
    18
  0
POLYLINE
  5
2BD
330
223
100
AcDbEntity
  8
Layer 1
 62
     7
370
    18
100
AcDb2dPolyline
 66
     1
 10
0.0
 20
0.0
 30
0.0
  0
VERTEX
  5
2BE
330
2BD
100
AcDbEntity
  8
Layer 1
 62
     7
370
    18
100
AcDbVertex
100
AcDb2dVertex
 10
3.893035065070207
 20
6.867870197381625
 30
0.0
  0
VERTEX
  5
2BF
330
2BD
100
AcDbEntity
  8
Layer 1
 62
     7
370
    18
100
AcDbVertex
100
AcDb2dVertex
 10
3.51771607841888
 20
6.867870197381625
 30
0.0
  0
SEQEND
  5
2C0
330
2BD
100
AcDbEntity
  8
Layer 1
370
    18
  0
POLYLINE
  5
2C1
330
223
100
AcDbEntity
  8
Layer 1
 62
     7
370
    18
100
AcDb2dPolyline
 66
     1
 10
0.0
 20
0.0
 30
0.0
  0
VERTEX
  5
2C2
330
2C1
100
AcDbEntity
  8
Layer 1
 62
     7
370
    18
100
AcDbVertex
100
AcDb2dVertex
 10
3.893035065070207
 20
6.846962251736357
 30
0.0
  0
VERTEX
  5
2C3
330
2C1
100
AcDbEntity
  8
Layer 1
 62
     7
370
    18
100
AcDbVertex
100
AcDb2dVertex
 10
3.51771607841888
 20
6.846962251736357
 30
0.0
  0
SEQEND
  5
2C4
330
2C1
100
AcDbEntity
  8
Layer 1
370
    18
  0
POLYLINE
  5
2C5
330
223
100
AcDbEntity
  8
Layer 1
 62
     7
370
    18
100
AcDb2dPolyline
 66
     1
 10
0.0
 20
0.0
 30
0.0
  0
VERTEX
  5
2C6
330
2C5
100
AcDbEntity
  8
Layer 1
 62
     7
370
    18
100
AcDbVertex
100
AcDb2dVertex
 10
3.893035065070207
 20
6.82605430609109
 30
0.0
  0
VERTEX
  5
2C7
330
2C5
100
AcDbEntity
  8
Layer 1
 62
     7
370
    18
100
AcDbVertex
100
AcDb2dVertex
 10
3.51771607841888
 20
6.82605430609109
 30
0.0
  0
SEQEND
  5
2C8
330
2C5
100
AcDbEntity
  8
Layer 1
370
    18
  0
POLYLINE
  5
2C9
330
223
100
AcDbEntity
  8
Layer 1
 62
     7
370
    18
100
AcDb2dPolyline
 66
     1
 10
0.0
 20
0.0
 30
0.0
  0
VERTEX
  5
2CA
330
2C9
100
AcDbEntity
  8
Layer 1
 62
     7
370
    18
100
AcDbVertex
100
AcDb2dVertex
 10
3.893028283381707
 20
6.805139578757322
 30
0.0
  0
VERTEX
  5
2CB
330
2C9
100
AcDbEntity
  8
Layer 1
 62
     7
370
    18
100
AcDbVertex
100
AcDb2dVertex
 10
3.51771607841888
 20
6.805139578757322
 30
0.0
  0
SEQEND
  5
2CC
330
2C9
100
AcDbEntity
  8
Layer 1
370
    18
  0
POLYLINE
  5
2CD
330
223
100
AcDbEntity
  8
Layer 1
 62
     7
370
    18
100
AcDb2dPolyline
 66
     1
 10
0.0
 20
0.0
 30
0.0
  0
VERTEX
  5
2CE
330
2CD
100
AcDbEntity
  8
Layer 1
 62
     7
370
    18
100
AcDbVertex
100
AcDb2dVertex
 10
3.893028283381707
 20
6.784231633112055
 30
0.0
  0
VERTEX
  5
2CF
330
2CD
100
AcDbEntity
  8
Layer 1
 62
     7
370
    18
100
AcDbVertex
100
AcDb2dVertex
 10
3.51771607841888
 20
6.784231633112055
 30
0.0
  0
SEQEND
  5
2D0
330
2CD
100
AcDbEntity
  8
Layer 1
370
    18
  0
POLYLINE
  5
2D1
330
223
100
AcDbEntity
  8
Layer 1
 62
     7
370
    18
100
AcDb2dPolyline
 66
     1
 10
0.0
 20
0.0
 30
0.0
  0
VERTEX
  5
2D2
330
2D1
100
AcDbEntity
  8
Layer 1
 62
     7
370
    18
100
AcDbVertex
100
AcDb2dVertex
 10
3.893028283381707
 20
6.763323687466788
 30
0.0
  0
VERTEX
  5
2D3
330
2D1
100
AcDbEntity
  8
Layer 1
 62
     7
370
    18
100
AcDbVertex
100
AcDb2dVertex
 10
3.51771607841888
 20
6.763323687466788
 30
0.0
  0
SEQEND
  5
2D4
330
2D1
100
AcDbEntity
  8
Layer 1
370
    18
  0
POLYLINE
  5
2D5
330
223
100
AcDbEntity
  8
Layer 1
 62
     7
370
    18
100
AcDb2dPolyline
 66
     1
 10
0.0
 20
0.0
 30
0.0
  0
VERTEX
  5
2D6
330
2D5
100
AcDbEntity
  8
Layer 1
 62
     7
370
    18
100
AcDbVertex
100
AcDb2dVertex
 10
3.893041846758706
 20
6.74240896013302
 30
0.0
  0
VERTEX
  5
2D7
330
2D5
100
AcDbEntity
  8
Layer 1
 62
     7
370
    18
100
AcDbVertex
100
AcDb2dVertex
 10
3.51771607841888
 20
6.74240896013302
 30
0.0
  0
SEQEND
  5
2D8
330
2D5
100
AcDbEntity
  8
Layer 1
370
    18
  0
POLYLINE
  5
2D9
330
223
100
AcDbEntity
  8
Layer 1
 62
     7
370
    18
100
AcDb2dPolyline
 66
     1
 10
0.0
 20
0.0
 30
0.0
  0
VERTEX
  5
2DA
330
2D9
100
AcDbEntity
  8
Layer 1
 62
     7
370
    18
100
AcDbVertex
100
AcDb2dVertex
 10
3.893041846758706
 20
6.721507796176252
 30
0.0
  0
VERTEX
  5
2DB
330
2D9
100
AcDbEntity
  8
Layer 1
 62
     7
370
    18
100
AcDbVertex
100
AcDb2dVertex
 10
3.51771607841888
 20
6.721507796176252
 30
0.0
  0
SEQEND
  5
2DC
330
2D9
100
AcDbEntity
  8
Layer 1
370
    18
  0
POLYLINE
  5
2DD
330
223
100
AcDbEntity
  8
Layer 1
 62
     7
370
    18
100
AcDb2dPolyline
 66
     1
 10
0.0
 20
0.0
 30
0.0
  0
VERTEX
  5
2DE
330
2DD
100
AcDbEntity
  8
Layer 1
 62
     7
370
    18
100
AcDbVertex
100
AcDb2dVertex
 10
3.893035065070207
 20
6.700593068842485
 30
0.0
  0
VERTEX
  5
2DF
330
2DD
100
AcDbEntity
  8
Layer 1
 62
     7
370
    18
100
AcDbVertex
100
AcDb2dVertex
 10
3.51771607841888
 20
6.700593068842485
 30
0.0
  0
SEQEND
  5
2E0
330
2DD
100
AcDbEntity
  8
Layer 1
370
    18
  0
POLYLINE
  5
2E1
330
223
100
AcDbEntity
  8
Layer 1
 62
     7
370
    18
100
AcDb2dPolyline
 66
     1
 10
0.0
 20
0.0
 30
0.0
  0
VERTEX
  5
2E2
330
2E1
100
AcDbEntity
  8
Layer 1
 62
     7
370
    18
100
AcDbVertex
100
AcDb2dVertex
 10
3.893035065070207
 20
6.679685123197217
 30
0.0
  0
VERTEX
  5
2E3
330
2E1
100
AcDbEntity
  8
Layer 1
 62
     7
370
    18
100
AcDbVertex
100
AcDb2dVertex
 10
3.51771607841888
 20
6.679685123197217
 30
0.0
  0
SEQEND
  5
2E4
330
2E1
100
AcDbEntity
  8
Layer 1
370
    18
  0
POLYLINE
  5
2E5
330
223
100
AcDbEntity
  8
Layer 1
 62
     7
370
    18
100
AcDb2dPolyline
 66
     1
 10
0.0
 20
0.0
 30
0.0
  0
VERTEX
  5
2E6
330
2E5
100
AcDbEntity
  8
Layer 1
 62
     7
370
    18
100
AcDbVertex
100
AcDb2dVertex
 10
3.893035065070207
 20
6.65877717755195
 30
0.0
  0
VERTEX
  5
2E7
330
2E5
100
AcDbEntity
  8
Layer 1
 62
     7
370
    18
100
AcDbVertex
100
AcDb2dVertex
 10
3.51771607841888
 20
6.65877717755195
 30
0.0
  0
SEQEND
  5
2E8
330
2E5
100
AcDbEntity
  8
Layer 1
370
    18
  0
POLYLINE
  5
2E9
330
223
100
AcDbEntity
  8
Layer 1
 62
     7
370
    18
100
AcDb2dPolyline
 66
     1
 10
0.0
 20
0.0
 30
0.0
  0
VERTEX
  5
2EA
330
2E9
100
AcDbEntity
  8
Layer 1
 62
     7
370
    18
100
AcDbVertex
100
AcDb2dVertex
 10
3.893035065070207
 20
6.637862450218182
 30
0.0
  0
VERTEX
  5
2EB
330
2E9
100
AcDbEntity
  8
Layer 1
 62
     7
370
    18
100
AcDbVertex
100
AcDb2dVertex
 10
3.51771607841888
 20
6.637862450218182
 30
0.0
  0
SEQEND
  5
2EC
330
2E9
100
AcDbEntity
  8
Layer 1
370
    18
  0
POLYLINE
  5
2ED
330
223
100
AcDbEntity
  8
Layer 1
 62
     7
370
    18
100
AcDb2dPolyline
 66
     1
 10
0.0
 20
0.0
 30
0.0
  0
VERTEX
  5
2EE
330
2ED
100
AcDbEntity
  8
Layer 1
 62
     7
370
    18
100
AcDbVertex
100
AcDb2dVertex
 10
3.893035065070207
 20
6.616954504572915
 30
0.0
  0
VERTEX
  5
2EF
330
2ED
100
AcDbEntity
  8
Layer 1
 62
     7
370
    18
100
AcDbVertex
100
AcDb2dVertex
 10
3.51771607841888
 20
6.616954504572915
 30
0.0
  0
SEQEND
  5
2F0
330
2ED
100
AcDbEntity
  8
Layer 1
370
    18
  0
POLYLINE
  5
2F1
330
223
100
AcDbEntity
  8
Layer 1
 62
     7
370
    18
100
AcDb2dPolyline
 66
     1
 10
0.0
 20
0.0
 30
0.0
  0
VERTEX
  5
2F2
330
2F1
100
AcDbEntity
  8
Layer 1
 62
     7
370
    18
100
AcDbVertex
100
AcDb2dVertex
 10
3.893028283381707
 20
6.596053340616148
 30
0.0
  0
VERTEX
  5
2F3
330
2F1
100
AcDbEntity
  8
Layer 1
 62
     7
370
    18
100
AcDbVertex
100
AcDb2dVertex
 10
3.51771607841888
 20
6.596053340616148
 30
0.0
  0
SEQEND
  5
2F4
330
2F1
100
AcDbEntity
  8
Layer 1
370
    18
  0
POLYLINE
  5
2F5
330
223
100
AcDbEntity
  8
Layer 1
 62
     7
370
    18
100
AcDb2dPolyline
 66
     1
 10
0.0
 20
0.0
 30
0.0
  0
VERTEX
  5
2F6
330
2F5
100
AcDbEntity
  8
Layer 1
 62
     7
370
    18
100
AcDbVertex
100
AcDb2dVertex
 10
3.893028283381707
 20
6.57514539497088
 30
0.0
  0
VERTEX
  5
2F7
330
2F5
100
AcDbEntity
  8
Layer 1
 62
     7
370
    18
100
AcDbVertex
100
AcDb2dVertex
 10
3.51771607841888
 20
6.57514539497088
 30
0.0
  0
SEQEND
  5
2F8
330
2F5
100
AcDbEntity
  8
Layer 1
370
    18
  0
POLYLINE
  5
2F9
330
223
100
AcDbEntity
  8
Layer 1
 62
     7
370
    18
100
AcDb2dPolyline
 66
     1
 10
0.0
 20
0.0
 30
0.0
  0
VERTEX
  5
2FA
330
2F9
100
AcDbEntity
  8
Layer 1
 62
     7
370
    18
100
AcDbVertex
100
AcDb2dVertex
 10
3.893041846758706
 20
6.554230667637113
 30
0.0
  0
VERTEX
  5
2FB
330
2F9
100
AcDbEntity
  8
Layer 1
 62
     7
370
    18
100
AcDbVertex
100
AcDb2dVertex
 10
3.51771607841888
 20
6.554230667637113
 30
0.0
  0
SEQEND
  5
2FC
330
2F9
100
AcDbEntity
  8
Layer 1
370
    18
  0
POLYLINE
  5
2FD
330
223
100
AcDbEntity
  8
Layer 1
 62
     7
370
    18
100
AcDb2dPolyline
 66
     1
 10
0.0
 20
0.0
 30
0.0
  0
VERTEX
  5
2FE
330
2FD
100
AcDbEntity
  8
Layer 1
 62
     7
370
    18
100
AcDbVertex
100
AcDb2dVertex
 10
3.893041846758706
 20
6.533322721991845
 30
0.0
  0
VERTEX
  5
2FF
330
2FD
100
AcDbEntity
  8
Layer 1
 62
     7
370
    18
100
AcDbVertex
100
AcDb2dVertex
 10
3.51771607841888
 20
6.533322721991845
 30
0.0
  0
SEQEND
  5
300
330
2FD
100
AcDbEntity
  8
Layer 1
370
    18
  0
POLYLINE
  5
301
330
223
100
AcDbEntity
  8
Layer 1
 62
     7
370
    18
100
AcDb2dPolyline
 66
     1
 10
0.0
 20
0.0
 30
0.0
  0
VERTEX
  5
302
330
301
100
AcDbEntity
  8
Layer 1
 62
     7
370
    18
100
AcDbVertex
100
AcDb2dVertex
 10
3.893041846758706
 20
6.512414776346577
 30
0.0
  0
VERTEX
  5
303
330
301
100
AcDbEntity
  8
Layer 1
 62
     7
370
    18
100
AcDbVertex
100
AcDb2dVertex
 10
3.51771607841888
 20
6.512414776346577
 30
0.0
  0
SEQEND
  5
304
330
301
100
AcDbEntity
  8
Layer 1
370
    18
  0
POLYLINE
  5
305
330
223
100
AcDbEntity
  8
Layer 1
 62
     7
370
    18
100
AcDb2dPolyline
 66
     1
 10
0.0
 20
0.0
 30
0.0
  0
VERTEX
  5
306
330
305
100
AcDbEntity
  8
Layer 1
 62
     7
370
    18
100
AcDbVertex
100
AcDb2dVertex
 10
3.893035065070207
 20
6.49150004901281
 30
0.0
  0
VERTEX
  5
307
330
305
100
AcDbEntity
  8
Layer 1
 62
     7
370
    18
100
AcDbVertex
100
AcDb2dVertex
 10
3.51771607841888
 20
6.49150004901281
 30
0.0
  0
SEQEND
  5
308
330
305
100
AcDbEntity
  8
Layer 1
370
    18
  0
POLYLINE
  5
309
330
223
100
AcDbEntity
  8
Layer 1
 62
     7
370
    18
100
AcDb2dPolyline
 66
     1
 10
0.0
 20
0.0
 30
0.0
  0
VERTEX
  5
30A
330
309
100
AcDbEntity
  8
Layer 1
 62
     7
370
    18
100
AcDbVertex
100
AcDb2dVertex
 10
3.893035065070207
 20
6.470598885056043
 30
0.0
  0
VERTEX
  5
30B
330
309
100
AcDbEntity
  8
Layer 1
 62
     7
370
    18
100
AcDbVertex
100
AcDb2dVertex
 10
3.51771607841888
 20
6.470598885056043
 30
0.0
  0
SEQEND
  5
30C
330
309
100
AcDbEntity
  8
Layer 1
370
    18
  0
POLYLINE
  5
30D
330
223
100
AcDbEntity
  8
Layer 1
 62
     7
370
    18
100
AcDb2dPolyline
 66
     1
 10
0.0
 20
0.0
 30
0.0
  0
VERTEX
  5
30E
330
30D
100
AcDbEntity
  8
Layer 1
 62
     7
370
    18
100
AcDbVertex
100
AcDb2dVertex
 10
3.893035065070207
 20
6.449684157722275
 30
0.0
  0
VERTEX
  5
30F
330
30D
100
AcDbEntity
  8
Layer 1
 62
     7
370
    18
100
AcDbVertex
100
AcDb2dVertex
 10
3.51771607841888
 20
6.449684157722275
 30
0.0
  0
SEQEND
  5
310
330
30D
100
AcDbEntity
  8
Layer 1
370
    18
  0
POLYLINE
  5
311
330
223
100
AcDbEntity
  8
Layer 1
 62
     7
370
    18
100
AcDb2dPolyline
 66
     1
 10
0.0
 20
0.0
 30
0.0
  0
VERTEX
  5
312
330
311
100
AcDbEntity
  8
Layer 1
 62
     7
370
    18
100
AcDbVertex
100
AcDb2dVertex
 10
3.893035065070207
 20
6.428776212077008
 30
0.0
  0
VERTEX
  5
313
330
311
100
AcDbEntity
  8
Layer 1
 62
     7
370
    18
100
AcDbVertex
100
AcDb2dVertex
 10
3.51771607841888
 20
6.428776212077008
 30
0.0
  0
SEQEND
  5
314
330
311
100
AcDbEntity
  8
Layer 1
370
    18
  0
POLYLINE
  5
315
330
223
100
AcDbEntity
  8
Layer 1
 62
     7
370
    18
100
AcDb2dPolyline
 66
     1
 10
0.0
 20
0.0
 30
0.0
  0
VERTEX
  5
316
330
315
100
AcDbEntity
  8
Layer 1
 62
     7
370
    18
100
AcDbVertex
100
AcDb2dVertex
 10
3.893035065070207
 20
6.40786826643174
 30
0.0
  0
VERTEX
  5
317
330
315
100
AcDbEntity
  8
Layer 1
 62
     7
370
    18
100
AcDbVertex
100
AcDb2dVertex
 10
3.51771607841888
 20
6.40786826643174
 30
0.0
  0
SEQEND
  5
318
330
315
100
AcDbEntity
  8
Layer 1
370
    18
  0
POLYLINE
  5
319
330
223
100
AcDbEntity
  8
Layer 1
 62
     7
370
    18
100
AcDb2dPolyline
 66
     1
 10
0.0
 20
0.0
 30
0.0
  0
VERTEX
  5
31A
330
319
100
AcDbEntity
  8
Layer 1
 62
     7
370
    18
100
AcDbVertex
100
AcDb2dVertex
 10
3.893035065070207
 20
6.386953539097973
 30
0.0
  0
VERTEX
  5
31B
330
319
100
AcDbEntity
  8
Layer 1
 62
     7
370
    18
100
AcDbVertex
100
AcDb2dVertex
 10
3.51771607841888
 20
6.386953539097973
 30
0.0
  0
SEQEND
  5
31C
330
319
100
AcDbEntity
  8
Layer 1
370
    18
  0
POLYLINE
  5
31D
330
223
100
AcDbEntity
  8
Layer 1
 62
     7
370
    18
100
AcDb2dPolyline
 66
     1
 10
0.0
 20
0.0
 30
0.0
  0
VERTEX
  5
31E
330
31D
100
AcDbEntity
  8
Layer 1
 62
     7
370
    18
100
AcDbVertex
100
AcDb2dVertex
 10
3.893028283381707
 20
6.366045593452705
 30
0.0
  0
VERTEX
  5
31F
330
31D
100
AcDbEntity
  8
Layer 1
 62
     7
370
    18
100
AcDbVertex
100
AcDb2dVertex
 10
3.51771607841888
 20
6.366045593452705
 30
0.0
  0
SEQEND
  5
320
330
31D
100
AcDbEntity
  8
Layer 1
370
    18
  0
POLYLINE
  5
321
330
223
100
AcDbEntity
  8
Layer 1
 62
     7
370
    18
100
AcDb2dPolyline
 66
     1
 10
0.0
 20
0.0
 30
0.0
  0
VERTEX
  5
322
330
321
100
AcDbEntity
  8
Layer 1
 62
     7
370
    18
100
AcDbVertex
100
AcDb2dVertex
 10
3.893041846758706
 20
6.345144429495937
 30
0.0
  0
VERTEX
  5
323
330
321
100
AcDbEntity
  8
Layer 1
 62
     7
370
    18
100
AcDbVertex
100
AcDb2dVertex
 10
3.51771607841888
 20
6.345144429495937
 30
0.0
  0
SEQEND
  5
324
330
321
100
AcDbEntity
  8
Layer 1
370
    18
  0
POLYLINE
  5
325
330
223
100
AcDbEntity
  8
Layer 1
 62
     7
370
    18
100
AcDb2dPolyline
 66
     1
 10
0.0
 20
0.0
 30
0.0
  0
VERTEX
  5
326
330
325
100
AcDbEntity
  8
Layer 1
 62
     7
370
    18
100
AcDbVertex
100
AcDb2dVertex
 10
3.893035065070207
 20
6.32423648385067
 30
0.0
  0
VERTEX
  5
327
330
325
100
AcDbEntity
  8
Layer 1
 62
     7
370
    18
100
AcDbVertex
100
AcDb2dVertex
 10
3.51771607841888
 20
6.32423648385067
 30
0.0
  0
SEQEND
  5
328
330
325
100
AcDbEntity
  8
Layer 1
370
    18
  0
POLYLINE
  5
329
330
223
100
AcDbEntity
  8
Layer 1
 62
     7
370
    18
100
AcDb2dPolyline
 66
     1
 10
0.0
 20
0.0
 30
0.0
  0
VERTEX
  5
32A
330
329
100
AcDbEntity
  8
Layer 1
 62
     7
370
    18
100
AcDbVertex
100
AcDb2dVertex
 10
3.893035065070207
 20
6.303321756516903
 30
0.0
  0
VERTEX
  5
32B
330
329
100
AcDbEntity
  8
Layer 1
 62
     7
370
    18
100
AcDbVertex
100
AcDb2dVertex
 10
3.51771607841888
 20
6.303321756516903
 30
0.0
  0
SEQEND
  5
32C
330
329
100
AcDbEntity
  8
Layer 1
370
    18
  0
POLYLINE
  5
32D
330
223
100
AcDbEntity
  8
Layer 1
 62
     7
370
    18
100
AcDb2dPolyline
 66
     1
 10
0.0
 20
0.0
 30
0.0
  0
VERTEX
  5
32E
330
32D
100
AcDbEntity
  8
Layer 1
 62
     7
370
    18
100
AcDbVertex
100
AcDb2dVertex
 10
3.893035065070207
 20
6.282413810871635
 30
0.0
  0
VERTEX
  5
32F
330
32D
100
AcDbEntity
  8
Layer 1
 62
     7
370
    18
100
AcDbVertex
100
AcDb2dVertex
 10
3.51771607841888
 20
6.282413810871635
 30
0.0
  0
SEQEND
  5
330
330
32D
100
AcDbEntity
  8
Layer 1
370
    18
  0
POLYLINE
  5
331
330
223
100
AcDbEntity
  8
Layer 1
 62
     7
370
    18
100
AcDb2dPolyline
 66
     1
 10
0.0
 20
0.0
 30
0.0
  0
VERTEX
  5
332
330
331
100
AcDbEntity
  8
Layer 1
 62
     7
370
    18
100
AcDbVertex
100
AcDb2dVertex
 10
3.893035065070207
 20
6.261505865226368
 30
0.0
  0
VERTEX
  5
333
330
331
100
AcDbEntity
  8
Layer 1
 62
     7
370
    18
100
AcDbVertex
100
AcDb2dVertex
 10
3.51771607841888
 20
6.261505865226368
 30
0.0
  0
SEQEND
  5
334
330
331
100
AcDbEntity
  8
Layer 1
370
    18
  0
POLYLINE
  5
335
330
223
100
AcDbEntity
  8
Layer 1
 62
     7
370
    18
100
AcDb2dPolyline
 66
     1
 10
0.0
 20
0.0
 30
0.0
  0
VERTEX
  5
336
330
335
100
AcDbEntity
  8
Layer 1
 62
     7
370
    18
100
AcDbVertex
100
AcDb2dVertex
 10
3.893035065070207
 20
6.2405911378926
 30
0.0
  0
VERTEX
  5
337
330
335
100
AcDbEntity
  8
Layer 1
 62
     7
370
    18
100
AcDbVertex
100
AcDb2dVertex
 10
3.51771607841888
 20
6.2405911378926
 30
0.0
  0
SEQEND
  5
338
330
335
100
AcDbEntity
  8
Layer 1
370
    18
  0
POLYLINE
  5
339
330
223
100
AcDbEntity
  8
Layer 1
 62
     7
370
    18
100
AcDb2dPolyline
 66
     1
 10
0.0
 20
0.0
 30
0.0
  0
VERTEX
  5
33A
330
339
100
AcDbEntity
  8
Layer 1
 62
     7
370
    18
100
AcDbVertex
100
AcDb2dVertex
 10
3.893035065070207
 20
6.219689973935833
 30
0.0
  0
VERTEX
  5
33B
330
339
100
AcDbEntity
  8
Layer 1
 62
     7
370
    18
100
AcDbVertex
100
AcDb2dVertex
 10
3.51771607841888
 20
6.219689973935833
 30
0.0
  0
SEQEND
  5
33C
330
339
100
AcDbEntity
  8
Layer 1
370
    18
  0
POLYLINE
  5
33D
330
223
100
AcDbEntity
  8
Layer 1
 62
     7
370
    18
100
AcDb2dPolyline
 66
     1
 10
0.0
 20
0.0
 30
0.0
  0
VERTEX
  5
33E
330
33D
100
AcDbEntity
  8
Layer 1
 62
     7
370
    18
100
AcDbVertex
100
AcDb2dVertex
 10
3.893035065070207
 20
6.198775246602066
 30
0.0
  0
VERTEX
  5
33F
330
33D
100
AcDbEntity
  8
Layer 1
 62
     7
370
    18
100
AcDbVertex
100
AcDb2dVertex
 10
3.51771607841888
 20
6.198775246602066
 30
0.0
  0
SEQEND
  5
340
330
33D
100
AcDbEntity
  8
Layer 1
370
    18
  0
POLYLINE
  5
341
330
223
100
AcDbEntity
  8
Layer 1
 62
     7
370
    18
100
AcDb2dPolyline
 66
     1
 10
0.0
 20
0.0
 30
0.0
  0
VERTEX
  5
342
330
341
100
AcDbEntity
  8
Layer 1
 62
     7
370
    18
100
AcDbVertex
100
AcDb2dVertex
 10
3.893035065070207
 20
6.177867300956798
 30
0.0
  0
VERTEX
  5
343
330
341
100
AcDbEntity
  8
Layer 1
 62
     7
370
    18
100
AcDbVertex
100
AcDb2dVertex
 10
3.51771607841888
 20
6.177867300956798
 30
0.0
  0
SEQEND
  5
344
330
341
100
AcDbEntity
  8
Layer 1
370
    18
  0
POLYLINE
  5
345
330
223
100
AcDbEntity
  8
Layer 1
 62
     7
370
    18
100
AcDb2dPolyline
 66
     1
 10
0.0
 20
0.0
 30
0.0
  0
VERTEX
  5
346
330
345
100
AcDbEntity
  8
Layer 1
 62
     7
370
    18
100
AcDbVertex
100
AcDb2dVertex
 10
3.893028283381707
 20
6.15695935531153
 30
0.0
  0
VERTEX
  5
347
330
345
100
AcDbEntity
  8
Layer 1
 62
     7
370
    18
100
AcDbVertex
100
AcDb2dVertex
 10
3.51771607841888
 20
6.15695935531153
 30
0.0
  0
SEQEND
  5
348
330
345
100
AcDbEntity
  8
Layer 1
370
    18
  0
POLYLINE
  5
349
330
223
100
AcDbEntity
  8
Layer 1
 62
     7
370
    18
100
AcDb2dPolyline
 66
     1
 10
0.0
 20
0.0
 30
0.0
  0
VERTEX
  5
34A
330
349
100
AcDbEntity
  8
Layer 1
 62
     7
370
    18
100
AcDbVertex
100
AcDb2dVertex
 10
3.893035065070207
 20
6.136044627977763
 30
0.0
  0
VERTEX
  5
34B
330
349
100
AcDbEntity
  8
Layer 1
 62
     7
370
    18
100
AcDbVertex
100
AcDb2dVertex
 10
3.51771607841888
 20
6.136044627977763
 30
0.0
  0
SEQEND
  5
34C
330
349
100
AcDbEntity
  8
Layer 1
370
    18
  0
POLYLINE
  5
34D
330
223
100
AcDbEntity
  8
Layer 1
 62
     7
370
    18
100
AcDb2dPolyline
 66
     1
 10
0.0
 20
0.0
 30
0.0
  0
VERTEX
  5
34E
330
34D
100
AcDbEntity
  8
Layer 1
 62
     7
370
    18
100
AcDbVertex
100
AcDb2dVertex
 10
3.893035065070207
 20
6.115136682332495
 30
0.0
  0
VERTEX
  5
34F
330
34D
100
AcDbEntity
  8
Layer 1
 62
     7
370
    18
100
AcDbVertex
100
AcDb2dVertex
 10
3.51771607841888
 20
6.115136682332495
 30
0.0
  0
SEQEND
  5
350
330
34D
100
AcDbEntity
  8
Layer 1
370
    18
  0
POLYLINE
  5
351
330
223
100
AcDbEntity
  8
Layer 1
 62
     7
370
    18
100
AcDb2dPolyline
 66
     1
 10
0.0
 20
0.0
 30
0.0
  0
VERTEX
  5
352
330
351
100
AcDbEntity
  8
Layer 1
 62
     7
370
    18
100
AcDbVertex
100
AcDb2dVertex
 10
3.893035065070207
 20
6.094235518375728
 30
0.0
  0
VERTEX
  5
353
330
351
100
AcDbEntity
  8
Layer 1
 62
     7
370
    18
100
AcDbVertex
100
AcDb2dVertex
 10
3.51771607841888
 20
6.094235518375728
 30
0.0
  0
SEQEND
  5
354
330
351
100
AcDbEntity
  8
Layer 1
370
    18
  0
POLYLINE
  5
355
330
223
100
AcDbEntity
  8
Layer 1
 62
     7
370
    18
100
AcDb2dPolyline
 66
     1
 10
0.0
 20
0.0
 30
0.0
  0
VERTEX
  5
356
330
355
100
AcDbEntity
  8
Layer 1
 62
     7
370
    18
100
AcDbVertex
100
AcDb2dVertex
 10
3.893035065070207
 20
6.07332079104196
 30
0.0
  0
VERTEX
  5
357
330
355
100
AcDbEntity
  8
Layer 1
 62
     7
370
    18
100
AcDbVertex
100
AcDb2dVertex
 10
3.51771607841888
 20
6.07332079104196
 30
0.0
  0
SEQEND
  5
358
330
355
100
AcDbEntity
  8
Layer 1
370
    18
  0
POLYLINE
  5
359
330
223
100
AcDbEntity
  8
Layer 1
 62
     7
370
    18
100
AcDb2dPolyline
 66
     1
 10
0.0
 20
0.0
 30
0.0
  0
VERTEX
  5
35A
330
359
100
AcDbEntity
  8
Layer 1
 62
     7
370
    18
100
AcDbVertex
100
AcDb2dVertex
 10
3.893035065070207
 20
6.052412845396693
 30
0.0
  0
VERTEX
  5
35B
330
359
100
AcDbEntity
  8
Layer 1
 62
     7
370
    18
100
AcDbVertex
100
AcDb2dVertex
 10
3.51771607841888
 20
6.052412845396693
 30
0.0
  0
SEQEND
  5
35C
330
359
100
AcDbEntity
  8
Layer 1
370
    18
  0
ENDBLK
  5
35D
330
223
100
AcDbEntity
  8
0
100
AcDbBlockEnd
  0
BLOCK
  5
37A
330
36F
100
AcDbEntity
  8
0
100
AcDbBlockBegin
  2
*D3
 70
     1
 10
0.0
 20
0.0
 30
0.0
  3
*D3
  1

  0
LINE
  5
37C
330
36F
100
AcDbEntity
  8
ADPDIM
 62
     0
370
    -2
100
AcDbLine
 10
0.2899553308996943
 20
3.092512931476865
 30
0.0
 11
0.7004345931693132
 21
3.092512931476865
 31
0.0
  0
LINE
  5
37D
330
36F
100
AcDbEntity
  8
ADPDIM
 62
     0
370
    -2
100
AcDbLine
 10
0.290048013506623
 20
1.508265750148686
 30
0.0
 11
0.7004345931693129
 21
1.508265750148686
 31
0.0
  0
LINE
  5
37E
330
36F
100
AcDbEntity
  8
ADPDIM
 62
     0
370
    -2
100
AcDbLine
 10
0.5204345931693132
 20
3.092512931476865
 30
0.0
 11
0.5204345931693131
 21
2.571222674146109
 31
0.0
  0
LINE
  5
37F
330
36F
100
AcDbEntity
  8
ADPDIM
 62
     0
370
    -2
100
AcDbLine
 10
0.5204345931693128
 20
1.508265750148686
 30
0.0
 11
0.520434593169313
 21
2.029556007479442
 31
0.0
  0
LINE
  5
380
330
36F
100
AcDbEntity
  8
ADPDIM
 62
     0
370
    -2
100
AcDbLine
 10
0.6454345931693128
 20
1.383265750148686
 30
0.0
 11
0.3954345931693129
 21
1.633265750148686
 31
0.0
  0
LINE
  5
381
330
36F
100
AcDbEntity
  8
ADPDIM
 62
     0
370
    -2
100
AcDbLine
 10
0.6454345931693132
 20
2.967512931476865
 30
0.0
 11
0.3954345931693132
 21
3.217512931476865
 31
0.0
  0
MTEXT
  5
382
330
36F
100
AcDbEntity
  8
ADPDIM
 62
     0
100
AcDbMText
 10
0.5204345931693127
 20
2.300389340812776
 30
0.0
 40
0.125
 41
0.0
 71
     5
 72
     1
  1
\A1;1.61
 11
0.0000000000000001
 21
1.0
 31
0.0
 73
     1
 44
1.0
1001
ACAD
1000
MTEXTBEGIN
1070
    73
1070
     1
1070
    44
1040
1.0
1070
    74
1070
     0
1000
MTEXTEND
  0
POINT
  5
383
330
36F
100
AcDbEntity
  8
DEFPOINTS
 62
     0
100
AcDbPoint
 10
0.2274553308996943
 20
3.092512931476865
 30
0.0
  0
POINT
  5
384
330
36F
100
AcDbEntity
  8
DEFPOINTS
 62
     0
100
AcDbPoint
 10
0.227548013506623
 20
1.508265750148686
 30
0.0
  0
POINT
  5
385
330
36F
100
AcDbEntity
  8
DEFPOINTS
 62
     0
100
AcDbPoint
 10
0.5204345931693128
 20
1.508265750148686
 30
0.0
  0
ENDBLK
  5
37B
330
36F
100
AcDbEntity
  8
0
100
AcDbBlockEnd
  0
ENDSEC
  0
SECTION
  2
ENTITIES
  0
DIMENSION
  5
6D
330
18
100
AcDbEntity
  8
ADPDIM
100
AcDbDimension
  2
*D0
 10
-1.909162361623463
 20
1.350385388003016
 30
0.0
 11
-1.909162361623463
 21
2.300385388003015
 31
0.0
  1
1.900
 71
     5
 42
-1.0
100
AcDbAlignedDimension
 13
-1.109261374728806
 23
3.250385388003016
 33
0.0
 14
-0.921761374728806
 24
1.350385388003015
 34
0.0
 50
90.0
100
AcDbRotatedDimension
  0
DIMENSION
  5
8B
330
18
100
AcDbEntity
  8
ADPDIM
100
AcDbDimension
  2
*D3
 10
0.5204345931693128
 20
1.508265750148686
 30
0.0
 11
0.5204345931693127
 21
2.300389340812776
 31
0.0
 70
   160
  1
1.61
 71
     5
 42
1.584247181328178
  3
STANDARD
100
AcDbAlignedDimension
 13
0.2274553308996943
 23
3.092512931476865
 33
0.0
 14
0.227548013506623
 24
1.508265750148686
 34
0.0
 50
90.0
100
AcDbRotatedDimension
1001
ACAD
1000
DSTYLE
1002
{
1070
    41
1040
0.125
1070
    73
1070
     0
1070
    74
1070
     0
1070
    78
1070
     3
1070
   140
1040
0.125
1070
   141
1040
0.1875
1070
   142
1040
0.125
1070
   147
1040
0.125
1070
   171
1070
     1
1002
}
  0
TEXT
  5
A3
330
18
100
AcDbEntity
  8
ADPDIM
100
AcDbText
 10
-4.234732045342491
 20
0.5913712667762312
 30
0.0
 40
0.09375
  1
J U L I U S  B L U M  &  C O . ,  I N C .      ( 8 0 0 )  5 2 6 - 6 2 9 3        W W W . J U L I U S B L U M . C O M        P A R T  N o .  7 0 8
 41
1.25
  7
ARIAL_WIDE
 72
     1
 11
0.5912986077952987
 21
0.6851212667762312
 31
0.0
100
AcDbText
 73
     3
  0
SPLINE
  5
36C
330
18
100
AcDbEntity
  8
Layer 1
 62
     7
370
    18
100
AcDbSpline
210
0.0
220
0.0
230
1.0
 70
    11
 71
     3
 72
    17
 73
    13
 74
     0
 42
0.0000000001
 43
0.0000000001
 40
0.0
 40
0.0
 40
0.0
 40
0.0
 40
1.0
 40
1.0
 40
1.0
 40
2.0
 40
2.0
 40
2.0
 40
3.0
 40
3.0
 40
3.0
 40
4.0
 40
4.0
 40
4.0
 40
4.0
 10
0.7796218959140833
 20
2.30039144185304
 30
0.0
 10
0.7796218959140833
 20
1.775719329367874
 30
0.0
 10
1.204949053563853
 20
1.350385390029605
 30
0.0
 10
1.729621166049019
 20
1.350385390029605
 30
0.0
 10
2.254293278534183
 20
1.350385390029605
 30
0.0
 10
2.679613654495454
 20
1.775719329367874
 30
0.0
 10
2.679613654495454
 20
2.30039144185304
 30
0.0
 10
2.679613654495454
 20
2.825063554338205
 30
0.0
 10
2.254293278534183
 20
3.250390711987975
 30
0.0
 10
1.729621166049019
 20
3.250390711987975
 30
0.0
 10
1.204949053563853
 20
3.250390711987975
 30
0.0
 10
0.7796218959140833
 20
2.825063554338205
 30
0.0
 10
0.7796218959140833
 20
2.30039144185304
 30
0.0
  0
SPLINE
  5
36D
330
18
100
AcDbEntity
  8
ADP1DETAIL
  6
AI-Linetype-3
 62
     5
370
    18
100
AcDbSpline
210
0.0
220
0.0
230
1.0
 70
    11
 71
     3
 72
    17
 73
    13
 74
     0
 42
0.0000000001
 43
0.0000000001
 40
0.0
 40
0.0
 40
0.0
 40
0.0
 40
1.0
 40
1.0
 40
1.0
 40
2.0
 40
2.0
 40
2.0
 40
3.0
 40
3.0
 40
3.0
 40
4.0
 40
4.0
 40
4.0
 40
4.0
 10
2.534621154367066
 20
2.30039144185304
 30
0.0
 10
2.534621154367066
 20
1.855797507174984
 30
0.0
 10
2.174215100727074
 20
1.495391453534992
 30
0.0
 10
1.729621166049019
 20
1.495391453534992
 30
0.0
 10
1.285027231370962
 20
1.495391453534992
 30
0.0
 10
0.9246211777309707
 20
1.855797507174984
 30
0.0
 10
0.9246211777309707
 20
2.30039144185304
 30
0.0
 10
0.9246211777309707
 20
2.744971813154096
 30
0.0
 10
1.285027231370962
 20
3.105391430171088
 30
0.0
 10
1.729621166049019
 20
3.105391430171088
 30
0.0
 10
2.174215100727074
 20
3.105391430171088
 30
0.0
 10
2.534621154367066
 20
2.744971813154096
 30
0.0
 10
2.534621154367066
 20
2.30039144185304
 30
0.0
  0
SPLINE
  5
36E
330
18
100
AcDbEntity
  8
ADP1DETAIL
  6
AI-Linetype-4
 62
     5
370
    18
100
AcDbSpline
210
0.0
220
0.0
230
1.0
 70
    11
 71
     3
 72
    17
 73
    13
 74
     0
 42
0.0000000001
 43
0.0000000001
 40
0.0
 40
0.0
 40
0.0
 40
0.0
 40
1.0
 40
1.0
 40
1.0
 40
2.0
 40
2.0
 40
2.0
 40
3.0
 40
3.0
 40
3.0
 40
4.0
 40
4.0
 40
4.0
 40
4.0
 10
2.388787724864688
 20
2.30039144185304
 30
0.0
 10
2.388787724864688
 20
1.936350403177089
 30
0.0
 10
2.093675768101969
 20
1.64122488303737
 30
0.0
 10
1.729634729426018
 20
1.64122488303737
 30
0.0
 10
1.365593690750066
 20
1.64122488303737
 30
0.0
 10
1.070468170610349
 20
1.936350403177089
 30
0.0
 10
1.070468170610349
 20
2.30039144185304
 30
0.0
 10
1.070468170610349
 20
2.664432480528992
 30
0.0
 10
1.365593690750066
 20
2.95954443729171
 30
0.0
 10
1.729634729426018
 20
2.95954443729171
 30
0.0
 10
2.093675768101969
 20
2.95954443729171
 30
0.0
 10
2.388787724864688
 20
2.664432480528992
 30
0.0
 10
2.388787724864688
 20
2.30039144185304
 30
0.0
  0
POLYLINE
  5
E40
330
18
100
AcDbEntity
  8
Layer 1
 62
     7
370
    25
100
AcDb2dPolyline
 66
     1
 10
0.0
 20
0.0
 30
0.0
  0
VERTEX
  5
E41
330
E40
100
AcDbEntity
  8
Layer 1
 62
     7
370
    25
100
AcDbVertex
100
AcDb2dVertex
 10
-0.7796829200681077
 20
1.350385384278469
 30
0.0
  0
VERTEX
  5
E42
330
E40
100
AcDbEntity
  8
Layer 1
 62
     7
370
    25
100
AcDbVertex
100
AcDb2dVertex
 10
-1.093783373730587
 20
1.350385384278469
 30
0.0
  0
SEQEND
  5
E43
330
E40
100
AcDbEntity
  8
Layer 1
370
    25
  0
POLYLINE
  5
E44
330
18
100
AcDbEntity
  8
Layer 1
  6
AI-Linetype-1
 62
   253
370
    25
100
AcDb2dPolyline
 66
     1
 10
0.0
 20
0.0
 30
0.0
  0
VERTEX
  5
E45
330
E44
100
AcDbEntity
  8
Layer 1
  6
AI-Linetype-1
 62
   253
370
    25
100
AcDbVertex
100
AcDb2dVertex
 10
0.2257439998999708
 20
1.792768865232276
 30
0.0
  0
VERTEX
  5
E46
330
E44
100
AcDbEntity
  8
Layer 1
  6
AI-Linetype-1
 62
   253
370
    25
100
AcDbVertex
100
AcDb2dVertex
 10
0.2257439998999708
 20
2.818303505381267
 30
0.0
  0
SEQEND
  5
E47
330
E44
100
AcDbEntity
  8
Layer 1
  6
AI-Linetype-1
370
    25
  0
POLYLINE
  5
E48
330
18
100
AcDbEntity
  8
Layer 1
 62
     7
370
    25
100
AcDb2dPolyline
 66
     1
 10
0.0
 20
0.0
 30
0.0
  0
VERTEX
  5
E49
330
E48
100
AcDbEntity
  8
Layer 1
 62
     7
370
    25
100
AcDbVertex
100
AcDb2dVertex
 10
-0.4649824394894902
 20
1.486114200121021
 30
0.0
  0
VERTEX
  5
E4A
330
E48
100
AcDbEntity
  8
Layer 1
 62
     7
370
    25
100
AcDbVertex
100
AcDb2dVertex
 10
-0.0879473445013912
 20
1.486114200121021
 30
0.0
  0
SEQEND
  5
E4B
330
E48
100
AcDbEntity
  8
Layer 1
370
    25
  0
POLYLINE
  5
E4C
330
18
100
AcDbEntity
  8
Layer 1
 62
     7
370
    25
100
AcDb2dPolyline
 66
     1
 10
0.0
 20
0.0
 30
0.0
  0
VERTEX
  5
E4D
330
E4C
100
AcDbEntity
  8
Layer 1
 62
     7
370
    25
100
AcDbVertex
100
AcDb2dVertex
 10
-0.4649824394894902
 20
1.487164247224419
 30
0.0
  0
VERTEX
  5
E4E
330
E4C
100
AcDbEntity
  8
Layer 1
 62
     7
370
    25
100
AcDbVertex
100
AcDb2dVertex
 10
-0.0879473445013912
 20
1.487164247224419
 30
0.0
  0
SEQEND
  5
E4F
330
E4C
100
AcDbEntity
  8
Layer 1
370
    25
  0
POLYLINE
  5
E50
330
18
100
AcDbEntity
  8
Layer 1
 62
     7
370
    25
100
AcDb2dPolyline
 66
     1
 10
0.0
 20
0.0
 30
0.0
  0
VERTEX
  5
E51
330
E50
100
AcDbEntity
  8
Layer 1
 62
     7
370
    25
100
AcDbVertex
100
AcDb2dVertex
 10
-0.4649824394894902
 20
1.488418848958299
 30
0.0
  0
VERTEX
  5
E52
330
E50
100
AcDbEntity
  8
Layer 1
 62
     7
370
    25
100
AcDbVertex
100
AcDb2dVertex
 10
-0.0879473445013912
 20
1.488418848958299
 30
0.0
  0
SEQEND
  5
E53
330
E50
100
AcDbEntity
  8
Layer 1
370
    25
  0
POLYLINE
  5
E54
330
18
100
AcDbEntity
  8
Layer 1
 62
     7
370
    25
100
AcDb2dPolyline
 66
     1
 10
0.0
 20
0.0
 30
0.0
  0
VERTEX
  5
E55
330
E54
100
AcDbEntity
  8
Layer 1
 62
     7
370
    25
100
AcDbVertex
100
AcDb2dVertex
 10
0.2156935558705098
 20
1.496171472023237
 30
0.0
  0
VERTEX
  5
E56
330
E54
100
AcDbEntity
  8
Layer 1
 62
     7
370
    25
100
AcDbVertex
100
AcDb2dVertex
 10
-0.0879473445013912
 20
1.496171469455283
 30
0.0
  0
SEQEND
  5
E57
330
E54
100
AcDbEntity
  8
Layer 1
370
    25
  0
POLYLINE
  5
E58
330
18
100
AcDbEntity
  8
Layer 1
 62
     7
370
    25
100
AcDb2dPolyline
 66
     1
 10
0.0
 20
0.0
 30
0.0
  0
VERTEX
  5
E59
330
E58
100
AcDbEntity
  8
Layer 1
 62
     7
370
    25
100
AcDbVertex
100
AcDb2dVertex
 10
-0.4649824394894902
 20
1.496171469455283
 30
0.0
  0
VERTEX
  5
E5A
330
E58
100
AcDbEntity
  8
Layer 1
 62
     7
370
    25
100
AcDbVertex
100
AcDb2dVertex
 10
-0.7796829200681077
 20
1.496171469455283
 30
0.0
  0
SEQEND
  5
E5B
330
E58
100
AcDbEntity
  8
Layer 1
370
    25
  0
POLYLINE
  5
E5C
330
18
100
AcDbEntity
  8
Layer 1
  6
AI-Linetype-3
 62
   253
370
    25
100
AcDb2dPolyline
 66
     1
 10
0.0
 20
0.0
 30
0.0
  0
VERTEX
  5
E5D
330
E5C
100
AcDbEntity
  8
Layer 1
  6
AI-Linetype-3
 62
   253
370
    25
100
AcDbVertex
100
AcDb2dVertex
 10
-0.0879473445013912
 20
1.497766995573453
 30
0.0
  0
VERTEX
  5
E5E
330
E5C
100
AcDbEntity
  8
Layer 1
  6
AI-Linetype-3
 62
   253
370
    25
100
AcDbVertex
100
AcDb2dVertex
 10
-0.4649824394894902
 20
1.497766995573453
 30
0.0
  0
SEQEND
  5
E5F
330
E5C
100
AcDbEntity
  8
Layer 1
  6
AI-Linetype-3
370
    25
  0
POLYLINE
  5
E60
330
18
100
AcDbEntity
  8
Layer 1
 62
     7
370
    25
100
AcDb2dPolyline
 66
     1
 10
0.0
 20
0.0
 30
0.0
  0
VERTEX
  5
E61
330
E60
100
AcDbEntity
  8
Layer 1
 62
     7
370
    25
100
AcDbVertex
100
AcDb2dVertex
 10
-0.4649824394894902
 20
1.498817042676773
 30
0.0
  0
VERTEX
  5
E62
330
E60
100
AcDbEntity
  8
Layer 1
 62
     7
370
    25
100
AcDbVertex
100
AcDb2dVertex
 10
-0.0879473445013912
 20
1.498817042676773
 30
0.0
  0
SEQEND
  5
E63
330
E60
100
AcDbEntity
  8
Layer 1
370
    25
  0
POLYLINE
  5
E64
330
18
100
AcDbEntity
  8
Layer 1
 62
     7
370
    25
100
AcDb2dPolyline
 66
     1
 10
0.0
 20
0.0
 30
0.0
  0
VERTEX
  5
E65
330
E64
100
AcDbEntity
  8
Layer 1
 62
     7
370
    25
100
AcDbVertex
100
AcDb2dVertex
 10
-0.4649824394894902
 20
1.502560392415417
 30
0.0
  0
VERTEX
  5
E66
330
E64
100
AcDbEntity
  8
Layer 1
 62
     7
370
    25
100
AcDbVertex
100
AcDb2dVertex
 10
-0.0879473445013912
 20
1.502560392415417
 30
0.0
  0
SEQEND
  5
E67
330
E64
100
AcDbEntity
  8
Layer 1
370
    25
  0
POLYLINE
  5
E68
330
18
100
AcDbEntity
  8
Layer 1
  6
AI-Linetype-4
 62
   253
370
    25
100
AcDb2dPolyline
 66
     1
 10
0.0
 20
0.0
 30
0.0
  0
VERTEX
  5
E69
330
E68
100
AcDbEntity
  8
Layer 1
  6
AI-Linetype-4
 62
   253
370
    25
100
AcDbVertex
100
AcDb2dVertex
 10
-0.0879473445013912
 20
1.510503930567579
 30
0.0
  0
VERTEX
  5
E6A
330
E68
100
AcDbEntity
  8
Layer 1
  6
AI-Linetype-4
 62
   253
370
    25
100
AcDbVertex
100
AcDb2dVertex
 10
-0.4649824394894902
 20
1.510503930567579
 30
0.0
  0
SEQEND
  5
E6B
330
E68
100
AcDbEntity
  8
Layer 1
  6
AI-Linetype-4
370
    25
  0
POLYLINE
  5
E6C
330
18
100
AcDbEntity
  8
Layer 1
 62
     7
370
    25
100
AcDb2dPolyline
 66
     1
 10
0.0
 20
0.0
 30
0.0
  0
VERTEX
  5
E6D
330
E6C
100
AcDbEntity
  8
Layer 1
 62
     7
370
    25
100
AcDbVertex
100
AcDb2dVertex
 10
-0.4649824394894902
 20
1.523193136147952
 30
0.0
  0
VERTEX
  5
E6E
330
E6C
100
AcDbEntity
  8
Layer 1
 62
     7
370
    25
100
AcDbVertex
100
AcDb2dVertex
 10
-0.0879473445013912
 20
1.523193136147952
 30
0.0
  0
SEQEND
  5
E6F
330
E6C
100
AcDbEntity
  8
Layer 1
370
    25
  0
POLYLINE
  5
E70
330
18
100
AcDbEntity
  8
Layer 1
 62
     7
370
    25
100
AcDb2dPolyline
 66
     1
 10
0.0
 20
0.0
 30
0.0
  0
VERTEX
  5
E71
330
E70
100
AcDbEntity
  8
Layer 1
 62
     7
370
    25
100
AcDbVertex
100
AcDb2dVertex
 10
-0.4649824394894902
 20
1.529363867502226
 30
0.0
  0
VERTEX
  5
E72
330
E70
100
AcDbEntity
  8
Layer 1
 62
     7
370
    25
100
AcDbVertex
100
AcDb2dVertex
 10
-0.0879473445013912
 20
1.529363867502226
 30
0.0
  0
SEQEND
  5
E73
330
E70
100
AcDbEntity
  8
Layer 1
370
    25
  0
POLYLINE
  5
E74
330
18
100
AcDbEntity
  8
Layer 1
  6
AI-Linetype-5
 62
   253
370
    25
100
AcDb2dPolyline
 66
     1
 10
0.0
 20
0.0
 30
0.0
  0
VERTEX
  5
E75
330
E74
100
AcDbEntity
  8
Layer 1
  6
AI-Linetype-5
 62
   253
370
    25
100
AcDbVertex
100
AcDb2dVertex
 10
-0.0879473445013912
 20
1.535780064413123
 30
0.0
  0
VERTEX
  5
E76
330
E74
100
AcDbEntity
  8
Layer 1
  6
AI-Linetype-5
 62
   253
370
    25
100
AcDbVertex
100
AcDb2dVertex
 10
-0.4649824394894902
 20
1.535780064413123
 30
0.0
  0
SEQEND
  5
E77
330
E74
100
AcDbEntity
  8
Layer 1
  6
AI-Linetype-5
370
    25
  0
POLYLINE
  5
E78
330
18
100
AcDbEntity
  8
Layer 1
 62
     7
370
    25
100
AcDb2dPolyline
 66
     1
 10
0.0
 20
0.0
 30
0.0
  0
VERTEX
  5
E79
330
E78
100
AcDbEntity
  8
Layer 1
 62
     7
370
    25
100
AcDbVertex
100
AcDb2dVertex
 10
-0.4649824394894902
 20
1.559903873839907
 30
0.0
  0
VERTEX
  5
E7A
330
E78
100
AcDbEntity
  8
Layer 1
 62
     7
370
    25
100
AcDbVertex
100
AcDb2dVertex
 10
-0.0879473445013912
 20
1.559903873839907
 30
0.0
  0
SEQEND
  5
E7B
330
E78
100
AcDbEntity
  8
Layer 1
370
    25
  0
POLYLINE
  5
E7C
330
18
100
AcDbEntity
  8
Layer 1
 62
     7
370
    25
100
AcDb2dPolyline
 66
     1
 10
0.0
 20
0.0
 30
0.0
  0
VERTEX
  5
E7D
330
E7C
100
AcDbEntity
  8
Layer 1
 62
     7
370
    25
100
AcDbVertex
100
AcDb2dVertex
 10
-0.4649824394894902
 20
1.568413346469913
 30
0.0
  0
VERTEX
  5
E7E
330
E7C
100
AcDbEntity
  8
Layer 1
 62
     7
370
    25
100
AcDbVertex
100
AcDb2dVertex
 10
-0.0879473445013912
 20
1.568413346469913
 30
0.0
  0
SEQEND
  5
E7F
330
E7C
100
AcDbEntity
  8
Layer 1
370
    25
  0
POLYLINE
  5
E80
330
18
100
AcDbEntity
  8
Layer 1
  6
AI-Linetype-6
 62
   253
370
    25
100
AcDb2dPolyline
 66
     1
 10
0.0
 20
0.0
 30
0.0
  0
VERTEX
  5
E81
330
E80
100
AcDbEntity
  8
Layer 1
  6
AI-Linetype-6
 62
   253
370
    25
100
AcDbVertex
100
AcDb2dVertex
 10
-0.0879473445013912
 20
1.573199924824186
 30
0.0
  0
VERTEX
  5
E82
330
E80
100
AcDbEntity
  8
Layer 1
  6
AI-Linetype-6
 62
   253
370
    25
100
AcDbVertex
100
AcDb2dVertex
 10
-0.4649824394894902
 20
1.573199924824186
 30
0.0
  0
SEQEND
  5
E83
330
E80
100
AcDbEntity
  8
Layer 1
  6
AI-Linetype-6
370
    25
  0
POLYLINE
  5
E84
330
18
100
AcDbEntity
  8
Layer 1
 62
     7
370
    25
100
AcDb2dPolyline
 66
     1
 10
0.0
 20
0.0
 30
0.0
  0
VERTEX
  5
E85
330
E84
100
AcDbEntity
  8
Layer 1
 62
     7
370
    25
100
AcDbVertex
100
AcDb2dVertex
 10
-0.4649824394894902
 20
1.608369684299576
 30
0.0
  0
VERTEX
  5
E86
330
E84
100
AcDbEntity
  8
Layer 1
 62
     7
370
    25
100
AcDbVertex
100
AcDb2dVertex
 10
-0.0879473445013912
 20
1.608369684299576
 30
0.0
  0
SEQEND
  5
E87
330
E84
100
AcDbEntity
  8
Layer 1
370
    25
  0
POLYLINE
  5
E88
330
18
100
AcDbEntity
  8
Layer 1
 62
     7
370
    25
100
AcDb2dPolyline
 66
     1
 10
0.0
 20
0.0
 30
0.0
  0
VERTEX
  5
E89
330
E88
100
AcDbEntity
  8
Layer 1
 62
     7
370
    25
100
AcDbVertex
100
AcDb2dVertex
 10
-0.4649824394894902
 20
1.6190815284515
 30
0.0
  0
VERTEX
  5
E8A
330
E88
100
AcDbEntity
  8
Layer 1
 62
     7
370
    25
100
AcDbVertex
100
AcDb2dVertex
 10
-0.0879473445013912
 20
1.6190815284515
 30
0.0
  0
SEQEND
  5
E8B
330
E88
100
AcDbEntity
  8
Layer 1
370
    25
  0
POLYLINE
  5
E8C
330
18
100
AcDbEntity
  8
Layer 1
  6
AI-Linetype-7
 62
   253
370
    25
100
AcDb2dPolyline
 66
     1
 10
0.0
 20
0.0
 30
0.0
  0
VERTEX
  5
E8D
330
E8C
100
AcDbEntity
  8
Layer 1
  6
AI-Linetype-7
 62
   253
370
    25
100
AcDbVertex
100
AcDb2dVertex
 10
-0.0879473445013912
 20
1.622163484884792
 30
0.0
  0
VERTEX
  5
E8E
330
E8C
100
AcDbEntity
  8
Layer 1
  6
AI-Linetype-7
 62
   253
370
    25
100
AcDbVertex
100
AcDb2dVertex
 10
-0.4649824394894902
 20
1.622163484884792
 30
0.0
  0
SEQEND
  5
E8F
330
E8C
100
AcDbEntity
  8
Layer 1
  6
AI-Linetype-7
370
    25
  0
POLYLINE
  5
E90
330
18
100
AcDbEntity
  8
Layer 1
 62
     7
370
    25
100
AcDb2dPolyline
 66
     1
 10
0.0
 20
0.0
 30
0.0
  0
VERTEX
  5
E91
330
E90
100
AcDbEntity
  8
Layer 1
 62
     7
370
    25
100
AcDbVertex
100
AcDb2dVertex
 10
-0.4649824394894902
 20
1.667840533881547
 30
0.0
  0
VERTEX
  5
E92
330
E90
100
AcDbEntity
  8
Layer 1
 62
     7
370
    25
100
AcDbVertex
100
AcDb2dVertex
 10
-0.0879473445013912
 20
1.667840533881547
 30
0.0
  0
SEQEND
  5
E93
330
E90
100
AcDbEntity
  8
Layer 1
370
    25
  0
POLYLINE
  5
E94
330
18
100
AcDbEntity
  8
Layer 1
 62
     7
370
    25
100
AcDb2dPolyline
 66
     1
 10
0.0
 20
0.0
 30
0.0
  0
VERTEX
  5
E95
330
E94
100
AcDbEntity
  8
Layer 1
 62
     7
370
    25
100
AcDbVertex
100
AcDb2dVertex
 10
-0.4649824394894902
 20
1.680577468875753
 30
0.0
  0
VERTEX
  5
E96
330
E94
100
AcDbEntity
  8
Layer 1
 62
     7
370
    25
100
AcDbVertex
100
AcDb2dVertex
 10
-0.0879473445013912
 20
1.680577468875753
 30
0.0
  0
SEQEND
  5
E97
330
E94
100
AcDbEntity
  8
Layer 1
370
    25
  0
POLYLINE
  5
E98
330
18
100
AcDbEntity
  8
Layer 1
  6
AI-Linetype-8
 62
   253
370
    25
100
AcDb2dPolyline
 66
     1
 10
0.0
 20
0.0
 30
0.0
  0
VERTEX
  5
E99
330
E98
100
AcDbEntity
  8
Layer 1
  6
AI-Linetype-8
 62
   253
370
    25
100
AcDbVertex
100
AcDb2dVertex
 10
-0.0879473445013912
 20
1.681907073974148
 30
0.0
  0
VERTEX
  5
E9A
330
E98
100
AcDbEntity
  8
Layer 1
  6
AI-Linetype-8
 62
   253
370
    25
100
AcDbVertex
100
AcDb2dVertex
 10
-0.4649824394894902
 20
1.681907073974148
 30
0.0
  0
SEQEND
  5
E9B
330
E98
100
AcDbEntity
  8
Layer 1
  6
AI-Linetype-8
370
    25
  0
POLYLINE
  5
E9C
330
18
100
AcDbEntity
  8
Layer 1
 62
     7
370
    25
100
AcDb2dPolyline
 66
     1
 10
0.0
 20
0.0
 30
0.0
  0
VERTEX
  5
E9D
330
E9C
100
AcDbEntity
  8
Layer 1
 62
     7
370
    25
100
AcDbVertex
100
AcDb2dVertex
 10
-0.4649824394894902
 20
1.737361834310089
 30
0.0
  0
VERTEX
  5
E9E
330
E9C
100
AcDbEntity
  8
Layer 1
 62
     7
370
    25
100
AcDbVertex
100
AcDb2dVertex
 10
-0.0879473445013912
 20
1.737361834310089
 30
0.0
  0
SEQEND
  5
E9F
330
E9C
100
AcDbEntity
  8
Layer 1
370
    25
  0
POLYLINE
  5
EA0
330
18
100
AcDbEntity
  8
Layer 1
 62
     7
370
    25
100
AcDb2dPolyline
 66
     1
 10
0.0
 20
0.0
 30
0.0
  0
VERTEX
  5
EA1
330
EA0
100
AcDbEntity
  8
Layer 1
 62
     7
370
    25
100
AcDbVertex
100
AcDb2dVertex
 10
-0.0879473445013912
 20
1.751489740791907
 30
0.0
  0
VERTEX
  5
EA2
330
EA0
100
AcDbEntity
  8
Layer 1
 62
     7
370
    25
100
AcDbVertex
100
AcDb2dVertex
 10
-0.4649824394894902
 20
1.751489740791907
 30
0.0
  0
SEQEND
  5
EA3
330
EA0
100
AcDbEntity
  8
Layer 1
370
    25
  0
POLYLINE
  5
EA4
330
18
100
AcDbEntity
  8
Layer 1
 62
     7
370
    25
100
AcDb2dPolyline
 66
     1
 10
0.0
 20
0.0
 30
0.0
  0
VERTEX
  5
EA5
330
EA4
100
AcDbEntity
  8
Layer 1
 62
     7
370
    25
100
AcDbVertex
100
AcDb2dVertex
 10
-0.4649824394894902
 20
1.75193294249132
 30
0.0
  0
VERTEX
  5
EA6
330
EA4
100
AcDbEntity
  8
Layer 1
 62
     7
370
    25
100
AcDbVertex
100
AcDb2dVertex
 10
-0.0879473445013912
 20
1.75193294249132
 30
0.0
  0
SEQEND
  5
EA7
330
EA4
100
AcDbEntity
  8
Layer 1
370
    25
  0
POLYLINE
  5
EA8
330
18
100
AcDbEntity
  8
Layer 1
 62
     7
370
    25
100
AcDb2dPolyline
 66
     1
 10
0.0
 20
0.0
 30
0.0
  0
VERTEX
  5
EA9
330
EA8
100
AcDbEntity
  8
Layer 1
 62
     7
370
    25
100
AcDbVertex
100
AcDb2dVertex
 10
-0.0879473445013912
 20
1.486114200121021
 30
0.0
  0
VERTEX
  5
EAA
330
EA8
100
AcDbEntity
  8
Layer 1
 62
     7
370
    25
100
AcDbVertex
100
AcDb2dVertex
 10
-0.0879473445013912
 20
3.124958170492523
 30
0.0
  0
SEQEND
  5
EAB
330
EA8
100
AcDbEntity
  8
Layer 1
370
    25
  0
POLYLINE
  5
EAC
330
18
100
AcDbEntity
  8
ADP1DETAIL
  6
AI-Linetype-2
 62
     5
370
    25
100
AcDb2dPolyline
 66
     1
 10
0.0
 20
0.0
 30
0.0
  0
VERTEX
  5
EAD
330
EAC
100
AcDbEntity
  8
ADP1DETAIL
  6
AI-Linetype-2
 62
     5
370
    25
100
AcDbVertex
100
AcDb2dVertex
 10
-0.7796829200681077
 20
1.802826134566538
 30
0.0
  0
VERTEX
  5
EAE
330
EAC
100
AcDbEntity
  8
ADP1DETAIL
  6
AI-Linetype-2
 62
     5
370
    25
100
AcDbVertex
100
AcDb2dVertex
 10
0.2156935490533991
 20
1.802826134566538
 30
0.0
  0
SEQEND
  5
EAF
330
EAC
100
AcDbEntity
  8
ADP1DETAIL
  6
AI-Linetype-2
 62
     5
370
    25
  0
POLYLINE
  5
EB0
330
18
100
AcDbEntity
  8
Layer 1
 62
     7
370
    25
100
AcDb2dPolyline
 66
     1
 10
0.0
 20
0.0
 30
0.0
  0
VERTEX
  5
EB1
330
EB0
100
AcDbEntity
  8
Layer 1
 62
     7
370
    25
100
AcDbVertex
100
AcDb2dVertex
 10
-0.4649824394894902
 20
1.81584262755582
 30
0.0
  0
VERTEX
  5
EB2
330
EB0
100
AcDbEntity
  8
Layer 1
 62
     7
370
    25
100
AcDbVertex
100
AcDb2dVertex
 10
-0.0879473445013912
 20
1.81584262755582
 30
0.0
  0
SEQEND
  5
EB3
330
EB0
100
AcDbEntity
  8
Layer 1
370
    25
  0
POLYLINE
  5
EB4
330
18
100
AcDbEntity
  8
Layer 1
 62
     7
370
    25
100
AcDb2dPolyline
 66
     1
 10
0.0
 20
0.0
 30
0.0
  0
VERTEX
  5
EB5
330
EB4
100
AcDbEntity
  8
Layer 1
 62
     7
370
    25
100
AcDbVertex
100
AcDb2dVertex
 10
-0.0879473445013912
 20
1.829800071845452
 30
0.0
  0
VERTEX
  5
EB6
330
EB4
100
AcDbEntity
  8
Layer 1
 62
     7
370
    25
100
AcDbVertex
100
AcDb2dVertex
 10
-0.4649824394894902
 20
1.829800071845452
 30
0.0
  0
SEQEND
  5
EB7
330
EB4
100
AcDbEntity
  8
Layer 1
370
    25
  0
POLYLINE
  5
EB8
330
18
100
AcDbEntity
  8
Layer 1
 62
     7
370
    25
100
AcDb2dPolyline
 66
     1
 10
0.0
 20
0.0
 30
0.0
  0
VERTEX
  5
EB9
330
EB8
100
AcDbEntity
  8
Layer 1
 62
     7
370
    25
100
AcDbVertex
100
AcDb2dVertex
 10
-0.4649824394894902
 20
1.832016080342831
 30
0.0
  0
VERTEX
  5
EBA
330
EB8
100
AcDbEntity
  8
Layer 1
 62
     7
370
    25
100
AcDbVertex
100
AcDb2dVertex
 10
-0.0879473445013912
 20
1.832016080342831
 30
0.0
  0
SEQEND
  5
EBB
330
EB8
100
AcDbEntity
  8
Layer 1
370
    25
  0
POLYLINE
  5
EBC
330
18
100
AcDbEntity
  8
Layer 1
 62
     7
370
    25
100
AcDb2dPolyline
 66
     1
 10
0.0
 20
0.0
 30
0.0
  0
VERTEX
  5
EBD
330
EBC
100
AcDbEntity
  8
Layer 1
 62
     7
370
    25
100
AcDbVertex
100
AcDb2dVertex
 10
-0.4649824394894902
 20
1.902048767347693
 30
0.0
  0
VERTEX
  5
EBE
330
EBC
100
AcDbEntity
  8
Layer 1
 62
     7
370
    25
100
AcDbVertex
100
AcDb2dVertex
 10
-0.0879473445013912
 20
1.902048767347693
 30
0.0
  0
SEQEND
  5
EBF
330
EBC
100
AcDbEntity
  8
Layer 1
370
    25
  0
POLYLINE
  5
EC0
330
18
100
AcDbEntity
  8
Layer 1
 62
     7
370
    25
100
AcDb2dPolyline
 66
     1
 10
0.0
 20
0.0
 30
0.0
  0
VERTEX
  5
EC1
330
EC0
100
AcDbEntity
  8
Layer 1
 62
     7
370
    25
100
AcDbVertex
100
AcDb2dVertex
 10
-0.0879473445013912
 20
1.915624376327048
 30
0.0
  0
VERTEX
  5
EC2
330
EC0
100
AcDbEntity
  8
Layer 1
 62
     7
370
    25
100
AcDbVertex
100
AcDb2dVertex
 10
-0.4649824394894902
 20
1.915624376327048
 30
0.0
  0
SEQEND
  5
EC3
330
EC0
100
AcDbEntity
  8
Layer 1
370
    25
  0
POLYLINE
  5
EC4
330
18
100
AcDbEntity
  8
Layer 1
 62
     7
370
    25
100
AcDb2dPolyline
 66
     1
 10
0.0
 20
0.0
 30
0.0
  0
VERTEX
  5
EC5
330
EC4
100
AcDbEntity
  8
Layer 1
 62
     7
370
    25
100
AcDbVertex
100
AcDb2dVertex
 10
-0.4649824394894902
 20
1.919565462208561
 30
0.0
  0
VERTEX
  5
EC6
330
EC4
100
AcDbEntity
  8
Layer 1
 62
     7
370
    25
100
AcDbVertex
100
AcDb2dVertex
 10
-0.0879473445013912
 20
1.919565462208561
 30
0.0
  0
SEQEND
  5
EC7
330
EC4
100
AcDbEntity
  8
Layer 1
370
    25
  0
POLYLINE
  5
EC8
330
18
100
AcDbEntity
  8
ADP1DETAIL
  6
AI-Linetype-2
 62
     5
370
    25
100
AcDb2dPolyline
 66
     1
 10
0.0
 20
0.0
 30
0.0
  0
VERTEX
  5
EC9
330
EC8
100
AcDbEntity
  8
ADP1DETAIL
  6
AI-Linetype-2
 62
     5
370
    25
100
AcDbVertex
100
AcDb2dVertex
 10
-1.081741924480188
 20
2.305539594550617
 30
0.0
  0
VERTEX
  5
ECA
330
EC8
100
AcDbEntity
  8
ADP1DETAIL
  6
AI-Linetype-2
 62
     5
370
    25
100
AcDbVertex
100
AcDb2dVertex
 10
-0.7796829200681077
 20
1.802826134566538
 30
0.0
  0
SEQEND
  5
ECB
330
EC8
100
AcDbEntity
  8
ADP1DETAIL
  6
AI-Linetype-2
 62
     5
370
    25
  0
POLYLINE
  5
ECC
330
18
100
AcDbEntity
  8
Layer 1
 62
     7
370
    25
100
AcDb2dPolyline
 66
     1
 10
0.0
 20
0.0
 30
0.0
  0
VERTEX
  5
ECD
330
ECC
100
AcDbEntity
  8
Layer 1
 62
     7
370
    25
100
AcDbVertex
100
AcDb2dVertex
 10
-0.4649824394894902
 20
1.994616556149017
 30
0.0
  0
VERTEX
  5
ECE
330
ECC
100
AcDbEntity
  8
Layer 1
 62
     7
370
    25
100
AcDbVertex
100
AcDb2dVertex
 10
-0.0879473445013912
 20
1.994616556149017
 30
0.0
  0
SEQEND
  5
ECF
330
ECC
100
AcDbEntity
  8
Layer 1
370
    25
  0
POLYLINE
  5
ED0
330
18
100
AcDbEntity
  8
Layer 1
 62
     7
370
    25
100
AcDb2dPolyline
 66
     1
 10
0.0
 20
0.0
 30
0.0
  0
VERTEX
  5
ED1
330
ED0
100
AcDbEntity
  8
Layer 1
 62
     7
370
    25
100
AcDbVertex
100
AcDb2dVertex
 10
-0.0879473445013912
 20
2.007592138212156
 30
0.0
  0
VERTEX
  5
ED2
330
ED0
100
AcDbEntity
  8
Layer 1
 62
     7
370
    25
100
AcDbVertex
100
AcDb2dVertex
 10
-0.4649824394894902
 20
2.007592138212156
 30
0.0
  0
SEQEND
  5
ED3
330
ED0
100
AcDbEntity
  8
Layer 1
370
    25
  0
POLYLINE
  5
ED4
330
18
100
AcDbEntity
  8
Layer 1
 62
     7
370
    25
100
AcDb2dPolyline
 66
     1
 10
0.0
 20
0.0
 30
0.0
  0
VERTEX
  5
ED5
330
ED4
100
AcDbEntity
  8
Layer 1
 62
     7
370
    25
100
AcDbVertex
100
AcDb2dVertex
 10
-0.4649824394894902
 20
2.013203753576277
 30
0.0
  0
VERTEX
  5
ED6
330
ED4
100
AcDbEntity
  8
Layer 1
 62
     7
370
    25
100
AcDbVertex
100
AcDb2dVertex
 10
-0.0879473445013912
 20
2.013203753576277
 30
0.0
  0
SEQEND
  5
ED7
330
ED4
100
AcDbEntity
  8
Layer 1
370
    25
  0
POLYLINE
  5
ED8
330
18
100
AcDbEntity
  8
Layer 1
  6
AI-Linetype-11
 62
   253
370
    25
100
AcDb2dPolyline
 66
     1
 10
0.0
 20
0.0
 30
0.0
  0
VERTEX
  5
ED9
330
ED8
100
AcDbEntity
  8
Layer 1
  6
AI-Linetype-11
 62
   253
370
    25
100
AcDbVertex
100
AcDb2dVertex
 10
0.2156935490533991
 20
2.808253054534696
 30
0.0
  0
VERTEX
  5
EDA
330
ED8
100
AcDbEntity
  8
Layer 1
  6
AI-Linetype-11
 62
   253
370
    25
100
AcDbVertex
100
AcDb2dVertex
 10
0.2257439998999708
 20
2.818303505381267
 30
0.0
  0
SEQEND
  5
EDB
330
ED8
100
AcDbEntity
  8
Layer 1
  6
AI-Linetype-11
370
    25
  0
POLYLINE
  5
EDC
330
18
100
AcDbEntity
  8
Layer 1
 62
     7
370
    25
100
AcDb2dPolyline
 66
     1
 10
0.0
 20
0.0
 30
0.0
  0
VERTEX
  5
EDD
330
EDC
100
AcDbEntity
  8
Layer 1
 62
     7
370
    25
100
AcDbVertex
100
AcDb2dVertex
 10
-0.4649824394894902
 20
2.092093656082967
 30
0.0
  0
VERTEX
  5
EDE
330
EDC
100
AcDbEntity
  8
Layer 1
 62
     7
370
    25
100
AcDbVertex
100
AcDb2dVertex
 10
-0.0879473445013912
 20
2.092093656082967
 30
0.0
  0
SEQEND
  5
EDF
330
EDC
100
AcDbEntity
  8
Layer 1
370
    25
  0
POLYLINE
  5
EE0
330
18
100
AcDbEntity
  8
Layer 1
 62
     7
370
    25
100
AcDb2dPolyline
 66
     1
 10
0.0
 20
0.0
 30
0.0
  0
VERTEX
  5
EE1
330
EE0
100
AcDbEntity
  8
Layer 1
 62
     7
370
    25
100
AcDbVertex
100
AcDb2dVertex
 10
-0.0879473445013912
 20
2.104257838111718
 30
0.0
  0
VERTEX
  5
EE2
330
EE0
100
AcDbEntity
  8
Layer 1
 62
     7
370
    25
100
AcDbVertex
100
AcDb2dVertex
 10
-0.4649824394894902
 20
2.104257838111718
 30
0.0
  0
SEQEND
  5
EE3
330
EE0
100
AcDbEntity
  8
Layer 1
370
    25
  0
POLYLINE
  5
EE4
330
18
100
AcDbEntity
  8
Layer 1
 62
     7
370
    25
100
AcDb2dPolyline
 66
     1
 10
0.0
 20
0.0
 30
0.0
  0
VERTEX
  5
EE5
330
EE4
100
AcDbEntity
  8
Layer 1
 62
     7
370
    25
100
AcDbVertex
100
AcDb2dVertex
 10
-0.4649824394894902
 20
2.11145134261855
 30
0.0
  0
VERTEX
  5
EE6
330
EE4
100
AcDbEntity
  8
Layer 1
 62
     7
370
    25
100
AcDbVertex
100
AcDb2dVertex
 10
-0.0879473445013912
 20
2.11145134261855
 30
0.0
  0
SEQEND
  5
EE7
330
EE4
100
AcDbEntity
  8
Layer 1
370
    25
  0
POLYLINE
  5
EE8
330
18
100
AcDbEntity
  8
Layer 1
 62
     7
370
    25
100
AcDb2dPolyline
 66
     1
 10
0.0
 20
0.0
 30
0.0
  0
VERTEX
  5
EE9
330
EE8
100
AcDbEntity
  8
Layer 1
 62
     7
370
    25
100
AcDbVertex
100
AcDb2dVertex
 10
-0.4649824394894902
 20
1.486114200121021
 30
0.0
  0
VERTEX
  5
EEA
330
EE8
100
AcDbEntity
  8
Layer 1
 62
     7
370
    25
100
AcDbVertex
100
AcDb2dVertex
 10
-0.4649824394894902
 20
3.124958170492523
 30
0.0
  0
SEQEND
  5
EEB
330
EE8
100
AcDbEntity
  8
Layer 1
370
    25
  0
POLYLINE
  5
EEC
330
18
100
AcDbEntity
  8
Layer 1
 62
     7
370
    25
100
AcDb2dPolyline
 66
     1
 10
0.0
 20
0.0
 30
0.0
  0
VERTEX
  5
EED
330
EEC
100
AcDbEntity
  8
Layer 1
 62
     7
370
    25
100
AcDbVertex
100
AcDb2dVertex
 10
-0.4649824394894902
 20
2.192925451957594
 30
0.0
  0
VERTEX
  5
EEE
330
EEC
100
AcDbEntity
  8
Layer 1
 62
     7
370
    25
100
AcDbVertex
100
AcDb2dVertex
 10
-0.0879473445013912
 20
2.192925451957594
 30
0.0
  0
SEQEND
  5
EEF
330
EEC
100
AcDbEntity
  8
Layer 1
370
    25
  0
POLYLINE
  5
EF0
330
18
100
AcDbEntity
  8
Layer 1
 62
     7
370
    25
100
AcDb2dPolyline
 66
     1
 10
0.0
 20
0.0
 30
0.0
  0
VERTEX
  5
EF1
330
EF0
100
AcDbEntity
  8
Layer 1
 62
     7
370
    25
100
AcDbVertex
100
AcDb2dVertex
 10
-0.0879473445013912
 20
2.204094134784392
 30
0.0
  0
VERTEX
  5
EF2
330
EF0
100
AcDbEntity
  8
Layer 1
 62
     7
370
    25
100
AcDbVertex
100
AcDb2dVertex
 10
-0.4649824394894902
 20
2.204094134784392
 30
0.0
  0
SEQEND
  5
EF3
330
EF0
100
AcDbEntity
  8
Layer 1
370
    25
  0
POLYLINE
  5
EF4
330
18
100
AcDbEntity
  8
Layer 1
 62
     7
370
    25
100
AcDb2dPolyline
 66
     1
 10
0.0
 20
0.0
 30
0.0
  0
VERTEX
  5
EF5
330
EF4
100
AcDbEntity
  8
Layer 1
 62
     7
370
    25
100
AcDbVertex
100
AcDb2dVertex
 10
-0.4649824394894902
 20
2.212753614143431
 30
0.0
  0
VERTEX
  5
EF6
330
EF4
100
AcDbEntity
  8
Layer 1
 62
     7
370
    25
100
AcDbVertex
100
AcDb2dVertex
 10
-0.0879473445013912
 20
2.212753614143431
 30
0.0
  0
SEQEND
  5
EF7
330
EF4
100
AcDbEntity
  8
Layer 1
370
    25
  0
POLYLINE
  5
EF8
330
18
100
AcDbEntity
  8
Layer 1
 62
     7
370
    25
100
AcDb2dPolyline
 66
     1
 10
0.0
 20
0.0
 30
0.0
  0
VERTEX
  5
EF9
330
EF8
100
AcDbEntity
  8
Layer 1
 62
     7
370
    25
100
AcDbVertex
100
AcDb2dVertex
 10
-0.4649824394894902
 20
2.29554369160549
 30
0.0
  0
VERTEX
  5
EFA
330
EF8
100
AcDbEntity
  8
Layer 1
 62
     7
370
    25
100
AcDbVertex
100
AcDb2dVertex
 10
-0.0879473445013912
 20
2.29554369160549
 30
0.0
  0
SEQEND
  5
EFB
330
EF8
100
AcDbEntity
  8
Layer 1
370
    25
  0
POLYLINE
  5
EFC
330
18
100
AcDbEntity
  8
Layer 1
 62
     7
370
    25
100
AcDb2dPolyline
 66
     1
 10
0.0
 20
0.0
 30
0.0
  0
VERTEX
  5
EFD
330
EFC
100
AcDbEntity
  8
Layer 1
 62
     7
370
    25
100
AcDbVertex
100
AcDb2dVertex
 10
-0.0879473445013912
 20
2.305539594550617
 30
0.0
  0
VERTEX
  5
EFE
330
EFC
100
AcDbEntity
  8
Layer 1
 62
     7
370
    25
100
AcDbVertex
100
AcDb2dVertex
 10
-0.4649824394894902
 20
2.305539594550617
 30
0.0
  0
SEQEND
  5
EFF
330
EFC
100
AcDbEntity
  8
Layer 1
370
    25
  0
POLYLINE
  5
F00
330
18
100
AcDbEntity
  8
Layer 1
 62
     7
370
    25
100
AcDb2dPolyline
 66
     1
 10
0.0
 20
0.0
 30
0.0
  0
VERTEX
  5
F01
330
F00
100
AcDbEntity
  8
Layer 1
 62
     7
370
    25
100
AcDbVertex
100
AcDb2dVertex
 10
-0.4649824394894902
 20
2.315535497495742
 30
0.0
  0
VERTEX
  5
F02
330
F00
100
AcDbEntity
  8
Layer 1
 62
     7
370
    25
100
AcDbVertex
100
AcDb2dVertex
 10
-0.0879473445013912
 20
2.315535497495742
 30
0.0
  0
SEQEND
  5
F03
330
F00
100
AcDbEntity
  8
Layer 1
370
    25
  0
POLYLINE
  5
F04
330
18
100
AcDbEntity
  8
Layer 1
 62
     7
370
    25
100
AcDb2dPolyline
 66
     1
 10
0.0
 20
0.0
 30
0.0
  0
VERTEX
  5
F05
330
F04
100
AcDbEntity
  8
Layer 1
 62
     7
370
    25
100
AcDbVertex
100
AcDb2dVertex
 10
-0.4649824394894902
 20
2.398311937982501
 30
0.0
  0
VERTEX
  5
F06
330
F04
100
AcDbEntity
  8
Layer 1
 62
     7
370
    25
100
AcDbVertex
100
AcDb2dVertex
 10
-0.0879473445013912
 20
2.398311937982501
 30
0.0
  0
SEQEND
  5
F07
330
F04
100
AcDbEntity
  8
Layer 1
370
    25
  0
POLYLINE
  5
F08
330
18
100
AcDbEntity
  8
Layer 1
 62
     7
370
    25
100
AcDb2dPolyline
 66
     1
 10
0.0
 20
0.0
 30
0.0
  0
VERTEX
  5
F09
330
F08
100
AcDbEntity
  8
Layer 1
 62
     7
370
    25
100
AcDbVertex
100
AcDb2dVertex
 10
-0.0879473445013912
 20
2.406985054316842
 30
0.0
  0
VERTEX
  5
F0A
330
F08
100
AcDbEntity
  8
Layer 1
 62
     7
370
    25
100
AcDbVertex
100
AcDb2dVertex
 10
-0.4649824394894902
 20
2.406985054316842
 30
0.0
  0
SEQEND
  5
F0B
330
F08
100
AcDbEntity
  8
Layer 1
370
    25
  0
POLYLINE
  5
F0C
330
18
100
AcDbEntity
  8
Layer 1
 62
     7
370
    25
100
AcDb2dPolyline
 66
     1
 10
0.0
 20
0.0
 30
0.0
  0
VERTEX
  5
F0D
330
F0C
100
AcDbEntity
  8
Layer 1
 62
     7
370
    25
100
AcDbVertex
100
AcDb2dVertex
 10
-0.4649824394894902
 20
2.418140100168258
 30
0.0
  0
VERTEX
  5
F0E
330
F0C
100
AcDbEntity
  8
Layer 1
 62
     7
370
    25
100
AcDbVertex
100
AcDb2dVertex
 10
-0.0879473445013912
 20
2.418140100168258
 30
0.0
  0
SEQEND
  5
F0F
330
F0C
100
AcDbEntity
  8
Layer 1
370
    25
  0
POLYLINE
  5
F10
330
18
100
AcDbEntity
  8
Layer 1
  6
AI-Linetype-12
 62
   253
370
    25
100
AcDb2dPolyline
 66
     1
 10
0.0
 20
0.0
 30
0.0
  0
VERTEX
  5
F11
330
F10
100
AcDbEntity
  8
Layer 1
  6
AI-Linetype-12
 62
   253
370
    25
100
AcDbVertex
100
AcDb2dVertex
 10
-0.7796829200681077
 20
2.808253054534696
 30
0.0
  0
VERTEX
  5
F12
330
F10
100
AcDbEntity
  8
Layer 1
  6
AI-Linetype-12
 62
   253
370
    25
100
AcDbVertex
100
AcDb2dVertex
 10
-0.7796829200681077
 20
1.802826134566538
 30
0.0
  0
SEQEND
  5
F13
330
F10
100
AcDbEntity
  8
Layer 1
  6
AI-Linetype-12
370
    25
  0
POLYLINE
  5
F14
330
18
100
AcDbEntity
  8
Layer 1
 62
     7
370
    25
100
AcDb2dPolyline
 66
     1
 10
0.0
 20
0.0
 30
0.0
  0
VERTEX
  5
F15
330
F14
100
AcDbEntity
  8
Layer 1
 62
     7
370
    25
100
AcDbVertex
100
AcDb2dVertex
 10
-0.4649824394894902
 20
2.499621027994993
 30
0.0
  0
VERTEX
  5
F16
330
F14
100
AcDbEntity
  8
Layer 1
 62
     7
370
    25
100
AcDbVertex
100
AcDb2dVertex
 10
-0.0879473445013912
 20
2.499621027994993
 30
0.0
  0
SEQEND
  5
F17
330
F14
100
AcDbEntity
  8
Layer 1
370
    25
  0
POLYLINE
  5
F18
330
18
100
AcDbEntity
  8
Layer 1
 62
     7
370
    25
100
AcDb2dPolyline
 66
     1
 10
0.0
 20
0.0
 30
0.0
  0
VERTEX
  5
F19
330
F18
100
AcDbEntity
  8
Layer 1
 62
     7
370
    25
100
AcDbVertex
100
AcDb2dVertex
 10
-0.0879473445013912
 20
2.506821350989515
 30
0.0
  0
VERTEX
  5
F1A
330
F18
100
AcDbEntity
  8
Layer 1
 62
     7
370
    25
100
AcDbVertex
100
AcDb2dVertex
 10
-0.4649824394894902
 20
2.506821350989515
 30
0.0
  0
SEQEND
  5
F1B
330
F18
100
AcDbEntity
  8
Layer 1
370
    25
  0
POLYLINE
  5
F1C
330
18
100
AcDbEntity
  8
Layer 1
 62
     7
370
    25
100
AcDb2dPolyline
 66
     1
 10
0.0
 20
0.0
 30
0.0
  0
VERTEX
  5
F1D
330
F1C
100
AcDbEntity
  8
Layer 1
 62
     7
370
    25
100
AcDbVertex
100
AcDb2dVertex
 10
-0.4649824394894902
 20
2.518985533018266
 30
0.0
  0
VERTEX
  5
F1E
330
F1C
100
AcDbEntity
  8
Layer 1
 62
     7
370
    25
100
AcDbVertex
100
AcDb2dVertex
 10
-0.0879473445013912
 20
2.518985533018266
 30
0.0
  0
SEQEND
  5
F1F
330
F1C
100
AcDbEntity
  8
Layer 1
370
    25
  0
POLYLINE
  5
F20
330
18
100
AcDbEntity
  8
Layer 1
  6
AI-Linetype-13
 62
   253
370
    25
100
AcDb2dPolyline
 66
     1
 10
0.0
 20
0.0
 30
0.0
  0
VERTEX
  5
F21
330
F20
100
AcDbEntity
  8
Layer 1
  6
AI-Linetype-13
 62
   253
370
    25
100
AcDbVertex
100
AcDb2dVertex
 10
0.2156935490533991
 20
1.802826134566538
 30
0.0
  0
VERTEX
  5
F22
330
F20
100
AcDbEntity
  8
Layer 1
  6
AI-Linetype-13
 62
   253
370
    25
100
AcDbVertex
100
AcDb2dVertex
 10
0.2257439998999708
 20
1.792768865232276
 30
0.0
  0
SEQEND
  5
F23
330
F20
100
AcDbEntity
  8
Layer 1
  6
AI-Linetype-13
370
    25
  0
POLYLINE
  5
F24
330
18
100
AcDbEntity
  8
Layer 1
 62
     7
370
    25
100
AcDb2dPolyline
 66
     1
 10
0.0
 20
0.0
 30
0.0
  0
VERTEX
  5
F25
330
F24
100
AcDbEntity
  8
Layer 1
 62
     7
370
    25
100
AcDbVertex
100
AcDb2dVertex
 10
-0.4649824394894902
 20
2.597875435524956
 30
0.0
  0
VERTEX
  5
F26
330
F24
100
AcDbEntity
  8
Layer 1
 62
     7
370
    25
100
AcDbVertex
100
AcDb2dVertex
 10
-0.0879473445013912
 20
2.597875435524956
 30
0.0
  0
SEQEND
  5
F27
330
F24
100
AcDbEntity
  8
Layer 1
370
    25
  0
POLYLINE
  5
F28
330
18
100
AcDbEntity
  8
Layer 1
 62
     7
370
    25
100
AcDb2dPolyline
 66
     1
 10
0.0
 20
0.0
 30
0.0
  0
VERTEX
  5
F29
330
F28
100
AcDbEntity
  8
Layer 1
 62
     7
370
    25
100
AcDbVertex
100
AcDb2dVertex
 10
-0.0879473445013912
 20
2.603493869376769
 30
0.0
  0
VERTEX
  5
F2A
330
F28
100
AcDbEntity
  8
Layer 1
 62
     7
370
    25
100
AcDbVertex
100
AcDb2dVertex
 10
-0.4649824394894902
 20
2.603493869376769
 30
0.0
  0
SEQEND
  5
F2B
330
F28
100
AcDbEntity
  8
Layer 1
370
    25
  0
POLYLINE
  5
F2C
330
18
100
AcDbEntity
  8
Layer 1
 62
     7
370
    25
100
AcDb2dPolyline
 66
     1
 10
0.0
 20
0.0
 30
0.0
  0
VERTEX
  5
F2D
330
F2C
100
AcDbEntity
  8
Layer 1
 62
     7
370
    25
100
AcDbVertex
100
AcDb2dVertex
 10
-0.4649824394894902
 20
2.616462632952216
 30
0.0
  0
VERTEX
  5
F2E
330
F2C
100
AcDbEntity
  8
Layer 1
 62
     7
370
    25
100
AcDbVertex
100
AcDb2dVertex
 10
-0.0879473445013912
 20
2.616462632952216
 30
0.0
  0
SEQEND
  5
F2F
330
F2C
100
AcDbEntity
  8
Layer 1
370
    25
  0
POLYLINE
  5
F30
330
18
100
AcDbEntity
  8
Layer 1
 62
     7
370
    25
100
AcDb2dPolyline
 66
     1
 10
0.0
 20
0.0
 30
0.0
  0
VERTEX
  5
F31
330
F30
100
AcDbEntity
  8
Layer 1
 62
     7
370
    25
100
AcDbVertex
100
AcDb2dVertex
 10
-0.4649824394894902
 20
2.691506908405061
 30
0.0
  0
VERTEX
  5
F32
330
F30
100
AcDbEntity
  8
Layer 1
 62
     7
370
    25
100
AcDbVertex
100
AcDb2dVertex
 10
-0.0879473445013912
 20
2.691506908405061
 30
0.0
  0
SEQEND
  5
F33
330
F30
100
AcDbEntity
  8
Layer 1
370
    25
  0
POLYLINE
  5
F34
330
18
100
AcDbEntity
  8
Layer 1
 62
     7
370
    25
100
AcDb2dPolyline
 66
     1
 10
0.0
 20
0.0
 30
0.0
  0
VERTEX
  5
F35
330
F34
100
AcDbEntity
  8
Layer 1
 62
     7
370
    25
100
AcDbVertex
100
AcDb2dVertex
 10
-0.0879473445013912
 20
2.695447994286495
 30
0.0
  0
VERTEX
  5
F36
330
F34
100
AcDbEntity
  8
Layer 1
 62
     7
370
    25
100
AcDbVertex
100
AcDb2dVertex
 10
-0.4649824394894902
 20
2.695447994286495
 30
0.0
  0
SEQEND
  5
F37
330
F34
100
AcDbEntity
  8
Layer 1
370
    25
  0
POLYLINE
  5
F38
330
18
100
AcDbEntity
  8
Layer 1
 62
     7
370
    25
100
AcDb2dPolyline
 66
     1
 10
0.0
 20
0.0
 30
0.0
  0
VERTEX
  5
F39
330
F38
100
AcDbEntity
  8
Layer 1
 62
     7
370
    25
100
AcDbVertex
100
AcDb2dVertex
 10
-0.4649824394894902
 20
2.709030421753541
 30
0.0
  0
VERTEX
  5
F3A
330
F38
100
AcDbEntity
  8
Layer 1
 62
     7
370
    25
100
AcDbVertex
100
AcDb2dVertex
 10
-0.0879473445013912
 20
2.709030421753541
 30
0.0
  0
SEQEND
  5
F3B
330
F38
100
AcDbEntity
  8
Layer 1
370
    25
  0
POLYLINE
  5
F3C
330
18
100
AcDbEntity
  8
Layer 1
 62
     7
370
    25
100
AcDb2dPolyline
 66
     1
 10
0.0
 20
0.0
 30
0.0
  0
VERTEX
  5
F3D
330
F3C
100
AcDbEntity
  8
Layer 1
 62
     7
370
    25
100
AcDbVertex
100
AcDb2dVertex
 10
-1.093783373730587
 20
3.260700623310455
 30
0.0
  0
VERTEX
  5
F3E
330
F3C
100
AcDbEntity
  8
Layer 1
 62
     7
370
    25
100
AcDbVertex
100
AcDb2dVertex
 10
-1.093783373730587
 20
1.350385384278469
 30
0.0
  0
SEQEND
  5
F3F
330
F3C
100
AcDbEntity
  8
Layer 1
370
    25
  0
POLYLINE
  5
F40
330
18
100
AcDbEntity
  8
ADP1DETAIL
  6
AI-Linetype-2
 62
     5
370
    25
100
AcDb2dPolyline
 66
     1
 10
0.0
 20
0.0
 30
0.0
  0
VERTEX
  5
F41
330
F40
100
AcDbEntity
  8
ADP1DETAIL
  6
AI-Linetype-2
 62
     5
370
    25
100
AcDbVertex
100
AcDb2dVertex
 10
-1.081741924480188
 20
2.305539594550617
 30
0.0
  0
VERTEX
  5
F42
330
F40
100
AcDbEntity
  8
ADP1DETAIL
  6
AI-Linetype-2
 62
     5
370
    25
100
AcDbVertex
100
AcDb2dVertex
 10
-0.7796829200681077
 20
2.808253054534696
 30
0.0
  0
SEQEND
  5
F43
330
F40
100
AcDbEntity
  8
ADP1DETAIL
  6
AI-Linetype-2
 62
     5
370
    25
  0
POLYLINE
  5
F44
330
18
100
AcDbEntity
  8
Layer 1
 62
     7
370
    25
100
AcDb2dPolyline
 66
     1
 10
0.0
 20
0.0
 30
0.0
  0
VERTEX
  5
F45
330
F44
100
AcDbEntity
  8
Layer 1
 62
     7
370
    25
100
AcDbVertex
100
AcDb2dVertex
 10
-0.4649824394894902
 20
2.779056290270712
 30
0.0
  0
VERTEX
  5
F46
330
F44
100
AcDbEntity
  8
Layer 1
 62
     7
370
    25
100
AcDbVertex
100
AcDb2dVertex
 10
-0.0879473445013912
 20
2.779056290270712
 30
0.0
  0
SEQEND
  5
F47
330
F44
100
AcDbEntity
  8
Layer 1
370
    25
  0
POLYLINE
  5
F48
330
18
100
AcDbEntity
  8
Layer 1
 62
     7
370
    25
100
AcDb2dPolyline
 66
     1
 10
0.0
 20
0.0
 30
0.0
  0
VERTEX
  5
F49
330
F48
100
AcDbEntity
  8
Layer 1
 62
     7
370
    25
100
AcDbVertex
100
AcDb2dVertex
 10
-0.0879473445013912
 20
2.781279117255782
 30
0.0
  0
VERTEX
  5
F4A
330
F48
100
AcDbEntity
  8
Layer 1
 62
     7
370
    25
100
AcDbVertex
100
AcDb2dVertex
 10
-0.4649824394894902
 20
2.781279117255782
 30
0.0
  0
SEQEND
  5
F4B
330
F48
100
AcDbEntity
  8
Layer 1
370
    25
  0
POLYLINE
  5
F4C
330
18
100
AcDbEntity
  8
Layer 1
 62
     7
370
    25
100
AcDb2dPolyline
 66
     1
 10
0.0
 20
0.0
 30
0.0
  0
VERTEX
  5
F4D
330
F4C
100
AcDbEntity
  8
Layer 1
 62
     7
370
    25
100
AcDbVertex
100
AcDb2dVertex
 10
-0.4649824394894902
 20
2.795229743057802
 30
0.0
  0
VERTEX
  5
F4E
330
F4C
100
AcDbEntity
  8
Layer 1
 62
     7
370
    25
100
AcDbVertex
100
AcDb2dVertex
 10
-0.0879473445013912
 20
2.795229743057802
 30
0.0
  0
SEQEND
  5
F4F
330
F4C
100
AcDbEntity
  8
Layer 1
370
    25
  0
POLYLINE
  5
F50
330
18
100
AcDbEntity
  8
ADP1DETAIL
  6
AI-Linetype-2
 62
     5
370
    25
100
AcDb2dPolyline
 66
     1
 10
0.0
 20
0.0
 30
0.0
  0
VERTEX
  5
F51
330
F50
100
AcDbEntity
  8
ADP1DETAIL
  6
AI-Linetype-2
 62
     5
370
    25
100
AcDbVertex
100
AcDb2dVertex
 10
-0.7796829200681077
 20
2.808253054534696
 30
0.0
  0
VERTEX
  5
F52
330
F50
100
AcDbEntity
  8
ADP1DETAIL
  6
AI-Linetype-2
 62
     5
370
    25
100
AcDbVertex
100
AcDb2dVertex
 10
0.2156935490533991
 20
2.808253054534696
 30
0.0
  0
SEQEND
  5
F53
330
F50
100
AcDbEntity
  8
ADP1DETAIL
  6
AI-Linetype-2
 62
     5
370
    25
  0
POLYLINE
  5
F54
330
18
100
AcDbEntity
  8
Layer 1
 62
     7
370
    25
100
AcDb2dPolyline
 66
     1
 10
0.0
 20
0.0
 30
0.0
  0
VERTEX
  5
F55
330
F54
100
AcDbEntity
  8
Layer 1
 62
     7
370
    25
100
AcDbVertex
100
AcDb2dVertex
 10
-0.4649824394894902
 20
2.859146246609914
 30
0.0
  0
VERTEX
  5
F56
330
F54
100
AcDbEntity
  8
Layer 1
 62
     7
370
    25
100
AcDbVertex
100
AcDb2dVertex
 10
-0.0879473445013912
 20
2.859146246609914
 30
0.0
  0
SEQEND
  5
F57
330
F54
100
AcDbEntity
  8
Layer 1
370
    25
  0
POLYLINE
  5
F58
330
18
100
AcDbEntity
  8
Layer 1
 62
     7
370
    25
100
AcDb2dPolyline
 66
     1
 10
0.0
 20
0.0
 30
0.0
  0
VERTEX
  5
F59
330
F58
100
AcDbEntity
  8
Layer 1
 62
     7
370
    25
100
AcDbVertex
100
AcDb2dVertex
 10
-0.0879473445013912
 20
2.859582629821716
 30
0.0
  0
VERTEX
  5
F5A
330
F58
100
AcDbEntity
  8
Layer 1
 62
     7
370
    25
100
AcDbVertex
100
AcDb2dVertex
 10
-0.4649824394894902
 20
2.859582629821716
 30
0.0
  0
SEQEND
  5
F5B
330
F58
100
AcDbEntity
  8
Layer 1
370
    25
  0
POLYLINE
  5
F5C
330
18
100
AcDbEntity
  8
Layer 1
 62
     7
370
    25
100
AcDb2dPolyline
 66
     1
 10
0.0
 20
0.0
 30
0.0
  0
VERTEX
  5
F5D
330
F5C
100
AcDbEntity
  8
Layer 1
 62
     7
370
    25
100
AcDbVertex
100
AcDb2dVertex
 10
-0.4649824394894902
 20
2.873710536303454
 30
0.0
  0
VERTEX
  5
F5E
330
F5C
100
AcDbEntity
  8
Layer 1
 62
     7
370
    25
100
AcDbVertex
100
AcDb2dVertex
 10
-0.0879473445013912
 20
2.873710536303454
 30
0.0
  0
SEQEND
  5
F5F
330
F5C
100
AcDbEntity
  8
Layer 1
370
    25
  0
POLYLINE
  5
F60
330
18
100
AcDbEntity
  8
Layer 1
 62
     7
370
    25
100
AcDb2dPolyline
 66
     1
 10
0.0
 20
0.0
 30
0.0
  0
VERTEX
  5
F61
330
F60
100
AcDbEntity
  8
Layer 1
 62
     7
370
    25
100
AcDbVertex
100
AcDb2dVertex
 10
-1.247622092862534
 20
3.103875406572806
 30
0.0
  0
VERTEX
  5
F62
330
F60
100
AcDbEntity
  8
Layer 1
 62
     7
370
    25
100
AcDbVertex
100
AcDb2dVertex
 10
-1.247622092862534
 20
1.507203782528427
 30
0.0
  0
SEQEND
  5
F63
330
F60
100
AcDbEntity
  8
Layer 1
370
    25
  0
POLYLINE
  5
F64
330
18
100
AcDbEntity
  8
Layer 1
  6
AI-Linetype-16
 62
   253
370
    25
100
AcDb2dPolyline
 66
     1
 10
0.0
 20
0.0
 30
0.0
  0
VERTEX
  5
F65
330
F64
100
AcDbEntity
  8
Layer 1
  6
AI-Linetype-16
 62
   253
370
    25
100
AcDbVertex
100
AcDb2dVertex
 10
-0.0879473445013912
 20
2.929172115127085
 30
0.0
  0
VERTEX
  5
F66
330
F64
100
AcDbEntity
  8
Layer 1
  6
AI-Linetype-16
 62
   253
370
    25
100
AcDbVertex
100
AcDb2dVertex
 10
-0.4649824394894902
 20
2.929172115127085
 30
0.0
  0
SEQEND
  5
F67
330
F64
100
AcDbEntity
  8
Layer 1
  6
AI-Linetype-16
370
    25
  0
POLYLINE
  5
F68
330
18
100
AcDbEntity
  8
Layer 1
 62
     7
370
    25
100
AcDb2dPolyline
 66
     1
 10
0.0
 20
0.0
 30
0.0
  0
VERTEX
  5
F69
330
F68
100
AcDbEntity
  8
Layer 1
 62
     7
370
    25
100
AcDbVertex
100
AcDb2dVertex
 10
-0.4649824394894902
 20
2.93049490173787
 30
0.0
  0
VERTEX
  5
F6A
330
F68
100
AcDbEntity
  8
Layer 1
 62
     7
370
    25
100
AcDbVertex
100
AcDb2dVertex
 10
-0.0879473445013912
 20
2.93049490173787
 30
0.0
  0
SEQEND
  5
F6B
330
F68
100
AcDbEntity
  8
Layer 1
370
    25
  0
POLYLINE
  5
F6C
330
18
100
AcDbEntity
  8
Layer 1
 62
     7
370
    25
100
AcDb2dPolyline
 66
     1
 10
0.0
 20
0.0
 30
0.0
  0
VERTEX
  5
F6D
330
F6C
100
AcDbEntity
  8
Layer 1
 62
     7
370
    25
100
AcDbVertex
100
AcDb2dVertex
 10
-0.4649824394894902
 20
2.943231836731996
 30
0.0
  0
VERTEX
  5
F6E
330
F6C
100
AcDbEntity
  8
Layer 1
 62
     7
370
    25
100
AcDbVertex
100
AcDb2dVertex
 10
-0.0879473445013912
 20
2.943231836731996
 30
0.0
  0
SEQEND
  5
F6F
330
F6C
100
AcDbEntity
  8
Layer 1
370
    25
  0
POLYLINE
  5
F70
330
18
100
AcDbEntity
  8
Layer 1
  6
AI-Linetype-17
 62
   253
370
    25
100
AcDb2dPolyline
 66
     1
 10
0.0
 20
0.0
 30
0.0
  0
VERTEX
  5
F71
330
F70
100
AcDbEntity
  8
Layer 1
  6
AI-Linetype-17
 62
   253
370
    25
100
AcDbVertex
100
AcDb2dVertex
 10
-0.0879473445013912
 20
2.988915704216442
 30
0.0
  0
VERTEX
  5
F72
330
F70
100
AcDbEntity
  8
Layer 1
  6
AI-Linetype-17
 62
   253
370
    25
100
AcDbVertex
100
AcDb2dVertex
 10
-0.4649824394894902
 20
2.988915704216442
 30
0.0
  0
SEQEND
  5
F73
330
F70
100
AcDbEntity
  8
Layer 1
  6
AI-Linetype-17
370
    25
  0
POLYLINE
  5
F74
330
18
100
AcDbEntity
  8
Layer 1
 62
     7
370
    25
100
AcDb2dPolyline
 66
     1
 10
0.0
 20
0.0
 30
0.0
  0
VERTEX
  5
F75
330
F74
100
AcDbEntity
  8
Layer 1
 62
     7
370
    25
100
AcDbVertex
100
AcDb2dVertex
 10
-0.4649824394894902
 20
2.991997660649733
 30
0.0
  0
VERTEX
  5
F76
330
F74
100
AcDbEntity
  8
Layer 1
 62
     7
370
    25
100
AcDbVertex
100
AcDb2dVertex
 10
-0.0879473445013912
 20
2.991997660649733
 30
0.0
  0
SEQEND
  5
F77
330
F74
100
AcDbEntity
  8
Layer 1
370
    25
  0
POLYLINE
  5
F78
330
18
100
AcDbEntity
  8
Layer 1
 62
     7
370
    25
100
AcDb2dPolyline
 66
     1
 10
0.0
 20
0.0
 30
0.0
  0
VERTEX
  5
F79
330
F78
100
AcDbEntity
  8
Layer 1
 62
     7
370
    25
100
AcDbVertex
100
AcDb2dVertex
 10
-0.4649824394894902
 20
3.002702686313967
 30
0.0
  0
VERTEX
  5
F7A
330
F78
100
AcDbEntity
  8
Layer 1
 62
     7
370
    25
100
AcDbVertex
100
AcDb2dVertex
 10
-0.0879473445013912
 20
3.002702686313967
 30
0.0
  0
SEQEND
  5
F7B
330
F78
100
AcDbEntity
  8
Layer 1
370
    25
  0
POLYLINE
  5
F7C
330
18
100
AcDbEntity
  8
Layer 1
  6
AI-Linetype-18
 62
   253
370
    25
100
AcDb2dPolyline
 66
     1
 10
0.0
 20
0.0
 30
0.0
  0
VERTEX
  5
F7D
330
F7C
100
AcDbEntity
  8
Layer 1
  6
AI-Linetype-18
 62
   253
370
    25
100
AcDbVertex
100
AcDb2dVertex
 10
-0.0879473445013912
 20
3.037872445789357
 30
0.0
  0
VERTEX
  5
F7E
330
F7C
100
AcDbEntity
  8
Layer 1
  6
AI-Linetype-18
 62
   253
370
    25
100
AcDbVertex
100
AcDb2dVertex
 10
-0.4649824394894902
 20
3.037872445789357
 30
0.0
  0
SEQEND
  5
F7F
330
F7C
100
AcDbEntity
  8
Layer 1
  6
AI-Linetype-18
370
    25
  0
POLYLINE
  5
F80
330
18
100
AcDbEntity
  8
Layer 1
 62
     7
370
    25
100
AcDb2dPolyline
 66
     1
 10
0.0
 20
0.0
 30
0.0
  0
VERTEX
  5
F81
330
F80
100
AcDbEntity
  8
Layer 1
 62
     7
370
    25
100
AcDbVertex
100
AcDb2dVertex
 10
-0.4649824394894902
 20
3.04265902414371
 30
0.0
  0
VERTEX
  5
F82
330
F80
100
AcDbEntity
  8
Layer 1
 62
     7
370
    25
100
AcDbVertex
100
AcDb2dVertex
 10
-0.0879473445013912
 20
3.04265902414371
 30
0.0
  0
SEQEND
  5
F83
330
F80
100
AcDbEntity
  8
Layer 1
370
    25
  0
POLYLINE
  5
F84
330
18
100
AcDbEntity
  8
Layer 1
 62
     7
370
    25
100
AcDb2dPolyline
 66
     1
 10
0.0
 20
0.0
 30
0.0
  0
VERTEX
  5
F85
330
F84
100
AcDbEntity
  8
Layer 1
 62
     7
370
    25
100
AcDbVertex
100
AcDb2dVertex
 10
-0.4649824394894902
 20
3.051168496773636
 30
0.0
  0
VERTEX
  5
F86
330
F84
100
AcDbEntity
  8
Layer 1
 62
     7
370
    25
100
AcDbVertex
100
AcDb2dVertex
 10
-0.0879473445013912
 20
3.051168496773636
 30
0.0
  0
SEQEND
  5
F87
330
F84
100
AcDbEntity
  8
Layer 1
370
    25
  0
POLYLINE
  5
F88
330
18
100
AcDbEntity
  8
Layer 1
  6
AI-Linetype-19
 62
   253
370
    25
100
AcDb2dPolyline
 66
     1
 10
0.0
 20
0.0
 30
0.0
  0
VERTEX
  5
F89
330
F88
100
AcDbEntity
  8
Layer 1
  6
AI-Linetype-19
 62
   253
370
    25
100
AcDbVertex
100
AcDb2dVertex
 10
-0.0879473445013912
 20
3.0752923062005
 30
0.0
  0
VERTEX
  5
F8A
330
F88
100
AcDbEntity
  8
Layer 1
  6
AI-Linetype-19
 62
   253
370
    25
100
AcDbVertex
100
AcDb2dVertex
 10
-0.4649824394894902
 20
3.0752923062005
 30
0.0
  0
SEQEND
  5
F8B
330
F88
100
AcDbEntity
  8
Layer 1
  6
AI-Linetype-19
370
    25
  0
POLYLINE
  5
F8C
330
18
100
AcDbEntity
  8
Layer 1
 62
     7
370
    25
100
AcDb2dPolyline
 66
     1
 10
0.0
 20
0.0
 30
0.0
  0
VERTEX
  5
F8D
330
F8C
100
AcDbEntity
  8
Layer 1
 62
     7
370
    25
100
AcDbVertex
100
AcDb2dVertex
 10
-0.4649824394894902
 20
3.081715321599008
 30
0.0
  0
VERTEX
  5
F8E
330
F8C
100
AcDbEntity
  8
Layer 1
 62
     7
370
    25
100
AcDbVertex
100
AcDb2dVertex
 10
-0.0879473445013912
 20
3.081715321599008
 30
0.0
  0
SEQEND
  5
F8F
330
F8C
100
AcDbEntity
  8
Layer 1
370
    25
  0
POLYLINE
  5
F90
330
18
100
AcDbEntity
  8
Layer 1
 62
     7
370
    25
100
AcDb2dPolyline
 66
     1
 10
0.0
 20
0.0
 30
0.0
  0
VERTEX
  5
F91
330
F90
100
AcDbEntity
  8
Layer 1
 62
     7
370
    25
100
AcDbVertex
100
AcDb2dVertex
 10
-0.4649824394894902
 20
3.087892871440973
 30
0.0
  0
VERTEX
  5
F92
330
F90
100
AcDbEntity
  8
Layer 1
 62
     7
370
    25
100
AcDbVertex
100
AcDb2dVertex
 10
-0.0879473445013912
 20
3.087892871440973
 30
0.0
  0
SEQEND
  5
F93
330
F90
100
AcDbEntity
  8
Layer 1
370
    25
  0
POLYLINE
  5
F94
330
18
100
AcDbEntity
  8
Layer 1
  6
AI-Linetype-20
 62
   253
370
    25
100
AcDb2dPolyline
 66
     1
 10
0.0
 20
0.0
 30
0.0
  0
VERTEX
  5
F95
330
F94
100
AcDbEntity
  8
Layer 1
  6
AI-Linetype-20
 62
   253
370
    25
100
AcDbVertex
100
AcDb2dVertex
 10
-0.0879473445013912
 20
3.100575258533654
 30
0.0
  0
VERTEX
  5
F96
330
F94
100
AcDbEntity
  8
Layer 1
  6
AI-Linetype-20
 62
   253
370
    25
100
AcDbVertex
100
AcDb2dVertex
 10
-0.4649824394894902
 20
3.100575258533654
 30
0.0
  0
SEQEND
  5
F97
330
F94
100
AcDbEntity
  8
Layer 1
  6
AI-Linetype-20
370
    25
  0
POLYLINE
  5
F98
330
18
100
AcDbEntity
  8
Layer 1
 62
     7
370
    25
100
AcDb2dPolyline
 66
     1
 10
0.0
 20
0.0
 30
0.0
  0
VERTEX
  5
F99
330
F98
100
AcDbEntity
  8
Layer 1
 62
     7
370
    25
100
AcDbVertex
100
AcDb2dVertex
 10
-0.4649824394894902
 20
3.108511978198126
 30
0.0
  0
VERTEX
  5
F9A
330
F98
100
AcDbEntity
  8
Layer 1
 62
     7
370
    25
100
AcDbVertex
100
AcDb2dVertex
 10
-0.0879473445013912
 20
3.108511978198126
 30
0.0
  0
SEQEND
  5
F9B
330
F98
100
AcDbEntity
  8
Layer 1
370
    25
  0
POLYLINE
  5
F9C
330
18
100
AcDbEntity
  8
Layer 1
 62
     7
370
    25
100
AcDb2dPolyline
 66
     1
 10
0.0
 20
0.0
 30
0.0
  0
VERTEX
  5
F9D
330
F9C
100
AcDbEntity
  8
Layer 1
 62
     7
370
    25
100
AcDbVertex
100
AcDb2dVertex
 10
-0.4649824394894902
 20
3.112262146424461
 30
0.0
  0
VERTEX
  5
F9E
330
F9C
100
AcDbEntity
  8
Layer 1
 62
     7
370
    25
100
AcDbVertex
100
AcDb2dVertex
 10
-0.0879473445013912
 20
3.112262146424461
 30
0.0
  0
SEQEND
  5
F9F
330
F9C
100
AcDbEntity
  8
Layer 1
370
    25
  0
POLYLINE
  5
FA0
330
18
100
AcDbEntity
  8
Layer 1
  6
AI-Linetype-21
 62
   253
370
    25
100
AcDb2dPolyline
 66
     1
 10
0.0
 20
0.0
 30
0.0
  0
VERTEX
  5
FA1
330
FA0
100
AcDbEntity
  8
Layer 1
  6
AI-Linetype-21
 62
   253
370
    25
100
AcDbVertex
100
AcDb2dVertex
 10
-0.0879473445013912
 20
3.11331219352786
 30
0.0
  0
VERTEX
  5
FA2
330
FA0
100
AcDbEntity
  8
Layer 1
  6
AI-Linetype-21
 62
   253
370
    25
100
AcDbVertex
100
AcDb2dVertex
 10
-0.4649824394894902
 20
3.11331219352786
 30
0.0
  0
SEQEND
  5
FA3
330
FA0
100
AcDbEntity
  8
Layer 1
  6
AI-Linetype-21
370
    25
  0
POLYLINE
  5
FA4
330
18
100
AcDbEntity
  8
Layer 1
 62
     7
370
    25
100
AcDb2dPolyline
 66
     1
 10
0.0
 20
0.0
 30
0.0
  0
VERTEX
  5
FA5
330
FA4
100
AcDbEntity
  8
Layer 1
 62
     7
370
    25
100
AcDbVertex
100
AcDb2dVertex
 10
0.2156935458983504
 20
3.114907719645951
 30
0.0
  0
VERTEX
  5
FA6
330
FA4
100
AcDbEntity
  8
Layer 1
 62
     7
370
    25
100
AcDbVertex
100
AcDb2dVertex
 10
-0.0879473445013912
 20
3.114907719645951
 30
0.0
  0
SEQEND
  5
FA7
330
FA4
100
AcDbEntity
  8
Layer 1
370
    25
  0
POLYLINE
  5
FA8
330
18
100
AcDbEntity
  8
Layer 1
 62
     7
370
    25
100
AcDb2dPolyline
 66
     1
 10
0.0
 20
0.0
 30
0.0
  0
VERTEX
  5
FA9
330
FA8
100
AcDbEntity
  8
Layer 1
 62
     7
370
    25
100
AcDbVertex
100
AcDb2dVertex
 10
-0.4649824394894902
 20
3.114907719645951
 30
0.0
  0
VERTEX
  5
FAA
330
FA8
100
AcDbEntity
  8
Layer 1
 62
     7
370
    25
100
AcDbVertex
100
AcDb2dVertex
 10
-0.7796829200681077
 20
3.114907719645951
 30
0.0
  0
SEQEND
  5
FAB
330
FA8
100
AcDbEntity
  8
Layer 1
370
    25
  0
POLYLINE
  5
FAC
330
18
100
AcDbEntity
  8
Layer 1
 62
     7
370
    25
100
AcDb2dPolyline
 66
     1
 10
0.0
 20
0.0
 30
0.0
  0
VERTEX
  5
FAD
330
FAC
100
AcDbEntity
  8
Layer 1
 62
     7
370
    25
100
AcDbVertex
100
AcDb2dVertex
 10
-0.4649824394894902
 20
3.122653521655244
 30
0.0
  0
VERTEX
  5
FAE
330
FAC
100
AcDbEntity
  8
Layer 1
 62
     7
370
    25
100
AcDbVertex
100
AcDb2dVertex
 10
-0.0879473445013912
 20
3.122653521655244
 30
0.0
  0
SEQEND
  5
FAF
330
FAC
100
AcDbEntity
  8
Layer 1
370
    25
  0
POLYLINE
  5
FB0
330
18
100
AcDbEntity
  8
Layer 1
 62
     7
370
    25
100
AcDb2dPolyline
 66
     1
 10
0.0
 20
0.0
 30
0.0
  0
VERTEX
  5
FB1
330
FB0
100
AcDbEntity
  8
Layer 1
 62
     7
370
    25
100
AcDbVertex
100
AcDb2dVertex
 10
-0.4649824394894902
 20
3.123908123389123
 30
0.0
  0
VERTEX
  5
FB2
330
FB0
100
AcDbEntity
  8
Layer 1
 62
     7
370
    25
100
AcDbVertex
100
AcDb2dVertex
 10
-0.0879473445013912
 20
3.123908123389123
 30
0.0
  0
SEQEND
  5
FB3
330
FB0
100
AcDbEntity
  8
Layer 1
370
    25
  0
POLYLINE
  5
FB4
330
18
100
AcDbEntity
  8
Layer 1
 62
     7
370
    25
100
AcDb2dPolyline
 66
     1
 10
0.0
 20
0.0
 30
0.0
  0
VERTEX
  5
FB5
330
FB4
100
AcDbEntity
  8
Layer 1
 62
     7
370
    25
100
AcDbVertex
100
AcDb2dVertex
 10
-0.4649824394894902
 20
3.124958170492523
 30
0.0
  0
VERTEX
  5
FB6
330
FB4
100
AcDbEntity
  8
Layer 1
 62
     7
370
    25
100
AcDbVertex
100
AcDb2dVertex
 10
-0.0879473445013912
 20
3.124958170492523
 30
0.0
  0
SEQEND
  5
FB7
330
FB4
100
AcDbEntity
  8
Layer 1
370
    25
  0
POLYLINE
  5
FB8
330
18
100
AcDbEntity
  8
Layer 1
 62
     7
370
    25
100
AcDb2dPolyline
 66
     1
 10
0.0
 20
0.0
 30
0.0
  0
VERTEX
  5
FB9
330
FB8
100
AcDbEntity
  8
Layer 1
 62
     7
370
    25
100
AcDbVertex
100
AcDb2dVertex
 10
-0.7796829200681077
 20
3.260700623310455
 30
0.0
  0
VERTEX
  5
FBA
330
FB8
100
AcDbEntity
  8
Layer 1
 62
     7
370
    25
100
AcDbVertex
100
AcDb2dVertex
 10
-1.093783373730587
 20
3.260700623310455
 30
0.0
  0
SEQEND
  5
FBB
330
FB8
100
AcDbEntity
  8
Layer 1
370
    25
  0
SPLINE
  5
FBC
330
18
100
AcDbEntity
  8
Layer 1
 62
     7
370
    25
100
AcDbSpline
210
0.0
220
0.0
230
1.0
 70
     8
 71
     3
 72
     8
 73
     4
 74
     0
 42
0.0000000001
 43
0.0000000001
 40
0.0
 40
0.0
 40
0.0
 40
0.0
 40
1.0
 40
1.0
 40
1.0
 40
1.0
 10
-1.247622092862534
 20
3.103875406572806
 30
0.0
 10
-1.629136934259146
 20
2.640027326389007
 30
0.0
 10
-1.629136934259146
 20
1.971051862712306
 30
0.0
 10
-1.247622092862534
 20
1.507203782528427
 30
0.0
  0
SPLINE
  5
FBD
330
18
100
AcDbEntity
  8
Layer 1
 62
     7
370
    25
100
AcDbSpline
210
0.0
220
0.0
230
1.0
 70
     8
 71
     3
 72
     8
 73
     4
 74
     0
 42
0.0000000001
 43
0.0000000001
 40
0.0
 40
0.0
 40
0.0
 40
0.0
 40
1.0
 40
1.0
 40
1.0
 40
1.0
 10
-1.093783373730587
 20
1.350385384278469
 30
0.0
 10
-1.093783373730587
 20
1.435827853449709
 30
0.0
 10
-1.162179623691293
 20
1.505567345484192
 30
0.0
 10
-1.247628911350224
 20
1.507203782528427
 30
0.0
  0
SPLINE
  5
FBE
330
18
100
AcDbEntity
  8
Layer 1
 62
     7
370
    25
100
AcDbSpline
210
0.0
220
0.0
230
1.0
 70
     8
 71
     3
 72
     8
 73
     4
 74
     0
 42
0.0000000001
 43
0.0000000001
 40
0.0
 40
0.0
 40
0.0
 40
0.0
 40
1.0
 40
1.0
 40
1.0
 40
1.0
 10
-1.247622092862534
 20
3.103875406572806
 30
0.0
 10
-1.162186442178984
 20
3.105511843617041
 30
0.0
 10
-1.093776555242897
 20
3.175251335651525
 30
0.0
 10
-1.093776555242897
 20
3.260700623310455
 30
0.0
  0
POLYLINE
  5
FBF
330
18
100
AcDbEntity
  8
Layer 1
 62
     7
370
    25
100
AcDb2dPolyline
 66
     1
 10
0.0
 20
0.0
 30
0.0
  0
VERTEX
  5
FC0
330
FBF
100
AcDbEntity
  8
Layer 1
 62
     7
370
    25
100
AcDbVertex
100
AcDb2dVertex
 10
-1.093783373730587
 20
1.350385384278469
 30
0.0
  0
VERTEX
  5
FC1
330
FBF
100
AcDbEntity
  8
Layer 1
 62
     7
370
    25
100
AcDbVertex
100
AcDb2dVertex
 10
-0.7796829200681077
 20
1.350385384278469
 30
0.0
  0
SEQEND
  5
FC2
330
FBF
100
AcDbEntity
  8
Layer 1
370
    25
  0
POLYLINE
  5
FC3
330
18
100
AcDbEntity
  8
Layer 1
 62
     7
370
    25
100
AcDb2dPolyline
 66
     1
 10
0.0
 20
0.0
 30
0.0
  0
VERTEX
  5
FC4
330
FC3
100
AcDbEntity
  8
Layer 1
 62
     7
370
    25
100
AcDbVertex
100
AcDb2dVertex
 10
0.2257439998999708
 20
3.104811556739252
 30
0.0
  0
VERTEX
  5
FC5
330
FC3
100
AcDbEntity
  8
Layer 1
 62
     7
370
    25
100
AcDbVertex
100
AcDb2dVertex
 10
0.2257440067170815
 20
1.506221922869808
 30
0.0
  0
SEQEND
  5
FC6
330
FC3
100
AcDbEntity
  8
Layer 1
370
    25
  0
POLYLINE
  5
FC7
330
18
100
AcDbEntity
  8
Layer 1
 62
     7
370
    25
100
AcDb2dPolyline
 66
     1
 10
0.0
 20
0.0
 30
0.0
  0
VERTEX
  5
FC8
330
FC7
100
AcDbEntity
  8
Layer 1
 62
     7
370
    25
100
AcDbVertex
100
AcDb2dVertex
 10
-0.7796829200681077
 20
1.496171469455283
 30
0.0
  0
VERTEX
  5
FC9
330
FC7
100
AcDbEntity
  8
Layer 1
 62
     7
370
    25
100
AcDbVertex
100
AcDb2dVertex
 10
-0.4649824394894902
 20
1.496171469455283
 30
0.0
  0
SEQEND
  5
FCA
330
FC7
100
AcDbEntity
  8
Layer 1
370
    25
  0
POLYLINE
  5
FCB
330
18
100
AcDbEntity
  8
Layer 1
 62
     7
370
    25
100
AcDb2dPolyline
 66
     1
 10
0.0
 20
0.0
 30
0.0
  0
VERTEX
  5
FCC
330
FCB
100
AcDbEntity
  8
Layer 1
 62
     7
370
    25
100
AcDbVertex
100
AcDb2dVertex
 10
-0.0879473445013912
 20
1.496171469455283
 30
0.0
  0
VERTEX
  5
FCD
330
FCB
100
AcDbEntity
  8
Layer 1
 62
     7
370
    25
100
AcDbVertex
100
AcDb2dVertex
 10
0.2156935558705098
 20
1.496171472023237
 30
0.0
  0
SEQEND
  5
FCE
330
FCB
100
AcDbEntity
  8
Layer 1
370
    25
  0
POLYLINE
  5
FCF
330
18
100
AcDbEntity
  8
Layer 1
 62
     7
370
    25
100
AcDb2dPolyline
 66
     1
 10
0.0
 20
0.0
 30
0.0
  0
VERTEX
  5
FD0
330
FCF
100
AcDbEntity
  8
Layer 1
 62
     7
370
    25
100
AcDbVertex
100
AcDb2dVertex
 10
-0.7796829200681077
 20
3.260700623310455
 30
0.0
  0
VERTEX
  5
FD1
330
FCF
100
AcDbEntity
  8
Layer 1
 62
     7
370
    25
100
AcDbVertex
100
AcDb2dVertex
 10
-0.7796829200681077
 20
1.350385384278469
 30
0.0
  0
SEQEND
  5
FD2
330
FCF
100
AcDbEntity
  8
Layer 1
370
    25
  0
POLYLINE
  5
FD3
330
18
100
AcDbEntity
  8
Layer 1
 62
     7
370
    25
100
AcDb2dPolyline
 66
     1
 10
0.0
 20
0.0
 30
0.0
  0
VERTEX
  5
FD4
330
FD3
100
AcDbEntity
  8
Layer 1
 62
     7
370
    25
100
AcDbVertex
100
AcDb2dVertex
 10
-0.7796829200681077
 20
3.114907719645951
 30
0.0
  0
VERTEX
  5
FD5
330
FD3
100
AcDbEntity
  8
Layer 1
 62
     7
370
    25
100
AcDbVertex
100
AcDb2dVertex
 10
-0.4649824394894902
 20
3.114907719645951
 30
0.0
  0
SEQEND
  5
FD6
330
FD3
100
AcDbEntity
  8
Layer 1
370
    25
  0
POLYLINE
  5
FD7
330
18
100
AcDbEntity
  8
Layer 1
 62
     7
370
    25
100
AcDb2dPolyline
 66
     1
 10
0.0
 20
0.0
 30
0.0
  0
VERTEX
  5
FD8
330
FD7
100
AcDbEntity
  8
Layer 1
 62
     7
370
    25
100
AcDbVertex
100
AcDb2dVertex
 10
-0.0879473445013912
 20
3.114907719645951
 30
0.0
  0
VERTEX
  5
FD9
330
FD7
100
AcDbEntity
  8
Layer 1
 62
     7
370
    25
100
AcDbVertex
100
AcDb2dVertex
 10
0.2156935458983504
 20
3.114907719645951
 30
0.0
  0
SEQEND
  5
FDA
330
FD7
100
AcDbEntity
  8
Layer 1
370
    25
  0
POLYLINE
  5
FDB
330
18
100
AcDbEntity
  8
Layer 1
 62
     7
370
    25
100
AcDb2dPolyline
 66
     1
 10
0.0
 20
0.0
 30
0.0
  0
VERTEX
  5
FDC
330
FDB
100
AcDbEntity
  8
Layer 1
 62
     7
370
    25
100
AcDbVertex
100
AcDb2dVertex
 10
-1.093783373730587
 20
3.260700623310455
 30
0.0
  0
VERTEX
  5
FDD
330
FDB
100
AcDbEntity
  8
Layer 1
 62
     7
370
    25
100
AcDbVertex
100
AcDb2dVertex
 10
-0.7796829200681077
 20
3.260700623310455
 30
0.0
  0
SEQEND
  5
FDE
330
FDB
100
AcDbEntity
  8
Layer 1
370
    25
  0
POLYLINE
  5
FDF
330
18
100
AcDbEntity
  8
Layer 1
 62
     7
370
    18
100
AcDb2dPolyline
 66
     1
 10
0.0
 20
0.0
 30
0.0
1001
AcDbBlockRepETag
1070
     1
1071
        5
1005
FDF
  0
VERTEX
  5
FE0
330
FDF
100
AcDbEntity
  8
Layer 1
 62
     7
370
    18
100
AcDbVertex
100
AcDb2dVertex
 10
0.2156935458983504
 20
3.114907719645951
 30
0.0
  0
VERTEX
  5
FE1
330
FDF
100
AcDbEntity
  8
Layer 1
 62
     7
370
    18
100
AcDbVertex
100
AcDb2dVertex
 10
0.2156935458983507
 20
1.496171469455283
 30
0.0
  0
SEQEND
  5
FE2
330
FDF
100
AcDbEntity
  8
Layer 1
370
    18
  0
POLYLINE
  5
FE3
330
18
100
AcDbEntity
  8
Layer 1
  6
AI-Linetype-13
 62
   253
370
    25
100
AcDb2dPolyline
 66
     1
 10
0.0
 20
0.0
 30
0.0
  0
VERTEX
  5
FE4
330
FE3
100
AcDbEntity
  8
Layer 1
  6
AI-Linetype-13
 62
   253
370
    25
100
AcDbVertex
100
AcDb2dVertex
 10
0.2156935458983504
 20
3.114907719645951
 30
0.0
  0
VERTEX
  5
FE5
330
FE3
100
AcDbEntity
  8
Layer 1
  6
AI-Linetype-13
 62
   253
370
    25
100
AcDbVertex
100
AcDb2dVertex
 10
0.2257439998999708
 20
3.104811556739252
 30
0.0
  0
SEQEND
  5
FE6
330
FE3
100
AcDbEntity
  8
Layer 1
  6
AI-Linetype-13
370
    25
  0
POLYLINE
  5
FE7
330
18
100
AcDbEntity
  8
Layer 1
  6
AI-Linetype-11
 62
   253
370
    25
100
AcDb2dPolyline
 66
     1
 10
0.0
 20
0.0
 30
0.0
  0
VERTEX
  5
FE8
330
FE7
100
AcDbEntity
  8
Layer 1
  6
AI-Linetype-11
 62
   253
370
    25
100
AcDbVertex
100
AcDb2dVertex
 10
0.2156935558705098
 20
1.496171472023237
 30
0.0
  0
VERTEX
  5
FE9
330
FE7
100
AcDbEntity
  8
Layer 1
  6
AI-Linetype-11
 62
   253
370
    25
100
AcDbVertex
100
AcDb2dVertex
 10
0.2257440067170815
 20
1.506221922869808
 30
0.0
  0
SEQEND
  5
FEA
330
FE7
100
AcDbEntity
  8
Layer 1
  6
AI-Linetype-11
370
    25
  0
ENDSEC
  0
SECTION
  2
OBJECTS
  0
DICTIONARY
  5
C
330
0
100
AcDbDictionary
281
     1
  3
ACAD_COLOR
350
1F8
  3
ACAD_GROUP
350
D
  3
ACAD_LAYOUT
350
9C
  3
ACAD_MATERIAL
350
1E3
  3
ACAD_MLINESTYLE
350
E
  3
ACAD_PLOTSETTINGS
350
9D
  3
ACAD_PLOTSTYLENAME
350
9A
  3
ACAD_TABLESTYLE
350
1F9
  3
ACAD_VISUALSTYLE
350
1E7
  3
AcDbVariableDictionary
350
FD
  3
DWGPROPS
350
1003
  0
DICTIONARY
  5
3B3
330
8
100
AcDbDictionary
280
     1
281
     1
  0
DICTIONARY
  5
F7
330
18
100
AcDbDictionary
280
     1
281
     1
  3
ACAD_LAYOUTSELFREF
360
1DD
  0
DICTIONARY
  5
F5
330
15
100
AcDbDictionary
280
     1
281
     1
  3
ACAD_LAYOUTSELFREF
360
1DC
  0
DICTIONARY
  5
3A9
330
1FE
100
AcDbDictionary
280
     1
281
     1
  3
ACAD_SORTENTS
360
3AA
  0
DICTIONARY
  5
1F8
102
{ACAD_REACTORS
330
C
102
}
330
C
100
AcDbDictionary
281
     1
  0
DICTIONARY
  5
D
102
{ACAD_REACTORS
330
C
102
}
330
C
100
AcDbDictionary
281
     1
  0
DICTIONARY
  5
9C
102
{ACAD_REACTORS
330
C
102
}
330
C
100
AcDbDictionary
281
     1
  3
Layout1
350
9F
  3
Model
350
9E
  0
DICTIONARY
  5
1E3
102
{ACAD_REACTORS
330
C
102
}
330
C
100
AcDbDictionary
281
     1
  3
ByBlock
350
1E5
  3
ByLayer
350
1E4
  3
Global
350
1E6
  0
DICTIONARY
  5
E
102
{ACAD_REACTORS
330
C
102
}
330
C
100
AcDbDictionary
281
     1
  3
STANDARD
350
1B
  0
DICTIONARY
  5
9D
102
{ACAD_REACTORS
330
C
102
}
330
C
100
AcDbDictionary
281
     1
  0
ACDBDICTIONARYWDFLT
  5
9A
102
{ACAD_REACTORS
330
C
102
}
330
C
100
AcDbDictionary
281
     1
  3
Normal
350
9B
100
AcDbDictionaryWithDefault
340
9B
  0
DICTIONARY
  5
1F9
102
{ACAD_REACTORS
330
C
102
}
330
C
100
AcDbDictionary
281
     1
  3
Standard
350
1FA
  0
DICTIONARY
  5
1E7
102
{ACAD_REACTORS
330
C
102
}
330
C
100
AcDbDictionary
281
     1
  3
2dWireframe
350
1ED
  3
3D Hidden
350
1EF
  3
3dWireframe
350
1EE
  3
Basic
350
1EC
  3
Brighten
350
1F3
  3
ColorChange
350
1F7
  3
Conceptual
350
1F0
  3
Dim
350
1F2
  3
Facepattern
350
1F6
  3
Flat
350
1E8
  3
FlatWithEdges
350
1E9
  3
Gouraud
350
1EA
  3
GouraudWithEdges
350
1EB
  3
Linepattern
350
1F5
  3
Realistic
350
1F1
  3
Thicken
350
1F4
  0
DICTIONARY
  5
FD
102
{ACAD_REACTORS
330
C
102
}
330
C
100
AcDbDictionary
281
     1
  3
CTABLESTYLE
350
3CB
  3
DIMASSOC
350
FE
  3
INDEXCTL
350
3CD
  3
SORTENTS
350
3CC
  0
XRECORD
  5
1003
102
{ACAD_REACTORS
330
C
102
}
330
C
100
AcDbXrecord
280
     1
  1
DWGPROPS COOKIE
  2

  3

  4

  6

  7

  8
John
  9

300
=
301
=
302
=
303
=
304
=
305
=
306
=
307
=
308
=
309
=
 40
0.0263263425925926
 41
2450233.613384444
 42
2455238.87389162
  1

 90
        0
  0
XRECORD
  5
1DD
102
{ACAD_REACTORS
330
F7
102
}
330
F7
100
AcDbXrecord
280
     1
340
18
  0
XRECORD
  5
1DC
102
{ACAD_REACTORS
330
F5
102
}
330
F5
100
AcDbXrecord
280
     1
340
15
  0
SORTENTSTABLE
  5
3AA
102
{ACAD_REACTORS
330
3A9
102
}
330
3A9
100
AcDbSortentsTable
330
1FE
  0
LAYOUT
  5
9F
102
{ACAD_XDICTIONARY
360
1006
102
}
102
{ACAD_REACTORS
330
9C
102
}
330
9C
100
AcDbPlotSettings
  1

  2
Fax
  4

  6

 40
0.0
 41
0.0
 42
0.0
 43
0.0
 44
0.0
 45
0.0
 46
0.0
 47
0.0
 48
0.0
 49
0.0
140
0.0
141
0.0
142
1.0
143
1.0
 70
   688
 72
     0
 73
     0
 74
     5
  7
Default R14 pen assignments.ctb
 75
    16
147
1.0
148
0.0
149
0.0
100
AcDbLayout
  1
Layout1
 70
     1
 71
     1
 10
0.0
 20
0.0
 11
12.0
 21
9.0
 12
0.0
 22
-3.941062727799726E+99
 32
0.0
 14
1.000000000000000E+20
 24
1.000000000000000E+20
 34
1.000000000000000E+20
 15
-1.000000000000000E+20
 25
-1.000000000000000E+20
 35
-1.000000000000000E+20
146
0.0
 13
0.0
 23
0.0
 33
0.0
 16
1.0
 26
0.0
 36
0.0
 17
0.0
 27
1.0
 37
0.0
 76
     0
330
15
  0
LAYOUT
  5
9E
102
{ACAD_XDICTIONARY
360
1004
102
}
102
{ACAD_REACTORS
330
9C
102
}
330
9C
100
AcDbPlotSettings
  1

  2
Fax
  4

  6

 40
0.0
 41
0.0
 42
0.0
 43
0.0
 44
0.0
 45
0.0
 46
0.0
 47
0.0
 48
0.0
 49
0.0
140
0.0
141
0.0
142
1.0
143
1.0
 70
  1712
 72
     0
 73
     0
 74
     0
  7
Default R14 pen assignments.ctb
 75
     0
147
1.0
148
0.0
149
0.0
100
AcDbLayout
  1
Model
 70
     1
 71
     0
 10
0.0
 20
0.0
 11
12.0
 21
9.0
 12
0.0
 22
0.0
 32
0.0
 14
0.0
 24
0.0
 34
0.0
 15
0.0
 25
0.0
 35
0.0
146
0.0
 13
0.0
 23
0.0
 33
0.0
 16
1.0
 26
0.0
 36
0.0
 17
0.0
 27
1.0
 37
0.0
 76
     0
330
18
331
1B7
  0
MATERIAL
  5
1E5
102
{ACAD_XDICTIONARY
360
100A
102
}
102
{ACAD_REACTORS
330
1E3
102
}
330
1E3
100
AcDbMaterial
  1
ByBlock
  0
MATERIAL
  5
1E4
102
{ACAD_XDICTIONARY
360
1008
102
}
102
{ACAD_REACTORS
330
1E3
102
}
330
1E3
100
AcDbMaterial
  1
ByLayer
  0
MATERIAL
  5
1E6
102
{ACAD_XDICTIONARY
360
100C
102
}
102
{ACAD_REACTORS
330
1E3
102
}
330
1E3
100
AcDbMaterial
  1
Global
  0
MLINESTYLE
  5
1B
102
{ACAD_REACTORS
330
E
102
}
330
E
100
AcDbMlineStyle
  2
STANDARD
 70
     0
  3

 62
     0
 51
90.0
 52
90.0
 71
     2
 49
0.5
 62
   256
  6
BYLAYER
 49
-0.5
 62
   256
  6
BYLAYER
  0
ACDBPLACEHOLDER
  5
9B
102
{ACAD_REACTORS
330
9A
102
}
330
9A
  0
TABLESTYLE
  5
1FA
102
{ACAD_XDICTIONARY
360
100E
102
}
102
{ACAD_REACTORS
330
1F9
102
}
330
1F9
100
AcDbTableStyle
  3
Standard
 70
     0
 71
     0
 40
0.06
 41
0.06
280
     0
281
     0
  7
STANDARD
140
0.18
170
     2
 62
     0
 63
     7
283
     0
274
    -2
284
     1
 64
     0
275
    -2
285
     1
 65
     0
276
    -2
286
     1
 66
     0
277
    -2
287
     1
 67
     0
278
    -2
288
     1
 68
     0
279
    -2
289
     1
 69
     0
  7
STANDARD
140
0.25
170
     5
 62
     0
 63
     7
283
     0
274
    -2
284
     1
 64
     0
275
    -2
285
     1
 65
     0
276
    -2
286
     1
 66
     0
277
    -2
287
     1
 67
     0
278
    -2
288
     1
 68
     0
279
    -2
289
     1
 69
     0
  7
STANDARD
140
0.18
170
     5
 62
     0
 63
     7
283
     0
274
    -2
284
     1
 64
     0
275
    -2
285
     1
 65
     0
276
    -2
286
     1
 66
     0
277
    -2
287
     1
 67
     0
278
    -2
288
     1
 68
     0
279
    -2
289
     1
 69
     0
  0
VISUALSTYLE
  5
1ED
102
{ACAD_REACTORS
330
1E7
102
}
330
1E7
100
AcDbVisualStyle
  2
2dWireframe
 70
     4
 71
     0
 72
     2
 73
     0
 90
        0
 40
-0.6
 41
-30.0
 62
     5
 63
     7
 74
     1
 91
        4
 64
     7
 65
   257
 75
     1
175
     1
 42
1.0
 92
        0
 66
   257
 43
1.0
 76
     1
 77
     6
 78
     2
 67
     7
 79
     5
170
     0
171
     0
290
     0
174
     0
 93
        1
 44
0.0
173
     0
291
     0
 45
0.0
1001
ACAD
1000
AcDbSavedByObjectVersion
1070
     0
  0
VISUALSTYLE
  5
1EF
102
{ACAD_REACTORS
330
1E7
102
}
330
1E7
100
AcDbVisualStyle
  2
3D Hidden
 70
     6
 71
     1
 72
     2
 73
     2
 90
        0
 40
-0.6
 41
-30.0
 62
     5
 63
     7
 74
     2
 91
        2
 64
     7
 65
   257
 75
     2
175
     1
 42
40.0
 92
        0
 66
   257
 43
1.0
 76
     1
 77
     6
 78
     2
 67
     7
 79
     3
170
     0
171
     0
290
     0
174
     0
 93
        1
 44
0.0
173
     0
291
     0
 45
0.0
1001
ACAD
1000
AcDbSavedByObjectVersion
1070
     0
  0
VISUALSTYLE
  5
1EE
102
{ACAD_REACTORS
330
1E7
102
}
330
1E7
100
AcDbVisualStyle
  2
3dWireframe
 70
     5
 71
     0
 72
     2
 73
     0
 90
        0
 40
-0.6
 41
-30.0
 62
     5
 63
     7
 74
     1
 91
        4
 64
     7
 65
   257
 75
     1
175
     1
 42
1.0
 92
        0
 66
   257
 43
1.0
 76
     1
 77
     6
 78
     2
 67
     7
 79
     5
170
     0
171
     0
290
     0
174
     0
 93
        1
 44
0.0
173
     0
291
     0
 45
0.0
1001
ACAD
1000
AcDbSavedByObjectVersion
1070
     0
  0
VISUALSTYLE
  5
1EC
102
{ACAD_REACTORS
330
1E7
102
}
330
1E7
100
AcDbVisualStyle
  2
Basic
 70
     7
 71
     1
 72
     0
 73
     1
 90
        0
 40
-0.6
 41
-30.0
 62
     5
 63
     7
 74
     0
 91
        4
 64
     7
 65
   257
 75
     1
175
     1
 42
1.0
 92
        8
 66
     7
 43
1.0
 76
     1
 77
     6
 78
     2
 67
     7
 79
     5
170
     0
171
     0
290
     0
174
     0
 93
        1
 44
0.0
173
     0
291
     1
 45
0.0
1001
ACAD
1000
AcDbSavedByObjectVersion
1070
     0
  0
VISUALSTYLE
  5
1F3
102
{ACAD_REACTORS
330
1E7
102
}
330
1E7
100
AcDbVisualStyle
  2
Brighten
 70
    12
 71
     2
 72
     2
 73
     0
 90
        0
 40
-0.6
 41
-30.0
 62
     5
 63
     7
 74
     1
 91
        4
 64
     7
 65
   257
 75
     1
175
     1
 42
1.0
 92
        8
 66
     7
 43
1.0
 76
     1
 77
     6
 78
     2
 67
     7
 79
     5
170
     0
171
     0
290
     0
174
     0
 93
        1
 44
50.0
173
     0
291
     1
 45
0.0
1001
ACAD
1000
AcDbSavedByObjectVersion
1070
     0
  0
VISUALSTYLE
  5
1F7
102
{ACAD_REACTORS
330
1E7
102
}
330
1E7
100
AcDbVisualStyle
  2
ColorChange
 70
    16
 71
     2
 72
     2
 73
     3
 90
        0
 40
-0.6
 41
-30.0
 62
     5
 63
     8
 74
     1
 91
        4
 64
     7
 65
   257
 75
     1
175
     1
 42
1.0
 92
        8
 66
     8
 43
1.0
 76
     1
 77
     6
 78
     2
 67
     7
 79
     5
170
     0
171
     0
290
     0
174
     0
 93
        1
 44
0.0
173
     0
291
     1
 45
0.0
1001
ACAD
1000
AcDbSavedByObjectVersion
1070
     0
  0
VISUALSTYLE
  5
1F0
102
{ACAD_REACTORS
330
1E7
102
}
330
1E7
100
AcDbVisualStyle
  2
Conceptual
 70
     9
 71
     3
 72
     2
 73
     0
 90
        0
 40
-0.6
 41
-30.0
 62
     5
 63
     7
 74
     2
 91
        2
 64
     7
 65
   257
 75
     1
175
     1
 42
40.0
 92
        8
 66
     7
 43
1.0
 76
     1
 77
     6
 78
     2
 67
     7
 79
     3
170
     0
171
     0
290
     0
174
     0
 93
        1
 44
0.0
173
     0
291
     0
 45
0.0
1001
ACAD
1000
AcDbSavedByObjectVersion
1070
     0
  0
VISUALSTYLE
  5
1F2
102
{ACAD_REACTORS
330
1E7
102
}
330
1E7
100
AcDbVisualStyle
  2
Dim
 70
    11
 71
     2
 72
     2
 73
     0
 90
        0
 40
-0.6
 41
-30.0
 62
     5
 63
     7
 74
     1
 91
        4
 64
     7
 65
   257
 75
     1
175
     1
 42
1.0
 92
        8
 66
     7
 43
1.0
 76
     1
 77
     6
 78
     2
 67
     7
 79
     5
170
     0
171
     0
290
     0
174
     0
 93
        1
 44
-50.0
173
     0
291
     1
 45
0.0
1001
ACAD
1000
AcDbSavedByObjectVersion
1070
     0
  0
VISUALSTYLE
  5
1F6
102
{ACAD_REACTORS
330
1E7
102
}
330
1E7
100
AcDbVisualStyle
  2
Facepattern
 70
    15
 71
     2
 72
     2
 73
     0
 90
        0
 40
-0.6
 41
-30.0
 62
     5
 63
     7
 74
     1
 91
        4
 64
     7
 65
   257
 75
     1
175
     1
 42
1.0
 92
        8
 66
     7
 43
1.0
 76
     1
 77
     6
 78
     2
 67
     7
 79
     5
170
     0
171
     0
290
     0
174
     0
 93
        1
 44
0.0
173
     0
291
     1
 45
0.0
1001
ACAD
1000
AcDbSavedByObjectVersion
1070
     0
  0
VISUALSTYLE
  5
1E8
102
{ACAD_REACTORS
330
1E7
102
}
330
1E7
100
AcDbVisualStyle
  2
Flat
 70
     0
 71
     2
 72
     1
 73
     1
 90
        2
 40
-0.6
 41
30.0
 62
     5
 63
     7
 74
     0
 91
        4
 64
     7
 65
   257
 75
     1
175
     1
 42
1.0
 92
        8
 66
     7
 43
1.0
 76
     1
 77
     6
 78
     2
 67
     7
 79
     5
170
     0
171
     0
290
     0
174
     0
 93
       13
 44
0.0
173
     0
291
     1
 45
0.0
1001
ACAD
1000
AcDbSavedByObjectVersion
1070
     0
  0
VISUALSTYLE
  5
1E9
102
{ACAD_REACTORS
330
1E7
102
}
330
1E7
100
AcDbVisualStyle
  2
FlatWithEdges
 70
     1
 71
     2
 72
     1
 73
     1
 90
        2
 40
-0.6
 41
30.0
 62
     5
 63
     7
 74
     1
 91
        4
 64
     7
 65
   257
 75
     1
175
     1
 42
1.0
 92
        0
 66
   257
 43
1.0
 76
     1
 77
     6
 78
     2
 67
     7
 79
     5
170
     0
171
     0
290
     0
174
     0
 93
       13
 44
0.0
173
     0
291
     1
 45
0.0
1001
ACAD
1000
AcDbSavedByObjectVersion
1070
     0
  0
VISUALSTYLE
  5
1EA
102
{ACAD_REACTORS
330
1E7
102
}
330
1E7
100
AcDbVisualStyle
  2
Gouraud
 70
     2
 71
     2
 72
     2
 73
     1
 90
        2
 40
-0.6
 41
30.0
 62
     5
 63
     7
 74
     0
 91
        4
 64
     7
 65
   257
 75
     1
175
     1
 42
1.0
 92
        0
 66
     7
 43
1.0
 76
     1
 77
     6
 78
     2
 67
     7
 79
     5
170
     0
171
     0
290
     0
174
     0
 93
       13
 44
0.0
173
     0
291
     1
 45
0.0
1001
ACAD
1000
AcDbSavedByObjectVersion
1070
     0
  0
VISUALSTYLE
  5
1EB
102
{ACAD_REACTORS
330
1E7
102
}
330
1E7
100
AcDbVisualStyle
  2
GouraudWithEdges
 70
     3
 71
     2
 72
     2
 73
     1
 90
        2
 40
-0.6
 41
30.0
 62
     5
 63
     7
 74
     1
 91
        4
 64
     7
 65
   257
 75
     1
175
     1
 42
1.0
 92
        0
 66
   257
 43
1.0
 76
     1
 77
     6
 78
     2
 67
     7
 79
     5
170
     0
171
     0
290
     0
174
     0
 93
       13
 44
0.0
173
     0
291
     1
 45
0.0
1001
ACAD
1000
AcDbSavedByObjectVersion
1070
     0
  0
VISUALSTYLE
  5
1F5
102
{ACAD_REACTORS
330
1E7
102
}
330
1E7
100
AcDbVisualStyle
  2
Linepattern
 70
    14
 71
     2
 72
     2
 73
     0
 90
        0
 40
-0.6
 41
-30.0
 62
     5
 63
     7
 74
     1
 91
        4
 64
     7
 65
   257
 75
     7
175
     7
 42
1.0
 92
        8
 66
     7
 43
1.0
 76
     1
 77
     6
 78
     2
 67
     7
 79
     5
170
     0
171
     0
290
     0
174
     0
 93
        1
 44
0.0
173
     0
291
     1
 45
0.0
1001
ACAD
1000
AcDbSavedByObjectVersion
1070
     0
  0
VISUALSTYLE
  5
1F1
102
{ACAD_REACTORS
330
1E7
102
}
330
1E7
100
AcDbVisualStyle
  2
Realistic
 70
     8
 71
     2
 72
     2
 73
     0
 90
        0
 40
-0.6
 41
-30.0
 62
     5
 63
     7
 74
     1
 91
        0
 64
     7
 65
   257
 75
     1
175
     1
 42
1.0
 92
        8
 66
     8
 43
1.0
 76
     1
 77
     6
 78
     2
 67
     7
 79
     5
170
     0
171
     0
290
     0
174
     0
 93
       13
 44
0.0
173
     0
291
     0
 45
0.0
1001
ACAD
1000
AcDbSavedByObjectVersion
1070
     0
  0
VISUALSTYLE
  5
1F4
102
{ACAD_REACTORS
330
1E7
102
}
330
1E7
100
AcDbVisualStyle
  2
Thicken
 70
    13
 71
     2
 72
     2
 73
     0
 90
        0
 40
-0.6
 41
-30.0
 62
     5
 63
     7
 74
     1
 91
        4
 64
     7
 65
   257
 75
     1
175
     1
 42
1.0
 92
       12
 66
     7
 43
1.0
 76
     1
 77
     6
 78
     2
 67
     7
 79
     5
170
     0
171
     0
290
     0
174
     0
 93
        1
 44
0.0
173
     0
291
     1
 45
0.0
1001
ACAD
1000
AcDbSavedByObjectVersion
1070
     0
  0
DICTIONARYVAR
  5
3CB
102
{ACAD_REACTORS
330
FD
102
}
330
FD
100
DictionaryVariables
280
     0
  1
STANDARD
  0
DICTIONARYVAR
  5
FE
102
{ACAD_REACTORS
330
FD
102
}
330
FD
100
DictionaryVariables
280
     0
  1
1
  0
DICTIONARYVAR
  5
3CD
102
{ACAD_REACTORS
330
FD
102
}
330
FD
100
DictionaryVariables
280
     0
  1
0
  0
DICTIONARYVAR
  5
3CC
102
{ACAD_REACTORS
330
FD
102
}
330
FD
100
DictionaryVariables
280
     0
  1
127
  0
DICTIONARY
  5
1006
330
9F
100
AcDbDictionary
280
     1
281
     1
  3
ACAD_XREC_ROUNDTRIP
360
1007
  0
DICTIONARY
  5
1004
330
9E
100
AcDbDictionary
280
     1
281
     1
  3
ACAD_XREC_ROUNDTRIP
360
1005
  0
DICTIONARY
  5
100A
330
1E5
100
AcDbDictionary
280
     1
281
     1
  3
ACAD_XREC_ROUNDTRIP
360
100B
  0
DICTIONARY
  5
1008
330
1E4
100
AcDbDictionary
280
     1
281
     1
  3
ACAD_XREC_ROUNDTRIP
360
1009
  0
DICTIONARY
  5
100C
330
1E6
100
AcDbDictionary
280
     1
281
     1
  3
ACAD_XREC_ROUNDTRIP
360
100D
  0
DICTIONARY
  5
100E
330
1FA
100
AcDbDictionary
280
     1
281
     1
  3
ACAD_XREC_ROUNDTRIP
360
100F
  0
XRECORD
  5
1007
102
{ACAD_REACTORS
330
1006
102
}
330
1006
100
AcDbXrecord
280
     1
102
SHADEPLOT
 70
     0
102
SHADEPLOTRESLEVEL
 70
     2
102
SHADEPLOTCUSTOMDPI
 70
   300
  0
XRECORD
  5
1005
102
{ACAD_REACTORS
330
1004
102
}
330
1004
100
AcDbXrecord
280
     1
102
SHADEPLOT
 70
     0
102
SHADEPLOTRESLEVEL
 70
     2
102
SHADEPLOTCUSTOMDPI
 70
   300
  0
XRECORD
  5
100B
102
{ACAD_REACTORS
330
100A
102
}
330
100A
100
AcDbXrecord
280
     1
102
MATERIAL
148
0.0
149
0.0
149
0.0
 93
        0
 94
       63
282
     0
 72
     1
 77
     1
171
     1
175
     1
179
     1
273
     0
  0
XRECORD
  5
1009
102
{ACAD_REACTORS
330
1008
102
}
330
1008
100
AcDbXrecord
280
     1
102
MATERIAL
148
0.0
149
0.0
149
0.0
 93
        0
 94
       63
282
     0
 72
     1
 77
     1
171
     1
175
     1
179
     1
273
     0
  0
XRECORD
  5
100D
102
{ACAD_REACTORS
330
100C
102
}
330
100C
100
AcDbXrecord
280
     1
102
MATERIAL
148
0.0
149
0.0
149
0.0
 93
        0
 94
       63
282
     0
 72
     1
 77
     1
171
     1
175
     1
179
     1
273
     0
  0
XRECORD
  5
100F
102
{ACAD_REACTORS
330
100E
102
}
330
100E
100
AcDbXrecord
280
     1
102
ACAD_ROUNDTRIP_PRE2007_TABLESTYLE
 90
      512
 91
        0
  1

 92
      512
 93
        0
  2

 94
      512
 95
        0
  3

  0
ENDSEC
  0
EOF
